  0
SECTION
  2
HEADER
  9
$ACADVER
  1
AC1018
  9
$ACADMAINTVER
 70
   104
  9
$DWGCODEPAGE
  3
ANSI_1250
  9
$LASTSAVEDBY
  1
bonzo
  9
$INSBASE
 10
0.0
 20
0.0
 30
0.0
  9
$EXTMIN
 10
6.865728201754361
 20
5.0762234077222
 30
0.0
  9
$EXTMAX
 10
15.58877778649649
 20
8.99335730627542
 30
0.0
  9
$LIMMIN
 10
0.0
 20
0.0
  9
$LIMMAX
 10
12.0
 20
9.0
  9
$ORTHOMODE
 70
     1
  9
$REGENMODE
 70
     1
  9
$FILLMODE
 70
     1
  9
$QTEXTMODE
 70
     0
  9
$MIRRTEXT
 70
     1
  9
$LTSCALE
 40
1.0
  9
$ATTMODE
 70
     1
  9
$TEXTSIZE
 40
0.2
  9
$TRACEWID
 40
0.05
  9
$TEXTSTYLE
  7
Standard
  9
$CLAYER
  8
0
  9
$CELTYPE
  6
ByLayer
  9
$CECOLOR
 62
   256
  9
$CELTSCALE
 40
1.0
  9
$DISPSILH
 70
     0
  9
$DIMSCALE
 40
0.02
  9
$DIMASZ
 40
3.0
  9
$DIMEXO
 40
20.0
  9
$DIMDLI
 40
0.0
  9
$DIMRND
 40
0.1
  9
$DIMDLE
 40
0.0
  9
$DIMEXE
 40
5.0
  9
$DIMTP
 40
0.0
  9
$DIMTM
 40
0.0
  9
$DIMTXT
 40
9.0
  9
$DIMCEN
 40
12.0
  9
$DIMTSZ
 40
0.0
  9
$DIMTOL
 70
     0
  9
$DIMLIM
 70
     0
  9
$DIMTIH
 70
     0
  9
$DIMTOH
 70
     0
  9
$DIMSE1
 70
     1
  9
$DIMSE2
 70
     1
  9
$DIMTAD
 70
     1
  9
$DIMZIN
 70
     1
  9
$DIMBLK
  1

  9
$DIMASO
 70
     1
  9
$DIMSHO
 70
     1
  9
$DIMPOST
  1

  9
$DIMAPOST
  1

  9
$DIMALT
 70
     0
  9
$DIMALTD
 70
     4
  9
$DIMALTF
 40
1.0
  9
$DIMLFAC
 40
1.0
  9
$DIMTOFL
 70
     1
  9
$DIMTVP
 40
0.0
  9
$DIMTIX
 70
     1
  9
$DIMSOXD
 70
     0
  9
$DIMSAH
 70
     1
  9
$DIMBLK1
  1
MAR-STRZ
  9
$DIMBLK2
  1
MAR-STRZ
  9
$DIMSTYLE
  2
AR SKALA 1-50
  9
$DIMCLRD
 70
   256
  9
$DIMCLRE
 70
   256
  9
$DIMCLRT
 70
   256
  9
$DIMTFAC
 40
0.01
  9
$DIMGAP
 40
6.0
  9
$DIMJUST
 70
     0
  9
$DIMSD1
 70
     0
  9
$DIMSD2
 70
     0
  9
$DIMTOLJ
 70
     1
  9
$DIMTZIN
 70
     0
  9
$DIMALTZ
 70
     0
  9
$DIMALTTZ
 70
     0
  9
$DIMUPT
 70
     0
  9
$DIMDEC
 70
     2
  9
$DIMTDEC
 70
     2
  9
$DIMALTU
 70
     2
  9
$DIMALTTD
 70
     4
  9
$DIMTXSTY
  7
AR 01 SWIS
  9
$DIMAUNIT
 70
     0
  9
$DIMADEC
 70
     1
  9
$DIMALTRND
 40
0.0
  9
$DIMAZIN
 70
     0
  9
$DIMDSEP
 70
    46
  9
$DIMATFIT
 70
     3
  9
$DIMFRAC
 70
     0
  9
$DIMLDRBLK
  1
MAR-STRZ
  9
$DIMLUNIT
 70
     2
  9
$DIMLWD
 70
    -2
  9
$DIMLWE
 70
    -2
  9
$DIMTMOVE
 70
     2
  9
$LUNITS
 70
     2
  9
$LUPREC
 70
     4
  9
$SKETCHINC
 40
0.1
  9
$FILLETRAD
 40
0.0
  9
$AUNITS
 70
     0
  9
$AUPREC
 70
     0
  9
$MENU
  1
.
  9
$ELEVATION
 40
0.0
  9
$PELEVATION
 40
0.0
  9
$THICKNESS
 40
0.0
  9
$LIMCHECK
 70
     0
  9
$CHAMFERA
 40
0.5
  9
$CHAMFERB
 40
0.5
  9
$CHAMFERC
 40
1.0
  9
$CHAMFERD
 40
0.0
  9
$SKPOLY
 70
     0
  9
$TDCREATE
 40
2455956.457693160
  9
$TDUCREATE
 40
2455956.416026493
  9
$TDUPDATE
 40
2459273.507117315
  9
$TDUUPDATE
 40
2459273.465450648
  9
$TDINDWG
 40
0.1282273958
  9
$TDUSRTIMER
 40
0.1282273958
  9
$USRTIMER
 70
     1
  9
$ANGBASE
 50
0.0
  9
$ANGDIR
 70
     0
  9
$PDMODE
 70
     0
  9
$PDSIZE
 40
0.0
  9
$PLINEWID
 40
0.0
  9
$SPLFRAME
 70
     0
  9
$SPLINETYPE
 70
     6
  9
$SPLINESEGS
 70
     8
  9
$HANDSEED
  5
4CAD
  9
$SURFTAB1
 70
     6
  9
$SURFTAB2
 70
     6
  9
$SURFTYPE
 70
     6
  9
$SURFU
 70
     6
  9
$SURFV
 70
     6
  9
$UCSBASE
  2

  9
$UCSNAME
  2

  9
$UCSORG
 10
0.0
 20
0.0
 30
0.0
  9
$UCSXDIR
 10
1.0
 20
0.0
 30
0.0
  9
$UCSYDIR
 10
0.0
 20
1.0
 30
0.0
  9
$UCSORTHOREF
  2

  9
$UCSORTHOVIEW
 70
     0
  9
$UCSORGTOP
 10
0.0
 20
0.0
 30
0.0
  9
$UCSORGBOTTOM
 10
0.0
 20
0.0
 30
0.0
  9
$UCSORGLEFT
 10
0.0
 20
0.0
 30
0.0
  9
$UCSORGRIGHT
 10
0.0
 20
0.0
 30
0.0
  9
$UCSORGFRONT
 10
0.0
 20
0.0
 30
0.0
  9
$UCSORGBACK
 10
0.0
 20
0.0
 30
0.0
  9
$PUCSBASE
  2

  9
$PUCSNAME
  2

  9
$PUCSORG
 10
0.0
 20
0.0
 30
0.0
  9
$PUCSXDIR
 10
1.0
 20
0.0
 30
0.0
  9
$PUCSYDIR
 10
0.0
 20
1.0
 30
0.0
  9
$PUCSORTHOREF
  2

  9
$PUCSORTHOVIEW
 70
     0
  9
$PUCSORGTOP
 10
0.0
 20
0.0
 30
0.0
  9
$PUCSORGBOTTOM
 10
0.0
 20
0.0
 30
0.0
  9
$PUCSORGLEFT
 10
0.0
 20
0.0
 30
0.0
  9
$PUCSORGRIGHT
 10
0.0
 20
0.0
 30
0.0
  9
$PUCSORGFRONT
 10
0.0
 20
0.0
 30
0.0
  9
$PUCSORGBACK
 10
0.0
 20
0.0
 30
0.0
  9
$USERI1
 70
     0
  9
$USERI2
 70
     0
  9
$USERI3
 70
     0
  9
$USERI4
 70
     0
  9
$USERI5
 70
     0
  9
$USERR1
 40
0.0
  9
$USERR2
 40
0.0
  9
$USERR3
 40
0.0
  9
$USERR4
 40
0.0
  9
$USERR5
 40
0.0
  9
$WORLDVIEW
 70
     1
  9
$SHADEDGE
 70
     3
  9
$SHADEDIF
 70
    70
  9
$TILEMODE
 70
     1
  9
$MAXACTVP
 70
    64
  9
$PINSBASE
 10
0.0
 20
0.0
 30
0.0
  9
$PLIMCHECK
 70
     0
  9
$PEXTMIN
 10
6.561544945354853
 20
3.282189374834842
 30
0.0
  9
$PEXTMAX
 10
296.6096419909582
 20
206.4421558651099
 30
0.0
  9
$PLIMMIN
 10
3.386557152386103
 20
0.1071894225185588
  9
$PLIMMAX
 10
300.4395661855892
 20
209.9958460387295
  9
$UNITMODE
 70
     0
  9
$VISRETAIN
 70
     1
  9
$PLINEGEN
 70
     0
  9
$PSLTSCALE
 70
     0
  9
$TREEDEPTH
 70
  3020
  9
$CMLSTYLE
  2
Standard
  9
$CMLJUST
 70
     0
  9
$CMLSCALE
 40
1.0
  9
$PROXYGRAPHICS
 70
     1
  9
$MEASUREMENT
 70
     0
  9
$CELWEIGHT
370
    -1
  9
$ENDCAPS
280
     0
  9
$JOINSTYLE
280
     0
  9
$LWDISPLAY
290
     0
  9
$INSUNITS
 70
     1
  9
$HYPERLINKBASE
  1

  9
$STYLESHEET
  1

  9
$XEDIT
290
     1
  9
$CEPSNTYPE
380
     0
  9
$PSTYLEMODE
290
     1
  9
$FINGERPRINTGUID
  2
{1B330B5B-CE04-4EC8-B886-8C8BFC3A02BF}
  9
$VERSIONGUID
  2
{3759F391-9AD5-400D-9017-C5C85D698CC6}
  9
$EXTNAMES
290
     1
  9
$PSVPSCALE
 40
0.0
  9
$OLESTARTUP
290
     0
  9
$SORTENTS
280
   127
  9
$INDEXCTL
280
     0
  9
$HIDETEXT
280
     1
  9
$XCLIPFRAME
290
     0
  9
$HALOGAP
280
     0
  9
$OBSCOLOR
 70
   257
  9
$OBSLTYPE
280
     0
  9
$INTERSECTIONDISPLAY
280
     0
  9
$INTERSECTIONCOLOR
 70
   257
  9
$DIMASSOC
280
     2
  9
$PROJECTNAME
  1

  0
ENDSEC
  0
SECTION
  2
CLASSES
  0
CLASS
  1
ACDBDICTIONARYWDFLT
  2
AcDbDictionaryWithDefault
  3
ObjectDBX Classes
 90
        0
 91
        1
280
     0
281
     0
  0
CLASS
  1
VISUALSTYLE
  2
AcDbVisualStyle
  3
ObjectDBX Classes
 90
     4095
 91
       16
280
     0
281
     0
  0
CLASS
  1
MATERIAL
  2
AcDbMaterial
  3
ObjectDBX Classes
 90
     1153
 91
        3
280
     0
281
     0
  0
CLASS
  1
DICTIONARYVAR
  2
AcDbDictionaryVar
  3
ObjectDBX Classes
 90
        0
 91
        9
280
     0
281
     0
  0
CLASS
  1
TABLESTYLE
  2
AcDbTableStyle
  3
ObjectDBX Classes
 90
     4095
 91
        1
280
     0
281
     0
  0
CLASS
  1
SORTENTSTABLE
  2
AcDbSortentsTable
  3
ObjectDBX Classes
 90
        0
 91
        4
280
     0
281
     0
  0
CLASS
  1
DIMASSOC
  2
AcDbDimAssoc
  3
"AcDbDimAssoc|Product Desc:     AcDim ARX App For Dimension|Company:          Autodesk, Inc.|WEB Address:      www.autodesk.com"
 90
        0
 91
        2
280
     0
281
     0
  0
CLASS
  1
SCALE
  2
AcDbScale
  3
ObjectDBX Classes
 90
     1153
 91
       33
280
     0
281
     0
  0
CLASS
  1
MLEADERSTYLE
  2
AcDbMLeaderStyle
  3
ACDB_MLEADERSTYLE_CLASS
 90
     4095
 91
        1
280
     0
281
     0
  0
CLASS
  1
CELLSTYLEMAP
  2
AcDbCellStyleMap
  3
ObjectDBX Classes
 90
     1152
 91
        4
280
     0
281
     0
  0
ENDSEC
  0
SECTION
  2
TABLES
  0
TABLE
  2
VPORT
  5
8
102
{ACAD_XDICTIONARY
360
84C
102
}
330
0
100
AcDbSymbolTable
 70
     1
  0
VPORT
  5
29
330
8
100
AcDbSymbolTableRecord
100
AcDbViewportTableRecord
  2
*Active
 70
     0
 10
0.0
 20
0.0
 11
1.0
 21
1.0
 12
11.2717053342106
 22
6.662336882325496
 13
0.0
 23
0.0
 14
0.5
 24
0.5
 15
0.5
 25
0.5
 16
0.0
 26
0.0
 36
1.0
 17
0.0
 27
0.0
 37
-1000.0
 40
6.57357919275658
 41
2.060556464811783
 42
50.0
 43
4.148984367261674
 44
9.217858496371269
 50
0.0
 51
0.0
 71
     0
 72
   100
 73
     1
 74
     3
 75
     0
 76
     0
 77
     0
 78
     0
281
     0
 65
     1
110
0.0
120
0.0
130
0.0
111
1.0
121
0.0
131
0.0
112
0.0
122
1.0
132
0.0
 79
     0
146
0.0
  0
ENDTAB
  0
TABLE
  2
LTYPE
  5
5
330
0
100
AcDbSymbolTable
 70
     2
  0
LTYPE
  5
14
330
5
100
AcDbSymbolTableRecord
100
AcDbLinetypeTableRecord
  2
ByBlock
 70
     0
  3

 72
    65
 73
     0
 40
0.0
  0
LTYPE
  5
15
330
5
100
AcDbSymbolTableRecord
100
AcDbLinetypeTableRecord
  2
ByLayer
 70
     0
  3

 72
    65
 73
     0
 40
0.0
  0
LTYPE
  5
16
330
5
100
AcDbSymbolTableRecord
100
AcDbLinetypeTableRecord
  2
Continuous
 70
     0
  3
Solid line
 72
    65
 73
     0
 40
0.0
  0
LTYPE
  5
886
330
5
100
AcDbSymbolTableRecord
100
AcDbLinetypeTableRecord
  2
DASHED
 70
     0
  3
Dashed __ __ __ __ __ __ __ __ __ __ __ __ __ _
 72
    65
 73
     2
 40
0.75
 49
0.5
 74
     0
 49
-0.25
 74
     0
  0
ENDTAB
  0
TABLE
  2
LAYER
  5
2
102
{ACAD_XDICTIONARY
360
7D1
102
}
330
0
100
AcDbSymbolTable
 70
     4
  0
LAYER
  5
10
102
{ACAD_XDICTIONARY
360
423C
102
}
330
2
100
AcDbSymbolTableRecord
100
AcDbLayerTableRecord
  2
0
 70
     0
 62
     7
  6
Continuous
370
    80
390
F
  0
LAYER
  5
87B
102
{ACAD_XDICTIONARY
360
423E
102
}
330
2
100
AcDbSymbolTableRecord
100
AcDbLayerTableRecord
  2
STREFA BEZPIECZEŃSTWA
 70
     0
 62
     7
  6
DASHED
370
   100
390
F
1001
AcAecLayerStandard
1000

1000

  0
LAYER
  5
87D
102
{ACAD_XDICTIONARY
360
4240
102
}
330
2
100
AcDbSymbolTableRecord
100
AcDbLayerTableRecord
  2
WYMIAR
 70
     0
 62
     7
  6
Continuous
370
   100
390
F
1001
AcAecLayerStandard
1000

1000

  0
LAYER
  5
8CC
330
2
100
AcDbSymbolTableRecord
100
AcDbLayerTableRecord
  2
Defpoints
 70
     0
 62
     7
  6
Continuous
290
     0
370
     5
390
F
1001
RAK
1000
{ACET-LAYISO
1070
     0
1070
     7
1000
Continuous
1071
        5
1071
        0
1005
F
1000
ACET-LAYISO}
  0
ENDTAB
  0
TABLE
  2
STYLE
  5
3
330
0
100
AcDbSymbolTable
 70
     2
  0
STYLE
  5
11
330
3
100
AcDbSymbolTableRecord
100
AcDbTextStyleTableRecord
  2
Standard
 70
     0
 40
0.0
 41
1.0
 50
0.0
 71
     0
 42
0.2
  3
txt
  4

  0
STYLE
  5
8CE
330
3
100
AcDbSymbolTableRecord
100
AcDbTextStyleTableRecord
  2
AR 01 SWIS
 70
     0
 40
0.0
 41
1.0
 50
0.0
 71
     0
 42
55.0
  3

  4

1001
ACAD
1000
Swis721 Cn BT
1071
       34
  0
ENDTAB
  0
TABLE
  2
VIEW
  5
6
330
0
100
AcDbSymbolTable
 70
     0
  0
ENDTAB
  0
TABLE
  2
UCS
  5
7
330
0
100
AcDbSymbolTable
 70
     0
  0
ENDTAB
  0
TABLE
  2
APPID
  5
9
330
0
100
AcDbSymbolTable
 70
     9
  0
APPID
  5
12
330
9
100
AcDbSymbolTableRecord
100
AcDbRegAppTableRecord
  2
ACAD
 70
     0
  0
APPID
  5
7CB
330
9
100
AcDbSymbolTableRecord
100
AcDbRegAppTableRecord
  2
ACAD_PSEXT
 70
     0
  0
APPID
  5
875
330
9
100
AcDbSymbolTableRecord
100
AcDbRegAppTableRecord
  2
ACAD_EXEMPT_FROM_CAD_STANDARDS
 70
     0
  0
APPID
  5
87C
330
9
100
AcDbSymbolTableRecord
100
AcDbRegAppTableRecord
  2
AcAecLayerStandard
 70
     0
  0
APPID
  5
8D4
330
9
100
AcDbSymbolTableRecord
100
AcDbRegAppTableRecord
  2
RAK
 70
     0
  0
APPID
  5
8D5
330
9
100
AcDbSymbolTableRecord
100
AcDbRegAppTableRecord
  2
ACAD_DSTYLE_DIMJOGGED_JOGANGLE_SYMBOL
 70
     0
  0
APPID
  5
8D6
330
9
100
AcDbSymbolTableRecord
100
AcDbRegAppTableRecord
  2
ACAD_DSTYLE_DIMJAG
 70
     0
  0
APPID
  5
8D7
330
9
100
AcDbSymbolTableRecord
100
AcDbRegAppTableRecord
  2
ACAD_DSTYLE_DIMTALN
 70
     0
  0
APPID
  5
4236
330
9
100
AcDbSymbolTableRecord
100
AcDbRegAppTableRecord
  2
ACAD_MLEADERVER
 70
     0
  0
ENDTAB
  0
TABLE
  2
DIMSTYLE
  5
A
330
0
100
AcDbSymbolTable
 70
     2
100
AcDbDimStyleTable
 71
     1
340
8CF
  0
DIMSTYLE
105
8CF
102
{ACAD_REACTORS
330
4A26
330
4A29
102
}
330
A
100
AcDbSymbolTableRecord
100
AcDbDimStyleTableRecord
  2
AR SKALA 1-50
 70
     0
 40
0.02
 41
3.0
 42
20.0
 43
0.0
 44
5.0
 45
0.1
 73
     0
 74
     0
 75
     1
 76
     1
 77
     1
 78
     1
140
9.0
141
12.0
143
1.0
146
0.01
147
6.0
171
     4
172
     1
173
     1
174
     1
176
   256
177
   256
178
   256
179
     1
271
     2
272
     2
274
     4
279
     2
340
8CE
341
8BC
343
8BC
344
8BC
  0
DIMSTYLE
105
A46
330
A
100
AcDbSymbolTableRecord
100
AcDbDimStyleTableRecord
  2
Standard
 70
     0
340
11
  0
ENDTAB
  0
TABLE
  2
BLOCK_RECORD
  5
1
330
0
100
AcDbSymbolTable
 70
     3
  0
BLOCK_RECORD
  5
1F
102
{ACAD_XDICTIONARY
360
5F8
102
}
330
1
100
AcDbSymbolTableRecord
100
AcDbBlockTableRecord
  2
*Model_Space
340
22
  0
BLOCK_RECORD
  5
1B
330
1
100
AcDbSymbolTableRecord
100
AcDbBlockTableRecord
  2
*Paper_Space
340
1E
  0
BLOCK_RECORD
  5
8BC
330
1
100
AcDbSymbolTableRecord
100
AcDbBlockTableRecord
  2
MAR-STRZ
340
0
310
2800000020000000200000000100080000000000000400000000000000000000000000000000000000000000000080000080000000808000800000008000800080800000C0C0C000C0DCC000F0CAA6000020400000206000002080000020A0000020C0000020E00000400000004020000040400000406000004080000040A0
310
000040C0000040E00000600000006020000060400000606000006080000060A0000060C0000060E00000800000008020000080400000806000008080000080A0000080C0000080E00000A0000000A0200000A0400000A0600000A0800000A0A00000A0C00000A0E00000C0000000C0200000C0400000C0600000C0800000C0
310
A00000C0C00000C0E00000E0000000E0200000E0400000E0600000E0800000E0A00000E0C00000E0E00040000000400020004000400040006000400080004000A0004000C0004000E00040200000402020004020400040206000402080004020A0004020C0004020E000404000004040200040404000404060004040800040
310
40A0004040C0004040E00040600000406020004060400040606000406080004060A0004060C0004060E00040800000408020004080400040806000408080004080A0004080C0004080E00040A0000040A0200040A0400040A0600040A0800040A0A00040A0C00040A0E00040C0000040C0200040C0400040C0600040C08000
310
40C0A00040C0C00040C0E00040E0000040E0200040E0400040E0600040E0800040E0A00040E0C00040E0E00080000000800020008000400080006000800080008000A0008000C0008000E00080200000802020008020400080206000802080008020A0008020C0008020E00080400000804020008040400080406000804080
310
008040A0008040C0008040E00080600000806020008060400080606000806080008060A0008060C0008060E00080800000808020008080400080806000808080008080A0008080C0008080E00080A0000080A0200080A0400080A0600080A0800080A0A00080A0C00080A0E00080C0000080C0200080C0400080C0600080C0
310
800080C0A00080C0C00080C0E00080E0000080E0200080E0400080E0600080E0800080E0A00080E0C00080E0E000C0000000C0002000C0004000C0006000C0008000C000A000C000C000C000E000C0200000C0202000C0204000C0206000C0208000C020A000C020C000C020E000C0400000C0402000C0404000C0406000C0
310
408000C040A000C040C000C040E000C0600000C0602000C0604000C0606000C0608000C060A000C060C000C060E000C0800000C0802000C0804000C0806000C0808000C080A000C080C000C080E000C0A00000C0A02000C0A04000C0A06000C0A08000C0A0A000C0A0C000C0A0E000C0C00000C0C02000C0C04000C0C06000
310
C0C08000C0C0A000F0FBFF00A4A0A000808080000000FF0000FF000000FFFF00FF000000FF00FF00FFFF0000FFFFFF00000000000000000000000000000000000000000000000000000000000000000000000000000000000000000000000000FF000000000000000000000000000000000000000000000000000000000000
310
00FF00000000000000000000000000000000000000000000000000000000000000FF00000000000000000000000000000000000000000000000000000000000000FF00000000000000000000000000000000000000000000000000000000000000FF000000000000000000000000000000000000000000F900000000000000
310
0000FF00000000000000000000000000000000000000000000F90000000000000000FF0000000000000000000000000000000000000000000000F900000000000000FF000000000000000000000000000000000000000000000000F9000000000000FF00000000000000000000000000000000000000000000000000F90000
310
000000FF0000000000000000000000000000000000000000000000000000F900000000FF000000000000000000000000000000000000000000000000000000F9000000FF00000000000000000000000000000000000000000000000000000000F90000FF000000000000000000000000000000000000000000000000000000
310
0000F900FF000000000000000000000000000000000000000000000000000000000000F9FF00000000000000000000000000000000000000000000FFFFFFFFFFFFFFFFFFFFFFFFFFFFFFFFFFFF0000000000000000000000000000000000000000000000FFF900000000000000000000000000000000000000000000000000
310
0000000000FF00F90000000000000000000000000000000000000000000000000000000000FF0000F900000000000000000000000000000000000000000000000000000000FF000000F9000000000000000000000000000000000000000000000000000000FF00000000F90000000000000000000000000000000000000000
310
000000000000FF0000000000F900000000000000000000000000000000000000000000000000FF000000000000F9000000000000000000000000000000000000000000000000FF00000000000000F90000000000000000000000000000000000000000000000FF0000000000000000F9000000000000000000000000000000
310
00000000000000FF00000000000000000000000000000000000000000000000000000000000000FF00000000000000000000000000000000000000000000000000000000000000FF00000000000000000000000000000000000000000000000000000000000000FF0000000000000000000000000000000000000000000000
310
0000000000000000FF0000000000000000000000000000000000000000000000000000000000000000000000000000000000000000000000
102
{BLKREFS
331
4C3A
331
4C3B
331
4C44
331
4C45
102
}
  0
BLOCK_RECORD
  5
4C36
330
1
100
AcDbSymbolTableRecord
100
AcDbBlockTableRecord
  2
*D1
340
0
  0
BLOCK_RECORD
  5
4C40
330
1
100
AcDbSymbolTableRecord
100
AcDbBlockTableRecord
  2
*D2
340
0
  0
ENDTAB
  0
ENDSEC
  0
SECTION
  2
BLOCKS
  0
BLOCK
  5
20
330
1F
100
AcDbEntity
  8
0
100
AcDbBlockBegin
  2
*Model_Space
 70
     0
 10
0.0
 20
0.0
 30
0.0
  3
*Model_Space
  1

  0
ENDBLK
  5
21
330
1F
100
AcDbEntity
  8
0
100
AcDbBlockEnd
  0
BLOCK
  5
1C
330
1B
100
AcDbEntity
 67
     1
  8
0
100
AcDbBlockBegin
  2
*Paper_Space
 70
     0
 10
0.0
 20
0.0
 30
0.0
  3
*Paper_Space
  1

  0
ENDBLK
  5
1D
330
1B
100
AcDbEntity
 67
     1
  8
0
100
AcDbBlockEnd
  0
BLOCK
  5
8BD
330
8BC
100
AcDbEntity
  8
0
100
AcDbBlockBegin
  2
MAR-STRZ
 70
     0
 10
0.0
 20
0.0
 30
0.0
  3
MAR-STRZ
  1

  0
LINE
  5
8BE
330
8BC
100
AcDbEntity
  8
0
100
AcDbLine
 10
0.0
 20
2.299999999999272
 30
0.0
 11
0.0
 21
-2.299999999999272
 31
0.0
  0
LINE
  5
8BF
330
8BC
100
AcDbEntity
  8
0
 62
    10
100
AcDbLine
 10
1.5
 20
1.5
 30
0.0
 11
-1.5
 21
-1.5
 31
0.0
  0
LINE
  5
8C0
330
8BC
100
AcDbEntity
  8
0
100
AcDbLine
 10
1.399999999999636
 20
0.0
 30
0.0
 11
-1.399999999999636
 21
0.0
 31
0.0
  0
ENDBLK
  5
8C1
330
8BC
100
AcDbEntity
  8
0
100
AcDbBlockEnd
  0
BLOCK
  5
4C37
330
4C36
100
AcDbEntity
  8
0
100
AcDbBlockBegin
  2
*D1
 70
     1
 10
0.0
 20
0.0
 30
0.0
  3
*D1
  1

  0
LINE
  5
4C39
330
4C36
100
AcDbEntity
  8
WYMIAR
370
    -2
100
AcDbLine
 10
15.45077778649653
 20
8.013576526907291
 30
0.0
 11
15.45077778649653
 21
5.933576526907292
 31
0.0
  0
INSERT
  5
4C3A
330
4C36
100
AcDbEntity
  8
WYMIAR
370
    -2
100
AcDbBlockReference
  2
MAR-STRZ
 10
15.45077778649653
 20
8.073576526907292
 30
0.0
 41
0.06
 42
0.06
 43
0.06
 50
90.0
  0
INSERT
  5
4C3B
330
4C36
100
AcDbEntity
  8
WYMIAR
370
    -2
100
AcDbBlockReference
  2
MAR-STRZ
 10
15.45077778649653
 20
5.873576526907292
 30
0.0
 41
0.06
 42
0.06
 43
0.06
 50
270.0
  0
MTEXT
  5
4C3C
330
4C36
100
AcDbEntity
  8
WYMIAR
100
AcDbMText
 10
15.24077778649653
 20
6.973576526907295
 30
0.0
 40
0.18
 41
0.0
 71
     5
 72
     1
  1
\A1;2.20
  7
AR 01 SWIS
 11
0.0000000000000001
 21
1.0
 31
0.0
 73
     1
 44
1.0
  0
POINT
  5
4C3D
330
4C36
100
AcDbEntity
  8
Defpoints
 62
     0
100
AcDbPoint
 10
14.8115535708047
 20
8.073576526907292
 30
0.0
  0
POINT
  5
4C3E
330
4C36
100
AcDbEntity
  8
Defpoints
 62
     0
100
AcDbPoint
 10
14.8115535708047
 20
5.873576526907292
 30
0.0
  0
POINT
  5
4C3F
330
4C36
100
AcDbEntity
  8
Defpoints
 62
     0
100
AcDbPoint
 10
15.45077778649653
 20
5.873576526907292
 30
0.0
  0
ENDBLK
  5
4C38
330
4C36
100
AcDbEntity
  8
0
100
AcDbBlockEnd
  0
BLOCK
  5
4C41
330
4C40
100
AcDbEntity
  8
0
100
AcDbBlockBegin
  2
*D2
 70
     1
 10
0.0
 20
0.0
 30
0.0
  3
*D2
  1

  0
LINE
  5
4C43
330
4C40
100
AcDbEntity
  8
WYMIAR
370
    -2
100
AcDbLine
 10
14.7515535708047
 20
8.641052111470227
 30
0.0
 11
7.371553570804693
 21
8.641052111470227
 31
0.0
  0
INSERT
  5
4C44
330
4C40
100
AcDbEntity
  8
WYMIAR
370
    -2
100
AcDbBlockReference
  2
MAR-STRZ
 10
14.8115535708047
 20
8.641052111470227
 30
0.0
 41
0.06
 42
0.06
 43
0.06
  0
INSERT
  5
4C45
330
4C40
100
AcDbEntity
  8
WYMIAR
370
    -2
100
AcDbBlockReference
  2
MAR-STRZ
 10
7.311553570804694
 20
8.641052111470227
 30
0.0
 41
0.06
 42
0.06
 43
0.06
 50
180.0
  0
MTEXT
  5
4C46
330
4C40
100
AcDbEntity
  8
WYMIAR
100
AcDbMText
 10
11.06155357080469
 20
8.851052111470227
 30
0.0
 40
0.18
 41
0.0
 71
     5
 72
     1
  1
\A1;7.50
  7
AR 01 SWIS
 73
     1
 44
1.0
  0
POINT
  5
4C47
330
4C40
100
AcDbEntity
  8
Defpoints
 62
     0
100
AcDbPoint
 10
14.8115535708047
 20
8.073576526907292
 30
0.0
  0
POINT
  5
4C48
330
4C40
100
AcDbEntity
  8
Defpoints
 62
     0
100
AcDbPoint
 10
7.311553570804694
 20
8.073576526907295
 30
0.0
  0
POINT
  5
4C49
330
4C40
100
AcDbEntity
  8
Defpoints
 62
     0
100
AcDbPoint
 10
7.311553570804694
 20
8.641052111470227
 30
0.0
  0
ENDBLK
  5
4C42
330
4C40
100
AcDbEntity
  8
0
100
AcDbBlockEnd
  0
ENDSEC
  0
SECTION
  2
ENTITIES
  0
LWPOLYLINE
  5
4A25
102
{ACAD_REACTORS
330
4A28
330
4A2B
102
}
330
1F
100
AcDbEntity
  8
STREFA BEZPIECZEŃSTWA
 48
0.5
100
AcDbPolyline
 90
        4
 70
     1
 43
0.0
 10
7.311553570804694
 20
8.073576526907295
 10
7.311553570804694
 20
5.873576526907294
 10
14.8115535708047
 20
5.873576526907292
 10
14.8115535708047
 20
8.073576526907292
  0
DIMENSION
  5
4A26
102
{ACAD_XDICTIONARY
360
4A27
102
}
102
{ACAD_REACTORS
330
4A28
102
}
330
1F
100
AcDbEntity
  8
WYMIAR
100
AcDbDimension
  2
*D1
 10
15.45077778649653
 20
5.873576526907292
 30
0.0
 11
15.24077778649653
 21
6.973576526907295
 31
0.0
 70
    33
 71
     5
 42
2.199999999999999
  3
AR SKALA 1-50
100
AcDbAlignedDimension
 13
14.8115535708047
 23
8.073576526907292
 33
0.0
 14
14.8115535708047
 24
5.873576526907292
 34
0.0
  0
DIMENSION
  5
4A29
102
{ACAD_XDICTIONARY
360
4A2A
102
}
102
{ACAD_REACTORS
330
4A2B
102
}
330
1F
100
AcDbEntity
  8
WYMIAR
100
AcDbDimension
  2
*D2
 10
7.311553570804694
 20
8.641052111470227
 30
0.0
 11
11.06155357080469
 21
8.851052111470227
 31
0.0
 70
    33
 71
     5
 42
7.500000000000003
  3
AR SKALA 1-50
100
AcDbAlignedDimension
 13
14.8115535708047
 23
8.073576526907292
 33
0.0
 14
7.311553570804694
 24
8.073576526907295
 34
0.0
  0
LINE
  5
4A2C
330
1F
100
AcDbEntity
  8
0
100
AcDbLine
 10
10.972049638923
 20
7.233360807364046
 30
0.0
 11
10.97276650823705
 21
7.232459913192226
 31
0.0
  0
LINE
  5
4A2D
330
1F
100
AcDbEntity
  8
0
100
AcDbLine
 10
11.15034063337234
 20
6.779459913192223
 30
0.0
 11
11.14944118800036
 21
6.778824903796472
 31
0.0
  0
LINE
  5
4A2E
330
1F
100
AcDbEntity
  8
0
100
AcDbLine
 10
10.97140190974536
 20
7.236980309280365
 30
0.0
 11
10.97134327076586
 21
7.235700736562105
 31
0.0
  0
LINE
  5
4A2F
330
1F
100
AcDbEntity
  8
0
100
AcDbLine
 10
11.15078401620566
 20
6.786328609712736
 30
0.0
 11
11.15137102169449
 21
6.785217709251636
 31
0.0
  0
LINE
  5
4A30
330
1F
100
AcDbEntity
  8
0
100
AcDbLine
 10
11.15176387084352
 20
6.782700736562102
 30
0.0
 11
11.15154294248343
 21
6.781466191862957
 31
0.0
  0
LINE
  5
4A31
330
1F
100
AcDbEntity
  8
0
100
AcDbLine
 10
11.14944118800036
 20
6.778824903796472
 30
0.0
 11
11.14842046228613
 21
6.778499054017739
 31
0.0
  0
LINE
  5
4A32
330
1F
100
AcDbEntity
  8
0
100
AcDbLine
 10
10.97513208659291
 20
7.241218373755113
 30
0.0
 11
10.97408100710933
 21
7.240881867955689
 31
0.0
  0
LINE
  5
4A33
330
1F
100
AcDbEntity
  8
0
100
AcDbLine
 10
10.97312292275785
 20
7.240237304633151
 30
0.0
 11
10.97232312540372
 21
7.239328609712739
 31
0.0
  0
LINE
  5
4A34
330
1F
100
AcDbEntity
  8
0
100
AcDbLine
 10
10.97366595360903
 20
7.231824903796475
 30
0.0
 11
10.97468667932325
 21
7.231499054017742
 31
0.0
  0
LINE
  5
4A35
330
1F
100
AcDbEntity
  8
0
100
AcDbLine
 10
10.97276650823705
 20
7.232459913192226
 30
0.0
 11
10.97366595360903
 21
7.231824903796475
 31
0.0
  0
LINE
  5
4A36
330
1F
100
AcDbEntity
  8
0
100
AcDbLine
 10
10.97156419912596
 20
7.23446619186296
 30
0.0
 11
10.972049638923
 21
7.233360807364046
 31
0.0
  0
LINE
  5
4A37
330
1F
100
AcDbEntity
  8
0
100
AcDbLine
 10
10.97134327076586
 20
7.235700736562105
 30
0.0
 11
10.97156419912596
 21
7.23446619186296
 31
0.0
  0
LINE
  5
4A38
330
1F
100
AcDbEntity
  8
0
100
AcDbLine
 10
10.97173611991489
 20
7.238217709251639
 30
0.0
 11
10.97140190974536
 21
7.236980309280365
 31
0.0
  0
LINE
  5
4A39
330
1F
100
AcDbEntity
  8
0
100
AcDbLine
 10
10.97232312540372
 20
7.239328609712739
 30
0.0
 11
10.97173611991489
 21
7.238217709251639
 31
0.0
  0
LINE
  5
4A3A
330
1F
100
AcDbEntity
  8
0
100
AcDbLine
 10
10.97408100710933
 20
7.240881867955689
 30
0.0
 11
10.97312292275785
 21
7.240237304633151
 31
0.0
  0
LINE
  5
4A3B
330
1F
100
AcDbEntity
  8
0
100
AcDbLine
 10
10.97620453187878
 20
7.2412238897173
 30
0.0
 11
10.97513208659291
 21
7.241218373755113
 31
0.0
  0
LINE
  5
4A3C
330
1F
100
AcDbEntity
  8
0
100
AcDbLine
 10
11.15155357080467
 20
6.772834697784016
 30
0.0
 11
11.14896538035366
 21
6.773175439521107
 31
0.0
  0
LINE
  5
4A3D
330
1F
100
AcDbEntity
  8
0
100
AcDbLine
 10
11.18454395186145
 20
6.765334697784052
 30
0.0
 11
11.18541176379236
 21
6.767094446298582
 31
0.0
  0
LINE
  5
4A3E
330
1F
100
AcDbEntity
  8
0
100
AcDbLine
 10
11.16021382484253
 20
6.777834697784012
 30
0.0
 11
11.15862463861656
 21
6.775763629972143
 31
0.0
  0
LINE
  5
4A3F
330
1F
100
AcDbEntity
  8
0
100
AcDbLine
 10
11.15655357080469
 20
6.791494951821842
 30
0.0
 11
11.15414176125571
 21
6.792493956046907
 31
0.0
  0
LINE
  5
4A40
330
1F
100
AcDbEntity
  8
0
100
AcDbLine
 10
11.18345387090906
 20
6.76370327634893
 30
0.0
 11
11.18454395186145
 21
6.765334697784052
 31
0.0
  0
LINE
  5
4A41
330
1F
100
AcDbEntity
  8
0
100
AcDbLine
 10
10.9440535708047
 20
7.255825078840839
 30
0.0
 11
10.94581331931922
 21
7.256692890771741
 31
0.0
  0
LINE
  5
4A42
330
1F
100
AcDbEntity
  8
0
100
AcDbLine
 10
11.11155357080469
 20
6.757834697784058
 30
0.0
 11
11.17155357080469
 21
6.757834697784058
 31
0.0
  0
LINE
  5
4A43
330
1F
100
AcDbEntity
  8
0
100
AcDbLine
 10
10.94242214936956
 20
7.254734997888444
 30
0.0
 11
10.94094696908689
 21
7.253441299501869
 31
0.0
  0
LINE
  5
4A44
330
1F
100
AcDbEntity
  8
0
100
AcDbLine
 10
11.15155357080469
 20
6.792834697783998
 30
0.0
 11
11.14896538035366
 21
6.792493956046907
 31
0.0
  0
LINE
  5
4A45
330
1F
100
AcDbEntity
  8
0
100
AcDbLine
 10
11.18216017252249
 20
6.762228096066248
 30
0.0
 11
11.18345387090906
 21
6.76370327634893
 31
0.0
  0
LINE
  5
4A46
330
1F
100
AcDbEntity
  8
0
100
AcDbLine
 10
11.14289331676685
 20
6.777834697784012
 30
0.0
 11
11.14448250299282
 21
6.775763629972143
 31
0.0
  0
LINE
  5
4A47
330
1F
100
AcDbEntity
  8
0
100
AcDbLine
 10
10.94581331931922
 20
7.256692890771741
 30
0.0
 11
10.94767128512816
 21
7.257323585178394
 31
0.0
  0
LINE
  5
4A48
330
1F
100
AcDbEntity
  8
0
100
AcDbLine
 10
11.17905357080469
 20
6.759844316727278
 30
0.0
 11
11.18068499223982
 21
6.760934397679701
 31
0.0
  0
LINE
  5
4A49
330
1F
100
AcDbEntity
  8
0
100
AcDbLine
 10
10.93965327070033
 20
7.251966119219186
 30
0.0
 11
10.93856318974793
 21
7.250334697784065
 31
0.0
  0
LINE
  5
4A4A
330
1F
100
AcDbEntity
  8
0
100
AcDbLine
 10
11.16155357080469
 20
6.782834697784007
 30
0.0
 11
11.16121282906758
 21
6.780246507332972
 31
0.0
  0
LINE
  5
4A4B
330
1F
100
AcDbEntity
  8
0
100
AcDbLine
 10
11.16021382484253
 20
6.787834697784003
 30
0.0
 11
11.16121282906758
 21
6.785422888235043
 31
0.0
  0
LINE
  5
4A4C
330
1F
100
AcDbEntity
  8
0
100
AcDbLine
 10
10.96448250299283
 20
7.239905765595974
 30
0.0
 11
10.96289331676685
 21
7.237834697784105
 31
0.0
  0
LINE
  5
4A4D
330
1F
100
AcDbEntity
  8
0
100
AcDbLine
 10
11.18541176379236
 20
6.767094446298582
 30
0.0
 11
11.18604245819902
 21
6.76895241210752
 31
0.0
  0
LINE
  5
4A4E
330
1F
100
AcDbEntity
  8
0
100
AcDbLine
 10
11.16121282906758
 20
6.785422888235043
 30
0.0
 11
11.16155357080469
 21
6.782834697784007
 31
0.0
  0
LINE
  5
4A4F
330
1F
100
AcDbEntity
  8
0
100
AcDbLine
 10
11.15155357080467
 20
6.772834697784016
 30
0.0
 11
11.15414176125571
 21
6.773175439521107
 31
0.0
  0
LINE
  5
4A50
330
1F
100
AcDbEntity
  8
0
100
AcDbLine
 10
10.96189431254181
 20
7.230246507333074
 30
0.0
 11
10.96289331676685
 21
7.227834697784114
 31
0.0
  0
LINE
  5
4A51
330
1F
100
AcDbEntity
  8
0
100
AcDbLine
 10
10.96655357080469
 20
7.224174443746246
 30
0.0
 11
10.96896538035367
 21
7.223175439521209
 31
0.0
  0
LINE
  5
4A52
330
1F
100
AcDbEntity
  8
0
100
AcDbLine
 10
11.17543585648123
 20
6.758345810389723
 30
0.0
 11
11.17351146368799
 21
6.757963024863439
 31
0.0
  0
LINE
  5
4A53
330
1F
100
AcDbEntity
  8
0
100
AcDbLine
 10
11.1864252437253
 20
6.770876804900748
 30
0.0
 11
11.18655357080469
 21
6.772834697784073
 31
0.0
  0
LINE
  5
4A54
330
1F
100
AcDbEntity
  8
0
100
AcDbLine
 10
11.18604245819902
 20
6.76895241210752
 30
0.0
 11
11.1864252437253
 21
6.770876804900748
 31
0.0
  0
LINE
  5
4A55
330
1F
100
AcDbEntity
  8
0
100
AcDbLine
 10
11.15655357080469
 20
6.774174443746172
 30
0.0
 11
11.15862463861656
 21
6.775763629972143
 31
0.0
  0
LINE
  5
4A56
330
1F
100
AcDbEntity
  8
0
100
AcDbLine
 10
11.14655357080469
 20
6.774174443746172
 30
0.0
 11
11.14448250299282
 21
6.775763629972143
 31
0.0
  0
LINE
  5
4A57
330
1F
100
AcDbEntity
  8
0
100
AcDbLine
 10
11.14448250299282
 20
6.789905765595872
 30
0.0
 11
11.14655357080469
 21
6.791494951821842
 31
0.0
  0
LINE
  5
4A58
330
1F
100
AcDbEntity
  8
0
100
AcDbLine
 10
11.15862463861656
 20
6.789905765595872
 30
0.0
 11
11.16021382484253
 21
6.787834697784003
 31
0.0
  0
LINE
  5
4A59
330
1F
100
AcDbEntity
  8
0
100
AcDbLine
 10
10.9440535708047
 20
7.255825078840839
 30
0.0
 11
10.94242214936956
 21
7.254734997888444
 31
0.0
  0
LINE
  5
4A5A
330
1F
100
AcDbEntity
  8
0
100
AcDbLine
 10
10.96155357080469
 20
7.23283469778411
 30
0.0
 11
10.96189431254181
 21
7.235422888235117
 31
0.0
  0
LINE
  5
4A5B
330
1F
100
AcDbEntity
  8
0
100
AcDbLine
 10
11.15414176125571
 20
6.792493956046907
 30
0.0
 11
11.15155357080469
 21
6.792834697783998
 31
0.0
  0
LINE
  5
4A5C
330
1F
100
AcDbEntity
  8
0
100
AcDbLine
 10
11.14896538035366
 20
6.773175439521107
 30
0.0
 11
11.14655357080469
 21
6.774174443746172
 31
0.0
  0
LINE
  5
4A5D
330
1F
100
AcDbEntity
  8
0
100
AcDbLine
 10
11.14289331676685
 20
6.777834697784012
 30
0.0
 11
11.14261813140458
 21
6.778499054017739
 31
0.0
  0
LINE
  5
4A5E
330
1F
100
AcDbEntity
  8
0
100
AcDbLine
 10
11.17905357080469
 20
6.759844316727278
 30
0.0
 11
11.17729382229017
 21
6.758976504796375
 31
0.0
  0
LINE
  5
4A5F
330
1F
100
AcDbEntity
  8
0
100
AcDbLine
 10
10.94767128512816
 20
7.257323585178394
 30
0.0
 11
10.94959567792139
 21
7.257706370704678
 31
0.0
  0
LINE
  5
4A60
330
1F
100
AcDbEntity
  8
0
100
AcDbLine
 10
11.15862463861656
 20
6.789905765595872
 30
0.0
 11
11.15655357080469
 21
6.791494951821842
 31
0.0
  0
LINE
  5
4A61
330
1F
100
AcDbEntity
  8
0
100
AcDbLine
 10
10.97862463861656
 20
7.225763629972245
 30
0.0
 11
10.98021382484254
 21
7.227834697784114
 31
0.0
  0
LINE
  5
4A62
330
1F
100
AcDbEntity
  8
0
100
AcDbLine
 10
10.97414176125572
 20
7.223175439521209
 30
0.0
 11
10.97655357080469
 21
7.224174443746246
 31
0.0
  0
LINE
  5
4A63
330
1F
100
AcDbEntity
  8
0
100
AcDbLine
 10
10.97155357080469
 20
7.22283469778409
 30
0.0
 11
10.97414176125572
 21
7.223175439521209
 31
0.0
  0
LINE
  5
4A64
330
1F
100
AcDbEntity
  8
0
100
AcDbLine
 10
10.96289331676685
 20
7.227834697784114
 30
0.0
 11
10.96448250299283
 21
7.225763629972245
 31
0.0
  0
LINE
  5
4A65
330
1F
100
AcDbEntity
  8
0
100
AcDbLine
 10
10.97655357080469
 20
7.224174443746246
 30
0.0
 11
10.97862463861656
 21
7.225763629972245
 31
0.0
  0
LINE
  5
4A66
330
1F
100
AcDbEntity
  8
0
100
AcDbLine
 10
11.16021382484253
 20
6.777834697784012
 30
0.0
 11
11.16121282906758
 21
6.780246507332972
 31
0.0
  0
LINE
  5
4A67
330
1F
100
AcDbEntity
  8
0
100
AcDbLine
 10
11.14448250299282
 20
6.789905765595872
 30
0.0
 11
11.14319195424077
 21
6.788223889717325
 31
0.0
  0
LINE
  5
4A68
330
1F
100
AcDbEntity
  8
0
100
AcDbLine
 10
10.96448250299283
 20
7.225763629972245
 30
0.0
 11
10.96655357080469
 21
7.224174443746246
 31
0.0
  0
LINE
  5
4A69
330
1F
100
AcDbEntity
  8
0
100
AcDbLine
 10
11.17729382229017
 20
6.758976504796375
 30
0.0
 11
11.17543585648123
 21
6.758345810389723
 31
0.0
  0
LINE
  5
4A6A
330
1F
100
AcDbEntity
  8
0
100
AcDbLine
 10
10.96155357080469
 20
7.23283469778411
 30
0.0
 11
10.96189431254181
 21
7.230246507333074
 31
0.0
  0
LINE
  5
4A6B
330
1F
100
AcDbEntity
  8
0
100
AcDbLine
 10
10.97414176125572
 20
7.242493956046981
 30
0.0
 11
10.97655357080469
 21
7.241494951821945
 31
0.0
  0
LINE
  5
4A6C
330
1F
100
AcDbEntity
  8
0
100
AcDbLine
 10
10.94959567792139
 20
7.257706370704678
 30
0.0
 11
10.9515535708047
 21
7.257834697784058
 31
0.0
  0
LINE
  5
4A6D
330
1F
100
AcDbEntity
  8
0
100
AcDbLine
 10
11.18068499223982
 20
6.760934397679701
 30
0.0
 11
11.18216017252249
 21
6.762228096066248
 31
0.0
  0
LINE
  5
4A6E
330
1F
100
AcDbEntity
  8
0
100
AcDbLine
 10
11.14896538035366
 20
6.792493956046907
 30
0.0
 11
11.14655357080469
 21
6.791494951821842
 31
0.0
  0
LINE
  5
4A6F
330
1F
100
AcDbEntity
  8
0
100
AcDbLine
 10
10.93856318974793
 20
7.250334697784065
 30
0.0
 11
10.93769537781703
 21
7.248574949269535
 31
0.0
  0
LINE
  5
4A70
330
1F
100
AcDbEntity
  8
0
100
AcDbLine
 10
11.01155357080469
 20
7.257834697784058
 30
0.0
 11
10.9515535708047
 21
7.257834697784058
 31
0.0
  0
LINE
  5
4A71
330
1F
100
AcDbEntity
  8
0
100
AcDbLine
 10
10.96896538035367
 20
7.223175439521209
 30
0.0
 11
10.97155357080469
 21
7.22283469778409
 31
0.0
  0
LINE
  5
4A72
330
1F
100
AcDbEntity
  8
0
100
AcDbLine
 10
10.93706468341036
 20
7.246716983460597
 30
0.0
 11
10.93668189788409
 21
7.244792590667369
 31
0.0
  0
LINE
  5
4A73
330
1F
100
AcDbEntity
  8
0
100
AcDbLine
 10
10.94094696908689
 20
7.253441299501869
 30
0.0
 11
10.93965327070033
 21
7.251966119219186
 31
0.0
  0
LINE
  5
4A74
330
1F
100
AcDbEntity
  8
0
100
AcDbLine
 10
10.93668189788409
 20
7.244792590667369
 30
0.0
 11
10.9365535708047
 21
7.242834697784044
 31
0.0
  0
LINE
  5
4A75
330
1F
100
AcDbEntity
  8
0
100
AcDbLine
 10
11.15414176125571
 20
6.773175439521107
 30
0.0
 11
11.15655357080469
 21
6.774174443746172
 31
0.0
  0
LINE
  5
4A76
330
1F
100
AcDbEntity
  8
0
100
AcDbLine
 10
10.96896538035367
 20
7.242493956046981
 30
0.0
 11
10.9665535708047
 21
7.241494951821945
 31
0.0
  0
LINE
  5
4A77
330
1F
100
AcDbEntity
  8
0
100
AcDbLine
 10
10.9665535708047
 20
7.241494951821945
 30
0.0
 11
10.96448250299283
 21
7.239905765595974
 31
0.0
  0
LINE
  5
4A78
330
1F
100
AcDbEntity
  8
0
100
AcDbLine
 10
10.96289331676685
 20
7.237834697784105
 30
0.0
 11
10.96189431254181
 21
7.235422888235117
 31
0.0
  0
LINE
  5
4A79
330
1F
100
AcDbEntity
  8
0
100
AcDbLine
 10
10.9768985435875
 20
7.241230244895572
 30
0.0
 11
10.97655357080469
 21
7.241494951821945
 31
0.0
  0
LINE
  5
4A7A
330
1F
100
AcDbEntity
  8
0
100
AcDbLine
 10
11.17351146368799
 20
6.757963024863439
 30
0.0
 11
11.17155357080469
 21
6.757834697784058
 31
0.0
  0
LINE
  5
4A7B
330
1F
100
AcDbEntity
  8
0
100
AcDbLine
 10
10.93769537781703
 20
7.248574949269535
 30
0.0
 11
10.93706468341036
 21
7.246716983460597
 31
0.0
  0
LINE
  5
4A7C
330
1F
100
AcDbEntity
  8
0
100
AcDbLine
 10
10.98121282906759
 20
7.230246507333074
 30
0.0
 11
10.98137772996697
 21
7.231499054017742
 31
0.0
  0
LINE
  5
4A7D
330
1F
100
AcDbEntity
  8
0
100
AcDbLine
 10
10.97414176125572
 20
7.242493956046981
 30
0.0
 11
10.9715535708047
 21
7.2428346977841
 31
0.0
  0
LINE
  5
4A7E
330
1F
100
AcDbEntity
  8
0
100
AcDbLine
 10
10.98021382484254
 20
7.227834697784114
 30
0.0
 11
10.98121282906759
 21
7.230246507333074
 31
0.0
  0
LINE
  5
4A7F
330
1F
100
AcDbEntity
  8
0
100
AcDbLine
 10
10.9715535708047
 20
7.2428346977841
 30
0.0
 11
10.96896538035367
 21
7.242493956046981
 31
0.0
  0
LINE
  5
4A80
330
1F
100
AcDbEntity
  8
0
100
AcDbLine
 10
11.15105750268639
 20
6.780360807364044
 30
0.0
 11
11.15034063337234
 21
6.779459913192223
 31
0.0
  0
LINE
  5
4A81
330
1F
100
AcDbEntity
  8
0
100
AcDbLine
 10
11.15154294248343
 20
6.781466191862957
 30
0.0
 11
11.15105750268639
 21
6.780360807364044
 31
0.0
  0
LINE
  5
4A82
330
1F
100
AcDbEntity
  8
0
100
AcDbLine
 10
11.15170523186402
 20
6.783980309280362
 30
0.0
 11
11.15176387084352
 21
6.782700736562102
 31
0.0
  0
LINE
  5
4A83
330
1F
100
AcDbEntity
  8
0
100
AcDbLine
 10
11.15137102169449
 20
6.785217709251636
 30
0.0
 11
11.15170523186402
 21
6.783980309280362
 31
0.0
  0
LINE
  5
4A84
330
1F
100
AcDbEntity
  8
0
100
AcDbLine
 10
11.14998421885153
 20
6.787237304633148
 30
0.0
 11
11.15078401620566
 21
6.786328609712736
 31
0.0
  0
LINE
  5
4A85
330
1F
100
AcDbEntity
  8
0
100
AcDbLine
 10
11.14902613450006
 20
6.787881867955686
 30
0.0
 11
11.14998421885153
 21
6.787237304633148
 31
0.0
  0
LINE
  5
4A86
330
1F
100
AcDbEntity
  8
0
100
AcDbLine
 10
11.14797505501647
 20
6.78821837375511
 30
0.0
 11
11.14902613450006
 21
6.787881867955686
 31
0.0
  0
LINE
  5
4A87
330
1F
100
AcDbEntity
  8
0
100
AcDbLine
 10
11.14690260973061
 20
6.788223889717325
 30
0.0
 11
11.14797505501647
 21
6.78821837375511
 31
0.0
  0
LINE
  5
4A88
330
1F
100
AcDbEntity
  8
0
100
AcDbLine
 10
10.16715194393706
 20
8.028576526907309
 30
0.0
 11
10.93160020981384
 21
8.028576526907281
 31
0.0
  0
LINE
  5
4A89
330
1F
100
AcDbEntity
  8
0
100
AcDbLine
 10
11.11155357080469
 20
7.928576526907258
 30
0.0
 11
11.19150693179554
 21
7.928576526907258
 31
0.0
  0
LINE
  5
4A8A
330
1F
100
AcDbEntity
  8
0
100
AcDbLine
 10
10.09615849647703
 20
8.028576526907309
 30
0.0
 11
10.08490459509618
 21
8.026872818221741
 31
0.0
  0
LINE
  5
4A8B
330
1F
100
AcDbEntity
  8
0
100
AcDbLine
 10
10.08490459509618
 20
8.026872818221741
 30
0.0
 11
10.0744176284965
 21
8.02187779709653
 31
0.0
  0
LINE
  5
4A8C
330
1F
100
AcDbEntity
  8
0
100
AcDbLine
 10
10.0744176284965
 20
8.02187779709653
 30
0.0
 11
10.0654122661212
 21
8.01393186596662
 31
0.0
  0
LINE
  5
4A8D
330
1F
100
AcDbEntity
  8
0
100
AcDbLine
 10
10.0654122661212
 20
8.01393186596662
 30
0.0
 11
10.05850220853411
 21
8.003576526907304
 31
0.0
  0
LINE
  5
4A8E
330
1F
100
AcDbEntity
  8
0
100
AcDbLine
 10
10.05850220853411
 20
8.003576526907304
 30
0.0
 11
10.05415836474037
 21
7.991517479162419
 31
0.0
  0
LINE
  5
4A8F
330
1F
100
AcDbEntity
  8
0
100
AcDbLine
 10
10.05415836474037
 20
7.991517479162419
 30
0.0
 11
10.05267676051598
 21
7.978576526907298
 31
0.0
  0
LINE
  5
4A90
330
1F
100
AcDbEntity
  8
0
100
AcDbLine
 10
10.05267676051598
 20
7.978576526907298
 30
0.0
 11
10.05415836474037
 21
7.965635574652177
 31
0.0
  0
LINE
  5
4A91
330
1F
100
AcDbEntity
  8
0
100
AcDbLine
 10
10.05415836474037
 20
7.965635574652177
 30
0.0
 11
10.05850220853411
 21
7.953576526907292
 31
0.0
  0
LINE
  5
4A92
330
1F
100
AcDbEntity
  8
0
100
AcDbLine
 10
10.0654122661212
 20
7.943221187847976
 30
0.0
 11
10.07441762849651
 21
7.935275256718066
 31
0.0
  0
LINE
  5
4A93
330
1F
100
AcDbEntity
  8
0
100
AcDbLine
 10
10.05850220853411
 20
7.953576526907292
 30
0.0
 11
10.0654122661212
 21
7.943221187847976
 31
0.0
  0
LINE
  5
4A94
330
1F
100
AcDbEntity
  8
0
100
AcDbLine
 10
10.08490459509618
 20
7.930280235592855
 30
0.0
 11
10.09615849647703
 21
7.928576526907287
 31
0.0
  0
LINE
  5
4A95
330
1F
100
AcDbEntity
  8
0
100
AcDbLine
 10
10.07441762849651
 20
7.935275256718066
 30
0.0
 11
10.08490459509618
 21
7.930280235592855
 31
0.0
  0
LINE
  5
4A96
330
1F
100
AcDbEntity
  8
0
100
AcDbLine
 10
12.02843024935674
 20
8.028576526907281
 30
0.0
 11
11.11155357080469
 21
8.028576526907281
 31
0.0
  0
LINE
  5
4A97
330
1F
100
AcDbEntity
  8
0
100
AcDbLine
 10
11.01155357080469
 20
8.028576526907281
 30
0.0
 11
10.93160020981384
 21
8.028576526907281
 31
0.0
  0
LINE
  5
4A98
330
1F
100
AcDbEntity
  8
0
100
AcDbLine
 10
12.02843024935674
 20
8.028576526907281
 30
0.0
 11
12.03968415073759
 21
8.026872818221713
 31
0.0
  0
LINE
  5
4A99
330
1F
100
AcDbEntity
  8
0
100
AcDbLine
 10
12.03968415073759
 20
8.026872818221713
 30
0.0
 11
12.05017111733727
 21
8.021877797096502
 31
0.0
  0
LINE
  5
4A9A
330
1F
100
AcDbEntity
  8
0
100
AcDbLine
 10
12.05017111733727
 20
8.021877797096502
 30
0.0
 11
12.05917647971257
 21
8.013931865966592
 31
0.0
  0
LINE
  5
4A9B
330
1F
100
AcDbEntity
  8
0
100
AcDbLine
 10
12.05917647971257
 20
8.013931865966592
 30
0.0
 11
12.06608653729966
 21
8.003576526907275
 31
0.0
  0
LINE
  5
4A9C
330
1F
100
AcDbEntity
  8
0
100
AcDbLine
 10
12.06608653729966
 20
8.003576526907275
 30
0.0
 11
12.0704303810934
 21
7.991517479162391
 31
0.0
  0
LINE
  5
4A9D
330
1F
100
AcDbEntity
  8
0
100
AcDbLine
 10
12.0704303810934
 20
7.991517479162391
 30
0.0
 11
12.07191198531779
 21
7.97857652690727
 31
0.0
  0
LINE
  5
4A9E
330
1F
100
AcDbEntity
  8
0
100
AcDbLine
 10
12.07191198531779
 20
7.97857652690727
 30
0.0
 11
12.0704303810934
 21
7.965635574652148
 31
0.0
  0
LINE
  5
4A9F
330
1F
100
AcDbEntity
  8
0
100
AcDbLine
 10
12.0704303810934
 20
7.965635574652148
 30
0.0
 11
12.06608653729966
 21
7.953576526907264
 31
0.0
  0
LINE
  5
4AA0
330
1F
100
AcDbEntity
  8
0
100
AcDbLine
 10
12.05917647971257
 20
7.943221187847948
 30
0.0
 11
12.05017111733726
 21
7.935275256718037
 31
0.0
  0
LINE
  5
4AA1
330
1F
100
AcDbEntity
  8
0
100
AcDbLine
 10
12.06608653729966
 20
7.953576526907264
 30
0.0
 11
12.05917647971257
 21
7.943221187847948
 31
0.0
  0
LINE
  5
4AA2
330
1F
100
AcDbEntity
  8
0
100
AcDbLine
 10
12.03968415073759
 20
7.930280235592826
 30
0.0
 11
12.02843024935674
 21
7.928576526907287
 31
0.0
  0
LINE
  5
4AA3
330
1F
100
AcDbEntity
  8
0
100
AcDbLine
 10
12.05017111733726
 20
7.935275256718037
 30
0.0
 11
12.03968415073759
 21
7.930280235592826
 31
0.0
  0
LINE
  5
4AA4
330
1F
100
AcDbEntity
  8
0
100
AcDbLine
 10
12.02843024935674
 20
7.928576526907287
 30
0.0
 11
11.19150693179554
 21
7.928576526907258
 31
0.0
  0
LINE
  5
4AA5
330
1F
100
AcDbEntity
  8
0
100
AcDbLine
 10
11.01155357080469
 20
7.231499054017742
 30
0.0
 11
10.98137772996697
 21
7.231499054017742
 31
0.0
  0
LINE
  5
4AA6
330
1F
100
AcDbEntity
  8
0
100
AcDbLine
 10
10.98137772996697
 20
7.231499054017742
 30
0.0
 11
10.97468667932325
 21
7.231499054017742
 31
0.0
  0
LINE
  5
4AA7
330
1F
100
AcDbEntity
  8
0
100
AcDbLine
 10
11.01155357080469
 20
7.2412238897173
 30
0.0
 11
10.9768985435875
 21
7.241230244895572
 31
0.0
  0
LINE
  5
4AA8
330
1F
100
AcDbEntity
  8
0
100
AcDbLine
 10
10.9768985435875
 20
7.241230244895572
 30
0.0
 11
10.97620453187878
 21
7.2412238897173
 31
0.0
  0
LINE
  5
4AA9
330
1F
100
AcDbEntity
  8
0
100
AcDbLine
 10
11.11155357080469
 20
6.778499054017739
 30
0.0
 11
11.14261813140458
 21
6.778499054017739
 31
0.0
  0
LINE
  5
4AAA
330
1F
100
AcDbEntity
  8
0
100
AcDbLine
 10
11.14261813140458
 20
6.778499054017739
 30
0.0
 11
11.14842046228613
 21
6.778499054017739
 31
0.0
  0
LINE
  5
4AAB
330
1F
100
AcDbEntity
  8
0
100
AcDbLine
 10
11.11155357080469
 20
6.788223889717325
 30
0.0
 11
11.14319195424077
 21
6.788223889717325
 31
0.0
  0
LINE
  5
4AAC
330
1F
100
AcDbEntity
  8
0
100
AcDbLine
 10
11.14319195424077
 20
6.788223889717325
 30
0.0
 11
11.14690260973061
 21
6.788223889717325
 31
0.0
  0
LINE
  5
4AAD
330
1F
100
AcDbEntity
  8
0
100
AcDbLine
 10
11.01155357080469
 20
8.028576526907281
 30
0.0
 11
11.01155357080469
 21
8.015251394389801
 31
0.0
  0
LINE
  5
4AAE
330
1F
100
AcDbEntity
  8
0
100
AcDbLine
 10
11.01155357080469
 20
7.65289312901539
 30
0.0
 11
11.01155357080469
 21
7.626490321645698
 31
0.0
  0
LINE
  5
4AAF
330
1F
100
AcDbEntity
  8
0
100
AcDbLine
 10
11.01155357080469
 20
7.495562396155333
 30
0.0
 11
11.01155357080469
 21
6.570003913362193
 31
0.0
  0
LINE
  5
4AB0
330
1F
100
AcDbEntity
  8
0
100
AcDbLine
 10
11.11155357080469
 20
7.928576526907258
 30
0.0
 11
11.11155357080469
 21
7.915251394389807
 31
0.0
  0
LINE
  5
4AB1
330
1F
100
AcDbEntity
  8
0
100
AcDbLine
 10
11.11155357080469
 20
7.841901659424744
 30
0.0
 11
11.11155357080469
 21
7.828576526907264
 31
0.0
  0
LINE
  5
4AB2
330
1F
100
AcDbEntity
  8
0
100
AcDbLine
 10
11.01155357080469
 20
7.928576526907258
 30
0.0
 11
10.94491184674928
 21
7.928576526907258
 31
0.0
  0
LINE
  5
4AB3
330
1F
100
AcDbEntity
  8
0
100
AcDbLine
 10
11.01155357080469
 20
7.828576526907264
 30
0.0
 11
11.01155357080469
 21
7.65289312901539
 31
0.0
  0
LINE
  5
4AB4
330
1F
100
AcDbEntity
  8
0
100
AcDbLine
 10
11.11155357080469
 20
8.028576526907281
 30
0.0
 11
11.11155357080469
 21
7.928576526907258
 31
0.0
  0
LINE
  5
4AB5
330
1F
100
AcDbEntity
  8
0
100
AcDbLine
 10
11.01155357080469
 20
7.941901659424738
 30
0.0
 11
11.01155357080469
 21
7.928576526907258
 31
0.0
  0
LINE
  5
4AB6
330
1F
100
AcDbEntity
  8
0
100
AcDbLine
 10
11.01155357080469
 20
8.029576526907261
 30
0.0
 11
11.01155357080469
 21
7.828576526907264
 31
0.0
  0
ARC
  5
4AB7
330
1F
100
AcDbEntity
  8
0
100
AcDbCircle
 10
11.01655357080469
 20
8.029576526907261
 30
0.0
 40
0.005
100
AcDbArc
 50
90.0
 51
180.0
  0
LINE
  5
4AB8
330
1F
100
AcDbEntity
  8
0
100
AcDbLine
 10
11.11155357080469
 20
8.029576526907261
 30
0.0
 11
11.11155357080469
 21
6.570003913362222
 31
0.0
  0
ARC
  5
4AB9
330
1F
100
AcDbEntity
  8
0
100
AcDbCircle
 10
11.10655357080469
 20
8.029576526907261
 30
0.0
 40
0.005
100
AcDbArc
 50
0.0
 51
90.0
  0
LINE
  5
4ABA
330
1F
100
AcDbEntity
  8
0
100
AcDbLine
 10
11.01155357080469
 20
7.257834697784058
 30
0.0
 11
11.01155357080469
 21
7.2412238897173
 31
0.0
  0
LINE
  5
4ABB
330
1F
100
AcDbEntity
  8
0
100
AcDbLine
 10
11.01155357080469
 20
7.2412238897173
 30
0.0
 11
11.01155357080469
 21
7.231499054017742
 31
0.0
  0
LINE
  5
4ABC
330
1F
100
AcDbEntity
  8
0
100
AcDbLine
 10
11.11155357080469
 20
6.778499054017739
 30
0.0
 11
11.11155357080469
 21
6.757834697784058
 31
0.0
  0
LINE
  5
4ABD
330
1F
100
AcDbEntity
  8
0
100
AcDbLine
 10
11.01155357080469
 20
6.568037609477952
 30
0.0
 11
11.01155357080469
 21
6.030367827750294
 31
0.0
  0
LINE
  5
4ABE
330
1F
100
AcDbEntity
  8
0
100
AcDbLine
 10
11.01155357080469
 20
7.231499054017742
 30
0.0
 11
11.01155357080469
 21
6.788223889717325
 31
0.0
  0
LINE
  5
4ABF
330
1F
100
AcDbEntity
  8
0
100
AcDbLine
 10
11.11155357080469
 20
6.788223889717325
 30
0.0
 11
11.11155357080469
 21
6.778499054017739
 31
0.0
  0
LINE
  5
4AC0
330
1F
100
AcDbEntity
  8
0
100
AcDbLine
 10
10.9365535708047
 20
7.242834697784044
 30
0.0
 11
10.9365535708047
 21
6.772834697784073
 31
0.0
  0
LINE
  5
4AC1
330
1F
100
AcDbEntity
  8
0
100
AcDbLine
 10
11.10655357080469
 20
8.034576526907256
 30
0.0
 11
11.01655357080469
 21
8.034576526907256
 31
0.0
  0
LINE
  5
4AC2
330
1F
100
AcDbEntity
  8
0
100
AcDbLine
 10
11.15105750268639
 20
7.233360807364046
 30
0.0
 11
11.15034063337234
 21
7.232459913192226
 31
0.0
  0
LINE
  5
4AC3
330
1F
100
AcDbEntity
  8
0
100
AcDbLine
 10
10.97276650823705
 20
6.779459913192223
 30
0.0
 11
10.97366595360903
 21
6.778824903796472
 31
0.0
  0
LINE
  5
4AC4
330
1F
100
AcDbEntity
  8
0
100
AcDbLine
 10
11.15170523186403
 20
7.236980309280365
 30
0.0
 11
11.15176387084352
 21
7.235700736562105
 31
0.0
  0
LINE
  5
4AC5
330
1F
100
AcDbEntity
  8
0
100
AcDbLine
 10
10.97232312540372
 20
6.786328609712736
 30
0.0
 11
10.97173611991489
 21
6.785217709251636
 31
0.0
  0
LINE
  5
4AC6
330
1F
100
AcDbEntity
  8
0
100
AcDbLine
 10
10.97134327076586
 20
6.782700736562102
 30
0.0
 11
10.97156419912596
 21
6.781466191862957
 31
0.0
  0
LINE
  5
4AC7
330
1F
100
AcDbEntity
  8
0
100
AcDbLine
 10
10.97366595360903
 20
6.778824903796472
 30
0.0
 11
10.97468667932325
 21
6.778499054017739
 31
0.0
  0
LINE
  5
4AC8
330
1F
100
AcDbEntity
  8
0
100
AcDbLine
 10
11.14797505501647
 20
7.241218373755113
 30
0.0
 11
11.14902613450006
 21
7.240881867955689
 31
0.0
  0
LINE
  5
4AC9
330
1F
100
AcDbEntity
  8
0
100
AcDbLine
 10
11.14998421885154
 20
7.240237304633151
 30
0.0
 11
11.15078401620566
 21
7.239328609712739
 31
0.0
  0
LINE
  5
4ACA
330
1F
100
AcDbEntity
  8
0
100
AcDbLine
 10
11.14944118800036
 20
7.231824903796475
 30
0.0
 11
11.14842046228614
 21
7.231499054017742
 31
0.0
  0
LINE
  5
4ACB
330
1F
100
AcDbEntity
  8
0
100
AcDbLine
 10
11.15034063337234
 20
7.232459913192226
 30
0.0
 11
11.14944118800036
 21
7.231824903796475
 31
0.0
  0
LINE
  5
4ACC
330
1F
100
AcDbEntity
  8
0
100
AcDbLine
 10
11.15154294248343
 20
7.23446619186296
 30
0.0
 11
11.15105750268639
 21
7.233360807364046
 31
0.0
  0
LINE
  5
4ACD
330
1F
100
AcDbEntity
  8
0
100
AcDbLine
 10
11.15176387084352
 20
7.235700736562105
 30
0.0
 11
11.15154294248343
 21
7.23446619186296
 31
0.0
  0
LINE
  5
4ACE
330
1F
100
AcDbEntity
  8
0
100
AcDbLine
 10
11.1513710216945
 20
7.238217709251639
 30
0.0
 11
11.15170523186403
 21
7.236980309280365
 31
0.0
  0
LINE
  5
4ACF
330
1F
100
AcDbEntity
  8
0
100
AcDbLine
 10
11.15078401620566
 20
7.239328609712739
 30
0.0
 11
11.1513710216945
 21
7.238217709251639
 31
0.0
  0
LINE
  5
4AD0
330
1F
100
AcDbEntity
  8
0
100
AcDbLine
 10
11.14902613450006
 20
7.240881867955689
 30
0.0
 11
11.14998421885154
 21
7.240237304633151
 31
0.0
  0
LINE
  5
4AD1
330
1F
100
AcDbEntity
  8
0
100
AcDbLine
 10
11.14690260973061
 20
7.2412238897173
 30
0.0
 11
11.14797505501647
 21
7.241218373755113
 31
0.0
  0
LINE
  5
4AD2
330
1F
100
AcDbEntity
  8
0
100
AcDbLine
 10
10.97155357080471
 20
6.772834697784016
 30
0.0
 11
10.97414176125572
 21
6.773175439521107
 31
0.0
  0
LINE
  5
4AD3
330
1F
100
AcDbEntity
  8
0
100
AcDbLine
 10
10.93856318974792
 20
6.765334697784052
 30
0.0
 11
10.93769537781703
 21
6.767094446298582
 31
0.0
  0
LINE
  5
4AD4
330
1F
100
AcDbEntity
  8
0
100
AcDbLine
 10
10.96289331676685
 20
6.777834697784012
 30
0.0
 11
10.96448250299283
 21
6.775763629972143
 31
0.0
  0
LINE
  5
4AD5
330
1F
100
AcDbEntity
  8
0
100
AcDbLine
 10
10.96655357080469
 20
6.791494951821842
 30
0.0
 11
10.96896538035367
 21
6.792493956046907
 31
0.0
  0
LINE
  5
4AD6
330
1F
100
AcDbEntity
  8
0
100
AcDbLine
 10
10.93965327070032
 20
6.76370327634893
 30
0.0
 11
10.93856318974792
 21
6.765334697784052
 31
0.0
  0
LINE
  5
4AD7
330
1F
100
AcDbEntity
  8
0
100
AcDbLine
 10
11.17905357080469
 20
7.255825078840839
 30
0.0
 11
11.17729382229017
 21
7.256692890771741
 31
0.0
  0
LINE
  5
4AD8
330
1F
100
AcDbEntity
  8
0
100
AcDbLine
 10
11.01155357080469
 20
6.757834697784058
 30
0.0
 11
10.95155357080469
 21
6.757834697784058
 31
0.0
  0
LINE
  5
4AD9
330
1F
100
AcDbEntity
  8
0
100
AcDbLine
 10
11.18068499223982
 20
7.254734997888444
 30
0.0
 11
11.18216017252249
 21
7.253441299501869
 31
0.0
  0
LINE
  5
4ADA
330
1F
100
AcDbEntity
  8
0
100
AcDbLine
 10
10.97155357080469
 20
6.792834697783998
 30
0.0
 11
10.97414176125572
 21
6.792493956046907
 31
0.0
  0
LINE
  5
4ADB
330
1F
100
AcDbEntity
  8
0
100
AcDbLine
 10
10.94094696908689
 20
6.762228096066248
 30
0.0
 11
10.93965327070032
 21
6.76370327634893
 31
0.0
  0
LINE
  5
4ADC
330
1F
100
AcDbEntity
  8
0
100
AcDbLine
 10
10.98021382484254
 20
6.777834697784012
 30
0.0
 11
10.97862463861656
 21
6.775763629972143
 31
0.0
  0
LINE
  5
4ADD
330
1F
100
AcDbEntity
  8
0
100
AcDbLine
 10
11.17729382229017
 20
7.256692890771741
 30
0.0
 11
11.17543585648123
 21
7.257323585178394
 31
0.0
  0
LINE
  5
4ADE
330
1F
100
AcDbEntity
  8
0
100
AcDbLine
 10
10.94405357080469
 20
6.759844316727278
 30
0.0
 11
10.94242214936956
 21
6.760934397679701
 31
0.0
  0
LINE
  5
4ADF
330
1F
100
AcDbEntity
  8
0
100
AcDbLine
 10
11.18345387090906
 20
7.251966119219186
 30
0.0
 11
11.18454395186146
 21
7.250334697784065
 31
0.0
  0
LINE
  5
4AE0
330
1F
100
AcDbEntity
  8
0
100
AcDbLine
 10
10.96155357080469
 20
6.782834697784007
 30
0.0
 11
10.9618943125418
 21
6.780246507332972
 31
0.0
  0
LINE
  5
4AE1
330
1F
100
AcDbEntity
  8
0
100
AcDbLine
 10
10.96289331676685
 20
6.787834697784003
 30
0.0
 11
10.9618943125418
 21
6.785422888235043
 31
0.0
  0
LINE
  5
4AE2
330
1F
100
AcDbEntity
  8
0
100
AcDbLine
 10
11.15862463861656
 20
7.239905765595974
 30
0.0
 11
11.16021382484253
 21
7.237834697784105
 31
0.0
  0
LINE
  5
4AE3
330
1F
100
AcDbEntity
  8
0
100
AcDbLine
 10
10.93769537781703
 20
6.767094446298582
 30
0.0
 11
10.93706468341036
 21
6.76895241210752
 31
0.0
  0
LINE
  5
4AE4
330
1F
100
AcDbEntity
  8
0
100
AcDbLine
 10
10.9618943125418
 20
6.785422888235043
 30
0.0
 11
10.96155357080469
 21
6.782834697784007
 31
0.0
  0
LINE
  5
4AE5
330
1F
100
AcDbEntity
  8
0
100
AcDbLine
 10
10.97155357080471
 20
6.772834697784016
 30
0.0
 11
10.96896538035367
 21
6.773175439521107
 31
0.0
  0
LINE
  5
4AE6
330
1F
100
AcDbEntity
  8
0
100
AcDbLine
 10
11.16121282906758
 20
7.230246507333074
 30
0.0
 11
11.16021382484253
 21
7.227834697784114
 31
0.0
  0
LINE
  5
4AE7
330
1F
100
AcDbEntity
  8
0
100
AcDbLine
 10
11.15655357080469
 20
7.224174443746246
 30
0.0
 11
11.15414176125572
 21
7.223175439521209
 31
0.0
  0
LINE
  5
4AE8
330
1F
100
AcDbEntity
  8
0
100
AcDbLine
 10
10.94767128512816
 20
6.758345810389723
 30
0.0
 11
10.94959567792139
 21
6.757963024863439
 31
0.0
  0
LINE
  5
4AE9
330
1F
100
AcDbEntity
  8
0
100
AcDbLine
 10
10.93668189788409
 20
6.770876804900748
 30
0.0
 11
10.9365535708047
 21
6.772834697784073
 31
0.0
  0
LINE
  5
4AEA
330
1F
100
AcDbEntity
  8
0
100
AcDbLine
 10
10.93706468341036
 20
6.76895241210752
 30
0.0
 11
10.93668189788409
 21
6.770876804900748
 31
0.0
  0
LINE
  5
4AEB
330
1F
100
AcDbEntity
  8
0
100
AcDbLine
 10
10.96655357080469
 20
6.774174443746172
 30
0.0
 11
10.96448250299283
 21
6.775763629972143
 31
0.0
  0
LINE
  5
4AEC
330
1F
100
AcDbEntity
  8
0
100
AcDbLine
 10
10.97655357080469
 20
6.774174443746172
 30
0.0
 11
10.97862463861656
 21
6.775763629972143
 31
0.0
  0
LINE
  5
4AED
330
1F
100
AcDbEntity
  8
0
100
AcDbLine
 10
10.97862463861656
 20
6.789905765595872
 30
0.0
 11
10.97655357080469
 21
6.791494951821842
 31
0.0
  0
LINE
  5
4AEE
330
1F
100
AcDbEntity
  8
0
100
AcDbLine
 10
10.96448250299283
 20
6.789905765595872
 30
0.0
 11
10.96289331676685
 21
6.787834697784003
 31
0.0
  0
LINE
  5
4AEF
330
1F
100
AcDbEntity
  8
0
100
AcDbLine
 10
11.17905357080469
 20
7.255825078840839
 30
0.0
 11
11.18068499223982
 21
7.254734997888444
 31
0.0
  0
LINE
  5
4AF0
330
1F
100
AcDbEntity
  8
0
100
AcDbLine
 10
11.16155357080469
 20
7.23283469778411
 30
0.0
 11
11.16121282906758
 21
7.235422888235117
 31
0.0
  0
LINE
  5
4AF1
330
1F
100
AcDbEntity
  8
0
100
AcDbLine
 10
10.96896538035367
 20
6.792493956046907
 30
0.0
 11
10.97155357080469
 21
6.792834697783998
 31
0.0
  0
LINE
  5
4AF2
330
1F
100
AcDbEntity
  8
0
100
AcDbLine
 10
10.97414176125572
 20
6.773175439521107
 30
0.0
 11
10.97655357080469
 21
6.774174443746172
 31
0.0
  0
LINE
  5
4AF3
330
1F
100
AcDbEntity
  8
0
100
AcDbLine
 10
10.98021382484254
 20
6.777834697784012
 30
0.0
 11
10.9804890102048
 21
6.778499054017739
 31
0.0
  0
LINE
  5
4AF4
330
1F
100
AcDbEntity
  8
0
100
AcDbLine
 10
10.94405357080469
 20
6.759844316727278
 30
0.0
 11
10.94581331931921
 21
6.758976504796375
 31
0.0
  0
LINE
  5
4AF5
330
1F
100
AcDbEntity
  8
0
100
AcDbLine
 10
11.17543585648123
 20
7.257323585178394
 30
0.0
 11
11.17351146368799
 21
7.257706370704678
 31
0.0
  0
LINE
  5
4AF6
330
1F
100
AcDbEntity
  8
0
100
AcDbLine
 10
10.96448250299283
 20
6.789905765595872
 30
0.0
 11
10.96655357080469
 21
6.791494951821842
 31
0.0
  0
LINE
  5
4AF7
330
1F
100
AcDbEntity
  8
0
100
AcDbLine
 10
11.14448250299282
 20
7.225763629972245
 30
0.0
 11
11.14289331676685
 21
7.227834697784114
 31
0.0
  0
LINE
  5
4AF8
330
1F
100
AcDbEntity
  8
0
100
AcDbLine
 10
11.14896538035366
 20
7.223175439521209
 30
0.0
 11
11.14655357080469
 21
7.224174443746246
 31
0.0
  0
LINE
  5
4AF9
330
1F
100
AcDbEntity
  8
0
100
AcDbLine
 10
11.15155357080469
 20
7.22283469778409
 30
0.0
 11
11.14896538035366
 21
7.223175439521209
 31
0.0
  0
LINE
  5
4AFA
330
1F
100
AcDbEntity
  8
0
100
AcDbLine
 10
11.16021382484253
 20
7.227834697784114
 30
0.0
 11
11.15862463861656
 21
7.225763629972245
 31
0.0
  0
LINE
  5
4AFB
330
1F
100
AcDbEntity
  8
0
100
AcDbLine
 10
11.14655357080469
 20
7.224174443746246
 30
0.0
 11
11.14448250299282
 21
7.225763629972245
 31
0.0
  0
LINE
  5
4AFC
330
1F
100
AcDbEntity
  8
0
100
AcDbLine
 10
10.96289331676685
 20
6.777834697784012
 30
0.0
 11
10.9618943125418
 21
6.780246507332972
 31
0.0
  0
LINE
  5
4AFD
330
1F
100
AcDbEntity
  8
0
100
AcDbLine
 10
10.97862463861656
 20
6.789905765595872
 30
0.0
 11
10.97991518736861
 21
6.788223889717325
 31
0.0
  0
LINE
  5
4AFE
330
1F
100
AcDbEntity
  8
0
100
AcDbLine
 10
11.15862463861656
 20
7.225763629972245
 30
0.0
 11
11.15655357080469
 21
7.224174443746246
 31
0.0
  0
LINE
  5
4AFF
330
1F
100
AcDbEntity
  8
0
100
AcDbLine
 10
10.94581331931921
 20
6.758976504796375
 30
0.0
 11
10.94767128512816
 21
6.758345810389723
 31
0.0
  0
LINE
  5
4B00
330
1F
100
AcDbEntity
  8
0
100
AcDbLine
 10
11.16155357080469
 20
7.23283469778411
 30
0.0
 11
11.16121282906758
 21
7.230246507333074
 31
0.0
  0
LINE
  5
4B01
330
1F
100
AcDbEntity
  8
0
100
AcDbLine
 10
11.14896538035366
 20
7.242493956046981
 30
0.0
 11
11.14655357080469
 21
7.241494951821945
 31
0.0
  0
LINE
  5
4B02
330
1F
100
AcDbEntity
  8
0
100
AcDbLine
 10
11.17351146368799
 20
7.257706370704678
 30
0.0
 11
11.17155357080469
 21
7.257834697784058
 31
0.0
  0
LINE
  5
4B03
330
1F
100
AcDbEntity
  8
0
100
AcDbLine
 10
10.94242214936956
 20
6.760934397679701
 30
0.0
 11
10.94094696908689
 21
6.762228096066248
 31
0.0
  0
LINE
  5
4B04
330
1F
100
AcDbEntity
  8
0
100
AcDbLine
 10
10.97414176125572
 20
6.792493956046907
 30
0.0
 11
10.97655357080469
 21
6.791494951821842
 31
0.0
  0
LINE
  5
4B05
330
1F
100
AcDbEntity
  8
0
100
AcDbLine
 10
11.18454395186146
 20
7.250334697784065
 30
0.0
 11
11.18541176379236
 21
7.248574949269535
 31
0.0
  0
LINE
  5
4B06
330
1F
100
AcDbEntity
  8
0
100
AcDbLine
 10
11.11155357080469
 20
7.257834697784058
 30
0.0
 11
11.17155357080469
 21
7.257834697784058
 31
0.0
  0
LINE
  5
4B07
330
1F
100
AcDbEntity
  8
0
100
AcDbLine
 10
11.15414176125572
 20
7.223175439521209
 30
0.0
 11
11.15155357080469
 21
7.22283469778409
 31
0.0
  0
LINE
  5
4B08
330
1F
100
AcDbEntity
  8
0
100
AcDbLine
 10
11.18604245819903
 20
7.246716983460597
 30
0.0
 11
11.1864252437253
 21
7.244792590667369
 31
0.0
  0
LINE
  5
4B09
330
1F
100
AcDbEntity
  8
0
100
AcDbLine
 10
11.18216017252249
 20
7.253441299501869
 30
0.0
 11
11.18345387090906
 21
7.251966119219186
 31
0.0
  0
LINE
  5
4B0A
330
1F
100
AcDbEntity
  8
0
100
AcDbLine
 10
11.1864252437253
 20
7.244792590667369
 30
0.0
 11
11.18655357080469
 21
7.242834697784044
 31
0.0
  0
LINE
  5
4B0B
330
1F
100
AcDbEntity
  8
0
100
AcDbLine
 10
10.96896538035367
 20
6.773175439521107
 30
0.0
 11
10.96655357080469
 21
6.774174443746172
 31
0.0
  0
LINE
  5
4B0C
330
1F
100
AcDbEntity
  8
0
100
AcDbLine
 10
11.15414176125571
 20
7.242493956046981
 30
0.0
 11
11.15655357080469
 21
7.241494951821945
 31
0.0
  0
LINE
  5
4B0D
330
1F
100
AcDbEntity
  8
0
100
AcDbLine
 10
11.15655357080469
 20
7.241494951821945
 30
0.0
 11
11.15862463861656
 21
7.239905765595974
 31
0.0
  0
LINE
  5
4B0E
330
1F
100
AcDbEntity
  8
0
100
AcDbLine
 10
11.16021382484253
 20
7.237834697784105
 30
0.0
 11
11.16121282906758
 21
7.235422888235117
 31
0.0
  0
LINE
  5
4B0F
330
1F
100
AcDbEntity
  8
0
100
AcDbLine
 10
11.14620859802189
 20
7.241230244895572
 30
0.0
 11
11.14655357080469
 21
7.241494951821945
 31
0.0
  0
LINE
  5
4B10
330
1F
100
AcDbEntity
  8
0
100
AcDbLine
 10
10.94959567792139
 20
6.757963024863439
 30
0.0
 11
10.95155357080469
 21
6.757834697784058
 31
0.0
  0
LINE
  5
4B11
330
1F
100
AcDbEntity
  8
0
100
AcDbLine
 10
11.18541176379236
 20
7.248574949269535
 30
0.0
 11
11.18604245819903
 21
7.246716983460597
 31
0.0
  0
LINE
  5
4B12
330
1F
100
AcDbEntity
  8
0
100
AcDbLine
 10
11.1418943125418
 20
7.230246507333074
 30
0.0
 11
11.14172941164242
 21
7.231499054017742
 31
0.0
  0
LINE
  5
4B13
330
1F
100
AcDbEntity
  8
0
100
AcDbLine
 10
11.14896538035366
 20
7.242493956046981
 30
0.0
 11
11.15155357080468
 21
7.2428346977841
 31
0.0
  0
LINE
  5
4B14
330
1F
100
AcDbEntity
  8
0
100
AcDbLine
 10
11.14289331676685
 20
7.227834697784114
 30
0.0
 11
11.1418943125418
 21
7.230246507333074
 31
0.0
  0
LINE
  5
4B15
330
1F
100
AcDbEntity
  8
0
100
AcDbLine
 10
11.15155357080468
 20
7.2428346977841
 30
0.0
 11
11.15414176125571
 21
7.242493956046981
 31
0.0
  0
LINE
  5
4B16
330
1F
100
AcDbEntity
  8
0
100
AcDbLine
 10
10.972049638923
 20
6.780360807364044
 30
0.0
 11
10.97276650823705
 21
6.779459913192223
 31
0.0
  0
LINE
  5
4B17
330
1F
100
AcDbEntity
  8
0
100
AcDbLine
 10
10.97156419912596
 20
6.781466191862957
 30
0.0
 11
10.972049638923
 21
6.780360807364044
 31
0.0
  0
LINE
  5
4B18
330
1F
100
AcDbEntity
  8
0
100
AcDbLine
 10
10.97140190974536
 20
6.783980309280362
 30
0.0
 11
10.97134327076586
 21
6.782700736562102
 31
0.0
  0
LINE
  5
4B19
330
1F
100
AcDbEntity
  8
0
100
AcDbLine
 10
10.97173611991489
 20
6.785217709251636
 30
0.0
 11
10.97140190974536
 21
6.783980309280362
 31
0.0
  0
LINE
  5
4B1A
330
1F
100
AcDbEntity
  8
0
100
AcDbLine
 10
10.97312292275785
 20
6.787237304633148
 30
0.0
 11
10.97232312540372
 21
6.786328609712736
 31
0.0
  0
LINE
  5
4B1B
330
1F
100
AcDbEntity
  8
0
100
AcDbLine
 10
10.97408100710932
 20
6.787881867955686
 30
0.0
 11
10.97312292275785
 21
6.787237304633148
 31
0.0
  0
LINE
  5
4B1C
330
1F
100
AcDbEntity
  8
0
100
AcDbLine
 10
10.97513208659291
 20
6.78821837375511
 30
0.0
 11
10.97408100710932
 21
6.787881867955686
 31
0.0
  0
LINE
  5
4B1D
330
1F
100
AcDbEntity
  8
0
100
AcDbLine
 10
10.97620453187877
 20
6.788223889717325
 30
0.0
 11
10.97513208659291
 21
6.78821837375511
 31
0.0
  0
LINE
  5
4B1E
330
1F
100
AcDbEntity
  8
0
100
AcDbLine
 10
11.11155357080469
 20
7.231499054017742
 30
0.0
 11
11.14172941164242
 21
7.231499054017742
 31
0.0
  0
LINE
  5
4B1F
330
1F
100
AcDbEntity
  8
0
100
AcDbLine
 10
11.14172941164242
 20
7.231499054017742
 30
0.0
 11
11.14842046228614
 21
7.231499054017742
 31
0.0
  0
LINE
  5
4B20
330
1F
100
AcDbEntity
  8
0
100
AcDbLine
 10
11.11155357080469
 20
7.2412238897173
 30
0.0
 11
11.14620859802189
 21
7.241230244895572
 31
0.0
  0
LINE
  5
4B21
330
1F
100
AcDbEntity
  8
0
100
AcDbLine
 10
11.14620859802189
 20
7.241230244895572
 30
0.0
 11
11.14690260973061
 21
7.2412238897173
 31
0.0
  0
LINE
  5
4B22
330
1F
100
AcDbEntity
  8
0
100
AcDbLine
 10
11.01155357080469
 20
6.778499054017739
 30
0.0
 11
10.9804890102048
 21
6.778499054017739
 31
0.0
  0
LINE
  5
4B23
330
1F
100
AcDbEntity
  8
0
100
AcDbLine
 10
10.9804890102048
 20
6.778499054017739
 30
0.0
 11
10.97468667932325
 21
6.778499054017739
 31
0.0
  0
LINE
  5
4B24
330
1F
100
AcDbEntity
  8
0
100
AcDbLine
 10
11.01155357080469
 20
6.788223889717325
 30
0.0
 11
10.97991518736861
 21
6.788223889717325
 31
0.0
  0
LINE
  5
4B25
330
1F
100
AcDbEntity
  8
0
100
AcDbLine
 10
10.97991518736861
 20
6.788223889717325
 30
0.0
 11
10.97620453187877
 21
6.788223889717325
 31
0.0
  0
LINE
  5
4B26
330
1F
100
AcDbEntity
  8
0
100
AcDbLine
 10
11.11155357080469
 20
7.257834697784058
 30
0.0
 11
11.11155357080469
 21
7.2412238897173
 31
0.0
  0
LINE
  5
4B27
330
1F
100
AcDbEntity
  8
0
100
AcDbLine
 10
11.11155357080469
 20
7.2412238897173
 30
0.0
 11
11.11155357080469
 21
7.231499054017742
 31
0.0
  0
LINE
  5
4B28
330
1F
100
AcDbEntity
  8
0
100
AcDbLine
 10
11.01155357080469
 20
6.778499054017739
 30
0.0
 11
11.01155357080469
 21
6.757834697784058
 31
0.0
  0
LINE
  5
4B29
330
1F
100
AcDbEntity
  8
0
100
AcDbLine
 10
11.11155357080469
 20
7.231499054017742
 30
0.0
 11
11.11155357080469
 21
6.788223889717325
 31
0.0
  0
LINE
  5
4B2A
330
1F
100
AcDbEntity
  8
0
100
AcDbLine
 10
11.01155357080469
 20
6.788223889717325
 30
0.0
 11
11.01155357080469
 21
6.778499054017739
 31
0.0
  0
LINE
  5
4B2B
330
1F
100
AcDbEntity
  8
0
100
AcDbLine
 10
11.18655357080469
 20
7.242834697784044
 30
0.0
 11
11.18655357080469
 21
6.772834697784073
 31
0.0
  0
LINE
  5
4B2C
330
1F
100
AcDbEntity
  8
0
100
AcDbLine
 10
11.15105750268639
 20
6.784274892088312
 30
0.0
 11
11.15034063337234
 21
6.785175786260161
 31
0.0
  0
LINE
  5
4B2D
330
1F
100
AcDbEntity
  8
0
100
AcDbLine
 10
10.97276650823705
 20
7.238175786260136
 30
0.0
 11
10.97366595360903
 21
7.238810795655886
 31
0.0
  0
LINE
  5
4B2E
330
1F
100
AcDbEntity
  8
0
100
AcDbLine
 10
11.15170523186402
 20
6.780655390171993
 30
0.0
 11
11.15176387084352
 21
6.781934962890282
 31
0.0
  0
LINE
  5
4B2F
330
1F
100
AcDbEntity
  8
0
100
AcDbLine
 10
10.97232312540372
 20
7.231307089739622
 30
0.0
 11
10.97173611991489
 21
7.232417990200751
 31
0.0
  0
LINE
  5
4B30
330
1F
100
AcDbEntity
  8
0
100
AcDbLine
 10
10.97134327076586
 20
7.234934962890285
 30
0.0
 11
10.97156419912596
 21
7.236169507589401
 31
0.0
  0
LINE
  5
4B31
330
1F
100
AcDbEntity
  8
0
100
AcDbLine
 10
10.97366595360903
 20
7.238810795655886
 30
0.0
 11
10.97468667932325
 21
7.239136645434619
 31
0.0
  0
LINE
  5
4B32
330
1F
100
AcDbEntity
  8
0
100
AcDbLine
 10
11.14797505501647
 20
6.776417325697273
 30
0.0
 11
11.14902613450006
 21
6.776753831496698
 31
0.0
  0
LINE
  5
4B33
330
1F
100
AcDbEntity
  8
0
100
AcDbLine
 10
11.14998421885153
 20
6.777398394819236
 30
0.0
 11
11.15078401620566
 21
6.77830708973962
 31
0.0
  0
LINE
  5
4B34
330
1F
100
AcDbEntity
  8
0
100
AcDbLine
 10
11.14944118800036
 20
6.785810795655883
 30
0.0
 11
11.14842046228613
 21
6.786136645434616
 31
0.0
  0
LINE
  5
4B35
330
1F
100
AcDbEntity
  8
0
100
AcDbLine
 10
11.15034063337234
 20
6.785175786260161
 30
0.0
 11
11.14944118800036
 21
6.785810795655883
 31
0.0
  0
LINE
  5
4B36
330
1F
100
AcDbEntity
  8
0
100
AcDbLine
 10
11.15154294248343
 20
6.783169507589398
 30
0.0
 11
11.15105750268639
 21
6.784274892088312
 31
0.0
  0
LINE
  5
4B37
330
1F
100
AcDbEntity
  8
0
100
AcDbLine
 10
11.15176387084352
 20
6.781934962890282
 30
0.0
 11
11.15154294248343
 21
6.783169507589398
 31
0.0
  0
LINE
  5
4B38
330
1F
100
AcDbEntity
  8
0
100
AcDbLine
 10
11.15137102169449
 20
6.779417990200748
 30
0.0
 11
11.15170523186402
 21
6.780655390171993
 31
0.0
  0
LINE
  5
4B39
330
1F
100
AcDbEntity
  8
0
100
AcDbLine
 10
11.15078401620566
 20
6.77830708973962
 30
0.0
 11
11.15137102169449
 21
6.779417990200748
 31
0.0
  0
LINE
  5
4B3A
330
1F
100
AcDbEntity
  8
0
100
AcDbLine
 10
11.14902613450006
 20
6.776753831496698
 30
0.0
 11
11.14998421885153
 21
6.777398394819236
 31
0.0
  0
LINE
  5
4B3B
330
1F
100
AcDbEntity
  8
0
100
AcDbLine
 10
11.14690260973061
 20
6.776411809735058
 30
0.0
 11
11.14797505501647
 21
6.776417325697273
 31
0.0
  0
LINE
  5
4B3C
330
1F
100
AcDbEntity
  8
0
100
AcDbLine
 10
10.97155357080471
 20
7.244801001668371
 30
0.0
 11
10.97414176125572
 21
7.244460259931251
 31
0.0
  0
LINE
  5
4B3D
330
1F
100
AcDbEntity
  8
0
100
AcDbLine
 10
10.93856318974793
 20
7.252301001668307
 30
0.0
 11
10.93769537781703
 21
7.250541253153805
 31
0.0
  0
LINE
  5
4B3E
330
1F
100
AcDbEntity
  8
0
100
AcDbLine
 10
10.96289331676685
 20
7.239801001668375
 30
0.0
 11
10.96448250299283
 21
7.241872069480216
 31
0.0
  0
LINE
  5
4B3F
330
1F
100
AcDbEntity
  8
0
100
AcDbLine
 10
10.96655357080469
 20
7.226140747630516
 30
0.0
 11
10.96896538035367
 21
7.22514174340548
 31
0.0
  0
LINE
  5
4B40
330
1F
100
AcDbEntity
  8
0
100
AcDbLine
 10
10.93965327070033
 20
7.253932423103456
 30
0.0
 11
10.93856318974793
 21
7.252301001668307
 31
0.0
  0
LINE
  5
4B41
330
1F
100
AcDbEntity
  8
0
100
AcDbLine
 10
11.17905357080469
 20
6.761810620611548
 30
0.0
 11
11.17729382229017
 21
6.760942808680646
 31
0.0
  0
LINE
  5
4B42
330
1F
100
AcDbEntity
  8
0
100
AcDbLine
 10
11.01155357080469
 20
7.259801001668328
 30
0.0
 11
10.9515535708047
 21
7.259801001668328
 31
0.0
  0
LINE
  5
4B43
330
1F
100
AcDbEntity
  8
0
100
AcDbLine
 10
11.18068499223982
 20
6.762900701563943
 30
0.0
 11
11.18216017252249
 21
6.764194399950518
 31
0.0
  0
LINE
  5
4B44
330
1F
100
AcDbEntity
  8
0
100
AcDbLine
 10
10.97155357080469
 20
7.22480100166836
 30
0.0
 11
10.97414176125572
 21
7.22514174340548
 31
0.0
  0
LINE
  5
4B45
330
1F
100
AcDbEntity
  8
0
100
AcDbLine
 10
10.94094696908689
 20
7.255407603386139
 30
0.0
 11
10.93965327070033
 21
7.253932423103456
 31
0.0
  0
LINE
  5
4B46
330
1F
100
AcDbEntity
  8
0
100
AcDbLine
 10
10.98021382484254
 20
7.239801001668375
 30
0.0
 11
10.97862463861656
 21
7.241872069480216
 31
0.0
  0
LINE
  5
4B47
330
1F
100
AcDbEntity
  8
0
100
AcDbLine
 10
11.17729382229017
 20
6.760942808680646
 30
0.0
 11
11.17543585648123
 21
6.760312114273965
 31
0.0
  0
LINE
  5
4B48
330
1F
100
AcDbEntity
  8
0
100
AcDbLine
 10
10.9440535708047
 20
7.257791382725081
 30
0.0
 11
10.94242214936956
 21
7.256701301772686
 31
0.0
  0
LINE
  5
4B49
330
1F
100
AcDbEntity
  8
0
100
AcDbLine
 10
11.18345387090906
 20
6.765669580233172
 30
0.0
 11
11.18454395186145
 21
6.767301001668322
 31
0.0
  0
LINE
  5
4B4A
330
1F
100
AcDbEntity
  8
0
100
AcDbLine
 10
10.96155357080469
 20
7.234801001668351
 30
0.0
 11
10.96189431254181
 21
7.237389192119387
 31
0.0
  0
LINE
  5
4B4B
330
1F
100
AcDbEntity
  8
0
100
AcDbLine
 10
10.96289331676685
 20
7.229801001668356
 30
0.0
 11
10.96189431254181
 21
7.232212811217344
 31
0.0
  0
LINE
  5
4B4C
330
1F
100
AcDbEntity
  8
0
100
AcDbLine
 10
11.15862463861656
 20
6.777729933856413
 30
0.0
 11
11.16021382484253
 21
6.779801001668282
 31
0.0
  0
LINE
  5
4B4D
330
1F
100
AcDbEntity
  8
0
100
AcDbLine
 10
10.93769537781703
 20
7.250541253153805
 30
0.0
 11
10.93706468341036
 21
7.248683287344867
 31
0.0
  0
LINE
  5
4B4E
330
1F
100
AcDbEntity
  8
0
100
AcDbLine
 10
10.96189431254181
 20
7.232212811217344
 30
0.0
 11
10.96155357080469
 21
7.234801001668351
 31
0.0
  0
LINE
  5
4B4F
330
1F
100
AcDbEntity
  8
0
100
AcDbLine
 10
10.97155357080471
 20
7.244801001668371
 30
0.0
 11
10.96896538035367
 21
7.244460259931251
 31
0.0
  0
LINE
  5
4B50
330
1F
100
AcDbEntity
  8
0
100
AcDbLine
 10
11.16121282906758
 20
6.787389192119285
 30
0.0
 11
11.16021382484253
 21
6.789801001668273
 31
0.0
  0
LINE
  5
4B51
330
1F
100
AcDbEntity
  8
0
100
AcDbLine
 10
11.15655357080469
 20
6.793461255706112
 30
0.0
 11
11.15414176125571
 21
6.794460259931149
 31
0.0
  0
LINE
  5
4B52
330
1F
100
AcDbEntity
  8
0
100
AcDbLine
 10
10.94767128512816
 20
7.259289889062664
 30
0.0
 11
10.94959567792139
 21
7.259672674588919
 31
0.0
  0
LINE
  5
4B53
330
1F
100
AcDbEntity
  8
0
100
AcDbLine
 10
10.93668189788409
 20
7.246758894551611
 30
0.0
 11
10.9365535708047
 21
7.244801001668314
 31
0.0
  0
LINE
  5
4B54
330
1F
100
AcDbEntity
  8
0
100
AcDbLine
 10
10.93706468341036
 20
7.248683287344867
 30
0.0
 11
10.93668189788409
 21
7.246758894551611
 31
0.0
  0
LINE
  5
4B55
330
1F
100
AcDbEntity
  8
0
100
AcDbLine
 10
10.9665535708047
 20
7.243461255706215
 30
0.0
 11
10.96448250299283
 21
7.241872069480216
 31
0.0
  0
LINE
  5
4B56
330
1F
100
AcDbEntity
  8
0
100
AcDbLine
 10
10.97655357080469
 20
7.243461255706215
 30
0.0
 11
10.97862463861656
 21
7.241872069480216
 31
0.0
  0
LINE
  5
4B57
330
1F
100
AcDbEntity
  8
0
100
AcDbLine
 10
10.97862463861656
 20
7.227729933856487
 30
0.0
 11
10.97655357080469
 21
7.226140747630516
 31
0.0
  0
LINE
  5
4B58
330
1F
100
AcDbEntity
  8
0
100
AcDbLine
 10
10.96448250299283
 20
7.227729933856487
 30
0.0
 11
10.96289331676685
 21
7.229801001668356
 31
0.0
  0
LINE
  5
4B59
330
1F
100
AcDbEntity
  8
0
100
AcDbLine
 10
11.17905357080469
 20
6.761810620611548
 30
0.0
 11
11.18068499223982
 21
6.762900701563943
 31
0.0
  0
LINE
  5
4B5A
330
1F
100
AcDbEntity
  8
0
100
AcDbLine
 10
11.16155357080469
 20
6.784801001668277
 30
0.0
 11
11.16121282906758
 21
6.782212811217242
 31
0.0
  0
LINE
  5
4B5B
330
1F
100
AcDbEntity
  8
0
100
AcDbLine
 10
10.96896538035367
 20
7.22514174340548
 30
0.0
 11
10.97155357080469
 21
7.22480100166836
 31
0.0
  0
LINE
  5
4B5C
330
1F
100
AcDbEntity
  8
0
100
AcDbLine
 10
10.97414176125572
 20
7.244460259931251
 30
0.0
 11
10.97655357080469
 21
7.243461255706215
 31
0.0
  0
LINE
  5
4B5D
330
1F
100
AcDbEntity
  8
0
100
AcDbLine
 10
10.98021382484254
 20
7.239801001668375
 30
0.0
 11
10.9804890102048
 21
7.239136645434619
 31
0.0
  0
LINE
  5
4B5E
330
1F
100
AcDbEntity
  8
0
100
AcDbLine
 10
10.9440535708047
 20
7.257791382725081
 30
0.0
 11
10.94581331931922
 21
7.258659194655983
 31
0.0
  0
LINE
  5
4B5F
330
1F
100
AcDbEntity
  8
0
100
AcDbLine
 10
11.17543585648123
 20
6.760312114273965
 30
0.0
 11
11.17351146368799
 21
6.759929328747709
 31
0.0
  0
LINE
  5
4B60
330
1F
100
AcDbEntity
  8
0
100
AcDbLine
 10
10.96448250299283
 20
7.227729933856487
 30
0.0
 11
10.96655357080469
 21
7.226140747630516
 31
0.0
  0
LINE
  5
4B61
330
1F
100
AcDbEntity
  8
0
100
AcDbLine
 10
11.14448250299282
 20
6.791872069480142
 30
0.0
 11
11.14289331676685
 21
6.789801001668273
 31
0.0
  0
LINE
  5
4B62
330
1F
100
AcDbEntity
  8
0
100
AcDbLine
 10
11.14896538035366
 20
6.794460259931149
 30
0.0
 11
11.14655357080469
 21
6.793461255706112
 31
0.0
  0
LINE
  5
4B63
330
1F
100
AcDbEntity
  8
0
100
AcDbLine
 10
11.15155357080469
 20
6.794801001668268
 30
0.0
 11
11.14896538035366
 21
6.794460259931149
 31
0.0
  0
LINE
  5
4B64
330
1F
100
AcDbEntity
  8
0
100
AcDbLine
 10
11.16021382484253
 20
6.789801001668273
 30
0.0
 11
11.15862463861656
 21
6.791872069480142
 31
0.0
  0
LINE
  5
4B65
330
1F
100
AcDbEntity
  8
0
100
AcDbLine
 10
11.14655357080469
 20
6.793461255706112
 30
0.0
 11
11.14448250299282
 21
6.791872069480142
 31
0.0
  0
LINE
  5
4B66
330
1F
100
AcDbEntity
  8
0
100
AcDbLine
 10
10.96289331676685
 20
7.239801001668375
 30
0.0
 11
10.96189431254181
 21
7.237389192119387
 31
0.0
  0
LINE
  5
4B67
330
1F
100
AcDbEntity
  8
0
100
AcDbLine
 10
10.97862463861656
 20
7.227729933856487
 30
0.0
 11
10.97991518736861
 21
7.229411809735061
 31
0.0
  0
LINE
  5
4B68
330
1F
100
AcDbEntity
  8
0
100
AcDbLine
 10
11.15862463861656
 20
6.791872069480142
 30
0.0
 11
11.15655357080469
 21
6.793461255706112
 31
0.0
  0
LINE
  5
4B69
330
1F
100
AcDbEntity
  8
0
100
AcDbLine
 10
10.94581331931922
 20
7.258659194655983
 30
0.0
 11
10.94767128512816
 21
7.259289889062664
 31
0.0
  0
LINE
  5
4B6A
330
1F
100
AcDbEntity
  8
0
100
AcDbLine
 10
11.16155357080469
 20
6.784801001668277
 30
0.0
 11
11.16121282906758
 21
6.787389192119285
 31
0.0
  0
LINE
  5
4B6B
330
1F
100
AcDbEntity
  8
0
100
AcDbLine
 10
11.14896538035366
 20
6.775141743405377
 30
0.0
 11
11.14655357080469
 21
6.776140747630414
 31
0.0
  0
LINE
  5
4B6C
330
1F
100
AcDbEntity
  8
0
100
AcDbLine
 10
11.17351146368799
 20
6.759929328747709
 30
0.0
 11
11.17155357080469
 21
6.7598010016683
 31
0.0
  0
LINE
  5
4B6D
330
1F
100
AcDbEntity
  8
0
100
AcDbLine
 10
10.94242214936956
 20
7.256701301772686
 30
0.0
 11
10.94094696908689
 21
7.255407603386139
 31
0.0
  0
LINE
  5
4B6E
330
1F
100
AcDbEntity
  8
0
100
AcDbLine
 10
10.97414176125572
 20
7.22514174340548
 30
0.0
 11
10.97655357080469
 21
7.226140747630516
 31
0.0
  0
LINE
  5
4B6F
330
1F
100
AcDbEntity
  8
0
100
AcDbLine
 10
11.18454395186145
 20
6.767301001668322
 30
0.0
 11
11.18541176379236
 21
6.769060750182823
 31
0.0
  0
LINE
  5
4B70
330
1F
100
AcDbEntity
  8
0
100
AcDbLine
 10
11.11155357080469
 20
6.7598010016683
 30
0.0
 11
11.17155357080469
 21
6.7598010016683
 31
0.0
  0
LINE
  5
4B71
330
1F
100
AcDbEntity
  8
0
100
AcDbLine
 10
11.15414176125571
 20
6.794460259931149
 30
0.0
 11
11.15155357080469
 21
6.794801001668268
 31
0.0
  0
LINE
  5
4B72
330
1F
100
AcDbEntity
  8
0
100
AcDbLine
 10
11.18604245819902
 20
6.77091871599179
 30
0.0
 11
11.1864252437253
 21
6.772843108785018
 31
0.0
  0
LINE
  5
4B73
330
1F
100
AcDbEntity
  8
0
100
AcDbLine
 10
11.18216017252249
 20
6.764194399950518
 30
0.0
 11
11.18345387090906
 21
6.765669580233172
 31
0.0
  0
LINE
  5
4B74
330
1F
100
AcDbEntity
  8
0
100
AcDbLine
 10
11.1864252437253
 20
6.772843108785018
 30
0.0
 11
11.18655357080469
 21
6.774801001668315
 31
0.0
  0
LINE
  5
4B75
330
1F
100
AcDbEntity
  8
0
100
AcDbLine
 10
10.96896538035367
 20
7.244460259931251
 30
0.0
 11
10.9665535708047
 21
7.243461255706215
 31
0.0
  0
LINE
  5
4B76
330
1F
100
AcDbEntity
  8
0
100
AcDbLine
 10
11.15414176125571
 20
6.775141743405377
 30
0.0
 11
11.15655357080469
 21
6.776140747630414
 31
0.0
  0
LINE
  5
4B77
330
1F
100
AcDbEntity
  8
0
100
AcDbLine
 10
11.15655357080469
 20
6.776140747630414
 30
0.0
 11
11.15862463861656
 21
6.777729933856413
 31
0.0
  0
LINE
  5
4B78
330
1F
100
AcDbEntity
  8
0
100
AcDbLine
 10
11.16021382484253
 20
6.779801001668282
 30
0.0
 11
11.16121282906758
 21
6.782212811217242
 31
0.0
  0
LINE
  5
4B79
330
1F
100
AcDbEntity
  8
0
100
AcDbLine
 10
11.14620859802188
 20
6.776405454556787
 30
0.0
 11
11.14655357080469
 21
6.776140747630414
 31
0.0
  0
LINE
  5
4B7A
330
1F
100
AcDbEntity
  8
0
100
AcDbLine
 10
10.94959567792139
 20
7.259672674588919
 30
0.0
 11
10.9515535708047
 21
7.259801001668328
 31
0.0
  0
LINE
  5
4B7B
330
1F
100
AcDbEntity
  8
0
100
AcDbLine
 10
11.18541176379236
 20
6.769060750182823
 30
0.0
 11
11.18604245819902
 21
6.77091871599179
 31
0.0
  0
LINE
  5
4B7C
330
1F
100
AcDbEntity
  8
0
100
AcDbLine
 10
11.1418943125418
 20
6.787389192119285
 30
0.0
 11
11.14172941164242
 21
6.786136645434616
 31
0.0
  0
LINE
  5
4B7D
330
1F
100
AcDbEntity
  8
0
100
AcDbLine
 10
11.14896538035366
 20
6.775141743405377
 30
0.0
 11
11.15155357080468
 21
6.774801001668258
 31
0.0
  0
LINE
  5
4B7E
330
1F
100
AcDbEntity
  8
0
100
AcDbLine
 10
11.14289331676685
 20
6.789801001668273
 30
0.0
 11
11.1418943125418
 21
6.787389192119285
 31
0.0
  0
LINE
  5
4B7F
330
1F
100
AcDbEntity
  8
0
100
AcDbLine
 10
11.15155357080468
 20
6.774801001668258
 30
0.0
 11
11.15414176125571
 21
6.775141743405377
 31
0.0
  0
LINE
  5
4B80
330
1F
100
AcDbEntity
  8
0
100
AcDbLine
 10
10.972049638923
 20
7.237274892088315
 30
0.0
 11
10.97276650823705
 21
7.238175786260136
 31
0.0
  0
LINE
  5
4B81
330
1F
100
AcDbEntity
  8
0
100
AcDbLine
 10
10.97156419912596
 20
7.236169507589401
 30
0.0
 11
10.972049638923
 21
7.237274892088315
 31
0.0
  0
LINE
  5
4B82
330
1F
100
AcDbEntity
  8
0
100
AcDbLine
 10
10.97140190974536
 20
7.233655390171996
 30
0.0
 11
10.97134327076586
 21
7.234934962890285
 31
0.0
  0
LINE
  5
4B83
330
1F
100
AcDbEntity
  8
0
100
AcDbLine
 10
10.97173611991489
 20
7.232417990200751
 30
0.0
 11
10.97140190974536
 21
7.233655390171996
 31
0.0
  0
LINE
  5
4B84
330
1F
100
AcDbEntity
  8
0
100
AcDbLine
 10
10.97312292275785
 20
7.230398394819239
 30
0.0
 11
10.97232312540372
 21
7.231307089739622
 31
0.0
  0
LINE
  5
4B85
330
1F
100
AcDbEntity
  8
0
100
AcDbLine
 10
10.97408100710933
 20
7.229753831496701
 30
0.0
 11
10.97312292275785
 21
7.230398394819239
 31
0.0
  0
LINE
  5
4B86
330
1F
100
AcDbEntity
  8
0
100
AcDbLine
 10
10.97513208659291
 20
7.229417325697248
 30
0.0
 11
10.97408100710933
 21
7.229753831496701
 31
0.0
  0
LINE
  5
4B87
330
1F
100
AcDbEntity
  8
0
100
AcDbLine
 10
10.97620453187878
 20
7.229411809735061
 30
0.0
 11
10.97513208659291
 21
7.229417325697248
 31
0.0
  0
LINE
  5
4B88
330
1F
100
AcDbEntity
  8
0
100
AcDbLine
 10
11.96681684232184
 20
5.919576526907314
 30
0.0
 11
11.20236857644506
 21
5.919576526907314
 31
0.0
  0
LINE
  5
4B89
330
1F
100
AcDbEntity
  8
0
100
AcDbLine
 10
11.01155357080469
 20
6.019576526907308
 30
0.0
 11
10.93160020981384
 21
6.019576526907308
 31
0.0
  0
LINE
  5
4B8A
330
1F
100
AcDbEntity
  8
0
100
AcDbLine
 10
12.02843024935674
 20
5.919576526907313
 30
0.0
 11
12.03968415073758
 21
5.921280235592853
 31
0.0
  0
LINE
  5
4B8B
330
1F
100
AcDbEntity
  8
0
100
AcDbLine
 10
12.03968415073758
 20
5.921280235592853
 30
0.0
 11
12.05017111733726
 21
5.926275256718092
 31
0.0
  0
LINE
  5
4B8C
330
1F
100
AcDbEntity
  8
0
100
AcDbLine
 10
12.05017111733726
 20
5.926275256718092
 30
0.0
 11
12.05917647971256
 21
5.934221187847974
 31
0.0
  0
LINE
  5
4B8D
330
1F
100
AcDbEntity
  8
0
100
AcDbLine
 10
12.05917647971256
 20
5.934221187847974
 30
0.0
 11
12.06608653729965
 21
5.944576526907319
 31
0.0
  0
LINE
  5
4B8E
330
1F
100
AcDbEntity
  8
0
100
AcDbLine
 10
12.06608653729965
 20
5.944576526907319
 30
0.0
 11
12.07043038109339
 21
5.956635574652203
 31
0.0
  0
LINE
  5
4B8F
330
1F
100
AcDbEntity
  8
0
100
AcDbLine
 10
12.07043038109339
 20
5.956635574652203
 30
0.0
 11
12.07191198531778
 21
5.969576526907324
 31
0.0
  0
LINE
  5
4B90
330
1F
100
AcDbEntity
  8
0
100
AcDbLine
 10
12.07191198531778
 20
5.969576526907324
 30
0.0
 11
12.07043038109339
 21
5.982517479162446
 31
0.0
  0
LINE
  5
4B91
330
1F
100
AcDbEntity
  8
0
100
AcDbLine
 10
12.07043038109339
 20
5.982517479162446
 30
0.0
 11
12.06608653729965
 21
5.99457652690733
 31
0.0
  0
LINE
  5
4B92
330
1F
100
AcDbEntity
  8
0
100
AcDbLine
 10
12.05917647971256
 20
6.004931865966646
 30
0.0
 11
12.05017111733725
 21
6.012877797096528
 31
0.0
  0
LINE
  5
4B93
330
1F
100
AcDbEntity
  8
0
100
AcDbLine
 10
12.06608653729965
 20
5.99457652690733
 30
0.0
 11
12.05917647971256
 21
6.004931865966646
 31
0.0
  0
LINE
  5
4B94
330
1F
100
AcDbEntity
  8
0
100
AcDbLine
 10
12.03968415073758
 20
6.017872818221768
 30
0.0
 11
12.02843024935673
 21
6.019576526907307
 31
0.0
  0
LINE
  5
4B95
330
1F
100
AcDbEntity
  8
0
100
AcDbLine
 10
12.05017111733725
 20
6.012877797096528
 30
0.0
 11
12.03968415073758
 21
6.017872818221768
 31
0.0
  0
LINE
  5
4B96
330
1F
100
AcDbEntity
  8
0
100
AcDbLine
 10
11.96681684232184
 20
6.019576526907308
 30
0.0
 11
11.1781952948601
 21
6.019576526907308
 31
0.0
  0
LINE
  5
4B97
330
1F
100
AcDbEntity
  8
0
100
AcDbLine
 10
10.09467689225264
 20
5.919576526907314
 30
0.0
 11
11.01155357080469
 21
5.919576526907314
 31
0.0
  0
LINE
  5
4B98
330
1F
100
AcDbEntity
  8
0
100
AcDbLine
 10
11.11155357080469
 20
5.919576526907314
 30
0.0
 11
11.19150693179554
 21
5.919576526907314
 31
0.0
  0
LINE
  5
4B99
330
1F
100
AcDbEntity
  8
0
100
AcDbLine
 10
10.09467689225264
 20
5.919576526907314
 30
0.0
 11
10.08342299087179
 21
5.921280235592853
 31
0.0
  0
LINE
  5
4B9A
330
1F
100
AcDbEntity
  8
0
100
AcDbLine
 10
10.08342299087179
 20
5.921280235592853
 30
0.0
 11
10.07293602427212
 21
5.926275256718093
 31
0.0
  0
LINE
  5
4B9B
330
1F
100
AcDbEntity
  8
0
100
AcDbLine
 10
10.07293602427212
 20
5.926275256718093
 30
0.0
 11
10.06393066189682
 21
5.934221187847975
 31
0.0
  0
LINE
  5
4B9C
330
1F
100
AcDbEntity
  8
0
100
AcDbLine
 10
10.06393066189682
 20
5.934221187847975
 30
0.0
 11
10.05702060430973
 21
5.94457652690732
 31
0.0
  0
LINE
  5
4B9D
330
1F
100
AcDbEntity
  8
0
100
AcDbLine
 10
10.05702060430973
 20
5.94457652690732
 30
0.0
 11
10.05267676051598
 21
5.956635574652175
 31
0.0
  0
LINE
  5
4B9E
330
1F
100
AcDbEntity
  8
0
100
AcDbLine
 10
10.05267676051598
 20
5.956635574652175
 30
0.0
 11
10.0511951562916
 21
5.969576526907297
 31
0.0
  0
LINE
  5
4B9F
330
1F
100
AcDbEntity
  8
0
100
AcDbLine
 10
10.0511951562916
 20
5.969576526907297
 30
0.0
 11
10.05267676051598
 21
5.982517479162447
 31
0.0
  0
LINE
  5
4BA0
330
1F
100
AcDbEntity
  8
0
100
AcDbLine
 10
10.05267676051598
 20
5.982517479162447
 30
0.0
 11
10.05702060430973
 21
5.994576526907303
 31
0.0
  0
LINE
  5
4BA1
330
1F
100
AcDbEntity
  8
0
100
AcDbLine
 10
10.06393066189682
 20
6.004931865966647
 30
0.0
 11
10.07293602427212
 21
6.012877797096529
 31
0.0
  0
LINE
  5
4BA2
330
1F
100
AcDbEntity
  8
0
100
AcDbLine
 10
10.05702060430973
 20
5.994576526907303
 30
0.0
 11
10.06393066189682
 21
6.004931865966647
 31
0.0
  0
LINE
  5
4BA3
330
1F
100
AcDbEntity
  8
0
100
AcDbLine
 10
10.08342299087179
 20
6.017872818221769
 30
0.0
 11
10.09467689225264
 21
6.019576526907308
 31
0.0
  0
LINE
  5
4BA4
330
1F
100
AcDbEntity
  8
0
100
AcDbLine
 10
10.07293602427212
 20
6.012877797096529
 30
0.0
 11
10.08342299087179
 21
6.017872818221769
 31
0.0
  0
LINE
  5
4BA5
330
1F
100
AcDbEntity
  8
0
100
AcDbLine
 10
10.09467689225264
 20
6.019576526907308
 30
0.0
 11
10.93160020981384
 21
6.019576526907308
 31
0.0
  0
LINE
  5
4BA6
330
1F
100
AcDbEntity
  8
0
100
AcDbLine
 10
11.11155357080469
 20
6.786136645434616
 30
0.0
 11
11.14172941164242
 21
6.786136645434616
 31
0.0
  0
LINE
  5
4BA7
330
1F
100
AcDbEntity
  8
0
100
AcDbLine
 10
11.14172941164242
 20
6.786136645434616
 30
0.0
 11
11.14842046228613
 21
6.786136645434616
 31
0.0
  0
LINE
  5
4BA8
330
1F
100
AcDbEntity
  8
0
100
AcDbLine
 10
11.11155357080469
 20
6.776411809735058
 30
0.0
 11
11.14620859802188
 21
6.776405454556787
 31
0.0
  0
LINE
  5
4BA9
330
1F
100
AcDbEntity
  8
0
100
AcDbLine
 10
11.14620859802188
 20
6.776405454556787
 30
0.0
 11
11.14690260973061
 21
6.776411809735058
 31
0.0
  0
LINE
  5
4BAA
330
1F
100
AcDbEntity
  8
0
100
AcDbLine
 10
11.01155357080469
 20
7.239136645434619
 30
0.0
 11
10.9804890102048
 21
7.239136645434619
 31
0.0
  0
LINE
  5
4BAB
330
1F
100
AcDbEntity
  8
0
100
AcDbLine
 10
10.9804890102048
 20
7.239136645434619
 30
0.0
 11
10.97468667932325
 21
7.239136645434619
 31
0.0
  0
LINE
  5
4BAC
330
1F
100
AcDbEntity
  8
0
100
AcDbLine
 10
11.01155357080469
 20
7.229411809735061
 30
0.0
 11
10.97991518736861
 21
7.229411809735061
 31
0.0
  0
LINE
  5
4BAD
330
1F
100
AcDbEntity
  8
0
100
AcDbLine
 10
10.97991518736861
 20
7.229411809735061
 30
0.0
 11
10.97620453187878
 21
7.229411809735061
 31
0.0
  0
LINE
  5
4BAE
330
1F
100
AcDbEntity
  8
0
100
AcDbLine
 10
11.11155357080469
 20
5.919576526907314
 30
0.0
 11
11.11155357080469
 21
5.932901659424794
 31
0.0
  0
LINE
  5
4BAF
330
1F
100
AcDbEntity
  8
0
100
AcDbLine
 10
11.11155357080469
 20
6.295259924799204
 30
0.0
 11
11.11155357080469
 21
6.321662732168896
 31
0.0
  0
LINE
  5
4BB0
330
1F
100
AcDbEntity
  8
0
100
AcDbLine
 10
11.11155357080469
 20
6.450624353774991
 30
0.0
 11
11.11155357080469
 21
6.570003913362193
 31
0.0
  0
LINE
  5
4BB1
330
1F
100
AcDbEntity
  8
0
100
AcDbLine
 10
11.01155357080469
 20
6.019576526907308
 30
0.0
 11
11.01155357080469
 21
6.032901659424788
 31
0.0
  0
LINE
  5
4BB2
330
1F
100
AcDbEntity
  8
0
100
AcDbLine
 10
11.01155357080469
 20
6.106251394389823
 30
0.0
 11
11.01155357080469
 21
6.119576526907303
 31
0.0
  0
LINE
  5
4BB3
330
1F
100
AcDbEntity
  8
0
100
AcDbLine
 10
11.11155357080469
 20
6.019576526907308
 30
0.0
 11
11.1781952948601
 21
6.019576526907308
 31
0.0
  0
LINE
  5
4BB4
330
1F
100
AcDbEntity
  8
0
100
AcDbLine
 10
11.11155357080469
 20
6.119576526907303
 30
0.0
 11
11.11155357080469
 21
6.295259924799204
 31
0.0
  0
LINE
  5
4BB5
330
1F
100
AcDbEntity
  8
0
100
AcDbLine
 10
11.01155357080469
 20
5.919576526907314
 30
0.0
 11
11.01155357080469
 21
6.019576526907308
 31
0.0
  0
LINE
  5
4BB6
330
1F
100
AcDbEntity
  8
0
100
AcDbLine
 10
11.11155357080469
 20
6.006251394389829
 30
0.0
 11
11.11155357080469
 21
6.019576526907308
 31
0.0
  0
LINE
  5
4BB7
330
1F
100
AcDbEntity
  8
0
100
AcDbLine
 10
11.11155357080469
 20
5.919576526907314
 30
0.0
 11
11.11155357080469
 21
6.119576526907303
 31
0.0
  0
ARC
  5
4BB8
330
1F
100
AcDbEntity
  8
0
100
AcDbCircle
 10
11.10655357080469
 20
5.919576526907314
 30
0.0
 40
0.005
100
AcDbArc
 50
270.0
 51
0.0
  0
LINE
  5
4BB9
330
1F
100
AcDbEntity
  8
0
100
AcDbLine
 10
11.01155357080469
 20
5.919576526907314
 30
0.0
 11
11.01155357080469
 21
6.570003913362222
 31
0.0
  0
ARC
  5
4BBA
330
1F
100
AcDbEntity
  8
0
100
AcDbCircle
 10
11.01655357080469
 20
5.919576526907314
 30
0.0
 40
0.005
100
AcDbArc
 50
180.0
 51
270.0
  0
LINE
  5
4BBB
330
1F
100
AcDbEntity
  8
0
100
AcDbLine
 10
11.11155357080469
 20
6.7598010016683
 30
0.0
 11
11.11155357080469
 21
6.776411809735058
 31
0.0
  0
LINE
  5
4BBC
330
1F
100
AcDbEntity
  8
0
100
AcDbLine
 10
11.11155357080469
 20
6.776411809735058
 30
0.0
 11
11.11155357080469
 21
6.786136645434616
 31
0.0
  0
LINE
  5
4BBD
330
1F
100
AcDbEntity
  8
0
100
AcDbLine
 10
11.01155357080469
 20
7.239136645434619
 30
0.0
 11
11.01155357080469
 21
7.259801001668328
 31
0.0
  0
LINE
  5
4BBE
330
1F
100
AcDbEntity
  8
0
100
AcDbLine
 10
11.11155357080469
 20
5.947402066880354
 30
0.0
 11
11.11155357080469
 21
6.321662732168896
 31
0.0
  0
LINE
  5
4BBF
330
1F
100
AcDbEntity
  8
0
100
AcDbLine
 10
11.01155357080469
 20
5.947402066880326
 30
0.0
 11
11.01155357080469
 21
6.485071848608012
 31
0.0
  0
LINE
  5
4BC0
330
1F
100
AcDbEntity
  8
0
100
AcDbLine
 10
11.01155357080469
 20
6.786136645434616
 30
0.0
 11
11.01155357080469
 21
7.229411809735061
 31
0.0
  0
LINE
  5
4BC1
330
1F
100
AcDbEntity
  8
0
100
AcDbLine
 10
11.01155357080469
 20
7.229411809735061
 30
0.0
 11
11.01155357080469
 21
7.239136645434619
 31
0.0
  0
LINE
  5
4BC2
330
1F
100
AcDbEntity
  8
0
100
AcDbLine
 10
10.9365535708047
 20
6.774801001668315
 30
0.0
 11
10.9365535708047
 21
7.244801001668314
 31
0.0
  0
LINE
  5
4BC3
330
1F
100
AcDbEntity
  8
0
100
AcDbLine
 10
11.01655357080469
 20
5.914576526907318
 30
0.0
 11
11.10655357080469
 21
5.914576526907318
 31
0.0
  0
LINE
  5
4BC4
330
1F
100
AcDbEntity
  8
0
100
AcDbLine
 10
10.972049638923
 20
6.784274892088312
 30
0.0
 11
10.97276650823705
 21
6.785175786260161
 31
0.0
  0
LINE
  5
4BC5
330
1F
100
AcDbEntity
  8
0
100
AcDbLine
 10
11.15034063337234
 20
7.238175786260136
 30
0.0
 11
11.14944118800036
 21
7.238810795655886
 31
0.0
  0
LINE
  5
4BC6
330
1F
100
AcDbEntity
  8
0
100
AcDbLine
 10
10.97140190974536
 20
6.780655390171993
 30
0.0
 11
10.97134327076586
 21
6.781934962890282
 31
0.0
  0
LINE
  5
4BC7
330
1F
100
AcDbEntity
  8
0
100
AcDbLine
 10
11.15078401620566
 20
7.231307089739622
 30
0.0
 11
11.1513710216945
 21
7.232417990200751
 31
0.0
  0
LINE
  5
4BC8
330
1F
100
AcDbEntity
  8
0
100
AcDbLine
 10
11.15176387084352
 20
7.234934962890285
 30
0.0
 11
11.15154294248343
 21
7.236169507589401
 31
0.0
  0
LINE
  5
4BC9
330
1F
100
AcDbEntity
  8
0
100
AcDbLine
 10
11.14944118800036
 20
7.238810795655886
 30
0.0
 11
11.14842046228614
 21
7.239136645434619
 31
0.0
  0
LINE
  5
4BCA
330
1F
100
AcDbEntity
  8
0
100
AcDbLine
 10
10.97513208659291
 20
6.776417325697273
 30
0.0
 11
10.97408100710932
 21
6.776753831496698
 31
0.0
  0
LINE
  5
4BCB
330
1F
100
AcDbEntity
  8
0
100
AcDbLine
 10
10.97312292275785
 20
6.777398394819236
 30
0.0
 11
10.97232312540372
 21
6.77830708973962
 31
0.0
  0
LINE
  5
4BCC
330
1F
100
AcDbEntity
  8
0
100
AcDbLine
 10
10.97366595360903
 20
6.785810795655883
 30
0.0
 11
10.97468667932325
 21
6.786136645434616
 31
0.0
  0
LINE
  5
4BCD
330
1F
100
AcDbEntity
  8
0
100
AcDbLine
 10
10.97276650823705
 20
6.785175786260161
 30
0.0
 11
10.97366595360903
 21
6.785810795655883
 31
0.0
  0
LINE
  5
4BCE
330
1F
100
AcDbEntity
  8
0
100
AcDbLine
 10
10.97156419912596
 20
6.783169507589398
 30
0.0
 11
10.972049638923
 21
6.784274892088312
 31
0.0
  0
LINE
  5
4BCF
330
1F
100
AcDbEntity
  8
0
100
AcDbLine
 10
10.97134327076586
 20
6.781934962890282
 30
0.0
 11
10.97156419912596
 21
6.783169507589398
 31
0.0
  0
LINE
  5
4BD0
330
1F
100
AcDbEntity
  8
0
100
AcDbLine
 10
10.97173611991489
 20
6.779417990200748
 30
0.0
 11
10.97140190974536
 21
6.780655390171993
 31
0.0
  0
LINE
  5
4BD1
330
1F
100
AcDbEntity
  8
0
100
AcDbLine
 10
10.97232312540372
 20
6.77830708973962
 30
0.0
 11
10.97173611991489
 21
6.779417990200748
 31
0.0
  0
LINE
  5
4BD2
330
1F
100
AcDbEntity
  8
0
100
AcDbLine
 10
10.97408100710932
 20
6.776753831496698
 30
0.0
 11
10.97312292275785
 21
6.777398394819236
 31
0.0
  0
LINE
  5
4BD3
330
1F
100
AcDbEntity
  8
0
100
AcDbLine
 10
10.97620453187877
 20
6.776411809735058
 30
0.0
 11
10.97513208659291
 21
6.776417325697273
 31
0.0
  0
LINE
  5
4BD4
330
1F
100
AcDbEntity
  8
0
100
AcDbLine
 10
11.15155357080467
 20
7.244801001668371
 30
0.0
 11
11.14896538035366
 21
7.244460259931251
 31
0.0
  0
LINE
  5
4BD5
330
1F
100
AcDbEntity
  8
0
100
AcDbLine
 10
11.18454395186146
 20
7.252301001668307
 30
0.0
 11
11.18541176379236
 21
7.250541253153805
 31
0.0
  0
LINE
  5
4BD6
330
1F
100
AcDbEntity
  8
0
100
AcDbLine
 10
11.16021382484253
 20
7.239801001668375
 30
0.0
 11
11.15862463861656
 21
7.241872069480216
 31
0.0
  0
LINE
  5
4BD7
330
1F
100
AcDbEntity
  8
0
100
AcDbLine
 10
11.15655357080469
 20
7.226140747630516
 30
0.0
 11
11.15414176125572
 21
7.22514174340548
 31
0.0
  0
LINE
  5
4BD8
330
1F
100
AcDbEntity
  8
0
100
AcDbLine
 10
11.18345387090906
 20
7.253932423103456
 30
0.0
 11
11.18454395186146
 21
7.252301001668307
 31
0.0
  0
LINE
  5
4BD9
330
1F
100
AcDbEntity
  8
0
100
AcDbLine
 10
10.94405357080469
 20
6.761810620611548
 30
0.0
 11
10.94581331931921
 21
6.760942808680646
 31
0.0
  0
LINE
  5
4BDA
330
1F
100
AcDbEntity
  8
0
100
AcDbLine
 10
11.11155357080469
 20
7.259801001668328
 30
0.0
 11
11.17155357080469
 21
7.259801001668328
 31
0.0
  0
LINE
  5
4BDB
330
1F
100
AcDbEntity
  8
0
100
AcDbLine
 10
10.94242214936956
 20
6.762900701563943
 30
0.0
 11
10.94094696908689
 21
6.764194399950518
 31
0.0
  0
LINE
  5
4BDC
330
1F
100
AcDbEntity
  8
0
100
AcDbLine
 10
11.15155357080469
 20
7.22480100166836
 30
0.0
 11
11.14896538035366
 21
7.22514174340548
 31
0.0
  0
LINE
  5
4BDD
330
1F
100
AcDbEntity
  8
0
100
AcDbLine
 10
11.18216017252249
 20
7.255407603386139
 30
0.0
 11
11.18345387090906
 21
7.253932423103456
 31
0.0
  0
LINE
  5
4BDE
330
1F
100
AcDbEntity
  8
0
100
AcDbLine
 10
11.14289331676685
 20
7.239801001668375
 30
0.0
 11
11.14448250299283
 21
7.241872069480216
 31
0.0
  0
LINE
  5
4BDF
330
1F
100
AcDbEntity
  8
0
100
AcDbLine
 10
10.94581331931921
 20
6.760942808680646
 30
0.0
 11
10.94767128512816
 21
6.760312114273965
 31
0.0
  0
LINE
  5
4BE0
330
1F
100
AcDbEntity
  8
0
100
AcDbLine
 10
11.17905357080469
 20
7.257791382725081
 30
0.0
 11
11.18068499223982
 21
7.256701301772686
 31
0.0
  0
LINE
  5
4BE1
330
1F
100
AcDbEntity
  8
0
100
AcDbLine
 10
10.93965327070032
 20
6.765669580233172
 30
0.0
 11
10.93856318974792
 21
6.767301001668322
 31
0.0
  0
LINE
  5
4BE2
330
1F
100
AcDbEntity
  8
0
100
AcDbLine
 10
11.16155357080469
 20
7.234801001668351
 30
0.0
 11
11.16121282906758
 21
7.237389192119387
 31
0.0
  0
LINE
  5
4BE3
330
1F
100
AcDbEntity
  8
0
100
AcDbLine
 10
11.16021382484253
 20
7.229801001668356
 30
0.0
 11
11.16121282906758
 21
7.232212811217344
 31
0.0
  0
LINE
  5
4BE4
330
1F
100
AcDbEntity
  8
0
100
AcDbLine
 10
10.96448250299283
 20
6.777729933856413
 30
0.0
 11
10.96289331676685
 21
6.779801001668282
 31
0.0
  0
LINE
  5
4BE5
330
1F
100
AcDbEntity
  8
0
100
AcDbLine
 10
11.18541176379236
 20
7.250541253153805
 30
0.0
 11
11.18604245819903
 21
7.248683287344867
 31
0.0
  0
LINE
  5
4BE6
330
1F
100
AcDbEntity
  8
0
100
AcDbLine
 10
11.16121282906758
 20
7.232212811217344
 30
0.0
 11
11.16155357080469
 21
7.234801001668351
 31
0.0
  0
LINE
  5
4BE7
330
1F
100
AcDbEntity
  8
0
100
AcDbLine
 10
11.15155357080467
 20
7.244801001668371
 30
0.0
 11
11.15414176125571
 21
7.244460259931251
 31
0.0
  0
LINE
  5
4BE8
330
1F
100
AcDbEntity
  8
0
100
AcDbLine
 10
10.9618943125418
 20
6.787389192119285
 30
0.0
 11
10.96289331676685
 21
6.789801001668273
 31
0.0
  0
LINE
  5
4BE9
330
1F
100
AcDbEntity
  8
0
100
AcDbLine
 10
10.96655357080469
 20
6.793461255706112
 30
0.0
 11
10.96896538035367
 21
6.794460259931149
 31
0.0
  0
LINE
  5
4BEA
330
1F
100
AcDbEntity
  8
0
100
AcDbLine
 10
11.17543585648123
 20
7.259289889062664
 30
0.0
 11
11.17351146368799
 21
7.259672674588919
 31
0.0
  0
LINE
  5
4BEB
330
1F
100
AcDbEntity
  8
0
100
AcDbLine
 10
11.1864252437253
 20
7.246758894551611
 30
0.0
 11
11.18655357080469
 21
7.244801001668314
 31
0.0
  0
LINE
  5
4BEC
330
1F
100
AcDbEntity
  8
0
100
AcDbLine
 10
11.18604245819903
 20
7.248683287344867
 30
0.0
 11
11.1864252437253
 21
7.246758894551611
 31
0.0
  0
LINE
  5
4BED
330
1F
100
AcDbEntity
  8
0
100
AcDbLine
 10
11.15655357080469
 20
7.243461255706215
 30
0.0
 11
11.15862463861656
 21
7.241872069480216
 31
0.0
  0
LINE
  5
4BEE
330
1F
100
AcDbEntity
  8
0
100
AcDbLine
 10
11.14655357080469
 20
7.243461255706215
 30
0.0
 11
11.14448250299283
 21
7.241872069480216
 31
0.0
  0
LINE
  5
4BEF
330
1F
100
AcDbEntity
  8
0
100
AcDbLine
 10
11.14448250299282
 20
7.227729933856487
 30
0.0
 11
11.14655357080469
 21
7.226140747630516
 31
0.0
  0
LINE
  5
4BF0
330
1F
100
AcDbEntity
  8
0
100
AcDbLine
 10
11.15862463861656
 20
7.227729933856487
 30
0.0
 11
11.16021382484253
 21
7.229801001668356
 31
0.0
  0
LINE
  5
4BF1
330
1F
100
AcDbEntity
  8
0
100
AcDbLine
 10
10.94405357080469
 20
6.761810620611548
 30
0.0
 11
10.94242214936956
 21
6.762900701563943
 31
0.0
  0
LINE
  5
4BF2
330
1F
100
AcDbEntity
  8
0
100
AcDbLine
 10
10.96155357080469
 20
6.784801001668277
 30
0.0
 11
10.9618943125418
 21
6.782212811217242
 31
0.0
  0
LINE
  5
4BF3
330
1F
100
AcDbEntity
  8
0
100
AcDbLine
 10
11.15414176125572
 20
7.22514174340548
 30
0.0
 11
11.15155357080469
 21
7.22480100166836
 31
0.0
  0
LINE
  5
4BF4
330
1F
100
AcDbEntity
  8
0
100
AcDbLine
 10
11.14896538035366
 20
7.244460259931251
 30
0.0
 11
11.14655357080469
 21
7.243461255706215
 31
0.0
  0
LINE
  5
4BF5
330
1F
100
AcDbEntity
  8
0
100
AcDbLine
 10
11.14289331676685
 20
7.239801001668375
 30
0.0
 11
11.14261813140458
 21
7.239136645434619
 31
0.0
  0
LINE
  5
4BF6
330
1F
100
AcDbEntity
  8
0
100
AcDbLine
 10
11.17905357080469
 20
7.257791382725081
 30
0.0
 11
11.17729382229017
 21
7.258659194655983
 31
0.0
  0
LINE
  5
4BF7
330
1F
100
AcDbEntity
  8
0
100
AcDbLine
 10
10.94767128512816
 20
6.760312114273965
 30
0.0
 11
10.94959567792139
 21
6.759929328747709
 31
0.0
  0
LINE
  5
4BF8
330
1F
100
AcDbEntity
  8
0
100
AcDbLine
 10
11.15862463861656
 20
7.227729933856487
 30
0.0
 11
11.15655357080469
 21
7.226140747630516
 31
0.0
  0
LINE
  5
4BF9
330
1F
100
AcDbEntity
  8
0
100
AcDbLine
 10
10.97862463861656
 20
6.791872069480142
 30
0.0
 11
10.98021382484254
 21
6.789801001668273
 31
0.0
  0
LINE
  5
4BFA
330
1F
100
AcDbEntity
  8
0
100
AcDbLine
 10
10.97414176125572
 20
6.794460259931149
 30
0.0
 11
10.97655357080469
 21
6.793461255706112
 31
0.0
  0
LINE
  5
4BFB
330
1F
100
AcDbEntity
  8
0
100
AcDbLine
 10
10.97155357080469
 20
6.794801001668268
 30
0.0
 11
10.97414176125572
 21
6.794460259931149
 31
0.0
  0
LINE
  5
4BFC
330
1F
100
AcDbEntity
  8
0
100
AcDbLine
 10
10.96289331676685
 20
6.789801001668273
 30
0.0
 11
10.96448250299283
 21
6.791872069480142
 31
0.0
  0
LINE
  5
4BFD
330
1F
100
AcDbEntity
  8
0
100
AcDbLine
 10
10.97655357080469
 20
6.793461255706112
 30
0.0
 11
10.97862463861656
 21
6.791872069480142
 31
0.0
  0
LINE
  5
4BFE
330
1F
100
AcDbEntity
  8
0
100
AcDbLine
 10
11.16021382484253
 20
7.239801001668375
 30
0.0
 11
11.16121282906758
 21
7.237389192119387
 31
0.0
  0
LINE
  5
4BFF
330
1F
100
AcDbEntity
  8
0
100
AcDbLine
 10
11.14448250299282
 20
7.227729933856487
 30
0.0
 11
11.14319195424077
 21
7.229411809735061
 31
0.0
  0
LINE
  5
4C00
330
1F
100
AcDbEntity
  8
0
100
AcDbLine
 10
10.96448250299283
 20
6.791872069480142
 30
0.0
 11
10.96655357080469
 21
6.793461255706112
 31
0.0
  0
LINE
  5
4C01
330
1F
100
AcDbEntity
  8
0
100
AcDbLine
 10
11.17729382229017
 20
7.258659194655983
 30
0.0
 11
11.17543585648123
 21
7.259289889062664
 31
0.0
  0
LINE
  5
4C02
330
1F
100
AcDbEntity
  8
0
100
AcDbLine
 10
10.96155357080469
 20
6.784801001668277
 30
0.0
 11
10.9618943125418
 21
6.787389192119285
 31
0.0
  0
LINE
  5
4C03
330
1F
100
AcDbEntity
  8
0
100
AcDbLine
 10
10.97414176125572
 20
6.775141743405377
 30
0.0
 11
10.97655357080469
 21
6.776140747630414
 31
0.0
  0
LINE
  5
4C04
330
1F
100
AcDbEntity
  8
0
100
AcDbLine
 10
10.94959567792139
 20
6.759929328747709
 30
0.0
 11
10.95155357080469
 21
6.7598010016683
 31
0.0
  0
LINE
  5
4C05
330
1F
100
AcDbEntity
  8
0
100
AcDbLine
 10
11.18068499223982
 20
7.256701301772686
 30
0.0
 11
11.18216017252249
 21
7.255407603386139
 31
0.0
  0
LINE
  5
4C06
330
1F
100
AcDbEntity
  8
0
100
AcDbLine
 10
11.14896538035366
 20
7.22514174340548
 30
0.0
 11
11.14655357080469
 21
7.226140747630516
 31
0.0
  0
LINE
  5
4C07
330
1F
100
AcDbEntity
  8
0
100
AcDbLine
 10
10.93856318974792
 20
6.767301001668322
 30
0.0
 11
10.93769537781703
 21
6.769060750182823
 31
0.0
  0
LINE
  5
4C08
330
1F
100
AcDbEntity
  8
0
100
AcDbLine
 10
11.01155357080469
 20
6.7598010016683
 30
0.0
 11
10.95155357080469
 21
6.7598010016683
 31
0.0
  0
LINE
  5
4C09
330
1F
100
AcDbEntity
  8
0
100
AcDbLine
 10
10.96896538035367
 20
6.794460259931149
 30
0.0
 11
10.97155357080469
 21
6.794801001668268
 31
0.0
  0
LINE
  5
4C0A
330
1F
100
AcDbEntity
  8
0
100
AcDbLine
 10
10.93706468341036
 20
6.77091871599179
 30
0.0
 11
10.93668189788409
 21
6.772843108785018
 31
0.0
  0
LINE
  5
4C0B
330
1F
100
AcDbEntity
  8
0
100
AcDbLine
 10
10.94094696908689
 20
6.764194399950518
 30
0.0
 11
10.93965327070032
 21
6.765669580233172
 31
0.0
  0
LINE
  5
4C0C
330
1F
100
AcDbEntity
  8
0
100
AcDbLine
 10
10.93668189788409
 20
6.772843108785018
 30
0.0
 11
10.9365535708047
 21
6.774801001668315
 31
0.0
  0
LINE
  5
4C0D
330
1F
100
AcDbEntity
  8
0
100
AcDbLine
 10
11.15414176125571
 20
7.244460259931251
 30
0.0
 11
11.15655357080469
 21
7.243461255706215
 31
0.0
  0
LINE
  5
4C0E
330
1F
100
AcDbEntity
  8
0
100
AcDbLine
 10
10.96896538035367
 20
6.775141743405377
 30
0.0
 11
10.96655357080469
 21
6.776140747630414
 31
0.0
  0
LINE
  5
4C0F
330
1F
100
AcDbEntity
  8
0
100
AcDbLine
 10
10.96655357080469
 20
6.776140747630414
 30
0.0
 11
10.96448250299283
 21
6.777729933856413
 31
0.0
  0
LINE
  5
4C10
330
1F
100
AcDbEntity
  8
0
100
AcDbLine
 10
10.96289331676685
 20
6.779801001668282
 30
0.0
 11
10.9618943125418
 21
6.782212811217242
 31
0.0
  0
LINE
  5
4C11
330
1F
100
AcDbEntity
  8
0
100
AcDbLine
 10
10.9768985435875
 20
6.776405454556787
 30
0.0
 11
10.97655357080469
 21
6.776140747630414
 31
0.0
  0
LINE
  5
4C12
330
1F
100
AcDbEntity
  8
0
100
AcDbLine
 10
11.17351146368799
 20
7.259672674588919
 30
0.0
 11
11.17155357080469
 21
7.259801001668328
 31
0.0
  0
LINE
  5
4C13
330
1F
100
AcDbEntity
  8
0
100
AcDbLine
 10
10.93769537781703
 20
6.769060750182823
 30
0.0
 11
10.93706468341036
 21
6.77091871599179
 31
0.0
  0
LINE
  5
4C14
330
1F
100
AcDbEntity
  8
0
100
AcDbLine
 10
10.98121282906759
 20
6.787389192119285
 30
0.0
 11
10.98137772996697
 21
6.786136645434616
 31
0.0
  0
LINE
  5
4C15
330
1F
100
AcDbEntity
  8
0
100
AcDbLine
 10
10.97414176125572
 20
6.775141743405377
 30
0.0
 11
10.9715535708047
 21
6.774801001668258
 31
0.0
  0
LINE
  5
4C16
330
1F
100
AcDbEntity
  8
0
100
AcDbLine
 10
10.98021382484254
 20
6.789801001668273
 30
0.0
 11
10.98121282906759
 21
6.787389192119285
 31
0.0
  0
LINE
  5
4C17
330
1F
100
AcDbEntity
  8
0
100
AcDbLine
 10
10.9715535708047
 20
6.774801001668258
 30
0.0
 11
10.96896538035367
 21
6.775141743405377
 31
0.0
  0
LINE
  5
4C18
330
1F
100
AcDbEntity
  8
0
100
AcDbLine
 10
11.15105750268639
 20
7.237274892088315
 30
0.0
 11
11.15034063337234
 21
7.238175786260136
 31
0.0
  0
LINE
  5
4C19
330
1F
100
AcDbEntity
  8
0
100
AcDbLine
 10
11.15154294248343
 20
7.236169507589401
 30
0.0
 11
11.15105750268639
 21
7.237274892088315
 31
0.0
  0
LINE
  5
4C1A
330
1F
100
AcDbEntity
  8
0
100
AcDbLine
 10
11.15170523186403
 20
7.233655390171996
 30
0.0
 11
11.15176387084352
 21
7.234934962890285
 31
0.0
  0
LINE
  5
4C1B
330
1F
100
AcDbEntity
  8
0
100
AcDbLine
 10
11.1513710216945
 20
7.232417990200751
 30
0.0
 11
11.15170523186403
 21
7.233655390171996
 31
0.0
  0
LINE
  5
4C1C
330
1F
100
AcDbEntity
  8
0
100
AcDbLine
 10
11.14998421885154
 20
7.230398394819239
 30
0.0
 11
11.15078401620566
 21
7.231307089739622
 31
0.0
  0
LINE
  5
4C1D
330
1F
100
AcDbEntity
  8
0
100
AcDbLine
 10
11.14902613450006
 20
7.229753831496701
 30
0.0
 11
11.14998421885154
 21
7.230398394819239
 31
0.0
  0
LINE
  5
4C1E
330
1F
100
AcDbEntity
  8
0
100
AcDbLine
 10
11.14797505501647
 20
7.229417325697248
 30
0.0
 11
11.14902613450006
 21
7.229753831496701
 31
0.0
  0
LINE
  5
4C1F
330
1F
100
AcDbEntity
  8
0
100
AcDbLine
 10
11.14690260973061
 20
7.229411809735061
 30
0.0
 11
11.14797505501647
 21
7.229417325697248
 31
0.0
  0
LINE
  5
4C20
330
1F
100
AcDbEntity
  8
0
100
AcDbLine
 10
11.01155357080469
 20
6.786136645434616
 30
0.0
 11
10.98137772996697
 21
6.786136645434616
 31
0.0
  0
LINE
  5
4C21
330
1F
100
AcDbEntity
  8
0
100
AcDbLine
 10
10.98137772996697
 20
6.786136645434616
 30
0.0
 11
10.97468667932325
 21
6.786136645434616
 31
0.0
  0
LINE
  5
4C22
330
1F
100
AcDbEntity
  8
0
100
AcDbLine
 10
11.01155357080469
 20
6.776411809735058
 30
0.0
 11
10.9768985435875
 21
6.776405454556787
 31
0.0
  0
LINE
  5
4C23
330
1F
100
AcDbEntity
  8
0
100
AcDbLine
 10
10.9768985435875
 20
6.776405454556787
 30
0.0
 11
10.97620453187877
 21
6.776411809735058
 31
0.0
  0
LINE
  5
4C24
330
1F
100
AcDbEntity
  8
0
100
AcDbLine
 10
11.11155357080469
 20
7.239136645434619
 30
0.0
 11
11.14261813140458
 21
7.239136645434619
 31
0.0
  0
LINE
  5
4C25
330
1F
100
AcDbEntity
  8
0
100
AcDbLine
 10
11.14261813140458
 20
7.239136645434619
 30
0.0
 11
11.14842046228614
 21
7.239136645434619
 31
0.0
  0
LINE
  5
4C26
330
1F
100
AcDbEntity
  8
0
100
AcDbLine
 10
11.11155357080469
 20
7.229411809735061
 30
0.0
 11
11.14319195424077
 21
7.229411809735061
 31
0.0
  0
LINE
  5
4C27
330
1F
100
AcDbEntity
  8
0
100
AcDbLine
 10
11.14319195424077
 20
7.229411809735061
 30
0.0
 11
11.14690260973061
 21
7.229411809735061
 31
0.0
  0
LINE
  5
4C28
330
1F
100
AcDbEntity
  8
0
100
AcDbLine
 10
11.01155357080469
 20
6.7598010016683
 30
0.0
 11
11.01155357080469
 21
6.776411809735058
 31
0.0
  0
LINE
  5
4C29
330
1F
100
AcDbEntity
  8
0
100
AcDbLine
 10
11.01155357080469
 20
6.776411809735058
 30
0.0
 11
11.01155357080469
 21
6.786136645434616
 31
0.0
  0
LINE
  5
4C2A
330
1F
100
AcDbEntity
  8
0
100
AcDbLine
 10
11.11155357080469
 20
7.239136645434619
 30
0.0
 11
11.11155357080469
 21
7.259801001668328
 31
0.0
  0
LINE
  5
4C2B
330
1F
100
AcDbEntity
  8
0
100
AcDbLine
 10
11.11155357080469
 20
6.786136645434616
 30
0.0
 11
11.11155357080469
 21
7.229411809735061
 31
0.0
  0
LINE
  5
4C2C
330
1F
100
AcDbEntity
  8
0
100
AcDbLine
 10
11.11155357080469
 20
7.229411809735061
 30
0.0
 11
11.11155357080469
 21
7.239136645434619
 31
0.0
  0
LINE
  5
4C2D
330
1F
100
AcDbEntity
  8
0
100
AcDbLine
 10
11.18655357080469
 20
6.774801001668315
 30
0.0
 11
11.18655357080469
 21
7.244801001668314
 31
0.0
  0
LINE
  5
4C2E
330
1F
100
AcDbEntity
  8
0
100
AcDbLine
 10
10.16715194393707
 20
7.928576526907287
 30
0.0
 11
10.94491184674928
 21
7.928576526907258
 31
0.0
  0
LINE
  5
4C2F
330
1F
100
AcDbEntity
  8
0
100
AcDbLine
 10
11.01155357080469
 20
7.626490321645698
 30
0.0
 11
11.01155357080469
 21
7.495562396155333
 31
0.0
  0
LINE
  5
4C30
330
1F
100
AcDbEntity
  8
0
100
AcDbLine
 10
10.16715194393706
 20
8.028576526907309
 30
0.0
 11
10.09615849647703
 21
8.028576526907309
 31
0.0
  0
LINE
  5
4C31
330
1F
100
AcDbEntity
  8
0
100
AcDbLine
 10
10.16715194393707
 20
7.928576526907287
 30
0.0
 11
10.09615849647703
 21
7.928576526907287
 31
0.0
  0
LINE
  5
4C32
330
1F
100
AcDbEntity
  8
0
100
AcDbLine
 10
12.02843024935673
 20
6.019576526907307
 30
0.0
 11
11.96681684232184
 21
6.019576526907308
 31
0.0
  0
LINE
  5
4C33
330
1F
100
AcDbEntity
  8
0
100
AcDbLine
 10
12.02843024935674
 20
5.919576526907313
 30
0.0
 11
11.96681684232184
 21
5.919576526907314
 31
0.0
  0
LINE
  5
4C34
330
1F
100
AcDbEntity
  8
0
100
AcDbLine
 10
11.20236857644506
 20
5.919576526907314
 30
0.0
 11
11.19150693179554
 21
5.919576526907314
 31
0.0
  0
LINE
  5
4C55
330
1F
100
AcDbEntity
  8
0
100
AcDbLine
 10
11.11155357080469
 20
6.450624353774991
 30
0.0
 11
11.11155357080469
 21
6.321662732168896
 31
0.0
  0
CIRCLE
  5
4C75
330
1F
100
AcDbEntity
  8
0
100
AcDbCircle
 10
11.06327929714634
 20
7.321171543165126
 30
0.0
 40
0.0115550249724841
  0
CIRCLE
  5
4C76
330
1F
100
AcDbEntity
  8
0
100
AcDbCircle
 10
11.06327929714634
 20
7.379124638823055
 30
0.0
 40
0.0115550249724841
  0
CIRCLE
  5
4C7F
330
1F
100
AcDbEntity
  8
0
100
AcDbCircle
 10
11.06126889933178
 20
6.634011720328016
 30
0.0
 40
0.0115550249724841
  0
CIRCLE
  5
4C80
330
1F
100
AcDbEntity
  8
0
100
AcDbCircle
 10
11.06126889933178
 20
6.691964815985945
 30
0.0
 40
0.0115550249724841
  0
VIEWPORT
  5
7CA
330
1B
100
AcDbEntity
 67
     1
  8
0
100
AcDbViewport
 10
250.8078564553756
 20
151.9284754761402
 30
0.0
 40
420.4378690602835
 41
204.4576762861672
 68
     1
 69
     1
 12
250.8078564553756
 22
151.9284754761402
 13
0.0
 23
0.0
 14
10.0
 24
10.0
 15
10.0
 25
10.0
 16
0.0
 26
0.0
 36
1.0
 17
0.0
 27
0.0
 37
0.0
 42
50.0
 43
0.0
 44
0.0
 45
204.4576762861672
 50
0.0
 51
0.0
 72
   100
 90
   819232
  1

281
     0
 71
     1
 74
     0
110
0.0
120
0.0
130
0.0
111
1.0
121
0.0
131
0.0
112
0.0
122
1.0
132
0.0
 79
     0
146
0.0
170
     0
  0
VIEWPORT
  5
99A
330
1B
100
AcDbEntity
 67
     1
  8
Defpoints
100
AcDbViewport
 10
151.5855934681565
 20
104.8621726199724
 30
0.0
 40
290.0480970456033
 41
203.1599664902751
 68
     2
 69
     2
 12
10.52628202427198
 22
7.055332186530126
 13
0.0
 23
0.0
 14
0.5
 24
0.5
 15
0.5
 25
0.5
 16
0.0
 26
0.0
 36
1.0
 17
0.0
 27
0.0
 37
-1000.0
 42
50.0
 43
4.148984367261674
 44
9.217858496371269
 45
10.15799927015914
 50
0.0
 51
0.0
 72
   100
 90
   819296
  1

281
     0
 71
     1
 74
     0
110
0.0
120
0.0
130
0.0
111
1.0
121
0.0
131
0.0
112
0.0
122
1.0
132
0.0
 79
     0
146
0.0
170
     0
  0
ENDSEC
  0
SECTION
  2
OBJECTS
  0
DICTIONARY
  5
C
330
0
100
AcDbDictionary
281
     1
  3
ACAD_COLOR
350
4B9
  3
ACAD_GROUP
350
D
  3
ACAD_LAYOUT
350
1A
  3
ACAD_MATERIAL
350
3B
  3
ACAD_MLEADERSTYLE
350
489
  3
ACAD_MLINESTYLE
350
17
  3
ACAD_PLOTSETTINGS
350
19
  3
ACAD_PLOTSTYLENAME
350
E
  3
ACAD_SCALELIST
350
4213
  3
ACAD_TABLESTYLE
350
4BA
  3
ACAD_VISUALSTYLE
350
2A
  3
ACDB_RECOMPOSE_DATA
350
4244
  3
AcDbVariableDictionary
350
487
  0
DICTIONARY
  5
84C
330
8
100
AcDbDictionary
280
     1
281
     1
  0
DICTIONARY
  5
7D1
330
2
100
AcDbDictionary
280
     1
281
     1
  3
ACAD_LAYERFILTERS
360
4281
  3
ACAD_LAYERSTATES
360
7D2
  3
ACLYDICTIONARY
360
4280
  0
DICTIONARY
  5
423C
330
10
100
AcDbDictionary
280
     1
281
     1
  3
ADSK_XREC_LAYER_RECONCILED
360
423D
  0
DICTIONARY
  5
423E
330
87B
100
AcDbDictionary
280
     1
281
     1
  3
ADSK_XREC_LAYER_RECONCILED
360
423F
  0
DICTIONARY
  5
4240
330
87D
100
AcDbDictionary
280
     1
281
     1
  3
ADSK_XREC_LAYER_RECONCILED
360
4241
  0
DICTIONARY
  5
5F8
330
1F
100
AcDbDictionary
280
     1
281
     1
  3
ACAD_SORTENTS
360
5F9
  0
DICTIONARY
  5
4A27
330
4A26
100
AcDbDictionary
280
     1
281
     1
  3
ACAD_DIMASSOC
360
4A28
  0
DICTIONARY
  5
4A2A
330
4A29
100
AcDbDictionary
280
     1
281
     1
  3
ACAD_DIMASSOC
360
4A2B
  0
DICTIONARY
  5
4B9
102
{ACAD_REACTORS
330
C
102
}
330
C
100
AcDbDictionary
281
     1
  0
DICTIONARY
  5
D
102
{ACAD_REACTORS
330
C
102
}
330
C
100
AcDbDictionary
281
     1
  0
DICTIONARY
  5
1A
102
{ACAD_REACTORS
330
C
102
}
330
C
100
AcDbDictionary
281
     1
  3
Layout1
350
1E
  3
Model
350
22
  0
DICTIONARY
  5
3B
102
{ACAD_REACTORS
330
C
102
}
330
C
100
AcDbDictionary
281
     1
  3
ByBlock
350
3D
  3
ByLayer
350
3C
  3
Global
350
3E
  0
DICTIONARY
  5
489
102
{ACAD_REACTORS
330
C
102
}
330
C
100
AcDbDictionary
281
     1
  3
Standard
350
4235
  0
DICTIONARY
  5
17
102
{ACAD_REACTORS
330
C
102
}
330
C
100
AcDbDictionary
281
     1
  3
Standard
350
18
  0
DICTIONARY
  5
19
102
{ACAD_REACTORS
330
C
102
}
330
C
100
AcDbDictionary
281
     1
  0
ACDBDICTIONARYWDFLT
  5
E
102
{ACAD_REACTORS
330
C
102
}
330
C
100
AcDbDictionary
281
     1
  3
Normal
350
F
100
AcDbDictionaryWithDefault
340
F
  0
DICTIONARY
  5
4213
102
{ACAD_REACTORS
330
C
102
}
330
C
100
AcDbDictionary
281
     1
  3
A0
350
4214
  3
A1
350
4215
  3
A2
350
4216
  3
A3
350
4217
  3
A4
350
4218
  3
A5
350
4219
  3
A6
350
421A
  3
A7
350
421B
  3
A8
350
421C
  3
A9
350
421D
  3
B0
350
421E
  3
B1
350
421F
  3
B2
350
4220
  3
B3
350
4221
  3
B4
350
4222
  3
B5
350
4223
  3
B6
350
4224
  3
B7
350
4225
  3
B8
350
4226
  3
B9
350
4227
  3
C0
350
4228
  3
C1
350
4229
  3
C2
350
422A
  3
C3
350
422B
  3
C4
350
422C
  3
C5
350
422D
  3
C6
350
422E
  3
C7
350
422F
  3
C8
350
4230
  3
C9
350
4231
  3
D0
350
4232
  3
D1
350
4233
  3
D2
350
4234
  0
DICTIONARY
  5
4BA
102
{ACAD_REACTORS
330
C
102
}
330
C
100
AcDbDictionary
281
     1
  3
Standard
350
4BB
  0
DICTIONARY
  5
2A
102
{ACAD_REACTORS
330
C
102
}
330
C
100
AcDbDictionary
281
     1
  3
2dWireframe
350
2F
  3
3D Hidden
350
A47
  3
3dWireframe
350
A48
  3
Basic
350
32
  3
Brighten
350
36
  3
ColorChange
350
3A
  3
Conceptual
350
A4B
  3
Dim
350
35
  3
Facepattern
350
39
  3
Flat
350
2B
  3
FlatWithEdges
350
2C
  3
Gouraud
350
2D
  3
GouraudWithEdges
350
2E
  3
Linepattern
350
38
  3
Realistic
350
A4C
  3
Thicken
350
37
  0
XRECORD
  5
4244
102
{ACAD_REACTORS
330
C
102
}
330
C
100
AcDbXrecord
280
     1
 90
        1
330
4BB
  0
DICTIONARY
  5
487
102
{ACAD_REACTORS
330
C
102
}
330
C
100
AcDbDictionary
281
     1
  3
CANNOSCALE
350
4247
  3
CMLEADERSTYLE
350
4245
  3
CTABLESTYLE
350
5FE
  3
DIMASSOC
350
48A
  3
HIDETEXT
350
48B
  3
INDEXCTL
350
86B
  3
LIGHTINGUNITS
350
4248
  3
MSLTSCALE
350
4246
  3
SORTENTS
350
86A
  0
DICTIONARY
  5
4281
102
{ACAD_REACTORS
330
7D1
102
}
330
7D1
100
AcDbDictionary
281
     1
  0
DICTIONARY
  5
7D2
102
{ACAD_REACTORS
330
7D1
102
}
330
7D1
100
AcDbDictionary
281
     1
  0
DICTIONARY
  5
4280
102
{ACAD_REACTORS
330
7D1
102
}
330
7D1
100
AcDbDictionary
281
     1
1001
ACAD
1000
<All
  0
XRECORD
  5
423D
102
{ACAD_REACTORS
330
423C
102
}
330
423C
100
AcDbXrecord
280
     1
290
     1
  0
XRECORD
  5
423F
102
{ACAD_REACTORS
330
423E
102
}
330
423E
100
AcDbXrecord
280
     1
290
     1
  0
XRECORD
  5
4241
102
{ACAD_REACTORS
330
4240
102
}
330
4240
100
AcDbXrecord
280
     1
290
     1
  0
SORTENTSTABLE
  5
5F9
102
{ACAD_REACTORS
330
5F8
102
}
330
5F8
100
AcDbSortentsTable
330
1F
  0
DIMASSOC
  5
4A28
102
{ACAD_REACTORS
330
4A27
102
}
330
4A27
100
AcDbDimAssoc
330
4A26
 90
        3
 70
     0
 71
     0
  1
AcDbOsnapPointRef
 72
     1
331
4A25
 73
     2
 91
        3
 40
1.0
 10
0.0
 20
0.0
 30
2.000000000000000E+50
 75
     0
  1
AcDbOsnapPointRef
 72
     1
331
4A25
 73
     2
 91
        2
 40
1.0
 10
0.0
 20
0.0
 30
2.000000000000000E+50
 75
     0
  0
DIMASSOC
  5
4A2B
102
{ACAD_REACTORS
330
4A2A
102
}
330
4A2A
100
AcDbDimAssoc
330
4A29
 90
        2
 70
     0
 71
     0
  1
AcDbOsnapPointRef
 72
     1
331
4A25
 73
     2
 91
        4
 40
1.0
 10
0.0
 20
0.0
 30
2.000000000000000E+50
 75
     0
  0
LAYOUT
  5
1E
102
{ACAD_XDICTIONARY
360
7D4
102
}
102
{ACAD_REACTORS
330
1A
102
}
330
1A
100
AcDbPlotSettings
  1

  2
Bullzip PDF Printer
  4
A4
  6

 40
3.174999952316284
 41
3.174999952316284
 42
3.175003051757812
 43
3.17498779296875
 44
209.8886566162109
 45
297.0530090332031
 46
0.0
 47
0.0
 48
6.561544945354853
 49
3.282189374834842
140
296.6096419909582
141
206.4421558651099
142
1.0
143
1.0
 70
   672
 72
     1
 73
     1
 74
     4
  7
monochrome.ctb
 75
    16
147
25.4
 76
     0
 77
     2
 78
   300
148
-6.561544945354853
149
-3.282189374834842
100
AcDbLayout
  1
Layout1
 70
     0
 71
     1
 10
3.386557152386103
 20
0.1071894225185588
 11
300.4395661855892
 21
209.9958460387295
 12
0.0
 22
0.0
 32
0.0
 14
6.561544945354853
 24
3.282189374834842
 34
0.0
 15
296.6096419909582
 25
206.4421558651099
 35
0.0
146
0.0
 13
0.0
 23
0.0
 33
0.0
 16
1.0
 26
0.0
 36
0.0
 17
0.0
 27
1.0
 37
0.0
 76
     0
330
1B
331
7CA
1001
ACAD_PSEXT
1000
Bullzip PDF Printer
1000
Bullzip PDF Printer
1000
BULLZIP
1000
Bullzip PDF Printer 7.2.0.1338
1070
     0
  0
LAYOUT
  5
22
102
{ACAD_REACTORS
330
1A
102
}
330
1A
100
AcDbPlotSettings
  1

  2
none_device
  4
Letter_(8.50_x_11.00_Inches)
  6

 40
6.349999904632568
 41
6.349999904632568
 42
6.350006103515625
 43
6.350006103515625
 44
215.8999938964844
 45
279.3999938964844
 46
0.0
 47
0.0
 48
0.0
 49
0.0
140
0.0
141
0.0
142
1.0
143
1.722890234054851
 70
 11952
 72
     0
 73
     1
 74
     0
  7

 75
     0
147
0.5804200292240808
 76
     0
 77
     2
 78
   300
148
-81.52243533661561
149
-74.86302292570847
100
AcDbLayout
  1
Model
 70
     1
 71
     0
 10
0.0
 20
0.0
 11
12.0
 21
9.0
 12
0.0
 22
0.0
 32
0.0
 14
1.000000000000000E+20
 24
1.000000000000000E+20
 34
1.000000000000000E+20
 15
-1.000000000000000E+20
 25
-1.000000000000000E+20
 35
-1.000000000000000E+20
146
0.0
 13
0.0
 23
0.0
 33
0.0
 16
1.0
 26
0.0
 36
0.0
 17
0.0
 27
1.0
 37
0.0
 76
     0
330
1F
331
29
1001
ACAD_PSEXT
1000
Brak
1000
Brak
1000
Nie można zastosować.
1000
Arkusz nie zostanie wydrukowany dopóki nie wybrano konfiguracji plotera.
1070
     0
  0
MATERIAL
  5
3D
102
{ACAD_XDICTIONARY
360
4CA8
102
}
102
{ACAD_REACTORS
330
3B
102
}
330
3B
100
AcDbMaterial
  1
ByBlock
 73
     1
 78
     1
172
     1
176
     1
270
     1
274
     1
  0
MATERIAL
  5
3C
102
{ACAD_XDICTIONARY
360
4CA6
102
}
102
{ACAD_REACTORS
330
3B
102
}
330
3B
100
AcDbMaterial
  1
ByLayer
 73
     1
 78
     1
172
     1
176
     1
270
     1
274
     1
  0
MATERIAL
  5
3E
102
{ACAD_XDICTIONARY
360
4CAA
102
}
102
{ACAD_REACTORS
330
3B
102
}
330
3B
100
AcDbMaterial
  1
Global
 73
     1
 78
     1
172
     1
176
     1
270
     1
274
     1
  0
MLEADERSTYLE
  5
4235
102
{ACAD_REACTORS
330
489
102
}
330
489
100
AcDbMLeaderStyle
170
     2
171
     1
172
     0
 90
        2
 40
0.0
 41
0.0
173
     1
 91
-1056964608
340
14
 92
       -2
290
     1
 42
0.09
291
     1
 43
0.36
  3
Standard
 44
0.18
300

342
11
174
     1
178
     6
175
     1
176
     0
 93
-1056964608
 45
0.18
292
     0
297
     0
 46
0.18
 94
-1056964608
 47
1.0
 49
1.0
140
1.0
293
     1
141
0.0
294
     1
177
     0
142
1.0
295
     0
296
     0
143
0.125
1001
ACAD_MLEADERVER
1070
     2
  0
MLINESTYLE
  5
18
102
{ACAD_REACTORS
330
17
102
}
330
17
100
AcDbMlineStyle
  2
STANDARD
 70
     0
  3

 62
   256
 51
90.0
 52
90.0
 71
     2
 49
0.5
 62
   256
  6
BYLAYER
 49
-0.5
 62
   256
  6
BYLAYER
  0
ACDBPLACEHOLDER
  5
F
102
{ACAD_REACTORS
330
E
102
}
330
E
  0
SCALE
  5
4214
102
{ACAD_REACTORS
330
4213
102
}
330
4213
100
AcDbScale
 70
     0
300
1:1
140
1.0
141
1.0
290
     1
  0
SCALE
  5
4215
102
{ACAD_REACTORS
330
4213
102
}
330
4213
100
AcDbScale
 70
     0
300
1:2
140
1.0
141
2.0
290
     0
  0
SCALE
  5
4216
102
{ACAD_REACTORS
330
4213
102
}
330
4213
100
AcDbScale
 70
     0
300
1:4
140
1.0
141
4.0
290
     0
  0
SCALE
  5
4217
102
{ACAD_REACTORS
330
4213
102
}
330
4213
100
AcDbScale
 70
     0
300
1:5
140
1.0
141
5.0
290
     0
  0
SCALE
  5
4218
102
{ACAD_REACTORS
330
4213
102
}
330
4213
100
AcDbScale
 70
     0
300
1:8
140
1.0
141
8.0
290
     0
  0
SCALE
  5
4219
102
{ACAD_REACTORS
330
4213
102
}
330
4213
100
AcDbScale
 70
     0
300
1:10
140
1.0
141
10.0
290
     0
  0
SCALE
  5
421A
102
{ACAD_REACTORS
330
4213
102
}
330
4213
100
AcDbScale
 70
     0
300
1:16
140
1.0
141
16.0
290
     0
  0
SCALE
  5
421B
102
{ACAD_REACTORS
330
4213
102
}
330
4213
100
AcDbScale
 70
     0
300
1:20
140
1.0
141
20.0
290
     0
  0
SCALE
  5
421C
102
{ACAD_REACTORS
330
4213
102
}
330
4213
100
AcDbScale
 70
     0
300
1:30
140
1.0
141
30.0
290
     0
  0
SCALE
  5
421D
102
{ACAD_REACTORS
330
4213
102
}
330
4213
100
AcDbScale
 70
     0
300
1:40
140
1.0
141
40.0
290
     0
  0
SCALE
  5
421E
102
{ACAD_REACTORS
330
4213
102
}
330
4213
100
AcDbScale
 70
     0
300
1:50
140
1.0
141
50.0
290
     0
  0
SCALE
  5
421F
102
{ACAD_REACTORS
330
4213
102
}
330
4213
100
AcDbScale
 70
     0
300
1:100
140
1.0
141
100.0
290
     0
  0
SCALE
  5
4220
102
{ACAD_REACTORS
330
4213
102
}
330
4213
100
AcDbScale
 70
     0
300
2:1
140
2.0
141
1.0
290
     0
  0
SCALE
  5
4221
102
{ACAD_REACTORS
330
4213
102
}
330
4213
100
AcDbScale
 70
     0
300
4:1
140
4.0
141
1.0
290
     0
  0
SCALE
  5
4222
102
{ACAD_REACTORS
330
4213
102
}
330
4213
100
AcDbScale
 70
     0
300
8:1
140
8.0
141
1.0
290
     0
  0
SCALE
  5
4223
102
{ACAD_REACTORS
330
4213
102
}
330
4213
100
AcDbScale
 70
     0
300
10:1
140
10.0
141
1.0
290
     0
  0
SCALE
  5
4224
102
{ACAD_REACTORS
330
4213
102
}
330
4213
100
AcDbScale
 70
     0
300
100:1
140
100.0
141
1.0
290
     0
  0
SCALE
  5
4225
102
{ACAD_REACTORS
330
4213
102
}
330
4213
100
AcDbScale
 70
     0
300
1/128" = 1'-0"
140
0.0078125
141
12.0
290
     0
  0
SCALE
  5
4226
102
{ACAD_REACTORS
330
4213
102
}
330
4213
100
AcDbScale
 70
     0
300
1/64" = 1'-0"
140
0.015625
141
12.0
290
     0
  0
SCALE
  5
4227
102
{ACAD_REACTORS
330
4213
102
}
330
4213
100
AcDbScale
 70
     0
300
1/32" = 1'-0"
140
0.03125
141
12.0
290
     0
  0
SCALE
  5
4228
102
{ACAD_REACTORS
330
4213
102
}
330
4213
100
AcDbScale
 70
     0
300
1/16" = 1'-0"
140
0.0625
141
12.0
290
     0
  0
SCALE
  5
4229
102
{ACAD_REACTORS
330
4213
102
}
330
4213
100
AcDbScale
 70
     0
300
3/32" = 1'-0"
140
0.09375
141
12.0
290
     0
  0
SCALE
  5
422A
102
{ACAD_REACTORS
330
4213
102
}
330
4213
100
AcDbScale
 70
     0
300
1/8" = 1'-0"
140
0.125
141
12.0
290
     0
  0
SCALE
  5
422B
102
{ACAD_REACTORS
330
4213
102
}
330
4213
100
AcDbScale
 70
     0
300
3/16" = 1'-0"
140
0.1875
141
12.0
290
     0
  0
SCALE
  5
422C
102
{ACAD_REACTORS
330
4213
102
}
330
4213
100
AcDbScale
 70
     0
300
1/4" = 1'-0"
140
0.25
141
12.0
290
     0
  0
SCALE
  5
422D
102
{ACAD_REACTORS
330
4213
102
}
330
4213
100
AcDbScale
 70
     0
300
3/8" = 1'-0"
140
0.375
141
12.0
290
     0
  0
SCALE
  5
422E
102
{ACAD_REACTORS
330
4213
102
}
330
4213
100
AcDbScale
 70
     0
300
1/2" = 1'-0"
140
0.5
141
12.0
290
     0
  0
SCALE
  5
422F
102
{ACAD_REACTORS
330
4213
102
}
330
4213
100
AcDbScale
 70
     0
300
3/4" = 1'-0"
140
0.75
141
12.0
290
     0
  0
SCALE
  5
4230
102
{ACAD_REACTORS
330
4213
102
}
330
4213
100
AcDbScale
 70
     0
300
1" = 1'-0"
140
1.0
141
12.0
290
     0
  0
SCALE
  5
4231
102
{ACAD_REACTORS
330
4213
102
}
330
4213
100
AcDbScale
 70
     0
300
1-1/2" = 1'-0"
140
1.5
141
12.0
290
     0
  0
SCALE
  5
4232
102
{ACAD_REACTORS
330
4213
102
}
330
4213
100
AcDbScale
 70
     0
300
3" = 1'-0"
140
3.0
141
12.0
290
     0
  0
SCALE
  5
4233
102
{ACAD_REACTORS
330
4213
102
}
330
4213
100
AcDbScale
 70
     0
300
6" = 1'-0"
140
6.0
141
12.0
290
     0
  0
SCALE
  5
4234
102
{ACAD_REACTORS
330
4213
102
}
330
4213
100
AcDbScale
 70
     0
300
1'-0" = 1'-0"
140
12.0
141
12.0
290
     0
  0
TABLESTYLE
  5
4BB
102
{ACAD_XDICTIONARY
360
4242
102
}
102
{ACAD_REACTORS
330
4BA
102
}
330
4BA
100
AcDbTableStyle
  3
Standard
 70
     0
 71
     0
 40
0.06
 41
0.06
280
     0
281
     0
  7
Standard
140
0.18
170
     2
 62
     0
 63
     7
283
     0
274
    -2
284
     1
 64
     0
275
    -2
285
     1
 65
     0
276
    -2
286
     1
 66
     0
277
    -2
287
     1
 67
     0
278
    -2
288
     1
 68
     0
279
    -2
289
     1
 69
     0
  7
Standard
140
0.25
170
     5
 62
     0
 63
     7
283
     0
274
    -2
284
     1
 64
     0
275
    -2
285
     1
 65
     0
276
    -2
286
     1
 66
     0
277
    -2
287
     1
 67
     0
278
    -2
288
     1
 68
     0
279
    -2
289
     1
 69
     0
  7
Standard
140
0.18
170
     5
 62
     0
 63
     7
283
     0
274
    -2
284
     1
 64
     0
275
    -2
285
     1
 65
     0
276
    -2
286
     1
 66
     0
277
    -2
287
     1
 67
     0
278
    -2
288
     1
 68
     0
279
    -2
289
     1
 69
     0
  0
VISUALSTYLE
  5
2F
102
{ACAD_XDICTIONARY
360
49A
102
}
102
{ACAD_REACTORS
330
2A
102
}
330
2A
100
AcDbVisualStyle
  2
2dWireframe
 70
     4
 71
     0
 72
     2
 73
     0
 90
        0
 40
-0.6
 41
-30.0
 62
     5
 63
     7
 74
     1
 91
        4
 64
     7
 65
   257
 75
     1
175
     1
 42
1.0
 92
        0
 66
   257
 43
1.0
 76
     1
 77
     6
 78
     2
 67
     7
 79
     5
170
     0
171
     0
290
     0
174
     0
 93
        1
 44
0.0
173
     0
291
     0
 45
0.0
1001
ACAD
1000
AcDbSavedByObjectVersion
1070
     0
  0
VISUALSTYLE
  5
A47
102
{ACAD_REACTORS
330
2A
102
}
330
2A
100
AcDbVisualStyle
  2
3D Hidden
 70
     6
 71
     1
 72
     2
 73
     2
 90
        0
 40
-0.6
 41
-30.0
 62
     5
 63
     7
 74
     2
 91
        2
 64
     7
 65
   257
 75
     2
175
     1
 42
40.0
 92
        0
 66
   257
 43
1.0
 76
     1
 77
     6
 78
     2
 67
     7
 79
     3
170
     0
171
     0
290
     0
174
     0
 93
        1
 44
0.0
173
     0
291
     0
 45
0.0
1001
ACAD
1000
AcDbSavedByObjectVersion
1070
     0
  0
VISUALSTYLE
  5
A48
102
{ACAD_XDICTIONARY
360
A49
102
}
102
{ACAD_REACTORS
330
2A
102
}
330
2A
100
AcDbVisualStyle
  2
3dWireframe
 70
     5
 71
     0
 72
     2
 73
     0
 90
        0
 40
-0.6
 41
-30.0
 62
     5
 63
     7
 74
     1
 91
        4
 64
     7
 65
   257
 75
     1
175
     1
 42
1.0
 92
        0
 66
   257
 43
1.0
 76
     1
 77
     6
 78
     2
 67
     7
 79
     5
170
     0
171
     0
290
     0
174
     0
 93
        1
 44
0.0
173
     0
291
     0
 45
0.0
1001
ACAD
1000
AcDbSavedByObjectVersion
1070
     0
  0
VISUALSTYLE
  5
32
102
{ACAD_XDICTIONARY
360
4A0
102
}
102
{ACAD_REACTORS
330
2A
102
}
330
2A
100
AcDbVisualStyle
  2
Basic
 70
     7
 71
     1
 72
     0
 73
     1
 90
        0
 40
-0.6
 41
-30.0
 62
     5
 63
     7
 74
     0
 91
        4
 64
     7
 65
   257
 75
     1
175
     1
 42
1.0
 92
        8
 66
     7
 43
1.0
 76
     1
 77
     6
 78
     2
 67
     7
 79
     5
170
     0
171
     0
290
     0
174
     0
 93
        1
 44
0.0
173
     0
291
     1
 45
0.0
1001
ACAD
1000
AcDbSavedByObjectVersion
1070
     0
  0
VISUALSTYLE
  5
36
102
{ACAD_XDICTIONARY
360
4A8
102
}
102
{ACAD_REACTORS
330
2A
102
}
330
2A
100
AcDbVisualStyle
  2
Brighten
 70
    12
 71
     2
 72
     2
 73
     0
 90
        0
 40
-0.6
 41
-30.0
 62
     5
 63
     7
 74
     1
 91
        4
 64
     7
 65
   257
 75
     1
175
     1
 42
1.0
 92
        8
 66
     7
 43
1.0
 76
     1
 77
     6
 78
     2
 67
     7
 79
     5
170
     0
171
     0
290
     0
174
     0
 93
        1
 44
50.0
173
     0
291
     1
 45
0.0
1001
ACAD
1000
AcDbSavedByObjectVersion
1070
     0
  0
VISUALSTYLE
  5
3A
102
{ACAD_XDICTIONARY
360
4B0
102
}
102
{ACAD_REACTORS
330
2A
102
}
330
2A
100
AcDbVisualStyle
  2
ColorChange
 70
    16
 71
     2
 72
     2
 73
     3
 90
        0
 40
-0.6
 41
-30.0
 62
     5
 63
     8
 74
     1
 91
        4
 64
     7
 65
   257
 75
     1
175
     1
 42
1.0
 92
        8
 66
     8
 43
1.0
 76
     1
 77
     6
 78
     2
 67
     7
 79
     5
170
     0
171
     0
290
     0
174
     0
 93
        1
 44
0.0
173
     0
291
     1
 45
0.0
1001
ACAD
1000
AcDbSavedByObjectVersion
1070
     0
  0
VISUALSTYLE
  5
A4B
102
{ACAD_REACTORS
330
2A
102
}
330
2A
100
AcDbVisualStyle
  2
Conceptual
 70
     9
 71
     3
 72
     2
 73
     0
 90
        0
 40
-0.6
 41
-30.0
 62
     5
 63
     7
 74
     2
 91
        2
 64
     7
 65
   257
 75
     1
175
     1
 42
40.0
 92
        8
 66
     7
 43
1.0
 76
     1
 77
     6
 78
     2
 67
     7
 79
     3
170
     0
171
     0
290
     0
174
     0
 93
        1
 44
0.0
173
     0
291
     0
 45
0.0
1001
ACAD
1000
AcDbSavedByObjectVersion
1070
     0
  0
VISUALSTYLE
  5
35
102
{ACAD_XDICTIONARY
360
4A6
102
}
102
{ACAD_REACTORS
330
2A
102
}
330
2A
100
AcDbVisualStyle
  2
Dim
 70
    11
 71
     2
 72
     2
 73
     0
 90
        0
 40
-0.6
 41
-30.0
 62
     5
 63
     7
 74
     1
 91
        4
 64
     7
 65
   257
 75
     1
175
     1
 42
1.0
 92
        8
 66
     7
 43
1.0
 76
     1
 77
     6
 78
     2
 67
     7
 79
     5
170
     0
171
     0
290
     0
174
     0
 93
        1
 44
-50.0
173
     0
291
     1
 45
0.0
1001
ACAD
1000
AcDbSavedByObjectVersion
1070
     0
  0
VISUALSTYLE
  5
39
102
{ACAD_XDICTIONARY
360
4AE
102
}
102
{ACAD_REACTORS
330
2A
102
}
330
2A
100
AcDbVisualStyle
  2
Facepattern
 70
    15
 71
     2
 72
     2
 73
     0
 90
        0
 40
-0.6
 41
-30.0
 62
     5
 63
     7
 74
     1
 91
        4
 64
     7
 65
   257
 75
     1
175
     1
 42
1.0
 92
        8
 66
     7
 43
1.0
 76
     1
 77
     6
 78
     2
 67
     7
 79
     5
170
     0
171
     0
290
     0
174
     0
 93
        1
 44
0.0
173
     0
291
     1
 45
0.0
1001
ACAD
1000
AcDbSavedByObjectVersion
1070
     0
  0
VISUALSTYLE
  5
2B
102
{ACAD_XDICTIONARY
360
492
102
}
102
{ACAD_REACTORS
330
2A
102
}
330
2A
100
AcDbVisualStyle
  2
Flat
 70
     0
 71
     2
 72
     1
 73
     1
 90
        2
 40
-0.6
 41
30.0
 62
     5
 63
     7
 74
     0
 91
        4
 64
     7
 65
   257
 75
     1
175
     1
 42
1.0
 92
        8
 66
     7
 43
1.0
 76
     1
 77
     6
 78
     2
 67
     7
 79
     5
170
     0
171
     0
290
     0
174
     0
 93
       13
 44
0.0
173
     0
291
     1
 45
0.0
1001
ACAD
1000
AcDbSavedByObjectVersion
1070
     0
  0
VISUALSTYLE
  5
2C
102
{ACAD_XDICTIONARY
360
494
102
}
102
{ACAD_REACTORS
330
2A
102
}
330
2A
100
AcDbVisualStyle
  2
FlatWithEdges
 70
     1
 71
     2
 72
     1
 73
     1
 90
        2
 40
-0.6
 41
30.0
 62
     5
 63
     7
 74
     1
 91
        4
 64
     7
 65
   257
 75
     1
175
     1
 42
1.0
 92
        0
 66
   257
 43
1.0
 76
     1
 77
     6
 78
     2
 67
     7
 79
     5
170
     0
171
     0
290
     0
174
     0
 93
       13
 44
0.0
173
     0
291
     1
 45
0.0
1001
ACAD
1000
AcDbSavedByObjectVersion
1070
     0
  0
VISUALSTYLE
  5
2D
102
{ACAD_XDICTIONARY
360
496
102
}
102
{ACAD_REACTORS
330
2A
102
}
330
2A
100
AcDbVisualStyle
  2
Gouraud
 70
     2
 71
     2
 72
     2
 73
     1
 90
        2
 40
-0.6
 41
30.0
 62
     5
 63
     7
 74
     0
 91
        4
 64
     7
 65
   257
 75
     1
175
     1
 42
1.0
 92
        0
 66
     7
 43
1.0
 76
     1
 77
     6
 78
     2
 67
     7
 79
     5
170
     0
171
     0
290
     0
174
     0
 93
       13
 44
0.0
173
     0
291
     1
 45
0.0
1001
ACAD
1000
AcDbSavedByObjectVersion
1070
     0
  0
VISUALSTYLE
  5
2E
102
{ACAD_XDICTIONARY
360
498
102
}
102
{ACAD_REACTORS
330
2A
102
}
330
2A
100
AcDbVisualStyle
  2
GouraudWithEdges
 70
     3
 71
     2
 72
     2
 73
     1
 90
        2
 40
-0.6
 41
30.0
 62
     5
 63
     7
 74
     1
 91
        4
 64
     7
 65
   257
 75
     1
175
     1
 42
1.0
 92
        0
 66
   257
 43
1.0
 76
     1
 77
     6
 78
     2
 67
     7
 79
     5
170
     0
171
     0
290
     0
174
     0
 93
       13
 44
0.0
173
     0
291
     1
 45
0.0
1001
ACAD
1000
AcDbSavedByObjectVersion
1070
     0
  0
VISUALSTYLE
  5
38
102
{ACAD_XDICTIONARY
360
4AC
102
}
102
{ACAD_REACTORS
330
2A
102
}
330
2A
100
AcDbVisualStyle
  2
Linepattern
 70
    14
 71
     2
 72
     2
 73
     0
 90
        0
 40
-0.6
 41
-30.0
 62
     5
 63
     7
 74
     1
 91
        4
 64
     7
 65
   257
 75
     7
175
     7
 42
1.0
 92
        8
 66
     7
 43
1.0
 76
     1
 77
     6
 78
     2
 67
     7
 79
     5
170
     0
171
     0
290
     0
174
     0
 93
        1
 44
0.0
173
     0
291
     1
 45
0.0
1001
ACAD
1000
AcDbSavedByObjectVersion
1070
     0
  0
VISUALSTYLE
  5
A4C
102
{ACAD_XDICTIONARY
360
A4D
102
}
102
{ACAD_REACTORS
330
2A
102
}
330
2A
100
AcDbVisualStyle
  2
Realistic
 70
     8
 71
     2
 72
     2
 73
     0
 90
        0
 40
-0.6
 41
-30.0
 62
     5
 63
     7
 74
     1
 91
        0
 64
     7
 65
   257
 75
     1
175
     1
 42
1.0
 92
        8
 66
     8
 43
1.0
 76
     1
 77
     6
 78
     2
 67
     7
 79
     5
170
     0
171
     0
290
     0
174
     0
 93
       13
 44
0.0
173
     0
291
     0
 45
0.0
1001
ACAD
1000
AcDbSavedByObjectVersion
1070
     0
  0
VISUALSTYLE
  5
37
102
{ACAD_XDICTIONARY
360
4AA
102
}
102
{ACAD_REACTORS
330
2A
102
}
330
2A
100
AcDbVisualStyle
  2
Thicken
 70
    13
 71
     2
 72
     2
 73
     0
 90
        0
 40
-0.6
 41
-30.0
 62
     5
 63
     7
 74
     1
 91
        4
 64
     7
 65
   257
 75
     1
175
     1
 42
1.0
 92
       12
 66
     7
 43
1.0
 76
     1
 77
     6
 78
     2
 67
     7
 79
     5
170
     0
171
     0
290
     0
174
     0
 93
        1
 44
0.0
173
     0
291
     1
 45
0.0
1001
ACAD
1000
AcDbSavedByObjectVersion
1070
     0
  0
DICTIONARYVAR
  5
4247
102
{ACAD_REACTORS
330
487
102
}
330
487
100
DictionaryVariables
280
     0
  1
1:1
  0
DICTIONARYVAR
  5
4245
102
{ACAD_REACTORS
330
487
102
}
330
487
100
DictionaryVariables
280
     0
  1
STANDARD
  0
DICTIONARYVAR
  5
5FE
102
{ACAD_REACTORS
330
487
102
}
330
487
100
DictionaryVariables
280
     0
  1
STANDARD
  0
DICTIONARYVAR
  5
48A
102
{ACAD_REACTORS
330
487
102
}
330
487
100
DictionaryVariables
280
     0
  1
2
  0
DICTIONARYVAR
  5
48B
102
{ACAD_REACTORS
330
487
102
}
330
487
100
DictionaryVariables
280
     0
  1
1
  0
DICTIONARYVAR
  5
86B
102
{ACAD_REACTORS
330
487
102
}
330
487
100
DictionaryVariables
280
     0
  1
0
  0
DICTIONARYVAR
  5
4248
102
{ACAD_REACTORS
330
487
102
}
330
487
100
DictionaryVariables
280
     0
  1
0
  0
DICTIONARYVAR
  5
4246
102
{ACAD_REACTORS
330
487
102
}
330
487
100
DictionaryVariables
280
     0
  1
0
  0
DICTIONARYVAR
  5
86A
102
{ACAD_REACTORS
330
487
102
}
330
487
100
DictionaryVariables
280
     0
  1
127
  0
DICTIONARY
  5
7D4
330
1E
100
AcDbDictionary
280
     1
281
     1
  3
ADSK_XREC_LAYOUTTHUMBNAIL
360
7D5
  0
DICTIONARY
  5
4CA8
330
3D
100
AcDbDictionary
280
     1
281
     1
  3
ACAD_XREC_ROUNDTRIP
360
4CA9
  0
DICTIONARY
  5
4CA6
330
3C
100
AcDbDictionary
280
     1
281
     1
  3
ACAD_XREC_ROUNDTRIP
360
4CA7
  0
DICTIONARY
  5
4CAA
330
3E
100
AcDbDictionary
280
     1
281
     1
  3
ACAD_XREC_ROUNDTRIP
360
4CAB
  0
DICTIONARY
  5
4242
330
4BB
100
AcDbDictionary
280
     1
281
     1
  3
ACAD_ROUNDTRIP_2008_TABLESTYLE_CELLSTYLEMAP
360
4CA5
  3
ACAD_XREC_ROUNDTRIP
360
4CAC
  0
DICTIONARY
  5
49A
330
2F
100
AcDbDictionary
280
     1
281
     1
  3
ACAD_XREC_ROUNDTRIP
360
49B
  0
DICTIONARY
  5
A49
330
A48
100
AcDbDictionary
280
     1
281
     1
  3
ACAD_XREC_ROUNDTRIP
360
A4A
  0
DICTIONARY
  5
4A0
330
32
100
AcDbDictionary
280
     1
281
     1
  3
ACAD_XREC_ROUNDTRIP
360
4A1
  0
DICTIONARY
  5
4A8
330
36
100
AcDbDictionary
280
     1
281
     1
  3
ACAD_XREC_ROUNDTRIP
360
4A9
  0
DICTIONARY
  5
4B0
330
3A
100
AcDbDictionary
280
     1
281
     1
  3
ACAD_XREC_ROUNDTRIP
360
4B1
  0
DICTIONARY
  5
4A6
330
35
100
AcDbDictionary
280
     1
281
     1
  3
ACAD_XREC_ROUNDTRIP
360
4A7
  0
DICTIONARY
  5
4AE
330
39
100
AcDbDictionary
280
     1
281
     1
  3
ACAD_XREC_ROUNDTRIP
360
4AF
  0
DICTIONARY
  5
492
330
2B
100
AcDbDictionary
280
     1
281
     1
  3
ACAD_XREC_ROUNDTRIP
360
493
  0
DICTIONARY
  5
494
330
2C
100
AcDbDictionary
280
     1
281
     1
  3
ACAD_XREC_ROUNDTRIP
360
495
  0
DICTIONARY
  5
496
330
2D
100
AcDbDictionary
280
     1
281
     1
  3
ACAD_XREC_ROUNDTRIP
360
497
  0
DICTIONARY
  5
498
330
2E
100
AcDbDictionary
280
     1
281
     1
  3
ACAD_XREC_ROUNDTRIP
360
499
  0
DICTIONARY
  5
4AC
330
38
100
AcDbDictionary
280
     1
281
     1
  3
ACAD_XREC_ROUNDTRIP
360
4AD
  0
DICTIONARY
  5
A4D
330
A4C
100
AcDbDictionary
280
     1
281
     1
  3
ACAD_XREC_ROUNDTRIP
360
A4E
  0
DICTIONARY
  5
4AA
330
37
100
AcDbDictionary
280
     1
281
     1
  3
ACAD_XREC_ROUNDTRIP
360
4AB
  0
XRECORD
  5
7D5
102
{ACAD_REACTORS
330
7D4
102
}
330
7D4
100
AcDbXrecord
280
     1
310
28000000B40000007F00000001000800000000004C59000000000000000000000001000000000000FFFFFF0000000000FFFFFF000000000000000000000000000000000000000000000000000000000000000000330000006600000099000000CC000000FF00000000330000333300006633000099330000CC330000FF3300
310
0000660000336600006666000099660000CC660000FF66000000990000339900006699000099990000CC990000FF99000000CC000033CC000066CC000099CC0000CCCC0000FFCC000000FF000033FF000066FF000099FF0000CCFF0000FFFF000000003300330033006600330099003300CC003300FF003300003333003333
310
33006633330099333300CC333300FF33330000663300336633006666330099663300CC663300FF66330000993300339933006699330099993300CC993300FF99330000CC330033CC330066CC330099CC3300CCCC3300FFCC330000FF330033FF330066FF330099FF3300CCFF3300FFFF330000006600330066006600660099
310
006600CC006600FF00660000336600333366006633660099336600CC336600FF33660000666600336666006666660099666600CC666600FF66660000996600339966006699660099996600CC996600FF99660000CC660033CC660066CC660099CC6600CCCC6600FFCC660000FF660033FF660066FF660099FF6600CCFF6600
310
FFFF660000009900330099006600990099009900CC009900FF00990000339900333399006633990099339900CC339900FF33990000669900336699006666990099669900CC669900FF66990000999900339999006699990099999900CC999900FF99990000CC990033CC990066CC990099CC9900CCCC9900FFCC990000FF99
310
0033FF990066FF990099FF9900CCFF9900FFFF99000000CC003300CC006600CC009900CC00CC00CC00FF00CC000033CC003333CC006633CC009933CC00CC33CC00FF33CC000066CC003366CC006666CC009966CC00CC66CC00FF66CC000099CC003399CC006699CC009999CC00CC99CC00FF99CC0000CCCC0033CCCC0066CC
310
CC0099CCCC00CCCCCC00FFCCCC0000FFCC0033FFCC0066FFCC0099FFCC00CCFFCC00FFFFCC000000FF003300FF006600FF009900FF00CC00FF00FF00FF000033FF003333FF006633FF009933FF00CC33FF00FF33FF000066FF003366FF006666FF009966FF00CC66FF00FF66FF000099FF003399FF006699FF009999FF00CC
310
99FF00FF99FF0000CCFF0033CCFF0066CCFF0099CCFF00CCCCFF00FFCCFF0000FFFF0033FFFF0066FFFF0099FFFF00CCFFFF00FFFFFF00000000000D0D0D001A1A1A00282828003535350043434300505050005D5D5D006B6B6B00787878008686860093939300A1A1A100AEAEAE00BBBBBB00C9C9C900D6D6D600E4E4E400
310
F1F1F100FFFFFF0000000000000000000000000000000000000000000000000000000000000000000000000000000000E2E2E2E2E2E2E2E2E2E2E2E2E2E2E2E2E2E2E2E2E2E2E2E2E2E2E2E2E2E2E2E2E2E2E2E2E2E2E2E2E2E2E2E2E2E2E2E2E2E2E2E2E2E2E2E2E2E2E2E2E2E2E2E2E2E2E2E2E2E2E2E2E2E2E2E2E2E2E2
310
E2E2E2E2E2E2E2E2E2E2E2E2E2E2E2E2E2E2E2E2E2E2E2E2E2E2E2E2E2E2E2E2E2E2E2E2E2E2E2E2E2E2E2E2E2E2E2E2E2E2E2E2E2E2E2E2E2E2E2E2E2E2E2E2E2E2E2E2E2E2E2E2E2E2E2E2E2E2E2E2E2E2E2E2E2E2E2E2E2E2E2E2E2E2E2E2E2E2E2E2E2E2F5F5F5F5F5F5F5F5F5F5F5F5F5F5F5F5F5F5F5F5F5F5F5F5F5
310
F5F5F5F5F5F5F5F5F5F5F5F5F5F5F5F5F5F5F5F5F5F5F5F5F5F5F5F5F5F5F5F5F5F5F5F5F5F5F5F5F5F5F5F5F5F5F5F5F5F5F5F5F5F5F5F5F5F5F5F5F5F5F5F5F5F5F5F5F5F5F5F5F5F5F5F5F5F5F5F5F5F5F5F5F5F5F5F5F5F5F5F5F5F5F5F5F5F5F5F5F5F5F5F5F5F5F5F5F5F5F5F5F5F5F5F5F5F5F5F5F5F5F5F5F5F5F5
310
F5F5F5F5F5F5F5F5F5F5F5F5F5F5F5F5F5F5F5F5F5F5F5F5F5E2E2E2F5E2E2E2E2E2E2E2E2E2E2E2E2E2E2E2E2E2E2E2E2E2E2E2E2E2E2E2E2E2E2E2E2E2E2E2E2E2E2E2E2E2E2E2E2E2E2E2E2E2E2E2E2E2E2E2E2E2E2E2E2E2E2E2E2E2E2E2E2E2E2E2E2E2E2E2E2E2E2E2E2E2E2E2E2E2E2E2E2E2E2E2E2E2E2E2E2E2E2
310
E2E2E2E2E2E2E2E2E2E2E2E2E2E2E2E2E2E2E2E2E2E2E2E2E2E2E2E2E2E2E2E2E2E2E2E2E2E2E2E2E2E2E2E2E2E2E2E2E2E2E2E2E2E2E2E2E2E2E2E2E2E2E2E2E2E2E2E2E2E2E2E2E2E2E2E2E2F5E2E2E2F5E2F5F5F5F5F5F5F5F5F5F5F5F5F5F5F5F5F5F5F5F5F5F5F5F5F5F5F5F5F5F5F5F5F5F5F5F5F5F5F5F5F5F5F5F5
310
F5F5F5F5F5F5F5F5F5F5F5F5F5F5F5F5F5F5F5F5F5F5F5F5F5F5F5F5F5F5F5F5F5F5F5F5F5F5F5F5F5F5F5F5F5F5F5F5F5F5F5F5F5F5F5F5F5F5F5F5F5F5F5F5F5F5F5F5F5F5F5F5F5F5F5F5F5F5F5F5F5F5F5F5F5F5F5F5F5F5F5F5F5F5F5F5F5F5F5F5F5F5F5F5F5F5F5F5F5F5F5F5F5F5F5F5F5F5F5F5F5F5F5F5F5F5F5
310
F5F5E2F5E2E2E2F5E2F5F5F5F5F5F5F5F5F5F5F5F5F5F5F5F5F5F5F5F5F5F5F5F5F5F5F5F5F5F5F5F5F5F5F5F5F5F5F5F5F5F5F5F5F5F5F5F5F5F5F5F5F5F5F5F5F5F5F5F5F5F5F5F5F5F5F5F5F5F5F5F5F5F5F5F5F5F5F5F5F5F5F5F5F5F5F5F5F5F5F5F5F5F5F5F5F5F5F5F5F5F5F5F5F5F5F5F5F5F5F5F5F5F5F5F5F5F5
310
F5F5F5F5F5F5F5F5F5F5F5F5F5F5F5F5F5F5F5F5F5F5F5F5F5F5F5F5F5F5F5F5F5F5F5F5F5F5F5F5F5F5F5F5F5F5F5F5F5F5F5F5F5F5F5E2F5E2E2E2F5E2F5F5F5F5F5F5F5F5F5F5F5F5F5F5F5F5F5F5F5F5F5F5F5F5F5F5F5F5F5F5F5F5F5F5F5F5F5F5F5F5F5F5F5F5F5F5F5F5F5F5F5F5F5F5F5F5F5F5F5F5F5F5F5F5F5
310
F5F5F5F5F5F5F5F5F5F5F5F5F5F5F5F5F5F5F5F5F5F5F5F5F5F5F5F5F5F5F5F5F5F5F5F5F5F5F5F5F5F5F5F5F5F5F5F5F5F5F5F5F5F5F5F5F5F5F5F5F5F5F5F5F5F5F5F5F5F5F5F5F5F5F5F5F5F5F5F5F5F5F5F5F5F5F5F5F5F5F5F5F5F5F5F5F5F5F5F5F5F5F5F5F5F5F5F5E2F5E2E2E2F5E2F5F5F5F5F5F5F5F5F5F5F5F5
310
F5F5F5F5F5F5F5F5F5F5F5F5F5F5F5F5F5F5F5F5F5F5F5F5F5F5F5F5F5F5F5F5F5F5F5F5F5F5F5F5F5F5F5F5F5F5F5F5F5F5F5F5F5F5F5F5F5F5F5F5F5F5F5F5F5F5F5F5F5F5F5F5F5F5F5F5F5F5F5F5F5F5F5F5F5F5F5F5F5F5F5F5F5F5F5F5F5F5F5F5F5F5F5F5F5F5F5F5F5F5F5F5F5F5F5F5F5F5F5F5F5F5F5F5F5F5F5
310
F5F5F5F5F5F5F5F5F5F5F5F5F5F5F5F5F5F5F5F5F5F5F5F5F5F5F5F5F5F5F5F5F5F5E2F5E2E2E2F5E2F5F5F5F5F5F5F5F5F5F5F5F5F5F5F5F5F5F5F5F5F5F5F5F5F5F5F5F5F5F5F5F5F5F5F5F5F5F5F5F5F5F5F5F5F5F5F5F5F5F5F5F5F5F5F5F5F5F5F5F5F5F5F5F5F5F5F5F5F5F5F5F5F5F5F5F5F5F5F5F5F5F5F5F5F5F5
310
F5F5F5F5F5F5F5F5F5F5F5F5F5F5F5F5F5F5F5F5F5F5F5F5F5F5F5F5F5F5F5F5F5F5F5F5F5F5F5F5F5F5F5F5F5F5F5F5F5F5F5F5F5F5F5F5F5F5F5F5F5F5F5F5F5F5F5F5F5F5F5F5F5F5F5F5F5F5F5F5F5F5F5F5F5F5F5E2F5E2E2E2F5E2F5F5F5F5F5F5F5F5F5F5F5F5F5F5F5F5F5F5F5F5F5F5F5F5F5F5F5F5F5F5F5F5F5
310
F5F5F5F5F5F5F5F5F5F5F5F5F5F5F5F5F5F5F5F5F5F5F5F5F5F5F5F5F5F5F5F5F5F5F5F5F5F5F5F5F5F5F5F5F5F5F5F5F5F5F5F5F5F5F5F5F5F5F5F5F5F5F5F5F5F5F5F5F5F5F5F5F5F5F5F5F5F5F5F5F5F5F5F5F5F5F5F5F5F5F5F5F5F5F5F5F5F5F5F5F5F5F5F5F5F5F5F5F5F5F5F5F5F5F5F5F5F5F5F5F5F5F5F5F5F5F5
310
F5F5F5F5F5F5F5F5F5F5F5F5F5E2F5E2E2E2F5E2F5F5F5F5F5F5F5F5F5F5F5F5F5F5F5F5F5F5F5F5F5F5F5F5F5F5F5F5F5F5F5F5F5F5F5F5F5F5F5F5F5F5F5F5F5F5F5F5F5F5F5F5F5F5F5F5F5F5F5F5F5F5F5F5F5F5F5F5F5F5F5F5F5F5F5F5F5F5F5F5F5F5F5F5F5F5F5F5F5F5F5F5F5F5F5F5F5F5F5F5F5F5F5F5F5F5F5
310
F5F5F5F5F5F5F5F5F5F5F5F5F5F5F5F5F5F5F5F5F5F5F5F5F5F5F5F5F5F5F5F5F5F5F5F5F5F5F5F5F5F5F5F5F5F5F5F5F5F5F5F5F5F5F5F5F5F5F5F5F5F5F5F5F5F5E2F5E2E2E2F5E2F5F5F5F5F5F5F5F5F5F5F5F5F5F5F5F5F5F5F5F5F5F5F5F5F5F5F5F5F5F5F5F5F5F5F5F5F5F5F5F5F5F5F5F5F5F5F5F5F5F5F5F5F5F5
310
F5F5F5F5F5F5F5F5F5F5F5F5F5F5F5F5F5F5F5F5F5F5F5F5F5F5F5F5F5F5F5F5F5F5F5F5F5F5F5F5F5F5F5F5F5F5F5F5F5F5F5F5F5F5F5F5F5F5F5F5F5F5F5F5F5F5F5F5F5F5F5F5F5F5F5F5F5F5F5F5F5F5F5F5F5F5F5F5F5F5F5F5F5F5F5F5F5F5F5F5F5F5F5F5F5F5F5F5F5F5F5F5F5F5F5F5F5F5F5E2F5E2E2E2F5E2F5
310
F5F5F5F5F5F5F5F5F5F5F5F5F5F5F5F5F5F5F5F5F5F5F5F5F5F5F5F5F5F5F5F5F5F5F5F5F5F5F5F5F5F5F5F5F5F5F5F5F5F5F5F5F5F5F5F5F5F5F5F5F5F5F5F5F5F5F5F5F5F5F5F5F5F5F5F5F5F5F5F5F5F5F5F5F5F5F5F5F5F5F5F5F5F5F5F5F5F5F5F5F5F5F5F5F5F5F5F5F5F5F5F5F5F5F5F5F5F5F5F5F5F5F5F5F5F5F5
310
F5F5F5F5F5F5F5F5F5F5F5F5F5F5F5F5F5F5F5F5F5F5F5F5F5F5F5F5F5F5F5F5F5F5F5F5F5F5F5F5F5F5F5F5F5E2F5E2E2E2F5E2F5F5F5F5F5F5F5F5F5F5F5F5F5F5F5F5F5F5F5F5F5F5F5F5F5F5F5F5F5F5F5F5F5F5F5F5F5F5F5F5F5F5F5F5F5F5F5F5F5F5F5F5F5F5F5F5F5F5F5F5F5F5F5F5F5F5F5F5F5F5F5F5F5F5F5
310
F5F5F5F5F5F5F5F5F5F5F5F5F5F5F5F5F5F5F5F5F5F5F5F5F5F5F5F5F5F5F5F5F5F5F5F5F5F5F5F5F5F5F5F5F5F5F5F5F5F5F5F5F5F5F5F5F5F5F5F5F5F5F5F5F5F5F5F5F5F5F5F5F5F5F5F5F5F5F5F5F5F5F5F5F5F5F5F5F5F5F5F5F5F5F5F5F5F5E2F5E2E2E2F5E2F5F5F5F5F5F5F5F5F5F5F5F5F5F5F5F5F5F5F5F5F5F5
310
F5F5F5F5F5F5F5F5F5F5F5F5F5F5F5F5F5F5F5F5F5F5F5F5F5F5F5F5F5F5F5F5F5F5F5F5F5F5F5F5F5F5F5F5F5F5F5F5F5F5F5F5F5F5F5F5F5F5F5F5F5F5F5F5F5F5F5F5F5F5F5F5F5F5F5F5F5F5F5F5F5F5F5F5F5F5F5F5F5F5F5F5F5F5F5F5F5F5F5F5F5F5F5F5F5F5F5F5F5F5F5F5F5F5F5F5F5F5F5F5F5F5F5F5F5F5F5
310
F5F5F5F5F5F5F5F5F5F5F5F5F5F5F5F5F5F5F5F5F5F5F5F5E2F5E2E2E2F5E2F5F5F5F5F5F5F5F5F5F5F5F5F5F5F5F5F5F5F5F5F5F5F5F5F5F5F5F5F5F5F5F5F5F5F5F5F5F5F5F5F5F5F5F5F5F5F5F5F5F5F5F5F5F5F5F5F5F5F5F5F5F5F5F5F5F5F5F5F5F5F5F5F5F5F5F5F5F5F5F5F5F5F5F5F5F5F5F5F5F5F5F5F5F5F5F5
310
F5F5F5F5F5F5F5F5F5F5F5F5F5F5F5F5F5F5F5F5F5F5F5F5F5F5F5F5F5F5F5F5F5F5F5F5F5F5F5F5F5F5F5F5F5F5F5F5F5F5F5F5F5F5F5F5F5F5F5F5F5F5F5F5F5F5F5F5F5F5F5F5F5F5F5F5F5E2F5E2E2E2F5E2F5F5F5F5F5F5F5F5F5F5F5F5F5F5F5F5F5F5F5F5F5F5F5F5F5F5F5F5F5F5F5F5F5F5F5F5F5F5F5F5F5F5F5
310
F5F5F5F5F5F5F5F5F5F5F5F5F5F5F5F5F5F5F5F5F5F5F5F5F5F5F5F5F5F5F5F5F5F5F5F5F5F5F5F5F5F5F5F5F5F5F5F5F5F5F5F5F5F5F5F5F5F5F5F5F5F5F5F5F5F5F5F5F5F5F5F5F5F5F5F5F5F5F5F5F5F5F5F5F5F5F5F5F5F5F5F5F5F5F5F5F5F5F5F5F5F5F5F5F5F5F5F5F5F5F5F5F5F5F5F5F5F5F5F5F5F5F5F5F5F5F5
310
F5F5F5E2F5E2E2E2F5E2F5F5F5F5F5F5F5F5F5F5F5F5F5F5F5F5F5F5F5F5F5F5F5F5F5F5F5F5F5F5F5F5F5F5F5F5F5F5F5F5F5F5F5F5F5F5F5F5F5F5F5F5F5F5F5F5F5F5F5F5F5F5F5F5F5F5F5F5F5F5F5F5F5F5F5F5F5F5F5F5F5F5F5F5F5F5F5F5F5F5F5F5F5F5F5F5F5F5F5F5F5F5F5F5F5F5F5F5F5F5F5F5F5F5F5F5F5
310
F5F5F5F5F5F5F5F5F5F5F5F5F5F5F5F5F5F5F5F5F5F5F5F5F5F5F5F5F5F5F5F5F5F5F5F5F5F5F5F5F5F5F5F5F5F5F5F5F5F5F5F5F5F5F5F5E2F5E2E2E2F5E2F5F5F5F5F5F5F5F5F5F5F5F5F5F5F5F5F5F5F5F5F5F5F5F5F5F5F5F5F5F5F5F5F5F5F5F5F5F5F5F5F5F5F5F5F5F5F5F5F5F5F5F5F5F5F5F5F5F5F5F5F5F5F5F5
310
F5F5F5F5F5F5F5F5F5F5F5F5F5F5F5F5F5F5F5F5F5F5F5F5F5F5F5F5F5F5F5F5F5F5F5F5F5F5F5F5F5F5F5F5F5F5F5F5F5F5F5F5F5F5F5F5F5F5F5F5F5F5F5F5F5F5F5F5F5F5F5F5F5F5F5F5F5F5F5F5F5F5F5F5F5F5F5F5F5F5F5F5F5F5F5F5F5F5F5F5F5F5F5F5F5F5F5F5F5E2F5E2E2E2F5E2F5F5F5F5F5F5F5F5F5F5F5
310
F5F5F5F5F5F5F5F5F5F5F5F5F5F5F5F5F5F5F5F5F5F5F5F5F5F5F5F5F5F5F5F5F5F5F5F5F5F5F5F5F5F5F5F5F5F5F5F5F5F5F5F5F5F5F5F5F5F5F5F5F5F5F5F5F5F5F5F5F5F5F5F5F5F5F5F5F5F5F5F5F5F5F5F5F5F5F5F5F5F5F5F5F5F5F5F5F5F5F5F5F5F5F5F5F5F5F5F5F5F5F5F5F5F5F5F5F5F5F5F5F5F5F5F5F5F5F5
310
F5F5F5F5F5F5F5F5F5F5F5F5F5F5F5F5F5F5F5F5F5F5F5F5F5F5F5F5F5F5F5F5F5F5F5E2F5E2E2E2F5E2F5F5F5F5F5F5F5F5F5F5F5F5F5F5F5F5F5F5F5F5F5F5F5F5F5F5F5F5F5F5F5F5F5F5F5F5F5F5F5F5F5F5F5F5F5F5F5F5F5F5F5F5F5F5F5F5F5F5F5F5F5F5F5F5F5F5F5F5F5F5F5F5F5F5F5F5F5F5F5F5F5F5F5F5F5
310
F5F5F5F5F5F5F5F5F5F5F5F5F5F5F5F5F5F5F5F5F5F5F5F5F5F5F5F5F5F5F5F5F5F5F5F5F5F5F5F5F5F5F5F5F5F5F5F5F5F5F5F5F5F5F5F5F5F5F5F5F5F5F5F5F5F5F5F5F5F5F5F5F5F5F5F5F5F5F5F5F5F5F5F5F5F5F5F5E2F5E2E2E2F5E2F5F5F5F5F5F5F5F5F5F5F5F5F5F5F5F5F5F5F5F5F5F5F5F5F5F5F5F5F5F5F5F5
310
F5F5F5F5F5F5F5F5F5F5F5F5F5F5F5F5F5F5F5F5F5F5F5F5F5F5F5F5F5F5F5F5F5F5F5F5F5F5F5F5F5F5F5F5F5F5F5F5F5F5F5F5F5F5F5F5F5F5F5F5F5F5F5F5F5F5F5F5F5F5F5F5F5F5F5F5F5F5F5F5F5F5F5F5F5F5F5F5F5F5F5F5F5F5F5F5F5F5F5F5F5F5F5F5F5F5F5F5F5F5F5F5F5F5F5F5F5F5F5F5F5F5F5F5F5F5F5
310
F5F5F5F5F5F5F5F5F5F5F5F5F5F5E2F5E2E2E2F5E2F5F5F5F5F5F5F5F5F5F5F5F5F5F5F5F5F5F5F5F5F5F5F5F5F5F5F5F5F5F5F5F5F5F5F5F5F5F5F5F5F5F5F5F5F5F5F5F5F5F5F5F5F5F5F5F5F5F5F5F5F5F5F5F5F5F5F5F5F5F5F5F5F5F5F5F5F5F5F5F5F5F5F5F5F5F5F5F5F5F5F5F5F5F5F5F5F5F5F5F5F5F5F5F5F5F5
310
F5F5F5F5F5F5F5F5F5F5F5F5F5F5F5F5F5F5F5F5F5F5F5F5F5F5F5F5F5F5F5F5F5F5F5F5F5F5F5F5F5F5F5F5F5F5F5F5F5F5F5F5F5F5F5F5F5F5F5F5F5F5F5F5F5F5F5E2F5E2E2E2F5E2F5F5F5F5F5F5F5F5F5F5F5F5F5F5F5F5F5F5F5F5F5F5F5F5F5F5F5F5F5F5F5F5F5F5F5F5F5F5F5F5F5F5F5F5F5F5F5F5F5F5F5F5F5
310
F5F5F5F5F5F5F5F5F5F5F5F5F5F5F5F5F5F5F5F5F5F5F5F5F5F5F5F5F5F5F5F5F5F5F5F5F5F5F5F5F5F5F5F5F5F5F5F5F5F5F5F5F5F5F5F5F5F5F5F5F5F5F5F5F5F5F5F5F5F5F5F5F5F5F5F5F5F5F5F5F5F5F5F5F5F5F5F5F5F5F5F5F5F5F5F5F5F5F5F5F5F5F5F5F5F5F5F5F5F5F5F5F5F5F5F5F5F5F5F5E2F5E2E2E2F5E2
310
F5F5F5F5F5F5F5F5F5F5F5F5F5F5F5F5F5F5F5F5F5F5F5F5F5F5F5F5F5F5F5F5F5F5F5F5F5F5F5F5F5F5F5F5F5F5F5F5F5F5F5F5F5F5F5F5F5F5F5F5F5F5F5F5F5F5F5F5F5F5F5F5F5F5F5F5F5F5F5F5F5F5F5F5F5F5F5F5F5F5F5F5F5F5F5F5F5F5F5F5F5F5F5F5F5F5F5F5F5F5F5F5F5F5F5F5F5F5F5F5F5F5F5F5F5F5F5
310
F5F5F5F5F5F5F5F5F5F5F5F5F5F5F5F5F5F5F5F5F5F5F5F5F5F5F5F5F5F5F5F5F5F5F5F5F5F5F5F5F5F5F5F5F5F5E2F5E2E2E2F5E2F5F5F5F5F5F5F5F5F5F5F5F5F5F5F5F5F5F5F5F5F5F5F5F5F5F5F5F5F5F5F5F5F5F5F5F5F5F5F5F5F5F5F5F5F5F5F5F5F5F5F5F5F5F5F5F5F5F5F5F5F5F5F5E2E2E2E2E2E2E2E2E2E2E2
310
E2E2E2E2E2E2E2E2E2E2E2E2E2E2E2E2E2E2E2E2E2E2E2E2E2E2E2E2E2E2E2E2E2E2F5F5F5F5F5F5F5F5F5F5F5F5F5F5F5F5F5F5F5F5F5F5F5F5F5F5F5F5F5F5F5F5F5F5F5F5F5F5F5F5F5F5F5F5F5F5F5F5F5F5F5F5F5F5F5F5F5F5F5F5F5F5F5F5F5E2F5E2E2E2F5E2F5F5F5F5F5F5F5F5F5F5F5F5F5F5F5F5F5F5F5F5F5
310
F5F5F5F5F5F5F5F5F5F5F5F5F5F5F5F5F5F5F5F5F5F5F5F5F5F5F5F5F5F5F5F5F5F5F5F5F5F5F5F5F5F5E2E2E2E2E2E2E2E2E2E2E2E2E2E2E2E2E2E2E2E2E2E2E2E2E2E2E2E2E2E2E2E2E2E2E2E2E2E2E2E2E2E2E2E2E2F5F5F5F5F5F5F5F5F5F5F5F5F5F5F5F5F5F5F5F5F5F5F5F5F5F5F5F5F5F5F5F5F5F5F5F5F5F5F5F5
310
F5F5F5F5F5F5F5F5F5F5F5F5F5F5F5F5F5F5F5F5F5F5F5F5F5E2F5E2E2E2F5E2F5F5F5F5F5F5F5F5F5F5F5F5F5F5F5F5F5F5F5F5F5F5F5F5F5F5F5F5F5F5F5F5F5F5F5F5F5F5F5F5F5F5F5F5F5F5F5F5F5F5F5F5F5F5F5F5F5F5F5F5F5F5F5E2E2E2E2E2E2E2E2E2E2E2E2E2E2E2E2E2E2E2E2E2E2E2E2E2E2E2E2E2E2E2E2
310
E2E2E2E2E2E2E2E2E2E2E2E2E2F5F5F5F5F5F5F5F5F5F5F5F5F5F5F5F5F5F5F5F5F5F5F5F5F5F5F5F5F5F5F5F5F5F5F5F5F5F5F5F5F5F5F5F5F5F5F5F5F5F5F5F5F5F5F5F5F5F5F5F5F5F5F5F5F5E2F5E2E2E2F5E2F5F5F5F5F5F5F5F5F5F5F5F5F5F5F5F5F5F5F5F5F5F5F5F5F5F5F5F5F5F5F5F5F5F5F5F5F5F5F5F5F5F5
310
F5F5F5F5F5F5F5F5F5F5F5F5F5F5F5F5F5F5F5F5F5E2E2E2E2E2E2E2E2E2E2E2E2E2E2E2E2E2E2E2E2E2E2E2E2E2E2E2E2E2E2E2E2E2E2E2E2E2E2E2E2E2E2E2E2E2F5F5F5F5F5F5F5F5F5F5F5F5F5F5F5F5F5F5F5F5F5F5F5F5F5F5F5F5F5F5F5F5F5F5F5F5F5F5F5F5F5F5F5F5F5F5F5F5F5F5F5F5F5F5F5F5F5F5F5F5F5
310
F5F5F5F5E2F5E2E2E2F5E2F5F5F5F5F5F5F5F5F5F5F5F5F5F5F5F5F5F5F5F5F5F5F5F5F5F5F5F5F5F5F5F5F5F5F5F5F5F5F5F5F5F5F5F5F5F5F5F5F5F5F5F5F5F5F5F5F5F5F5F5F5F5F5F5F5F5F5F5F5F5F5F5F5F5F5F5F5F5F5F5F5F5F5F5F5F5F5F5F5F5F5F5F5F5F5F5F5F5F5F5F5F5F5F5F5F5F5F5F5F5F5F5F5F5F5F5
310
F5F5F5F5F5F5F5F5F5F5F5F5F5F5F5F5F5F5F5F5F5F5F5F5F5F5F5F5F5F5F5F5F5F5F5F5F5F5F5F5F5F5F5F5F5F5F5F5F5F5F5F5F5F5F5F5F5E2F5E2E2E2F5E2F5F5F5F5F5F5F5F5F5F5F5F5F5F5F5F5F5F5F5F5F5F5F5F5F5F5F5F5F5F5F5F5F5F5F5F5F5F5F5F5F5F5F5F5F5F5F5F5F5F5F5F5F5F5F5F5F5F5F5F5F5F5F5
310
F5F5F5F5F5F5F5F5F5F5F5F5F5F5F5F5F5F5F5F5F5F5F5F5F5F5F5F5F5F5F5F5F5F5F5F5F5F5F5F5F5F5F5F5F5F5F5F5F5F5F5F5F5F5F5F5F5F5F5F5F5F5F5F5F5F5F5F5F5F5F5F5F5F5F5F5F5F5F5F5F5F5F5F5F5F5F5F5F5F5F5F5F5F5F5F5F5F5F5F5F5F5F5F5F5F5F5F5F5F5E2F5E2E2E2F5E2F5F5F5F5F5F5F5F5F5F5
310
F5F5F5F5F5F5F5F5F5F5F5F5F5F5F5F5F5F5F5F5F5F5F5F5F5F5F5F5F5F5F5F5F5F5F5F5F5F5F5F5F5F5F5F5F5F5E2BEF5F5F5F5F5F5F5F5F5F5F5F5F5F5F5F5F5F5F5F5F5F5F5F5F5F5F5F5F5F5F5F5F5F5F5F5F5F5F5F5F5F5F5F5F5F5F5F5F5F5F5F5F5F5F5F5F5F5F5F5F5F5F5F5F5F5F5F5F5F5F5F5F5F5F5F5F5F5F5
310
F5F5F5F5F5F5F5F5F5F5F5F5F5F5F5F5F5F5F5F5F5F5F5F5F5F5F5F5F5F5F5F5F5F5F5F5E2F5E2E2E2F5E2F5F5F5F5F5F5F5F5F5F5F5F5F5F5F5F5F5F5F5F5F5F5F5F5F5F5F5F5F5F5F5F5F5F5F5F5F5F5F5F5F5F5F5F5F5F5F5F5F5F5F5F5F5F5E2E2E2E2E2F5F5F5F5E2E2F5E2E2E2E2E2E2E2E2F5E2E2E2E2E2E2E2E2F5
310
E2E2E2E2E2E2E2E2F5E2E2E2E2E2E2E2E2F5E2E2E2E2E2E2E2E2F5E2E2E2E2E2E2E2E2F5E2E2E2E2E2E2E2E2F5E2E2E2E2E2E2E2F5F5F5F5F5F5F5F5F5F5F5F5F5F5F5F5F5F5F5F5F5F5F5F5F5F5F5F5F5F5F5F5F5F5F5F5F5E2F5E2E2E2F5E2F5F5F5F5F5F5F5F5F5F5F5F5F5F5F5F5F5F5F5F5F5F5F5F5F5F5F5F5F5F5F5
310
F5F5F5F5F5F5F5F5F5F5F5F5F5F5F5F5F5F5F5F5F5F5F5F5BEE2F5F5F5F5F5F5E2F5F5F5F5F5F5F5F5F5F5F5F5F5F5F5F5F5F5F5F5F5F5F5F5F5F5F5F5F5F5F5F5F5F5F5F5F5F5F5F5F5F5F5F5F5F5F5F5F5F5F5F5F5F5F5F5F5F5F5F5F5F5F5F5F5F5F5F5F5F5F5E2F5F5F5F5F5F5F5F5F5F5F5F5F5F5F5F5F5F5F5F5F5F5
310
F5F5F5F5F5F5F5F5F5F5F5F5F5F5F5E2F5E2E2E2F5E2F5F5F5F5F5F5F5F5F5F5F5F5F5F5F5F5F5F5F5F5F5F5F5F5F5F5F5F5F5F5F5F5F5F5F5F5F5F5F5F5F5F5F5F5F5F5F5F5F5F5F5F5F5F5F5F5E2F5F5F5F5F5F5E2F5F5F5F5F5F5F5F5F5F5F5F5F5F5F5F5F5F5F5F5F5F5F5F5F5F5F5F5F5F5F5F5F5F5F5F5F5F5F5F5F5
310
F5F5F5F5F5F5F5F5F5F5F5F5F5F5F5F5F5F5F5F5F5F5F5F5F5F5F5F5F5F5E2F5F5F5F5F5F5F5F5F5F5F5F5F5F5F5F5F5F5F5F5F5F5F5F5F5F5F5F5F5F5F5F5F5F5F5F5F5E2F5E2E2E2F5E2F5F5F5F5F5F5F5F5F5F5F5F5F5F5F5F5F5F5F5F5F5F5F5F5F5F5F5F5F5F5F5F5F5F5F5F5F5F5F5F5F5F5F5F5F5F5F5F5F5F5F5F5
310
F5F5F5F5E2F5F5F5F5F5F5E2F5F5F5F5F5F5F5F5F5F5F5F5F5F5F5F5F5F5F5F5F5F5F5F5F5F5F5F5F5F5F5F5F5F5F5F5F5F5F5F5F5F5F5F5F5F5F5F5F5F5F5F5F5F5F5F5F5F5F5F5F5F5F5F5F5F5F5F5F5F5F5E2F5F5F5F5F5F5F5F5F5F5F5F5F5F5F5F5F5F5F5F5F5F5F5F5F5F5F5F5F5F5F5F5F5F5F5F5F5E2F5E2E2E2F5
310
E2F5F5F5F5F5F5F5F5F5F5F5F5F5F5F5F5F5F5F5F5F5F5F5F5F5F5F5F5F5F5F5F5F5F5F5F5F5F5F5F5F5F5F5F5F5F5F5F5F5F5F5F5F5F5F5F5E2F5F5F5F5F5F5E2F5F5F5F5F5F5F5F5F5F5F5F5F5F5F5F5F5F5F5F5F5F5F5F5F5F5F5F5F5F5F5F5F5F5F5F5F5F5F5F5F5F5F5F5F5F5F5F5F5F5F5F5F5F5F5F5F5F5F5F5F5F5
310
F5F5F5F5F5F5F5F5F5E2F5F5F5F5F5F5F5F5F5F5F5F5F5F5F5F5F5F5F5F5F5F5F5F5F5F5F5F5F5F5F5F5F5F5F5F5F5E2F5E2E2E2F5E2F5F5F5F5F5F5F5F5F5F5F5F5F5F5F5F5F5F5F5F5F5F5F5F5F5F5F5F5F5F5F5F5F5F5F5F5F5F5F5F5F5F5F5F5F5F5F5F5F5F5F5F5F5F5F5F5E2F5F5F5F5F5F5E2F5F5F5F5F5F5F5F5F5
310
F5F5F5F5F5F5F5F5F5F5F5F5F5F5F5F5F5F5F5F5F5F5F5F5F5F5F5F5F5F5F5F5F5F5F5F5F5F5F5F5F5F5F5F5F5F5F5F5F5F5F5F5F5F5F5F5F5F5F5F5F5F5E2F5F5F5F5F5F5F5F5F5F5F5F5F5F5F5F5F5F5F5F5F5F5F5F5F5F5F5F5F5F5F5F5F5F5F5F5F5E2F5E2E2E2F5E2F5F5F5F5F5F5F5F5F5F5F5F5F5F5F5F5F5F5F5F5
310
F5F5F5F5F5F5F5F5F5F5F5F5F5F5F5F5F5F5F5F5F5F5F5F5F5F5F5F5F5F5F5F5F5F5F5F5E2F5F5F5F5F5F5E2F5F5F5F5F5F5F5F5F5F5F5F5F5F5F5F5F5F5F5F5F5F5F5F5F5F5F5F5F5F5F5F5F5F5F5F5F5F5F5F5F5F5F5F5F5F5F5F5F5F5F5F5F5F5F5F5F5F5F5F5F5F5F5F5F5F5F5F5F5F5F5E2F5F5F5F5F5F5F5F5F5F5F5
310
F5F5F5F5F5F5F5F5F5F5F5F5F5F5F5F5F5F5F5F5F5F5F5F5F5F5E2F5E2E2E2F5E2F5F5F5F5F5F5F5F5F5F5F5F5F5F5F5F5F5F5F5F5F5F5F5F5F5F5F5F5F5F5F5F5F5F5F5F5F5F5F5F5F5F5F5F5F5F5F5F5F5F5F5F5F5F5F5F5E2F5F5F5F5F5F5F5F5F5F5F5F5F5F5F5F5F5F5F5F5F5F5F5F5F5F5F5F5F5F5F5F5F5F5F5F5F5
310
F5F5F5F5F5F5F5F5F5F5F5F5F5F5F5F5F5F5F5F5F5F5F5F5F5F5F5F5F5F5F5F5F5F5F5F5F5F5F5F5F5F5F5F5F5F5F5F5F5F5F5F5F5F5F5F5F5F5F5F5F5F5F5F5F5F5F5F5F5F5F5F5F5F5F5F5F5F5F5E2F5E2E2E2F5E2F5F5F5F5F5F5F5F5F5F5F5F5F5F5F5F5F5F5F5F5F5F5F5F5F5F5F5F5F5F5F5F5F5F5F5F5F5F5F5F5F5
310
F5F5F5F5F5F5F5F5F5F5F5F5F5F5F5E2F5F5F5F5F5F5E2F5F5F5F5F5F5F5F5F5F5F5F5F5F5F5F5F5F5F5F5F5F5F5F5F5F5F5F5F5F5F5F5F5F5F5F5F5F5F5F5F5F5F5F5F5F5F5F5F5F5F5F5F5F5F5F5F5F5F5F5F5F5F5F5F5F5F5F5F5F5F5E2F5F5F5F5F5F5F5F5F5F5F5F5F5F5F5F5F5F5F5F5F5F5F5F5F5F5F5F5F5F5F5F5
310
F5F5F5F5F5E2F5E2E2E2F5E2F5F5F5F5F5F5F5F5F5F5F5F5F5F5F5F5F5F5F5F5F5F5F5F5F5F5F5F5F5F5F5F5F5F5F5F5F5F5F5F5F5F5F5F5F5F5F5F5F5F5F5F5F5F5F5F5E2F5F5F5F5F5F5E2F5F5F5F5F5F5F5F5F5F5F5F5F5F5F5F5F5F5F5F5F5F5F5F5F5F5F5F5F5F5F5F5F5F5F5F5F5F5F5F5F5F5F5F5F5F5F5F5F5F5F5
310
F5F5F5F5F5F5F5F5F5F5F5F5F5F5F5F5F5F5F5F5E2F5F5F5F5F5F5F5F5F5F5F5F5F5F5F5F5F5F5F5F5F5F5F5F5F5F5F5F5F5F5F5F5F5F5F5F5F5E2F5E2E2E2F5E2F5F5F5F5F5F5F5F5F5F5F5F5F5F5F5F5F5F5F5F5F5F5F5F5F5F5F5F5F5F5F5F5F5F5F5F5F5F5F5F5F5F5F5F5F5F5F5F5F5F5F5F5F5F5F5F5E2F5F5F5F5F5
310
F5E2F5F5F5F5F5F5F5F5F5F5F5F5F5F5F5F5F5F5F5F5F5F5F5F5F5F5F5F5F5F5F5F5F5F5F5F5F5F5F5F5F5F5F5F5F5F5F5F5F5F5F5F5F5F5F5F5F5F5F5F5F5F5F5F5F5F5F5F5F5F5F5E2F5F5F5F5F5F5F5F5F5F5F5F5F5F5F5F5F5F5F5F5F5F5F5F5F5F5F5F5F5F5F5F5F5F5F5F5F5E2F5E2E2E2F5E2F5F5F5F5F5F5F5F5F5
310
F5F5F5F5F5F5F5F5F5F5F5F5F5F5F5F5F5F5F5F5F5F5F5F5F5F5F5F5F5F5F5F5F5F5F5F5F5F5F5F5F5F5F5F5F5F5F5E2F5F5F5F5F5F5E2F5F5F5F5F5F5F5F5F5F5F5F5F5F5F5F5F5F5F5F5F5F5F5F5F5F5F5F5F5F5F5F5F5F5F5F5F5F5F5F5F5F5F5F5F5F5F5F5F5F5F5F5F5F5F5F5F5F5F5F5F5F5F5F5F5F5F5F5F5F5F5E2
310
F5F5F5F5F5F5F5F5F5F5F5F5F5F5F5F5F5F5F5F5F5F5F5F5F5F5F5F5F5F5F5F5F5F5F5F5F5E2F5E2E2E2F5E2F5F5F5F5F5F5F5F5F5F5F5F5F5F5F5F5F5F5F5F5F5F5F5F5F5F5F5F5F5F5F5F5F5F5F5F5F5F5F5F5F5F5F5F5F5F5F5F5F5F5F5F5F5F5F5F5E2F5F5F5F5F5F5E2F5F5F5F5F5F5F5F5F5F5F5F5F5F5F5F5F5F5F5
310
F5F5F5F5F5F5F5F5F5F5F5F5F5F5F5F5F5F5F5F5F5F5F5F5F5F5F5F5F5F5F5F5F5F5F5F5F5F5F5F5F5F5F5F5F5F5F5F5F5F5F5F5E2F5F5F5F5F5F5F5F5F5F5F5F5F5F5F5F5F5F5F5F5F5F5F5F5F5F5F5F5F5F5F5F5F5F5F5F5F5E2F5E2E2E2F5E2F5F5F5F5F5F5F5F5F5F5F5F5F5F5F5F5F5F5F5F5F5F5F5F5F5F5F5F5F5F5
310
F5F5F5F5F5F5F5F5F5F5F5F5F5F5F5F5F5F5F5F5F5F5F5F5F5F5E2F5F5F5F5F5F5E2F5F5F5F5F5F5F5F5F5F5F5F5F5F5F5F5F5F5F5F5F5F5F5F5F5F5F5F5F5F5F5F5F5F5F5F5F5F5F5F5F5F5F5F5F5F5F5F5F5F5F5F5F5F5F5F5F5F5F5F5F5F5F5F5F5F5F5F5F5F5F5E2F5F5F5F5F5F5F5F5F5F5F5F5F5F5F5F5F5F5F5F5F5
310
F5F5F5F5F5F5F5F5F5F5F5F5F5F5F5F5E2F5E2E2E2F5E2F5F5F5F5F5F5F5F5F5F5F5F5F5F5F5F5F5F5F5F5F5F5F5F5F5F5F5F5F5F5F5F5F5F5F5F5F5F5F5F5F5F5F5F5F5F5F5F5F5F5F5F5F5F5F5F5E2F5F5F5F5F5F5E2F5F5F5F5F5F5F5F5F5F5F5F5F5F5F5F5F5F5F5F5F5F5F5F5F5F5F5F5F5F5F5F5F5F5F5F5F5F5F5F5
310
F5F5F5F5F5F5F5F5F5F5F5F5F5F5F5F5F5F5F5F5F5F5F5F5F5F5F5F5F5F5F5E2F5F5F5F5F5F5F5F5F5F5F5F5F5F5F5F5F5F5F5F5F5F5F5F5F5F5F5F5F5F5F5F5F5F5F5F5F5E2F5E2E2E2F5E2F5F5F5F5F5F5F5F5F5F5F5F5F5F5F5F5F5F5F5F5F5F5F5F5F5F5F5F5F5F5F5F5F5F5F5F5F5F5F5F5F5F5F5F5F5F5F5F5F5F5F5
310
F5F5F5F5F5E2F5F5F5F5F5F5E2F5F5F5F5F5F5F5F5F5F5F5F5F5F5F5F5F5F5F5F5F5F5F5F5F5F5F5F5F5F5F5F5F5F5F5F5F5F5F5F5F5F5F5F5F5F5F5F5F5F5F5F5F5F5F5F5F5F5F5F5F5F5F5F5F5F5F5F5F5F5F5E2F5F5F5F5F5F5F5F5F5F5F5F5F5F5F5F5F5F5F5F5F5F5F5F5F5F5F5F5F5F5F5F5F5F5F5F5F5E2F5E2E2E2
310
F5E2F5F5F5F5F5F5F5F5F5F5F5F5F5F5F5F5F5F5F5F5F5F5F5F5F5F5F5F5F5F5F5F5F5F5F5F5F5F5F5F5F5F5F5F5F5F5F5F5F5F5F5F5F5F5F5F5E2F5F5F5F5F5F5F5F5F5F5F5F5F5F5F5F5F5F5F5F5F5F5F5F5F5F5F5F5F5F5F5F5F5F5F5F5F5F5F5F5F5F5F5F5F5F5F5F5F5F5F5F5F5F5F5F5F5F5F5F5F5F5F5F5F5F5F5F5
310
F5F5F5F5F5F5F5F5F5F5F5F5F5F5F5F5F5F5F5F5F5F5F5F5F5F5F5F5F5F5F5F5F5F5F5F5F5F5F5F5F5F5F5F5F5F5F5F5E2F5E2E2E2F5E2F5F5F5F5F5F5F5F5F5F5F5F5F5F5F5F5F5F5F5F5F5F5F5F5F5F5F5F5F5F5F5F5F5F5F5F5F5F5F5F5F5F5F5F5F5F5F5F5F5F5F5F5F5F5F5F5E2F5F5F5F5F5F5E2F5F5F5F5F5F5F5F5
310
F5F5F5F5F5F5F5F5F5E2E2E2E2E2E2E2E2E2E2E2E2E2E2E2E2E2E2E2E2E2E2E2E2E2E2E2E2E2E2E2E2E2E2E2E2E2E2F5F5F5F5F5F5F5F5F5F5F5F5F5F5F5F5E2F5F5F5F5F5F5F5F5F5F5F5F5F5F5F5F5F5F5F5F5F5F5F5F5F5F5F5F5F5F5F5F5F5F5F5F5F5E2F5E2E2E2F5E2F5F5F5F5F5F5F5F5F5F5F5F5F5F5F5F5F5F5F5
310
F5F5F5F5F5F5F5F5F5F5F5F5F5F5F5F5F5F5F5F5F5F5F5F5F5F5F5F5F5F5F5F5F5F5F5F5F5E2F5F5F5F5F5F5E2F5F5F5F5F5F5F5F5F5F5F5F5F5F5F5F5E2E2E2E2E2E2E2E2E2E2E2E2E2E2E2E2E2E2E2E2E2E2E2E2E2E2E2E2E2E2E2F5F5F5F5F5F5F5E2F5F5F5F5F5F5F5F5F5F5F5F5F5F5F5F5E2F5F5F5F5F5F5F5F5F5F5
310
F5F5F5F5F5F5F5F5F5F5F5F5F5F5F5F5F5F5F5F5F5F5F5F5F5F5F5E2F5E2E2E2F5E2F5F5F5F5F5F5F5F5F5F5F5F5F5F5F5F5F5F5F5F5F5F5F5F5F5F5F5F5F5F5F5F5F5F5F5F5F5F5F5F5F5F5F5F5F5F5F5F5F5F5F5F5F5F5F5F5E2F5F5F5F5F5F5E2F5F5F5F5F5F5F5F5F5F5F5F5F5F5F5F5E2E2E2F5F5F5F5F5F5F5F5F5F5
310
F5F5F5F5F5F5F5F5F5F5F5F5F5F5F5F5F5E2F5F5F5F5F5F5F5E2E2F5F5F5F5F5F5F5F5F5F5F5F5F5F5F5E2F5F5F5F5F5F5F5F5F5F5F5F5F5F5F5F5F5F5F5F5F5F5F5F5F5F5F5F5F5F5F5F5F5F5F5F5F5E2F5E2E2E2F5E2F5F5F5F5F5F5F5F5F5F5F5F5F5F5F5F5F5F5F5F5F5F5F5F5F5F5F5F5F5F5F5F5F5F5F5F5F5F5F5F5
310
F5F5F5F5F5F5F5F5F5F5F5F5F5F5F5F5E2F5F5F5F5F5F5E2F5F5F5F5F5F5F5F5F5F5F5F5F5F5F5F5E2E2E2F5F5F5F5F5F5F5F5F5F5F5F5F5F5F5F5F5F5F5F5F5F5F5F5F5F5F5E2E2E2E2F5F5F5F5F5E2F5F5F5F5F5F5F5F5F5F5F5F5F5F5F5E2F5F5F5F5F5F5F5F5F5F5F5F5F5F5F5F5F5F5F5F5F5F5F5F5F5F5F5F5F5F5F5
310
F5F5F5F5F5F5E2F5E2E2E2F5E2F5F5F5F5F5F5F5F5F5F5F5F5F5F5F5F5F5F5F5F5F5F5F5F5F5F5F5F5F5F5F5F5F5F5F5F5F5F5F5F5F5F5F5F5F5F5F5F5F5F5F5F5F5F5F5F5E2F5F5F5F5F5F5E2F5F5F5F5F5F5F5F5F5F5F5F5F5F5F5F5E2E2F5F5F5F5F5F5F5F5F5F5F5F5F5F5F5F5F5F5F5F5F5F5F5F5F5F5F5F5F5F5F5F5
310
E2F5F5F5F5E2F5F5F5F5F5F5F5F5F5F5F5F5F5F5F5E2F5F5F5F5F5F5F5F5F5F5F5F5F5F5F5F5F5F5F5F5F5F5F5F5F5F5F5F5F5F5F5F5F5F5F5F5F5E2F5E2E2E2F5E2F5F5F5F5F5F5F5F5F5F5F5F5F5F5F5F5F5F5F5F5F5F5F5F5F5F5F5F5F5F5F5F5F5F5F5F5F5F5F5F5F5F5F5F5F5F5F5F5F5F5F5F5F5F5F5F5E2F5F5F5F5
310
F5F5E2F5F5F5F5F5F5F5F5F5F5F5F5F5F5F5F5E2E2F5F5F5F5F5F5F5F5F5F5F5F5F5F5F5F5F5F5F5F5F5F5F5F5F5F5F5F5F5F5F5F5F5E2F5F5F5E2F5F5F5F5F5F5F5F5F5F5F5F5F5F5F5E2F5F5F5F5F5F5F5F5F5F5F5F5F5F5F5F5F5F5F5F5F5F5F5F5F5F5F5F5F5F5F5F5F5F5F5F5F5E2F5E2E2E2F5E2F5F5F5F5F5F5F5F5
310
F5F5F5F5F5F5F5F5F5F5F5F5F5F5F5F5F5F5F5F5F5F5F5F5F5F5F5F5F5F5F5F5F5F5F5F5F5F5F5F5F5F5F5F5F5F5F5F5E2F5F5F5F5F5F5E2F5F5F5F5F5F5F5F5F5F5F5F5F5F5F5F5E2E2F5F5F5F5F5F5F5F5F5F5F5F5F5F5F5F5F5F5F5F5F5F5F5F5F5F5F5F5F5F5F5F5F5E2F5F5F5E2F5F5F5F5F5F5F5F5F5F5F5F5F5F5F5
310
E2F5F5F5F5F5F5F5F5F5F5F5F5F5F5F5F5F5F5F5F5F5F5F5F5F5F5F5F5F5F5F5F5F5F5F5F5F5E2F5E2E2E2F5E2F5F5F5F5F5F5F5F5F5F5F5F5F5F5F5F5F5F5F5F5F5F5F5F5F5F5F5F5F5F5F5F5F5F5F5F5F5F5F5F5F5F5F5F5F5F5F5F5F5F5F5F5F5F5F5F5E2F5F5F5F5F5F5E2F5F5F5F5F5F5F5F5F5F5F5F5F5F5F5F5E2E2
310
F5F5F5F5F5F5F5F5F5F5F5F5F5F5F5F5F5F5F5F5F5F5F5F5F5F5F5F5F5F5F5F5F5E2F5F5F5E2F5F5F5F5F5F5F5F5F5F5F5F5F5F5F5E2F5F5F5F5F5F5F5F5F5F5F5F5F5F5F5F5F5F5F5F5F5F5F5F5F5F5F5F5F5F5F5F5F5F5F5F5F5E2F5E2E2E2F5E2F5F5F5F5F5F5F5F5F5F5F5F5F5F5F5F5F5F5F5F5F5F5F5F5F5F5F5F5F5
310
F5F5F5F5F5F5F5F5F5F5F5F5F5F5F5F5F5F5F5F5F5F5F5F5F5F5F5E2F5F5F5F5F5F5F5F5F5F5F5F5F5F5F5F5F5F5F5F5F5F5F5E2E2F5F5F5F5F5F5F5F5F5F5F5F5F5F5F5F5F5F5F5F5F5F5F5F5F5F5F5F5F5F5F5F5F5E2E2E2E2E2F5F5F5F5F5F5F5F5F5F5F5F5F5F5F5F5F5F5F5F5F5F5F5F5F5F5F5F5F5F5F5F5F5F5F5F5
310
F5F5F5F5F5F5F5F5F5F5F5F5F5F5F5F5F5E2F5E2E2E2F5E2F5F5F5F5F5F5F5F5F5F5F5F5F5F5F5F5F5F5F5F5F5F5F5F5F5F5F5F5F5F5F5F5F5F5F5F5F5F5F5F5F5F5F5F5F5F5F5F5F5F5F5F5F5F5F5F5E2F5F5F5F5F5F5E2F5F5F5F5F5F5F5F5F5F5F5F5F5F5F5F5E2E2F5F5F5F5F5F5F5F5F5F5F5F5F5F5F5F5F5F5F5F5F5
310
F5F5F5F5F5F5F5F5F5F5F5F5F5F5E2E2F5F5F5F5F5F5F5F5F5F5F5F5F5F5F5F5E2F5F5F5F5F5F5F5F5F5F5F5F5F5F5F5F5F5F5F5F5F5F5F5F5F5F5F5F5F5F5F5F5F5F5F5F5F5E2F5E2E2E2F5E2F5F5F5F5F5F5F5F5F5F5F5F5F5F5F5F5F5F5F5F5F5F5F5F5F5F5F5F5F5F5F5F5F5F5F5F5F5F5F5F5F5F5F5F5F5F5F5F5F5F5
310
F5F5F5F5F5F5E2F5F5F5F5F5F5E2F5F5F5F5F5F5F5F5F5F5F5F5F5F5F5F5E2E2F5F5F5F5F5F5F5F5F5F5F5F5F5F5F5F5F5F5F5F5F5F5F5F5F5F5F5F5F5F5F5F5F5F5F5E2E2F5F5F5F5F5F5F5F5F5F5F5F5F5F5F5F5E2F5F5F5F5F5F5F5F5F5F5F5F5F5F5F5F5F5F5F5F5F5F5F5F5F5F5F5F5F5F5F5F5F5F5F5F5F5E2F5E2E2
310
E2F5E2F5F5F5F5F5F5F5F5F5F5F5F5F5F5F5F5F5F5F5F5F5F5F5F5F5F5F5F5F5F5F5F5F5F5F5F5F5F5F5F5F5F5F5F5F5F5F5F5F5F5F5F5F5F5F5F5E2F5F5F5F5F5F5E2F5F5F5F5F5F5F5F5F5F5F5F5F5F5F5F5E2E2F5F5F5F5F5F5F5F5F5F5F5F5F5F5F5F5F5F5F5F5F5F5F5F5F5F5F5F5F5F5F5F5F5F5F5E2E2F5F5F5F5F5
310
F5F5F5F5F5F5F5F5F5F5F5E2F5F5F5F5F5F5F5F5F5F5F5F5F5F5F5F5F5F5F5F5F5F5F5F5F5F5F5F5F5F5F5F5F5F5F5F5F5E2F5E2E2E2F5E2F5F5F5F5F5F5F5F5F5F5F5F5F5F5F5F5F5F5F5F5F5F5F5F5F5F5F5F5F5F5F5F5F5F5F5F5F5F5F5F5F5F5F5F5F5F5F5F5F5F5F5F5F5F5F5F5E2F5F5F5F5F5F5E2F5F5F5F5F5F5F5
310
F5F5F5F5F5F5F5F5F5E2E2F5F5F5F5F5F5F5F5F5F5F5F5F5F5F5F5F5F5F5F5F5F5F5F5F5F5F5F5F5F5F5F5F5F5F5E2E2F5F5F5F5F5F5F5F5F5F5F5F5F5F5F5F5E2F5F5F5F5F5F5F5F5F5F5F5F5F5F5F5F5F5F5F5F5F5F5F5F5F5F5F5F5F5F5F5F5F5F5F5F5F5E2F5E2E2E2F5E2F5F5F5F5F5F5F5F5F5F5F5F5F5F5F5F5F5F5
310
F5F5F5F5F5F5F5F5F5F5F5F5F5F5F5F5F5F5F5F5F5F5F5F5F5F5F5F5F5F5F5F5F5F5F5F5F5F5E2F5F5F5F5F5F5E2F5F5F5F5F5F5F5F5F5F5F5F5F5F5F5F5E2E2F5F5F5F5F5F5F5F5F5F5F5F5F5F5F5F5F5F5F5F5F5F5F5F5F5F5F5F5F5F5F5F5F5F5F5E2E2F5F5F5F5F5F5F5F5F5F5F5F5F5F5F5F5E2F5F5F5F5F5F5F5F5F5
310
F5F5F5F5F5F5F5F5F5F5F5F5F5F5F5F5F5F5F5F5F5F5F5F5F5F5F5F5E2F5E2E2E2F5E2F5F5F5F5F5F5F5F5F5F5F5F5F5F5F5F5F5F5F5F5F5F5F5F5F5F5F5F5F5F5F5F5F5F5F5F5F5F5F5F5F5F5F5F5F5F5F5F5F5F5F5F5F5F5F5F5E2F5F5F5F5F5F5E2F5F5F5F5F5F5F5F5F5F5F5F5F5F5F5F5E2E2F5F5F5F5F5F5F5F5F5F5
310
F5F5F5F5F5F5F5F5F5F5F5F5F5F5F5F5F5F5F5F5F5F5F5F5F5E2E2F5F5F5F5F5F5F5F5F5F5F5F5F5F5F5F5E2F5F5F5F5F5F5F5F5F5F5F5F5F5F5F5F5F5F5F5F5F5F5F5F5F5F5F5F5F5F5F5F5F5F5F5F5F5E2F5E2E2E2F5E2F5F5F5F5F5F5F5F5F5F5F5F5F5F5F5F5F5F5F5F5F5F5F5F5F5F5F5F5F5F5F5F5F5F5F5F5F5F5F5
310
F5F5F5F5F5F5F5F5F5F5F5F5F5F5F5F5F5E2F5F5F5F5F5F5E2F5F5F5F5F5F5F5F5F5F5F5F5F5F5F5F5E2E2F5F5F5F5F5F5F5F5F5F5F5F5F5F5F5F5F5F5F5F5F5F5F5F5F5F5F5F5F5F5F5F5F5F5F5E2E2F5F5F5F5F5F5F5F5F5F5F5F5F5F5F5F5E2F5F5F5F5F5F5F5F5F5F5F5F5F5F5F5F5F5F5F5F5F5F5F5F5F5F5F5F5F5F5
310
F5F5F5F5F5F5F5E2F5E2E2E2F5E2F5F5F5F5F5F5F5F5F5F5F5F5F5F5F5F5F5F5F5F5F5F5F5F5F5F5F5F5F5F5F5F5F5F5F5F5F5F5F5F5F5F5F5F5F5F5F5F5F5F5F5F5F5F5F5F5E2F5F5F5F5F5F5E2F5F5F5F5F5F5F5F5F5F5F5F5F5F5F5F5E2E2F5F5F5F5F5F5F5F5F5F5F5F5F5F5F5F5F5F5F5F5F5F5F5F5F5F5F5F5F5F5F5
310
F5F5F5F5E2E2F5F5F5F5F5F5F5F5F5F5F5F5F5F5F5F5E2F5F5F5F5F5F5F5F5F5F5F5F5F5F5F5F5F5F5F5F5F5F5F5F5F5F5F5F5F5F5F5F5F5F5F5F5F5E2F5E2E2E2F5E2F5F5F5F5F5F5F5F5F5F5F5F5F5F5F5F5F5F5F5F5F5F5F5F5F5F5F5F5F5F5F5F5F5F5F5F5F5F5F5F5F5F5F5F5F5F5F5F5F5F5F5F5E2E2E2F5E2F5F5F5
310
F5F5F5F5F5F5F5F5F5F5F5F5F5F5F5F5F5F5F5F5E2E2F5F5F5F5F5F5F5F5F5F5F5F5F5F5F5F5F5F5F5F5F5F5F5F5F5F5F5F5F5F5F5F5F5F5F5E2E2F5F5F5F5F5F5F5F5F5F5F5F5F5F5F5F5F5F5F5F5F5F5F5F5F5F5F5F5F5F5F5F5F5F5F5F5F5F5F5F5F5F5F5F5F5F5F5F5F5F5F5F5F5F5E2F5E2E2E2F5E2F5F5F5F5F5F5F5
310
F5F5F5F5F5F5F5F5F5F5F5F5F5F5F5F5F5F5F5F5F5F5F5F5F5F5F5F5F5F5F5F5F5F5F5F5F5F5F5F5F5F5F5F5F5E2E2E2F5E2F5F5F5F5F5F5E2F5F5F5F5F5F5F5F5F5F5F5F5F5F5F5F5E2E2F5F5F5F5F5F5F5F5F5F5F5F5F5F5F5F5F5F5F5F5F5F5F5F5F5F5F5F5F5F5F5F5F5F5F5E2E2F5F5F5F5F5F5F5F5F5F5F5F5F5F5F5
310
F5E2F5F5F5F5F5F5F5F5F5F5F5F5F5F5F5F5F5F5F5F5F5F5F5F5F5F5F5F5F5F5F5F5F5F5F5F5F5E2F5E2E2E2F5E2F5F5F5F5F5F5F5F5F5F5F5F5F5F5F5F5F5F5F5F5F5F5F5F5F5F5F5F5F5F5F5F5F5F5F5F5F5F5F5F5F5F5F5F5F5F5F5F5F5F5F5F5E2E2E2F5E2F5F5F5F5F5F5E2F5F5F5F5F5F5F5F5F5F5F5F5F5F5F5F5E2
310
E2F5F5F5F5F5F5F5F5F5F5F5F5F5F5F5F5F5F5F5F5F5F5F5F5F5F5F5F5F5F5F5F5F5F5F5E2E2F5F5F5F5F5F5F5F5F5F5F5F5F5F5F5F5E2F5F5F5F5F5F5F5F5F5F5F5F5F5F5F5F5F5F5F5F5F5F5F5F5F5F5F5F5F5F5F5F5F5F5F5F5F5E2F5E2E2E2F5E2F5F5F5F5F5F5F5F5F5F5F5F5F5F5F5F5F5F5F5F5F5F5F5F5F5F5F5F5
310
F5F5F5F5F5F5F5F5F5F5F5F5F5F5F5F5F5F5F5F5F5F5F5F5E2E2E2F5E2F5F5F5F5F5F5E2F5F5F5F5F5F5F5F5F5F5F5F5F5F5F5F5E2E2F5F5F5F5F5F5F5F5F5F5F5F5F5F5F5F5F5F5F5F5F5F5F5F5F5F5F5F5F5F5F5F5F5F5F5E2E2F5F5F5F5F5F5F5F5F5F5F5F5F5F5F5F5E2F5F5F5F5F5F5F5F5F5F5F5F5F5F5F5F5F5F5F5
310
F5F5F5F5F5F5F5F5F5F5F5F5F5F5F5F5F5F5E2F5E2E2E2F5E2F5F5F5F5F5F5F5F5F5F5F5F5F5F5F5F5F5F5F5F5F5F5F5F5F5F5F5F5F5F5F5F5F5F5F5F5F5F5F5F5F5F5F5F5F5F5F5F5F5F5F5F5E2E2E2F5E2F5F5F5F5F5F5E2F5F5F5F5F5F5F5F5F5F5F5F5F5F5F5F5E2E2F5F5F5F5F5F5F5F5F5F5F5F5F5F5F5F5F5F5F5F5
310
F5F5F5F5F5F5F5F5F5F5F5F5F5F5F5E2E2F5F5F5F5F5F5F5F5F5F5F5F5F5F5F5F5E2F5F5F5F5F5F5F5F5F5F5F5F5F5F5F5F5F5F5F5F5F5F5F5F5F5F5F5F5F5F5F5F5F5F5F5F5F5E2F5E2E2E2F5E2F5F5F5F5F5F5F5F5F5F5F5F5F5F5F5F5F5F5F5F5F5F5F5F5F5F5F5F5F5F5F5F5F5F5F5F5F5F5F5F5F5F5F5F5F5F5F5F5F5
310
F5F5F5F5F5F5F5E2F5F5F5F5F5F5E2F5F5F5F5F5F5F5F5F5F5F5F5F5F5F5F5E2E2F5F5F5F5F5F5F5F5F5F5F5F5F5F5F5F5F5F5F5F5F5F5F5F5F5F5F5F5F5F5F5F5F5F5F5E2E2F5F5F5F5F5F5F5F5F5F5F5F5F5F5F5F5E2F5F5F5F5F5F5F5F5F5F5F5F5F5F5F5F5F5F5F5F5F5F5F5F5F5F5F5F5F5F5F5F5F5F5F5F5F5E2F5E2
310
E2E2F5E2F5F5F5F5F5F5F5F5F5F5F5F5F5F5F5F5F5F5F5F5F5F5F5F5F5F5F5F5F5F5F5F5F5F5F5F5F5F5F5F5F5F5F5F5F5F5F5F5F5F5F5F5F5F5F5F5E2F5F5F5F5F5F5E2F5F5F5F5F5F5F5F5F5F5F5F5F5F5F5F5E2E2F5F5F5F5F5F5F5F5F5F5F5F5F5F5F5F5F5F5F5F5F5F5F5F5F5F5F5F5F5F5F5F5F5F5F5E2E2F5F5F5F5
310
F5F5F5F5F5F5F5F5F5F5F5F5E2F5F5F5F5F5F5F5F5F5F5F5F5F5F5F5F5F5F5F5F5F5F5F5F5F5F5F5F5F5F5F5F5F5F5F5F5F5E2F5E2E2E2F5E2F5F5F5F5F5F5F5F5F5F5F5F5F5F5F5F5F5F5F5F5F5F5F5F5F5F5F5F5F5F5F5F5F5F5F5F5F5F5F5F5F5F5F5F5F5F5F5F5F5F5F5F5F5F5F5F5E2F5F5F5F5F5F5E2F5F5F5F5F5F5
310
F5F5F5F5F5F5F5F5F5F5E2E2F5F5F5F5F5F5F5F5F5F5F5F5F5F5F5F5F5F5F5F5F5F5F5F5F5F5F5F5F5F5F5F5F5F5F5E2E2F5F5F5F5F5F5F5F5F5F5F5F5F5F5F5F5E2F5F5F5F5F5F5F5F5F5F5F5F5F5F5F5F5F5F5F5F5F5F5F5F5F5F5F5F5F5F5F5F5F5F5F5F5F5E2F5E2E2E2F5E2F5F5F5F5F5F5F5F5F5F5F5F5F5F5F5F5F5
310
F5F5F5F5F5F5F5F5F5F5F5F5F5F5F5F5F5F5F5F5F5F5F5F5F5F5F5F5F5F5F5F5F5F5F5F5F5F5F5E2F5F5F5F5F5F5E2F5F5F5F5F5F5F5F5F5F5F5F5F5F5F5F5E2E2F5F5F5F5F5F5F5F5F5F5F5F5F5F5F5F5F5F5F5F5F5F5F5F5F5F5F5F5F5F5F5F5F5F5F5E2E2F5F5F5F5F5F5F5F5F5F5F5F5F5F5F5F5E2F5F5F5F5F5F5F5F5
310
F5F5F5F5F5F5F5F5F5F5F5F5F5F5F5F5F5F5F5F5F5F5F5F5F5F5F5F5F5E2F5E2E2E2F5E2F5F5F5F5F5F5F5F5F5F5F5F5F5F5F5F5F5F5F5F5F5F5F5F5F5F5F5F5F5F5F5F5F5F5F5F5F5F5F5F5F5F5F5F5F5F5F5F5F5F5F5F5F5F5F5F5E2F5F5F5F5F5F5F5F5F5F5F5F5F5F5F5F5F5F5F5F5F5F5F5E2E2F5F5F5F5F5F5F5F5F5
310
F5F5F5F5F5F5F5F5F5F5F5F5F5F5F5F5F5F5F5F5F5F5F5F5F5F5E2E2F5F5F5F5F5F5F5F5F5F5F5F5F5F5F5F5F5F5F5F5F5F5F5F5F5F5F5F5F5F5F5F5F5F5F5F5F5F5F5F5F5F5F5F5F5F5F5F5F5F5F5F5F5F5E2F5E2E2E2F5E2F5F5F5F5F5F5F5F5F5F5F5F5F5F5F5F5F5F5F5F5F5F5F5F5F5F5F5F5F5F5F5F5F5F5F5F5F5F5
310
F5F5F5F5F5F5F5F5F5F5F5F5F5F5F5F5F5F5E2F5F5F5F5F5F5E2F5F5F5F5F5F5F5F5F5F5F5F5F5F5F5F5E2E2F5F5F5F5F5F5F5F5F5F5F5F5F5F5F5F5F5F5F5F5F5F5F5F5F5F5F5F5F5F5F5F5F5F5F5E2E2F5F5F5F5F5F5F5F5F5F5F5F5F5F5F5F5E2F5F5F5F5F5F5F5F5F5F5F5F5F5F5F5F5F5F5F5F5F5F5F5F5F5F5F5F5F5
310
F5F5F5F5F5F5F5F5E2F5E2E2E2F5E2F5F5F5F5F5F5F5F5F5F5F5F5F5F5F5F5F5F5F5F5F5F5F5F5F5F5F5F5F5F5F5F5F5F5F5F5F5F5F5F5F5F5F5F5F5F5F5F5F5F5F5F5F5F5F5F5E2F5F5F5F5F5F5E2F5F5F5F5F5F5F5F5F5F5F5F5F5F5F5F5E2E2F5F5F5F5F5F5F5F5F5F5F5F5F5F5F5F5F5F5F5F5F5F5F5F5F5F5F5F5F5F5
310
F5F5F5F5F5E2E2F5F5F5F5F5F5F5F5F5F5F5F5F5F5F5F5E2F5F5F5F5F5F5F5F5F5F5F5F5F5F5F5F5F5F5F5F5F5F5F5F5F5F5F5F5F5F5F5F5F5F5F5F5F5E2F5E2E2E2F5E2F5F5F5F5F5F5F5F5F5F5F5F5F5F5F5F5F5F5F5F5F5F5F5F5F5F5F5F5F5F5F5F5F5F5F5F5F5F5F5F5F5F5F5F5F5F5F5F5F5F5F5F5F5F5F5F5E2F5F5
310
F5F5F5F5E2F5F5F5F5F5F5F5F5F5F5F5F5F5F5F5F5E2E2F5F5F5F5F5F5F5F5F5F5F5F5F5F5F5F5F5F5F5F5F5F5F5F5F5F5F5F5F5F5F5F5F5F5F5E2E2F5F5F5F5F5F5F5F5F5F5F5F5F5F5F5F5E2F5F5F5F5F5F5F5F5F5F5F5F5F5F5F5F5F5F5F5F5F5F5F5F5F5F5F5F5F5F5F5F5F5F5F5F5F5E2F5E2E2E2F5E2F5F5F5F5F5F5
310
F5F5F5F5F5F5F5F5F5F5F5F5F5F5F5F5F5F5F5F5F5F5F5F5F5F5F5F5F5F5F5F5F5F5F5F5F5F5F5F5F5F5F5F5F5F5F5F5F5F5E2F5F5F5F5F5F5E2F5F5F5F5F5F5F5F5F5F5F5F5F5F5F5F5E2E2F5F5F5F5F5F5F5F5F5F5F5F5F5F5F5F5F5F5F5F5F5F5F5F5F5F5F5F5F5F5F5F5F5F5F5E2E2F5F5F5F5F5F5F5F5F5F5F5F5F5F5
310
F5F5E2F5F5F5F5F5F5F5F5F5F5F5F5F5F5F5F5F5F5F5F5F5F5F5F5F5F5F5F5F5F5F5F5F5F5F5F5F5E2F5E2E2E2F5E2F5F5F5F5F5F5F5F5F5F5F5F5F5F5F5F5F5F5F5F5F5F5F5F5F5F5F5F5F5F5F5F5F5F5F5F5F5F5F5F5F5F5F5F5F5F5F5F5F5F5F5F5F5F5F5F5E2F5F5F5F5F5F5E2F5F5F5F5F5F5F5F5F5F5F5F5F5F5F5E2
310
E2E2E2F5F5F5F5F5F5F5F5F5F5F5F5F5F5F5F5F5F5F5F5F5F5F5F5F5F5F5F5F5F5F5F5F5F5E2E2F5F5F5F5F5F5F5F5F5F5F5F5F5F5F5F5E2F5F5F5F5F5F5F5F5F5F5F5F5F5F5F5F5F5F5F5F5F5F5F5F5F5F5F5F5F5F5F5F5F5F5F5F5F5E2F5E2E2E2F5E2F5F5F5F5F5F5F5F5F5F5F5F5F5F5F5F5F5F5F5F5F5F5F5F5F5F5F5
310
F5F5F5F5F5F5F5F5F5F5F5F5F5F5F5F5F5F5F5F5F5F5F5F5F5F5F5F5F5E2F5F5F5F5F5F5E2F5F5F5F5F5F5F5F5F5F5F5F5F5F5F5E2F5F5E2F5F5F5F5F5F5F5F5F5F5F5F5F5F5F5F5F5F5F5F5F5F5F5F5F5F5F5F5F5F5F5F5F5F5E2E2F5F5F5F5F5F5F5F5F5F5F5F5F5F5F5F5E2F5F5F5F5F5F5F5F5F5F5F5F5F5F5F5F5F5F5
310
F5F5F5F5F5F5F5F5F5F5F5F5F5F5F5F5F5F5F5E2F5E2E2E2F5E2F5F5F5F5F5F5F5F5F5F5F5F5F5F5F5F5F5F5F5F5F5F5F5F5F5F5F5F5F5F5F5F5F5F5F5F5F5F5F5F5F5F5F5F5F5F5F5F5F5F5F5F5F5F5F5F5E2F5F5F5F5F5F5E2F5F5F5F5F5F5F5F5F5F5F5F5F5F5F5E2F5F5F5E2F5F5F5F5F5F5F5F5F5F5F5F5F5F5F5F5F5
310
F5F5F5F5F5F5F5F5F5F5F5F5F5F5F5F5E2E2F5F5F5F5F5F5F5F5F5F5F5F5F5F5F5F5E2F5F5F5F5F5F5F5F5F5F5F5F5F5F5F5F5F5F5F5F5F5F5F5F5F5F5F5F5F5F5F5F5F5F5F5F5F5E2F5E2E2E2F5E2F5F5F5F5F5F5F5F5F5F5F5F5F5F5F5F5F5F5F5F5F5F5F5F5F5F5F5F5F5F5F5F5F5F5F5F5F5F5F5F5F5F5F5F5F5F5F5F5
310
F5F5F5F5F5F5F5F5E2F5F5F5F5F5F5E2F5F5F5F5F5F5F5F5F5F5F5F5F5F5F5E2F5F5F5E2E2F5F5F5F5F5F5F5F5F5F5F5F5F5F5F5F5F5F5F5F5F5F5F5F5F5F5F5F5F5F5F5F5E2E2F5F5F5F5F5F5F5F5F5F5F5F5F5F5F5F5E2F5F5F5F5F5F5F5F5F5F5F5F5F5F5F5F5F5F5F5F5F5F5F5F5F5F5F5F5F5F5F5F5F5F5F5F5F5E2F5
310
E2E2E2F5E2F5F5F5F5F5F5F5F5F5F5F5F5F5F5F5F5F5F5F5F5F5F5F5F5F5F5F5F5F5F5F5F5F5F5F5F5F5F5F5F5F5F5F5F5F5F5F5F5F5F5F5F5F5F5F5F5E2F5F5F5F5F5F5F5F5F5F5F5F5F5F5F5F5F5F5F5F5F5F5E2F5F5F5F5E2E2F5F5F5F5F5F5F5F5F5F5F5F5F5F5F5F5F5F5F5F5F5F5F5F5F5F5F5F5F5F5F5E2E2F5F5F5
310
F5F5F5F5F5F5F5F5F5F5F5F5F5F5F5F5F5F5F5F5F5F5F5F5F5F5F5F5F5F5F5F5F5F5F5F5F5F5F5F5F5F5F5F5F5F5F5F5F5F5F5E2F5E2E2E2F5E2F5F5F5F5F5F5F5F5F5F5F5F5F5F5F5F5F5F5F5F5F5F5F5F5F5F5F5F5F5F5F5F5F5F5F5F5F5F5F5F5F5F5F5F5F5F5F5F5F5F5F5F5F5F5F5F5E2F5F5F5F5F5F5E2F5F5F5F5F5
310
F5F5F5F5F5F5F5F5F5F5E2F5F5F5F5F5E2E2E2E2F5F5F5F5F5F5F5F5F5F5F5F5F5F5F5F5F5F5F5F5F5F5F5F5F5F5E2E2E2E2F5F5F5F5F5F5F5F5F5F5F5F5F5F5F5F5E2F5F5F5F5F5F5F5F5F5F5F5F5F5F5F5F5F5F5F5F5F5F5F5F5F5F5F5F5F5F5F5F5F5F5F5F5F5E2F5E2E2E2F5E2F5F5F5F5F5F5F5F5F5F5F5F5F5F5F5F5
310
F5F5F5F5F5F5F5F5F5F5F5F5F5F5F5F5F5F5F5F5F5F5F5F5F5F5F5F5F5F5F5F5F5F5F5F5F5F5F5F5E2F5F5F5F5F5F5E2F5F5F5F5F5F5F5F5F5F5F5F5F5F5F5E2F5F5F5F5F5F5F5F5E2E2E2E2E2E2E2E2E2E2E2E2E2E2E2E2E2E2E2E2E2E2E2E2E2E2E2E2E2E2E2F5F5F5F5F5F5F5F5F5F5F5F5F5F5F5F5E2F5F5F5F5F5F5F5
310
F5F5F5F5F5F5F5F5F5F5F5F5F5F5F5F5F5F5F5F5F5F5F5F5F5F5F5F5F5F5E2F5E2E2E2F5E2F5F5F5F5F5F5F5F5F5F5F5F5F5F5F5F5F5F5F5F5F5F5F5F5F5F5F5F5F5F5F5F5F5F5F5F5F5F5F5F5F5F5F5F5F5F5F5F5F5F5F5F5F5F5F5F5E2F5F5F5F5F5F5E2F5F5F5F5F5F5F5F5F5F5F5F5F5F5F5F5E2F5F5F5F5F5F5E2E2E2
310
E2E2E2E2E2E2E2E2E2E2E2E2E2E2E2E2E2E2E2E2E2E2E2E2E2E2E2E2F5F5F5F5F5F5F5F5F5F5F5F5F5F5F5F5F5E2F5F5F5F5F5F5F5F5F5F5F5F5F5F5F5F5F5F5F5F5F5F5F5F5F5F5F5F5F5F5F5F5F5F5F5F5F5E2F5E2E2E2F5E2F5F5F5F5F5F5F5F5F5F5F5F5F5F5F5F5F5F5F5F5F5F5F5F5F5F5F5F5F5F5F5F5F5F5F5F5F5
310
F5F5F5F5F5F5F5F5F5F5F5F5F5F5F5F5F5F5F5E2F5F5F5F5F5F5E2F5F5F5F5F5F5F5F5F5F5F5F5F5F5F5F5E2E2E2E2E2E2E2E2F5F5F5F5F5F5F5F5F5F5F5F5F5F5F5F5F5F5F5F5F5F5F5F5F5F5F5F5F5F5F5F5F5F5F5F5F5F5F5F5F5F5F5F5F5F5F5E2F5F5F5F5F5F5F5F5F5F5F5F5F5F5F5F5F5F5F5F5F5F5F5F5F5F5F5F5
310
F5F5F5F5F5F5F5F5F5E2F5E2E2E2F5E2F5F5F5F5F5F5F5F5F5F5F5F5F5F5F5F5F5F5F5F5F5F5F5F5F5F5F5F5F5F5F5F5F5F5F5F5F5F5F5F5F5F5F5F5F5F5F5F5F5F5F5F5F5F5F5F5E2F5F5F5F5F5F5E2F5F5F5F5F5F5F5F5F5F5F5F5F5F5F5F5F5F5F5F5F5F5F5F5F5F5F5F5F5F5F5F5F5F5F5F5F5F5F5F5F5F5F5F5F5F5F5
310
F5F5F5F5F5F5F5F5F5F5F5F5F5F5F5F5F5F5F5F5F5F5F5F5E2F5F5F5F5F5F5F5F5F5F5F5F5F5F5F5F5F5F5F5F5F5F5F5F5F5F5F5F5F5F5F5F5F5F5F5F5F5E2F5E2E2E2F5E2F5F5F5F5F5F5F5F5F5F5F5F5F5F5F5F5F5F5F5F5F5F5F5F5F5F5F5F5F5F5F5F5F5F5F5F5F5F5F5F5F5F5F5F5F5F5F5F5F5F5F5F5F5F5F5F5E2F5
310
F5F5F5F5F5E2F5F5F5F5F5F5F5F5F5F5F5F5F5F5F5F5F5F5F5F5F5F5F5F5F5F5F5F5F5F5F5F5F5F5F5F5F5F5F5F5F5F5F5F5F5F5F5F5F5F5F5F5F5F5F5F5F5F5F5F5F5F5F5F5F5F5F5F5F5F5F5E2F5F5F5F5F5F5F5F5F5F5F5F5F5F5F5F5F5F5F5F5F5F5F5F5F5F5F5F5F5F5F5F5F5F5F5F5F5E2F5E2E2E2F5E2F5F5F5F5F5
310
F5F5F5F5F5F5F5F5F5F5F5F5F5F5F5F5F5F5F5F5F5F5F5F5F5F5F5F5F5F5F5F5F5F5F5F5F5F5F5F5F5F5F5F5F5F5F5F5F5F5F5E2F5F5F5F5F5F5E2F5F5F5F5F5F5F5F5F5F5F5F5F5F5F5F5F5F5F5F5F5F5F5F5F5F5F5F5F5F5F5F5F5F5F5F5F5F5F5F5F5F5F5F5F5F5F5F5F5F5F5F5F5F5F5F5F5F5F5F5F5F5F5F5F5F5F5F5
310
F5F5F5E2F5F5F5F5F5F5F5F5F5F5F5F5F5F5F5F5F5F5F5F5F5F5F5F5F5F5F5F5F5F5F5F5F5F5F5F5F5E2F5E2E2E2F5E2F5F5F5F5F5F5F5F5F5F5F5F5F5F5F5F5F5F5F5F5F5F5F5F5F5F5F5F5F5F5F5F5F5F5F5F5F5F5F5F5F5F5F5F5F5F5F5F5F5F5F5F5F5F5F5F5E2F5F5F5F5F5F5E2F5F5F5F5F5F5F5F5F5F5F5F5F5F5F5
310
F5F5F5F5F5F5F5F5F5F5F5F5F5F5F5F5F5F5F5F5F5F5F5F5F5F5F5F5F5F5F5F5F5F5F5F5F5F5F5F5F5F5F5F5F5F5F5F5F5F5F5F5F5F5F5F5E2F5F5F5F5F5F5F5F5F5F5F5F5F5F5F5F5F5F5F5F5F5F5F5F5F5F5F5F5F5F5F5F5F5F5F5F5F5E2F5E2E2E2F5E2F5F5F5F5F5F5F5F5F5F5F5F5F5F5F5F5F5F5F5F5F5F5F5F5F5F5
310
F5F5F5F5F5F5F5F5F5F5F5F5F5F5F5F5F5F5F5F5F5F5F5F5F5F5F5F5F5F5E2F5F5F5F5F5F5F5F5F5F5F5F5F5F5F5F5F5F5F5F5F5F5F5F5F5F5F5F5F5F5F5F5F5F5F5F5F5F5F5F5F5F5F5F5F5F5F5F5F5F5F5F5F5F5F5F5F5F5F5F5F5F5F5F5F5F5F5F5F5F5F5F5F5F5F5F5F5F5F5F5F5F5F5F5F5F5F5F5F5F5F5F5F5F5F5F5
310
F5F5F5F5F5F5F5F5F5F5F5F5F5F5F5F5F5F5F5F5E2F5E2E2E2F5E2F5F5F5F5F5F5F5F5F5F5F5F5F5F5F5F5F5F5F5F5F5F5F5F5F5F5F5F5F5F5F5F5F5F5F5F5F5F5F5F5F5F5F5F5F5F5F5F5F5F5F5F5F5F5F5F5E2F5F5F5F5F5F5E2F5F5F5F5F5F5F5F5F5F5F5F5F5F5F5F5F5F5F5F5F5F5F5F5F5F5F5F5F5F5F5F5F5F5F5F5
310
F5F5F5F5F5F5F5F5F5F5F5F5F5F5F5F5F5F5F5F5F5F5F5F5F5F5F5F5F5F5F5F5F5F5F5E2F5F5F5F5F5F5F5F5F5F5F5F5F5F5F5F5F5F5F5F5F5F5F5F5F5F5F5F5F5F5F5F5F5F5F5F5F5E2F5E2E2E2F5E2F5F5F5F5F5F5F5F5F5F5F5F5F5F5F5F5F5F5F5F5F5F5F5F5F5F5F5F5F5F5F5F5F5F5F5F5F5F5F5F5F5F5F5F5F5F5F5
310
F5F5F5F5F5F5F5F5F5E2F5F5F5F5F5F5E2F5F5F5F5F5F5F5F5F5F5F5F5F5F5F5F5F5F5F5F5F5F5F5F5F5F5F5F5F5F5F5F5F5F5F5F5F5F5F5F5F5F5F5F5F5F5F5F5F5F5F5F5F5F5F5F5F5F5F5F5F5F5F5F5F5F5F5F5F5F5F5E2F5F5F5F5F5F5F5F5F5F5F5F5F5F5F5F5F5F5F5F5F5F5F5F5F5F5F5F5F5F5F5F5F5F5F5F5F5E2
310
F5E2E2E2F5E2F5F5F5F5F5F5F5F5F5F5F5F5F5F5F5F5F5F5F5F5F5F5F5F5F5F5F5F5F5F5F5F5F5F5F5F5F5F5F5F5F5F5F5F5F5F5F5F5F5F5F5F5F5F5F5F5E2F5F5F5F5F5F5E2F5F5F5F5F5F5F5F5F5F5F5F5F5F5F5F5F5F5F5F5F5F5F5F5F5F5F5F5F5F5F5F5F5F5F5F5F5F5F5F5F5F5F5F5F5F5F5F5F5F5F5F5F5F5F5F5F5
310
F5F5F5F5F5F5F5F5F5F5F5F5F5F5E2F5F5F5F5F5F5F5F5F5F5F5F5F5F5F5F5F5F5F5F5F5F5F5F5F5F5F5F5F5F5F5F5F5F5F5F5F5E2F5E2E2E2F5E2F5F5F5F5F5F5F5F5F5F5F5F5F5F5F5F5F5F5F5F5F5F5F5F5F5F5F5F5F5F5F5F5F5F5F5F5F5F5F5F5F5F5F5F5F5F5F5F5F5F5F5F5F5F5F5F5E2F5F5F5F5F5F5E2F5F5F5F5
310
F5F5F5F5F5F5F5F5F5F5F5F5F5F5F5F5F5F5F5F5F5F5F5F5F5F5F5F5F5F5F5F5F5F5F5F5F5F5F5F5F5F5F5F5F5F5F5F5F5F5F5F5F5F5F5F5F5F5F5F5F5F5F5F5F5F5F5E2F5F5F5F5F5F5F5F5F5F5F5F5F5F5F5F5F5F5F5F5F5F5F5F5F5F5F5F5F5F5F5F5F5F5F5F5F5E2F5E2E2E2F5E2F5F5F5F5F5F5F5F5F5F5F5F5F5F5F5
310
F5F5F5F5F5F5F5F5F5F5F5F5F5F5F5F5F5F5F5F5F5F5F5F5F5F5F5F5F5F5F5F5F5F5F5F5F5F5F5F5F5E2F5F5F5F5F5F5E2F5F5F5F5F5F5F5F5F5F5F5F5F5F5F5F5F5F5F5F5F5F5F5F5F5F5F5F5F5F5F5F5F5F5F5F5F5F5F5F5F5F5F5F5F5F5F5F5F5F5F5F5F5F5F5F5F5F5F5F5F5F5F5F5F5F5F5F5F5F5F5E2F5F5F5F5F5F5
310
F5F5F5F5F5F5F5F5F5F5F5F5F5F5F5F5F5F5F5F5F5F5F5F5F5F5F5F5F5F5F5E2F5E2E2E2F5E2F5F5F5F5F5F5F5F5F5F5F5F5F5F5F5F5F5F5F5F5F5F5F5F5F5F5F5F5F5F5F5F5F5F5F5F5F5F5F5F5F5F5F5F5F5F5F5F5F5F5F5F5F5F5F5F5E2F5F5F5F5F5F5E2F5F5F5F5F5F5F5F5F5F5F5F5F5F5F5F5F5F5F5F5F5F5F5F5F5
310
F5F5F5F5F5F5F5F5F5F5F5F5F5F5F5F5F5F5F5F5F5F5F5F5F5F5F5F5F5F5F5F5F5F5F5F5F5F5F5F5F5F5F5F5F5F5E2F5F5F5F5F5F5F5F5F5F5F5F5F5F5F5F5F5F5F5F5F5F5F5F5F5F5F5F5F5F5F5F5F5F5F5F5F5E2F5E2E2E2F5E2F5F5F5F5F5F5F5F5F5F5F5F5F5F5F5F5F5F5F5F5F5F5F5F5F5F5F5F5F5F5F5F5F5F5F5F5
310
F5F5F5F5F5F5F5F5F5F5F5F5F5F5F5F5F5F5F5F5E2F5F5F5F5F5F5E2F5F5F5F5F5F5F5F5F5F5F5F5F5F5F5F5F5F5F5F5F5F5F5F5F5F5F5F5F5F5F5F5F5F5F5F5F5F5F5F5F5F5F5F5F5F5F5F5F5F5F5F5F5F5F5F5F5F5F5F5F5F5F5F5F5F5F5F5F5F5F5E2F5F5F5F5F5F5F5F5F5F5F5F5F5F5F5F5F5F5F5F5F5F5F5F5F5F5F5
310
F5F5F5F5F5F5F5F5F5F5E2F5E2E2E2F5E2F5F5F5F5F5F5F5F5F5F5F5F5F5F5F5F5F5F5F5F5F5F5F5F5F5F5F5F5F5F5F5F5F5F5F5F5F5F5F5F5F5F5F5F5F5F5F5F5F5F5F5F5F5F5F5F5E2F5F5F5F5F5F5E2F5F5F5F5F5F5F5F5F5F5F5F5F5F5F5F5F5F5F5F5F5F5F5F5F5F5F5F5F5F5F5F5F5F5F5F5F5F5F5F5F5F5F5F5F5F5
310
F5F5F5F5F5F5F5F5F5F5F5F5F5F5F5F5F5F5F5F5F5F5F5F5F5E2F5F5F5F5F5F5F5F5F5F5F5F5F5F5F5F5F5F5F5F5F5F5F5F5F5F5F5F5F5F5F5F5F5F5F5F5F5E2F5E2E2E2F5E2F5F5F5F5F5F5F5F5F5F5F5F5F5F5F5F5F5F5F5F5F5F5F5F5F5F5F5F5F5F5F5F5F5F5F5F5F5F5F5F5F5F5F5F5F5F5F5F5F5F5F5F5F5F5F5F5E2
310
F5F5F5F5F5F5F5F5F5F5F5F5F5F5F5F5F5F5F5F5F5F5F5F5F5F5F5F5F5F5F5F5F5F5F5F5F5F5F5F5F5F5F5F5F5F5F5F5F5F5F5F5F5F5F5F5F5F5F5F5F5F5F5F5F5F5F5F5F5F5F5F5F5F5F5F5F5F5F5F5F5F5F5F5F5F5F5F5F5F5F5F5F5F5F5F5F5F5F5F5F5F5F5F5F5F5F5F5F5F5F5F5F5F5F5F5E2F5E2E2E2F5E2F5F5F5F5
310
F5F5F5F5F5F5F5F5F5F5F5F5F5F5F5F5F5F5F5F5F5F5F5F5F5F5F5F5F5F5F5F5F5F5F5F5F5F5F5F5F5F5F5F5F5F5F5F5F5F5F5F5E2BEF5F5F5F5F5E2F5F5F5F5F5F5F5F5F5F5F5F5F5F5F5F5F5F5F5F5F5F5F5F5F5F5F5F5F5F5F5F5F5F5F5F5F5F5F5F5F5F5F5F5F5F5F5F5F5F5F5F5F5F5F5F5F5F5F5F5F5F5F5F5F5F5F5
310
F5F5F5F5E2F5F5F5F5F5F5F5F5F5F5F5F5F5F5F5F5F5F5F5F5F5F5F5F5F5F5F5F5F5F5F5F5F5F5F5F5F5E2F5E2E2E2F5E2F5F5F5F5F5F5F5F5F5F5F5F5F5F5F5F5F5F5F5F5F5F5F5F5F5F5F5F5F5F5F5F5F5F5F5F5F5F5F5F5F5F5F5F5F5F5F5F5F5F5F5F5F5F5E2E2E2E2E2F5F5F5F5E2E2F5E2E2E2E2E2E2E2E2F5E2E2E2
310
E2E2E2E2E2F5E2E2E2E2E2E2E2E2F5E2E2E2E2E2E2E2E2F5E2E2E2E2E2E2E2E2F5E2E2E2E2E2E2E2E2F5E2E2E2E2E2E2E2E2F5E2E2E2E2E2E2E2F5F5F5F5F5F5F5F5F5F5F5F5F5F5F5F5F5F5F5F5F5F5F5F5F5F5F5F5F5F5F5F5F5F5F5F5F5E2F5E2E2E2F5E2F5F5F5F5F5F5F5F5F5F5F5F5F5F5F5F5F5F5F5F5F5F5F5F5F5
310
F5F5F5F5F5F5F5F5F5F5F5F5F5F5F5F5F5F5F5F5F5F5F5F5F5F5F5F5F5F5F5E2F5F5F5F5F5F5F5F5F5F5F5F5F5F5F5F5F5F5F5F5F5F5F5F5F5F5F5F5F5F5F5F5F5F5F5F5F5F5F5F5F5F5F5F5F5F5F5F5F5F5F5F5F5F5F5F5F5F5F5F5F5F5F5F5F5F5F5F5F5F5F5F5F5F5F5F5F5F5F5F5F5F5F5F5F5F5F5F5F5F5F5F5F5F5F5
310
F5F5F5F5F5F5F5F5F5F5F5F5F5F5F5F5F5F5F5F5F5E2F5E2E2E2F5E2F5F5F5F5F5F5F5F5F5F5F5F5F5F5F5F5F5F5F5F5F5F5F5F5F5F5F5F5F5F5F5F5F5F5F5F5F5F5F5F5F5F5F5F5F5F5F5F5F5F5F5F5F5F5F5BEF5F5F5F5F5F5F5F5F5F5F5F5F5F5F5F5F5F5F5F5F5F5F5F5F5F5F5F5F5F5F5F5F5F5F5F5F5F5F5F5F5F5F5
310
F5F5F5F5F5F5F5F5F5F5F5F5F5F5F5F5F5F5F5F5F5F5F5F5F5F5F5F5F5F5F5F5F5F5F5F5F5F5F5F5F5F5F5F5F5F5F5F5F5F5F5F5F5F5F5F5F5F5F5F5F5F5F5F5F5F5F5F5F5F5F5F5F5F5E2F5E2E2E2F5E2F5F5F5F5F5F5F5F5F5F5F5F5F5F5F5F5F5F5F5F5F5F5F5F5F5F5F5F5F5F5F5F5F5F5F5F5F5F5F5F5F5F5F5F5F5F5
310
F5F5F5F5F5F5F5F5F5F5F5F5F5F5F5F5F5F5F5F5F5F5F5F5F5F5F5F5F5F5F5F5F5F5F5F5F5F5F5F5F5F5F5F5F5F5F5F5F5F5F5F5F5F5F5F5F5F5F5F5F5F5F5F5F5F5F5F5F5F5F5F5F5F5F5F5F5F5F5F5F5F5F5F5F5F5F5F5F5F5F5F5F5F5F5F5F5F5F5F5F5F5F5F5F5F5F5F5F5F5F5F5F5F5F5F5F5F5F5F5F5F5F5F5F5F5F5
310
E2F5E2E2E2F5E2F5F5F5F5F5F5F5F5F5F5F5F5F5F5F5F5F5F5F5F5F5F5F5F5F5F5F5F5F5F5F5F5F5F5F5F5F5F5F5F5F5F5F5F5F5F5F5F5F5F5F5F5F5F5F5F5F5F5F5F5F5F5F5F5F5F5F5F5F5F5F5F5F5F5F5F5F5F5F5F5F5F5F5F5F5F5F5F5F5F5F5F5F5F5F5F5F5F5F5F5F5F5F5F5F5F5F5F5F5F5F5F5F5F5F5F5F5F5F5F5
310
F5F5F5F5F5F5F5F5F5F5F5F5F5F5F5F5F5F5F5F5F5F5F5F5F5F5F5F5F5F5F5F5F5F5F5F5F5F5F5F5F5F5F5F5F5F5F5F5F5F5F5F5F5E2F5E2E2E2F5E2F5F5F5F5F5F5F5F5F5F5F5F5F5F5F5F5F5F5F5F5F5F5F5F5F5F5F5F5F5F5F5F5F5F5F5F5F5F5F5F5F5F5F5F5F5F5F5F5F5F5F5F5F5F5F5F5F5F5F5F5F5F5BEE2F5F5F5
310
F5F5F5F5F5F5F5F5F5F5F5F5F5F5F5F5F5F5F5F5F5F5F5F5F5F5F5F5F5F5F5F5F5F5F5F5F5F5F5F5F5F5F5F5F5F5F5F5F5F5F5F5F5F5F5F5F5F5F5F5F5F5F5F5F5F5F5BEE2F5F5F5F5F5F5F5F5F5F5F5F5F5F5F5F5F5F5F5F5F5F5F5F5F5F5F5F5F5F5F5F5F5F5F5F5F5E2F5E2E2E2F5E2F5F5F5F5F5F5F5F5F5F5F5F5F5F5
310
F5F5F5F5F5F5F5F5F5F5F5F5F5F5F5F5F5F5F5F5F5F5F5F5F5F5F5F5F5F5F5F5F5F5F5F5F5F5F5F5F5F5F5F5F5F5F5F5E2E2E2E2E2E2E2E2E2E2E2E2E2E2E2E2E2E2E2E2E2E2E2E2E2E2E2E2E2E2E2E2E2E2E2E2E2E2E2E2E2E2E2E2E2E2E2E2E2E2E2E2E2E2E2E2E2E2E2E2E2E2E2E2E2E2E2E2E2E2E2E2E2E2E2F5F5F5F5
310
F5F5F5F5F5F5F5F5F5F5F5F5F5F5F5F5F5F5F5F5F5F5F5F5F5F5F5F5F5F5F5F5E2F5E2E2E2F5E2F5F5F5F5F5F5F5F5F5F5F5F5F5F5F5F5F5F5F5F5F5F5F5F5F5F5F5F5F5F5F5F5F5F5F5F5F5F5F5F5F5F5F5F5F5F5F5F5F5F5F5F5F5F5F5F5F5F5F5F5F5F5F5BEF5F5F5F5F5F5F5F5F5F5F5F5F5F5F5F5F5F5F5F5F5F5F5F5
310
F5F5F5F5F5F5F5F5E2E2E2E2E2F5F5F5F5F5F5F5F5F5F5F5F5F5F5F5F5F5F5F5F5F5F5F5F5F5F5F5F5F5F5F5F5F5F5BEF5F5F5F5F5F5F5F5F5F5F5F5F5F5F5F5F5F5F5F5F5F5F5F5F5F5F5F5F5F5F5F5F5F5F5F5F5E2F5E2E2E2F5E2F5F5F5F5F5F5F5F5F5F5F5F5F5F5F5F5F5F5F5F5F5F5F5F5F5F5F5F5F5F5F5F5F5F5F5
310
F5F5F5F5F5F5F5F5F5F5F5F5F5F5F5F5F5F5F5F5F5F5F5F5F5F5F5F5E2BEF5F5F5F5F5F5F5F5F5F5F5F5F5F5F5F5F5F5F5F5F5F5F5F5F5F5F5F5F5F5F5E2E2E2E2E2F5F5F5F5F5F5F5F5F5F5F5F5F5F5F5F5F5F5F5F5F5F5F5F5F5F5F5F5F5F5F5F5F5F5E2BEF5F5F5F5F5F5F5F5F5F5F5F5F5F5F5F5F5F5F5F5F5F5F5F5F5
310
F5F5F5F5F5F5F5F5F5F5F5E2F5E2E2E2F5E2F5F5F5F5F5F5F5F5F5F5F5F5F5F5F5F5F5F5F5F5F5F5F5F5F5F5F5F5F5F5F5F5F5F5F5F5F5F5F5F5F5F5F5F5F5F5F5F5F5F5F5F5F5F5F5F5F5F5F5F5F5F5F5F5F5F5F5F5F5F5F5F5F5F5F5F5F5F5F5F5F5F5F5F5F5F5F5F5F5F5F5F5F5F5F5F5E2E2E2E2E2F5F5F5F5F5F5F5F5
310
F5F5F5F5F5F5F5F5F5F5F5F5F5F5F5F5F5F5F5F5F5F5F5F5F5F5F5F5F5F5F5F5F5F5F5F5F5F5F5F5F5F5F5F5F5F5F5F5F5F5F5F5F5F5F5F5F5F5F5F5F5F5F5F5E2F5E2E2E2F5E2F5F5F5F5F5F5F5F5F5F5F5F5F5F5F5F5F5F5F5F5F5F5F5F5F5F5F5F5F5F5F5F5F5F5F5F5F5F5F5F5F5F5F5F5F5F5F5F5F5F5F5F5F5F5F5F5
310
F5F5F5F5F5F5F5F5F5F5F5F5F5F5F5F5F5F5F5F5F5F5F5F5F5F5F5F5F5F5F5F5F5F5F5F5F5F5F5F5E2E2E2E2E2F5F5F5F5F5F5F5F5F5F5F5F5F5F5F5F5F5F5F5F5F5F5F5F5F5F5F5F5F5F5F5F5F5F5F5F5F5F5F5F5F5F5F5F5F5F5F5F5F5F5F5F5F5F5F5F5F5F5F5F5F5F5F5F5F5F5F5F5F5F5F5F5E2F5E2E2E2F5E2F5F5F5
310
F5F5F5F5F5F5F5F5F5F5F5F5F5F5F5F5F5F5F5F5F5F5F5F5F5F5F5F5F5F5F5F5F5F5F5F5F5F5F5F5F5F5F5F5F5F5F5F5F5F5F5F5F5F5F5F5F5F5F5F5F5F5F5F5F5F5F5F5F5F5F5F5F5F5F5F5F5F5F5F5F5F5F5F5F5F5F5F5F5F5F5F5F5F5F5F5F5F5F5F5F5F5F5F5F5F5F5F5F5F5F5F5F5F5F5F5F5F5F5F5F5F5F5F5F5F5F5
310
F5F5F5F5F5F5F5F5F5F5F5F5F5F5F5F5F5F5F5F5F5F5F5F5F5F5F5F5F5F5F5F5F5F5F5F5F5F5F5F5F5F5F5E2F5E2E2E2F5E2F5F5F5F5F5F5F5F5F5F5F5F5F5F5F5F5F5F5F5F5F5F5F5F5F5F5F5F5F5F5F5F5F5F5F5F5F5F5F5F5F5F5F5F5F5F5F5F5F5F5F5F5F5F5F5F5F5F5F5F5F5F5F5F5F5F5F5F5F5F5F5F5F5F5F5F5F5
310
F5F5F5F5F5F5F5F5F5F5F5F5F5F5F5F5F5F5F5F5F5F5F5F5F5F5F5F5F5F5F5F5F5F5F5F5F5F5F5F5F5F5F5F5F5F5F5F5F5F5F5F5F5F5F5F5F5F5F5F5F5F5F5F5F5F5F5F5F5F5F5F5F5F5F5F5F5F5F5F5F5F5F5F5F5F5F5F5F5F5F5F5F5F5F5F5E2F5E2E2E2F5E2F5F5F5F5F5F5F5F5F5F5F5F5F5F5F5F5F5F5F5F5F5F5F5F5
310
F5F5F5F5F5F5F5F5F5F5F5F5F5F5F5F5F5F5F5F5F5F5F5F5F5F5F5F5F5F5F5F5F5F5F5F5F5F5F5F5F5F5F5F5F5F5F5F5F5F5F5F5F5F5F5F5F5F5F5F5F5F5F5F5F5F5F5F5F5F5F5F5F5F5F5F5F5F5F5F5F5F5F5F5F5F5F5F5F5F5F5F5F5F5F5F5F5F5F5F5F5F5F5F5F5F5F5F5F5F5F5F5F5F5F5F5F5F5F5F5F5F5F5F5F5F5F5
310
F5F5F5F5F5F5F5F5F5F5F5F5F5F5F5F5F5F5F5F5F5F5E2F5E2E2E2F5E2F5F5F5F5F5F5F5F5F5F5F5F5F5F5F5F5F5F5F5F5F5F5F5F5F5F5F5F5F5F5F5F5F5F5F5F5F5F5F5F5F5F5F5F5F5F5F5F5F5F5F5F5F5F5F5F5F5F5F5F5F5F5F5F5F5F5F5F5F5F5F5F5F5F5F5F5F5F5F5F5F5F5F5F5F5F5F5F5F5F5F5F5F5F5F5F5F5F5
310
F5F5F5F5F5F5F5F5F5F5F5F5F5F5F5F5F5F5F5F5F5F5F5F5F5F5F5F5F5F5F5F5F5F5F5F5F5F5F5F5F5F5F5F5F5F5F5F5F5F5F5F5F5F5F5F5F5F5F5F5F5F5F5F5F5F5F5F5F5F5F5F5F5F5F5E2F5E2E2E2F5E2F5F5F5F5F5F5F5F5F5F5F5F5F5F5F5F5F5F5F5F5F5F5F5F5F5F5F5F5F5F5F5F5F5F5F5F5F5F5F5F5F5F5F5F5F5
310
F5F5F5F5F5F5F5F5F5F5F5F5F5F5F5F5F5F5F5F5F5F5F5F5F5F5F5F5F5F5F5F5F5F5F5F5F5F5F5F5F5F5F5F5F5F5F5F5F5F5F5F5F5F5F5F5F5F5F5F5F5F5F5F5F5F5F5F5F5F5F5F5F5F5F5F5F5F5F5F5F5F5F5F5F5F5F5F5F5F5F5F5F5F5F5F5F5F5F5F5F5F5F5F5F5F5F5F5F5F5F5F5F5F5F5F5F5F5F5F5F5F5F5F5F5F5F5
310
F5E2F5E2E2E2F5E2F5F5F5F5F5F5F5F5F5F5F5F5F5F5F5F5F5F5F5F5F5F5F5F5F5F5F5F5F5F5F5F5F5F5F5F5F5F5F5F5F5F5F5F5F5F5F5F5F5F5F5F5F5F5F5F5F5F5F5F5F5F5F5F5F5F5F5F5F5F5F5F5F5F5F5F5F5F5F5F5F5F5F5F5F5F5F5F5F5F5F5F5F5F5F5F5F5F5F5F5F5F5F5F5F5F5F5F5F5F5F5F5F5F5F5F5F5F5F5
310
F5F5F5F5F5F5F5F5F5F5F5F5F5F5F5F5F5F5F5F5F5F5F5F5F5F5F5F5F5F5F5F5F5F5F5F5F5F5F5F5F5F5F5F5F5F5F5F5F5F5F5F5F5F5E2F5E2E2E2F5E2F5F5F5F5F5F5F5F5F5F5F5F5F5F5F5F5F5F5F5F5F5F5F5F5F5F5F5F5F5F5F5F5F5F5F5F5F5F5F5F5F5F5F5F5F5F5F5F5F5F5F5F5F5F5F5F5F5F5F5F5F5F5F5F5F5F5
310
F5F5F5F5F5F5F5F5F5F5F5F5F5F5F5F5F5F5F5F5F5F5F5F5F5F5F5F5F5F5F5F5F5F5F5F5F5F5F5F5F5F5F5F5F5F5F5F5F5F5F5F5F5F5F5F5F5F5F5F5F5F5F5F5F5F5F5F5F5F5F5F5F5F5F5F5F5F5F5F5F5F5F5F5F5F5F5F5F5F5F5F5F5F5F5F5F5F5F5F5F5F5F5F5F5F5F5E2F5E2E2E2F5E2F5F5F5F5F5F5F5F5F5F5F5F5F5
310
F5F5F5F5F5F5F5F5F5F5F5F5F5F5F5F5F5F5F5F5F5F5F5F5F5F5F5F5F5F5F5F5F5F5F5F5F5F5F5F5F5F5F5F5F5F5F5F5F5F5F5F5F5F5F5F5F5F5F5F5F5F5F5F5F5F5F5F5F5F5F5F5F5F5F5F5F5F5F5F5F5F5F5F5F5F5F5F5F5F5F5F5F5F5F5F5F5F5F5F5F5F5F5F5F5F5F5F5F5F5F5F5F5F5F5F5F5F5F5F5F5F5F5F5F5F5F5
310
F5F5F5F5F5F5F5F5F5F5F5F5F5F5F5F5F5F5F5F5F5F5F5F5F5F5F5F5F5F5F5F5F5E2F5E2E2E2F5E2F5F5F5F5F5F5F5F5F5F5F5F5F5F5F5F5F5F5F5F5F5F5F5F5F5F5F5F5F5F5F5F5F5F5F5F5F5F5F5F5F5F5F5F5F5F5F5F5F5F5F5F5F5F5F5F5F5F5F5F5F5F5F5F5F5F5F5F5F5F5F5F5F5F5F5F5F5F5F5F5F5F5F5F5F5F5F5
310
F5F5F5F5F5F5F5F5F5F5F5F5F5F5F5F5F5F5F5F5F5F5F5F5F5F5F5F5F5F5F5F5F5F5F5F5F5F5F5F5F5F5F5F5F5F5F5F5F5F5F5F5F5F5F5F5F5F5F5F5F5F5F5F5F5F5F5F5F5F5F5F5F5F5F5F5F5F5F5F5F5F5F5F5F5F5E2F5E2E2E2F5E2F5F5F5F5F5F5F5F5F5F5F5F5F5F5F5F5F5F5F5F5F5F5F5F5F5F5F5F5F5F5F5F5F5F5
310
F5F5F5F5F5F5F5F5F5F5F5F5F5F5F5F5F5F5F5F5F5F5F5F5F5F5F5F5F5F5F5F5F5F5F5F5F5F5F5F5F5F5F5F5F5F5F5F5F5F5F5F5F5F5F5F5F5F5F5F5F5F5F5F5F5F5F5F5F5F5F5F5F5F5F5F5F5F5F5F5F5F5F5F5F5F5F5F5F5F5F5F5F5F5F5F5F5F5F5F5F5F5F5F5F5F5F5F5F5F5F5F5F5F5F5F5F5F5F5F5F5F5F5F5F5F5F5
310
F5F5F5F5F5F5F5F5F5F5F5F5E2F5E2E2E2F5E2E2E2E2E2E2E2E2E2E2E2E2E2E2E2E2E2E2E2E2E2E2E2E2E2E2E2E2E2E2E2E2E2E2E2E2E2E2E2E2E2E2E2E2E2E2E2E2E2E2E2E2E2E2E2E2E2E2E2E2E2E2E2E2E2E2E2E2E2E2E2E2E2E2E2E2E2E2E2E2E2E2E2E2E2E2E2E2E2E2E2E2E2E2E2E2E2E2E2E2E2E2E2E2E2E2E2E2E2
310
E2E2E2E2E2E2E2E2E2E2E2E2E2E2E2E2E2E2E2E2E2E2E2E2E2E2E2E2E2E2E2E2E2E2E2E2E2E2E2E2E2E2E2E2E2E2E2E2E2E2E2E2E2E2E2E2E2E2E2E2E2E2E2E2E2E2F5E2E2E2F5F5F5F5F5F5F5F5F5F5F5F5F5F5F5F5F5F5F5F5F5F5F5F5F5F5F5F5F5F5F5F5F5F5F5F5F5F5F5F5F5F5F5F5F5F5F5F5F5F5F5F5F5F5F5F5F5
310
F5F5F5F5F5F5F5F5F5F5F5F5F5F5F5F5F5F5F5F5F5F5F5F5F5F5F5F5F5F5F5F5F5F5F5F5F5F5F5F5F5F5F5F5F5F5F5F5F5F5F5F5F5F5F5F5F5F5F5F5F5F5F5F5F5F5F5F5F5F5F5F5F5F5F5F5F5F5F5F5F5F5F5F5F5F5F5F5F5F5F5F5F5F5F5F5F5F5F5F5F5F5F5F5F5F5F5F5F5F5F5F5F5F5F5F5F5F5F5F5E2EFE2E2E2E2E2
310
E2E2E2E2E2E2E2E2E2E2E2E2E2E2E2E2E2E2E2E2E2E2E2E2E2E2E2E2E2E2E2E2E2E2E2E2E2E2E2E2E2E2E2E2E2E2E2E2E2E2E2E2E2E2E2E2E2E2E2E2E2E2E2E2E2E2E2E2E2E2E2E2E2E2E2E2E2E2E2E2E2E2E2E2E2E2E2E2E2E2E2E2E2E2E2E2E2E2E2E2E2E2E2E2E2E2E2E2E2E2E2E2E2E2E2E2E2E2E2E2E2E2E2E2E2E2E2
310
E2E2E2E2E2E2E2E2E2E2E2E2E2E2E2E2E2E2E2E2E2E2E2E2E2E2E2E2E2E2E2E2E2E2E2E2E2E2E2E2E2E2E2E2E2E2E2EF
  0
XRECORD
  5
4CA9
102
{ACAD_REACTORS
330
4CA8
102
}
330
4CA8
100
AcDbXrecord
280
     1
102
MATERIAL
148
0.0
149
0.0
149
0.0
 93
        0
 94
      127
282
     0
 72
     1
 77
     1
171
     1
175
     1
179
     1
273
     0
  0
XRECORD
  5
4CA7
102
{ACAD_REACTORS
330
4CA6
102
}
330
4CA6
100
AcDbXrecord
280
     1
102
MATERIAL
148
0.0
149
0.0
149
0.0
 93
        0
 94
      127
282
     0
 72
     1
 77
     1
171
     1
175
     1
179
     1
273
     0
  0
XRECORD
  5
4CAB
102
{ACAD_REACTORS
330
4CAA
102
}
330
4CAA
100
AcDbXrecord
280
     1
102
MATERIAL
148
0.0
149
0.0
149
0.0
 93
        0
 94
      127
282
     0
 72
     1
 77
     1
171
     1
175
     1
179
     1
273
     0
  0
CELLSTYLEMAP
  5
4CA5
102
{ACAD_REACTORS
330
4242
102
}
330
4242
100
AcDbCellStyleMap
 90
        3
300
CELLSTYLE
  1
TABLEFORMAT_BEGIN
 90
        5
170
     1
 91
        0
 92
    32768
 62
   257
 93
        1
300
CONTENTFORMAT
  1
CONTENTFORMAT_BEGIN
 90
        0
 91
        0
 92
      512
 93
        0
300

 40
0.0
140
1.0
 94
        5
 62
     0
340
11
144
0.25
309
CONTENTFORMAT_END
171
     0
 94
        6
 95
        1
302
GRIDFORMAT
  1
GRIDFORMAT_BEGIN
 90
        0
 91
        1
 62
     0
 92
       -2
340
0
 93
        0
 40
0.045
309
GRIDFORMAT_END
 95
        2
302
GRIDFORMAT
  1
GRIDFORMAT_BEGIN
 90
        0
 91
        1
 62
     0
 92
       -2
340
0
 93
        0
 40
0.045
309
GRIDFORMAT_END
 95
        4
302
GRIDFORMAT
  1
GRIDFORMAT_BEGIN
 90
        0
 91
        1
 62
     0
 92
       -2
340
0
 93
        0
 40
0.045
309
GRIDFORMAT_END
 95
        8
302
GRIDFORMAT
  1
GRIDFORMAT_BEGIN
 90
        0
 91
        1
 62
     0
 92
       -2
340
0
 93
        0
 40
0.045
309
GRIDFORMAT_END
 95
       16
302
GRIDFORMAT
  1
GRIDFORMAT_BEGIN
 90
        0
 91
        1
 62
     0
 92
       -2
340
0
 93
        0
 40
0.045
309
GRIDFORMAT_END
 95
       32
302
GRIDFORMAT
  1
GRIDFORMAT_BEGIN
 90
        0
 91
        1
 62
     0
 92
       -2
340
0
 93
        0
 40
0.045
309
GRIDFORMAT_END
309
TABLEFORMAT_END
  1
CELLSTYLE_BEGIN
 90
        1
 91
        1
300
_TITLE
309
CELLSTYLE_END
300
CELLSTYLE
  1
TABLEFORMAT_BEGIN
 90
        5
170
     1
 91
        0
 92
        0
 62
   257
 93
        1
300
CONTENTFORMAT
  1
CONTENTFORMAT_BEGIN
 90
        0
 91
        0
 92
      512
 93
        0
300

 40
0.0
140
1.0
 94
        5
 62
     0
340
11
144
0.18
309
CONTENTFORMAT_END
171
     0
 94
        6
 95
        1
302
GRIDFORMAT
  1
GRIDFORMAT_BEGIN
 90
        0
 91
        1
 62
     0
 92
       -2
340
0
 93
        0
 40
0.045
309
GRIDFORMAT_END
 95
        2
302
GRIDFORMAT
  1
GRIDFORMAT_BEGIN
 90
        0
 91
        1
 62
     0
 92
       -2
340
0
 93
        0
 40
0.045
309
GRIDFORMAT_END
 95
        4
302
GRIDFORMAT
  1
GRIDFORMAT_BEGIN
 90
        0
 91
        1
 62
     0
 92
       -2
340
0
 93
        0
 40
0.045
309
GRIDFORMAT_END
 95
        8
302
GRIDFORMAT
  1
GRIDFORMAT_BEGIN
 90
        0
 91
        1
 62
     0
 92
       -2
340
0
 93
        0
 40
0.045
309
GRIDFORMAT_END
 95
       16
302
GRIDFORMAT
  1
GRIDFORMAT_BEGIN
 90
        0
 91
        1
 62
     0
 92
       -2
340
0
 93
        0
 40
0.045
309
GRIDFORMAT_END
 95
       32
302
GRIDFORMAT
  1
GRIDFORMAT_BEGIN
 90
        0
 91
        1
 62
     0
 92
       -2
340
0
 93
        0
 40
0.045
309
GRIDFORMAT_END
309
TABLEFORMAT_END
  1
CELLSTYLE_BEGIN
 90
        2
 91
        1
300
_HEADER
309
CELLSTYLE_END
300
CELLSTYLE
  1
TABLEFORMAT_BEGIN
 90
        5
170
     1
 91
        0
 92
        0
 62
   257
 93
        1
300
CONTENTFORMAT
  1
CONTENTFORMAT_BEGIN
 90
        0
 91
        0
 92
      512
 93
        0
300

 40
0.0
140
1.0
 94
        2
 62
     0
340
11
144
0.18
309
CONTENTFORMAT_END
171
     0
 94
        6
 95
        1
302
GRIDFORMAT
  1
GRIDFORMAT_BEGIN
 90
        0
 91
        1
 62
     0
 92
       -2
340
0
 93
        0
 40
0.045
309
GRIDFORMAT_END
 95
        2
302
GRIDFORMAT
  1
GRIDFORMAT_BEGIN
 90
        0
 91
        1
 62
     0
 92
       -2
340
0
 93
        0
 40
0.045
309
GRIDFORMAT_END
 95
        4
302
GRIDFORMAT
  1
GRIDFORMAT_BEGIN
 90
        0
 91
        1
 62
     0
 92
       -2
340
0
 93
        0
 40
0.045
309
GRIDFORMAT_END
 95
        8
302
GRIDFORMAT
  1
GRIDFORMAT_BEGIN
 90
        0
 91
        1
 62
     0
 92
       -2
340
0
 93
        0
 40
0.045
309
GRIDFORMAT_END
 95
       16
302
GRIDFORMAT
  1
GRIDFORMAT_BEGIN
 90
        0
 91
        1
 62
     0
 92
       -2
340
0
 93
        0
 40
0.045
309
GRIDFORMAT_END
 95
       32
302
GRIDFORMAT
  1
GRIDFORMAT_BEGIN
 90
        0
 91
        1
 62
     0
 92
       -2
340
0
 93
        0
 40
0.045
309
GRIDFORMAT_END
309
TABLEFORMAT_END
  1
CELLSTYLE_BEGIN
 90
        3
 91
        2
300
_DATA
309
CELLSTYLE_END
  0
XRECORD
  5
4CAC
102
{ACAD_REACTORS
330
4242
102
}
330
4242
100
AcDbXrecord
280
     1
102
ACAD_ROUNDTRIP_PRE2007_TABLESTYLE
 90
      512
 91
        0
  1

 92
      512
 93
        0
  2

 94
      512
 95
        0
  3

  0
XRECORD
  5
49B
102
{ACAD_REACTORS
330
49A
102
}
330
49A
100
AcDbXrecord
280
     1
102
RTVSPropertyOp0
 70
     1
102
RTVSPropertyOp1
 70
     1
102
RTVSPropertyOp2
 70
     1
102
RTVSPropertyOp3
 70
     1
102
RTVSPropertyOp4
 70
     1
102
RTVSPropertyOp5
 70
     1
102
RTVSPropertyOp6
 70
     1
102
RTVSPropertyOp7
 70
     1
102
RTVSPropertyOp8
 70
     1
102
RTVSPropertyOp9
 70
     1
102
RTVSPropertyOp10
 70
     1
102
RTVSPropertyOp11
 70
     1
102
RTVSPropertyOp12
 70
     1
102
RTVSPropertyOp13
 70
     1
102
RTVSPropertyOp14
 70
     1
102
RTVSPropertyOp15
 70
     1
102
RTVSPropertyOp16
 70
     1
102
RTVSPropertyOp17
 70
     1
102
RTVSPropertyOp18
 70
     1
102
RTVSPropertyOp19
 70
     1
102
RTVSPropertyOp20
 70
     1
102
RTVSPropertyOp21
 70
     1
102
RTVSPropertyOp22
 70
     1
102
RTVSPropertyOp23
 70
     1
102
RTVSPropertyOp24
 70
     1
102
RTVSPropertyOp25
 70
     1
102
RTVSPropertyOp26
 70
     1
102
RTVSPropertyOp27
 70
     1
  0
XRECORD
  5
A4A
102
{ACAD_REACTORS
330
A49
102
}
330
A49
100
AcDbXrecord
280
     1
102
RTVSPropertyOp0
 70
     1
102
RTVSPropertyOp1
 70
     1
102
RTVSPropertyOp2
 70
     1
102
RTVSPropertyOp3
 70
     1
102
RTVSPropertyOp4
 70
     1
102
RTVSPropertyOp5
 70
     1
102
RTVSPropertyOp6
 70
     1
102
RTVSPropertyOp7
 70
     1
102
RTVSPropertyOp8
 70
     1
102
RTVSPropertyOp9
 70
     1
102
RTVSPropertyOp10
 70
     1
102
RTVSPropertyOp11
 70
     1
102
RTVSPropertyOp12
 70
     1
102
RTVSPropertyOp13
 70
     1
102
RTVSPropertyOp14
 70
     1
102
RTVSPropertyOp15
 70
     1
102
RTVSPropertyOp16
 70
     1
102
RTVSPropertyOp17
 70
     1
102
RTVSPropertyOp18
 70
     1
102
RTVSPropertyOp19
 70
     1
102
RTVSPropertyOp20
 70
     1
102
RTVSPropertyOp21
 70
     1
102
RTVSPropertyOp22
 70
     1
102
RTVSPropertyOp23
 70
     1
102
RTVSPropertyOp24
 70
     1
102
RTVSPropertyOp25
 70
     1
102
RTVSPropertyOp26
 70
     1
102
RTVSPropertyOp27
 70
     1
  0
XRECORD
  5
4A1
102
{ACAD_REACTORS
330
4A0
102
}
330
4A0
100
AcDbXrecord
280
     1
102
RTVSPropertyOp0
 70
     1
102
RTVSPropertyOp1
 70
     1
102
RTVSPropertyOp2
 70
     1
102
RTVSPropertyOp3
 70
     1
102
RTVSPropertyOp4
 70
     1
102
RTVSPropertyOp5
 70
     1
102
RTVSPropertyOp6
 70
     1
102
RTVSPropertyOp7
 70
     1
102
RTVSPropertyOp8
 70
     1
102
RTVSPropertyOp9
 70
     1
102
RTVSPropertyOp10
 70
     1
102
RTVSPropertyOp11
 70
     1
102
RTVSPropertyOp12
 70
     1
102
RTVSPropertyOp13
 70
     1
102
RTVSPropertyOp14
 70
     1
102
RTVSPropertyOp15
 70
     1
102
RTVSPropertyOp16
 70
     1
102
RTVSPropertyOp17
 70
     1
102
RTVSPropertyOp18
 70
     1
102
RTVSPropertyOp19
 70
     1
102
RTVSPropertyOp20
 70
     1
102
RTVSPropertyOp21
 70
     1
102
RTVSPropertyOp22
 70
     1
102
RTVSPropertyOp23
 70
     1
102
RTVSPropertyOp24
 70
     1
102
RTVSPropertyOp25
 70
     1
102
RTVSPropertyOp26
 70
     1
102
RTVSPropertyOp27
 70
     1
  0
XRECORD
  5
4A9
102
{ACAD_REACTORS
330
4A8
102
}
330
4A8
100
AcDbXrecord
280
     1
102
RTVSPropertyOp0
 70
     1
102
RTVSPropertyOp1
 70
     1
102
RTVSPropertyOp2
 70
     1
102
RTVSPropertyOp3
 70
     1
102
RTVSPropertyOp4
 70
     1
102
RTVSPropertyOp5
 70
     1
102
RTVSPropertyOp6
 70
     1
102
RTVSPropertyOp7
 70
     1
102
RTVSPropertyOp8
 70
     1
102
RTVSPropertyOp9
 70
     1
102
RTVSPropertyOp10
 70
     1
102
RTVSPropertyOp11
 70
     1
102
RTVSPropertyOp12
 70
     1
102
RTVSPropertyOp13
 70
     1
102
RTVSPropertyOp14
 70
     1
102
RTVSPropertyOp15
 70
     1
102
RTVSPropertyOp16
 70
     1
102
RTVSPropertyOp17
 70
     1
102
RTVSPropertyOp18
 70
     1
102
RTVSPropertyOp19
 70
     1
102
RTVSPropertyOp20
 70
     1
102
RTVSPropertyOp21
 70
     1
102
RTVSPropertyOp22
 70
     1
102
RTVSPropertyOp23
 70
     1
102
RTVSPropertyOp24
 70
     1
102
RTVSPropertyOp25
 70
     1
102
RTVSPropertyOp26
 70
     1
102
RTVSPropertyOp27
 70
     1
  0
XRECORD
  5
4B1
102
{ACAD_REACTORS
330
4B0
102
}
330
4B0
100
AcDbXrecord
280
     1
102
RTVSPropertyOp0
 70
     1
102
RTVSPropertyOp1
 70
     1
102
RTVSPropertyOp2
 70
     1
102
RTVSPropertyOp3
 70
     1
102
RTVSPropertyOp4
 70
     1
102
RTVSPropertyOp5
 70
     1
102
RTVSPropertyOp6
 70
     1
102
RTVSPropertyOp7
 70
     1
102
RTVSPropertyOp8
 70
     1
102
RTVSPropertyOp9
 70
     1
102
RTVSPropertyOp10
 70
     1
102
RTVSPropertyOp11
 70
     1
102
RTVSPropertyOp12
 70
     1
102
RTVSPropertyOp13
 70
     1
102
RTVSPropertyOp14
 70
     1
102
RTVSPropertyOp15
 70
     1
102
RTVSPropertyOp16
 70
     1
102
RTVSPropertyOp17
 70
     1
102
RTVSPropertyOp18
 70
     1
102
RTVSPropertyOp19
 70
     1
102
RTVSPropertyOp20
 70
     1
102
RTVSPropertyOp21
 70
     1
102
RTVSPropertyOp22
 70
     1
102
RTVSPropertyOp23
 70
     1
102
RTVSPropertyOp24
 70
     1
102
RTVSPropertyOp25
 70
     1
102
RTVSPropertyOp26
 70
     1
102
RTVSPropertyOp27
 70
     1
  0
XRECORD
  5
4A7
102
{ACAD_REACTORS
330
4A6
102
}
330
4A6
100
AcDbXrecord
280
     1
102
RTVSPropertyOp0
 70
     1
102
RTVSPropertyOp1
 70
     1
102
RTVSPropertyOp2
 70
     1
102
RTVSPropertyOp3
 70
     1
102
RTVSPropertyOp4
 70
     1
102
RTVSPropertyOp5
 70
     1
102
RTVSPropertyOp6
 70
     1
102
RTVSPropertyOp7
 70
     1
102
RTVSPropertyOp8
 70
     1
102
RTVSPropertyOp9
 70
     1
102
RTVSPropertyOp10
 70
     1
102
RTVSPropertyOp11
 70
     1
102
RTVSPropertyOp12
 70
     1
102
RTVSPropertyOp13
 70
     1
102
RTVSPropertyOp14
 70
     1
102
RTVSPropertyOp15
 70
     1
102
RTVSPropertyOp16
 70
     1
102
RTVSPropertyOp17
 70
     1
102
RTVSPropertyOp18
 70
     1
102
RTVSPropertyOp19
 70
     1
102
RTVSPropertyOp20
 70
     1
102
RTVSPropertyOp21
 70
     1
102
RTVSPropertyOp22
 70
     1
102
RTVSPropertyOp23
 70
     1
102
RTVSPropertyOp24
 70
     1
102
RTVSPropertyOp25
 70
     1
102
RTVSPropertyOp26
 70
     1
102
RTVSPropertyOp27
 70
     1
  0
XRECORD
  5
4AF
102
{ACAD_REACTORS
330
4AE
102
}
330
4AE
100
AcDbXrecord
280
     1
102
RTVSPropertyOp0
 70
     1
102
RTVSPropertyOp1
 70
     1
102
RTVSPropertyOp2
 70
     1
102
RTVSPropertyOp3
 70
     1
102
RTVSPropertyOp4
 70
     1
102
RTVSPropertyOp5
 70
     1
102
RTVSPropertyOp6
 70
     1
102
RTVSPropertyOp7
 70
     1
102
RTVSPropertyOp8
 70
     1
102
RTVSPropertyOp9
 70
     1
102
RTVSPropertyOp10
 70
     1
102
RTVSPropertyOp11
 70
     1
102
RTVSPropertyOp12
 70
     1
102
RTVSPropertyOp13
 70
     1
102
RTVSPropertyOp14
 70
     1
102
RTVSPropertyOp15
 70
     1
102
RTVSPropertyOp16
 70
     1
102
RTVSPropertyOp17
 70
     1
102
RTVSPropertyOp18
 70
     1
102
RTVSPropertyOp19
 70
     1
102
RTVSPropertyOp20
 70
     1
102
RTVSPropertyOp21
 70
     1
102
RTVSPropertyOp22
 70
     1
102
RTVSPropertyOp23
 70
     1
102
RTVSPropertyOp24
 70
     1
102
RTVSPropertyOp25
 70
     1
102
RTVSPropertyOp26
 70
     1
102
RTVSPropertyOp27
 70
     1
  0
XRECORD
  5
493
102
{ACAD_REACTORS
330
492
102
}
330
492
100
AcDbXrecord
280
     1
102
RTVSPropertyOp0
 70
     1
102
RTVSPropertyOp1
 70
     1
102
RTVSPropertyOp2
 70
     1
102
RTVSPropertyOp3
 70
     1
102
RTVSPropertyOp4
 70
     1
102
RTVSPropertyOp5
 70
     1
102
RTVSPropertyOp6
 70
     1
102
RTVSPropertyOp7
 70
     1
102
RTVSPropertyOp8
 70
     1
102
RTVSPropertyOp9
 70
     1
102
RTVSPropertyOp10
 70
     1
102
RTVSPropertyOp11
 70
     1
102
RTVSPropertyOp12
 70
     1
102
RTVSPropertyOp13
 70
     1
102
RTVSPropertyOp14
 70
     1
102
RTVSPropertyOp15
 70
     1
102
RTVSPropertyOp16
 70
     1
102
RTVSPropertyOp17
 70
     1
102
RTVSPropertyOp18
 70
     1
102
RTVSPropertyOp19
 70
     1
102
RTVSPropertyOp20
 70
     1
102
RTVSPropertyOp21
 70
     1
102
RTVSPropertyOp22
 70
     1
102
RTVSPropertyOp23
 70
     1
102
RTVSPropertyOp24
 70
     1
102
RTVSPropertyOp25
 70
     1
102
RTVSPropertyOp26
 70
     1
102
RTVSPropertyOp27
 70
     1
  0
XRECORD
  5
495
102
{ACAD_REACTORS
330
494
102
}
330
494
100
AcDbXrecord
280
     1
102
RTVSPropertyOp0
 70
     1
102
RTVSPropertyOp1
 70
     1
102
RTVSPropertyOp2
 70
     1
102
RTVSPropertyOp3
 70
     1
102
RTVSPropertyOp4
 70
     1
102
RTVSPropertyOp5
 70
     1
102
RTVSPropertyOp6
 70
     1
102
RTVSPropertyOp7
 70
     1
102
RTVSPropertyOp8
 70
     1
102
RTVSPropertyOp9
 70
     1
102
RTVSPropertyOp10
 70
     1
102
RTVSPropertyOp11
 70
     1
102
RTVSPropertyOp12
 70
     1
102
RTVSPropertyOp13
 70
     1
102
RTVSPropertyOp14
 70
     1
102
RTVSPropertyOp15
 70
     1
102
RTVSPropertyOp16
 70
     1
102
RTVSPropertyOp17
 70
     1
102
RTVSPropertyOp18
 70
     1
102
RTVSPropertyOp19
 70
     1
102
RTVSPropertyOp20
 70
     1
102
RTVSPropertyOp21
 70
     1
102
RTVSPropertyOp22
 70
     1
102
RTVSPropertyOp23
 70
     1
102
RTVSPropertyOp24
 70
     1
102
RTVSPropertyOp25
 70
     1
102
RTVSPropertyOp26
 70
     1
102
RTVSPropertyOp27
 70
     1
  0
XRECORD
  5
497
102
{ACAD_REACTORS
330
496
102
}
330
496
100
AcDbXrecord
280
     1
102
RTVSPropertyOp0
 70
     1
102
RTVSPropertyOp1
 70
     1
102
RTVSPropertyOp2
 70
     1
102
RTVSPropertyOp3
 70
     1
102
RTVSPropertyOp4
 70
     1
102
RTVSPropertyOp5
 70
     1
102
RTVSPropertyOp6
 70
     1
102
RTVSPropertyOp7
 70
     1
102
RTVSPropertyOp8
 70
     1
102
RTVSPropertyOp9
 70
     1
102
RTVSPropertyOp10
 70
     1
102
RTVSPropertyOp11
 70
     1
102
RTVSPropertyOp12
 70
     1
102
RTVSPropertyOp13
 70
     1
102
RTVSPropertyOp14
 70
     1
102
RTVSPropertyOp15
 70
     1
102
RTVSPropertyOp16
 70
     1
102
RTVSPropertyOp17
 70
     1
102
RTVSPropertyOp18
 70
     1
102
RTVSPropertyOp19
 70
     1
102
RTVSPropertyOp20
 70
     1
102
RTVSPropertyOp21
 70
     1
102
RTVSPropertyOp22
 70
     1
102
RTVSPropertyOp23
 70
     1
102
RTVSPropertyOp24
 70
     1
102
RTVSPropertyOp25
 70
     1
102
RTVSPropertyOp26
 70
     1
102
RTVSPropertyOp27
 70
     1
  0
XRECORD
  5
499
102
{ACAD_REACTORS
330
498
102
}
330
498
100
AcDbXrecord
280
     1
102
RTVSPropertyOp0
 70
     1
102
RTVSPropertyOp1
 70
     1
102
RTVSPropertyOp2
 70
     1
102
RTVSPropertyOp3
 70
     1
102
RTVSPropertyOp4
 70
     1
102
RTVSPropertyOp5
 70
     1
102
RTVSPropertyOp6
 70
     1
102
RTVSPropertyOp7
 70
     1
102
RTVSPropertyOp8
 70
     1
102
RTVSPropertyOp9
 70
     1
102
RTVSPropertyOp10
 70
     1
102
RTVSPropertyOp11
 70
     1
102
RTVSPropertyOp12
 70
     1
102
RTVSPropertyOp13
 70
     1
102
RTVSPropertyOp14
 70
     1
102
RTVSPropertyOp15
 70
     1
102
RTVSPropertyOp16
 70
     1
102
RTVSPropertyOp17
 70
     1
102
RTVSPropertyOp18
 70
     1
102
RTVSPropertyOp19
 70
     1
102
RTVSPropertyOp20
 70
     1
102
RTVSPropertyOp21
 70
     1
102
RTVSPropertyOp22
 70
     1
102
RTVSPropertyOp23
 70
     1
102
RTVSPropertyOp24
 70
     1
102
RTVSPropertyOp25
 70
     1
102
RTVSPropertyOp26
 70
     1
102
RTVSPropertyOp27
 70
     1
  0
XRECORD
  5
4AD
102
{ACAD_REACTORS
330
4AC
102
}
330
4AC
100
AcDbXrecord
280
     1
102
RTVSPropertyOp0
 70
     1
102
RTVSPropertyOp1
 70
     1
102
RTVSPropertyOp2
 70
     1
102
RTVSPropertyOp3
 70
     1
102
RTVSPropertyOp4
 70
     1
102
RTVSPropertyOp5
 70
     1
102
RTVSPropertyOp6
 70
     1
102
RTVSPropertyOp7
 70
     1
102
RTVSPropertyOp8
 70
     1
102
RTVSPropertyOp9
 70
     1
102
RTVSPropertyOp10
 70
     1
102
RTVSPropertyOp11
 70
     1
102
RTVSPropertyOp12
 70
     1
102
RTVSPropertyOp13
 70
     1
102
RTVSPropertyOp14
 70
     1
102
RTVSPropertyOp15
 70
     1
102
RTVSPropertyOp16
 70
     1
102
RTVSPropertyOp17
 70
     1
102
RTVSPropertyOp18
 70
     1
102
RTVSPropertyOp19
 70
     1
102
RTVSPropertyOp20
 70
     1
102
RTVSPropertyOp21
 70
     1
102
RTVSPropertyOp22
 70
     1
102
RTVSPropertyOp23
 70
     1
102
RTVSPropertyOp24
 70
     1
102
RTVSPropertyOp25
 70
     1
102
RTVSPropertyOp26
 70
     1
102
RTVSPropertyOp27
 70
     1
  0
XRECORD
  5
A4E
102
{ACAD_REACTORS
330
A4D
102
}
330
A4D
100
AcDbXrecord
280
     1
102
RTVSPropertyOp0
 70
     1
102
RTVSPropertyOp1
 70
     1
102
RTVSPropertyOp2
 70
     1
102
RTVSPropertyOp3
 70
     1
102
RTVSPropertyOp4
 70
     1
102
RTVSPropertyOp5
 70
     1
102
RTVSPropertyOp6
 70
     1
102
RTVSPropertyOp7
 70
     1
102
RTVSPropertyOp8
 70
     1
102
RTVSPropertyOp9
 70
     1
102
RTVSPropertyOp10
 70
     1
102
RTVSPropertyOp11
 70
     1
102
RTVSPropertyOp12
 70
     1
102
RTVSPropertyOp13
 70
     1
102
RTVSPropertyOp14
 70
     1
102
RTVSPropertyOp15
 70
     1
102
RTVSPropertyOp16
 70
     1
102
RTVSPropertyOp17
 70
     1
102
RTVSPropertyOp18
 70
     1
102
RTVSPropertyOp19
 70
     1
102
RTVSPropertyOp20
 70
     1
102
RTVSPropertyOp21
 70
     1
102
RTVSPropertyOp22
 70
     1
102
RTVSPropertyOp23
 70
     1
102
RTVSPropertyOp24
 70
     1
102
RTVSPropertyOp25
 70
     1
102
RTVSPropertyOp26
 70
     1
102
RTVSPropertyOp27
 70
     1
  0
XRECORD
  5
4AB
102
{ACAD_REACTORS
330
4AA
102
}
330
4AA
100
AcDbXrecord
280
     1
102
RTVSPropertyOp0
 70
     1
102
RTVSPropertyOp1
 70
     1
102
RTVSPropertyOp2
 70
     1
102
RTVSPropertyOp3
 70
     1
102
RTVSPropertyOp4
 70
     1
102
RTVSPropertyOp5
 70
     1
102
RTVSPropertyOp6
 70
     1
102
RTVSPropertyOp7
 70
     1
102
RTVSPropertyOp8
 70
     1
102
RTVSPropertyOp9
 70
     1
102
RTVSPropertyOp10
 70
     1
102
RTVSPropertyOp11
 70
     1
102
RTVSPropertyOp12
 70
     1
102
RTVSPropertyOp13
 70
     1
102
RTVSPropertyOp14
 70
     1
102
RTVSPropertyOp15
 70
     1
102
RTVSPropertyOp16
 70
     1
102
RTVSPropertyOp17
 70
     1
102
RTVSPropertyOp18
 70
     1
102
RTVSPropertyOp19
 70
     1
102
RTVSPropertyOp20
 70
     1
102
RTVSPropertyOp21
 70
     1
102
RTVSPropertyOp22
 70
     1
102
RTVSPropertyOp23
 70
     1
102
RTVSPropertyOp24
 70
     1
102
RTVSPropertyOp25
 70
     1
102
RTVSPropertyOp26
 70
     1
102
RTVSPropertyOp27
 70
     1
  0
ENDSEC
  0
EOF
