  0
SECTION
  2
HEADER
  9
$ACADVER
  1
AC1018
  9
$ACADMAINTVER
 70
   104
  9
$DWGCODEPAGE
  3
ANSI_1250
  9
$LASTSAVEDBY
  1
bonzo
  9
$INSBASE
 10
0.0
 20
0.0
 30
0.0
  9
$EXTMIN
 10
8.792522430477447
 20
4.38346444977451
 30
0.0
  9
$EXTMAX
 10
15.70159097244744
 20
9.36903065298293
 30
0.0
  9
$LIMMIN
 10
0.0
 20
0.0
  9
$LIMMAX
 10
12.0
 20
9.0
  9
$ORTHOMODE
 70
     1
  9
$REGENMODE
 70
     1
  9
$FILLMODE
 70
     1
  9
$QTEXTMODE
 70
     0
  9
$MIRRTEXT
 70
     1
  9
$LTSCALE
 40
1.0
  9
$ATTMODE
 70
     1
  9
$TEXTSIZE
 40
0.2
  9
$TRACEWID
 40
0.05
  9
$TEXTSTYLE
  7
Standard
  9
$CLAYER
  8
0
  9
$CELTYPE
  6
ByLayer
  9
$CECOLOR
 62
   256
  9
$CELTSCALE
 40
1.0
  9
$DISPSILH
 70
     0
  9
$DIMSCALE
 40
0.02
  9
$DIMASZ
 40
3.0
  9
$DIMEXO
 40
20.0
  9
$DIMDLI
 40
0.0
  9
$DIMRND
 40
0.1
  9
$DIMDLE
 40
0.0
  9
$DIMEXE
 40
5.0
  9
$DIMTP
 40
0.0
  9
$DIMTM
 40
0.0
  9
$DIMTXT
 40
9.0
  9
$DIMCEN
 40
12.0
  9
$DIMTSZ
 40
0.0
  9
$DIMTOL
 70
     0
  9
$DIMLIM
 70
     0
  9
$DIMTIH
 70
     0
  9
$DIMTOH
 70
     0
  9
$DIMSE1
 70
     1
  9
$DIMSE2
 70
     1
  9
$DIMTAD
 70
     1
  9
$DIMZIN
 70
     1
  9
$DIMBLK
  1

  9
$DIMASO
 70
     1
  9
$DIMSHO
 70
     1
  9
$DIMPOST
  1

  9
$DIMAPOST
  1

  9
$DIMALT
 70
     0
  9
$DIMALTD
 70
     4
  9
$DIMALTF
 40
1.0
  9
$DIMLFAC
 40
1.0
  9
$DIMTOFL
 70
     1
  9
$DIMTVP
 40
0.0
  9
$DIMTIX
 70
     1
  9
$DIMSOXD
 70
     0
  9
$DIMSAH
 70
     1
  9
$DIMBLK1
  1
MAR-STRZ
  9
$DIMBLK2
  1
MAR-STRZ
  9
$DIMSTYLE
  2
AR SKALA 1-50
  9
$DIMCLRD
 70
   256
  9
$DIMCLRE
 70
   256
  9
$DIMCLRT
 70
   256
  9
$DIMTFAC
 40
0.01
  9
$DIMGAP
 40
6.0
  9
$DIMJUST
 70
     0
  9
$DIMSD1
 70
     0
  9
$DIMSD2
 70
     0
  9
$DIMTOLJ
 70
     1
  9
$DIMTZIN
 70
     0
  9
$DIMALTZ
 70
     0
  9
$DIMALTTZ
 70
     0
  9
$DIMUPT
 70
     0
  9
$DIMDEC
 70
     2
  9
$DIMTDEC
 70
     2
  9
$DIMALTU
 70
     2
  9
$DIMALTTD
 70
     4
  9
$DIMTXSTY
  7
AR 01 SWIS
  9
$DIMAUNIT
 70
     0
  9
$DIMADEC
 70
     1
  9
$DIMALTRND
 40
0.0
  9
$DIMAZIN
 70
     0
  9
$DIMDSEP
 70
    46
  9
$DIMATFIT
 70
     3
  9
$DIMFRAC
 70
     0
  9
$DIMLDRBLK
  1
MAR-STRZ
  9
$DIMLUNIT
 70
     2
  9
$DIMLWD
 70
    -2
  9
$DIMLWE
 70
    -2
  9
$DIMTMOVE
 70
     2
  9
$LUNITS
 70
     2
  9
$LUPREC
 70
     4
  9
$SKETCHINC
 40
0.1
  9
$FILLETRAD
 40
0.0
  9
$AUNITS
 70
     0
  9
$AUPREC
 70
     0
  9
$MENU
  1
.
  9
$ELEVATION
 40
0.0
  9
$PELEVATION
 40
0.0
  9
$THICKNESS
 40
0.0
  9
$LIMCHECK
 70
     0
  9
$CHAMFERA
 40
0.5
  9
$CHAMFERB
 40
0.5
  9
$CHAMFERC
 40
1.0
  9
$CHAMFERD
 40
0.0
  9
$SKPOLY
 70
     0
  9
$TDCREATE
 40
2455956.457693160
  9
$TDUCREATE
 40
2455956.416026493
  9
$TDUPDATE
 40
2459273.514027662
  9
$TDUUPDATE
 40
2459273.472360996
  9
$TDINDWG
 40
0.1223041782
  9
$TDUSRTIMER
 40
0.1223041782
  9
$USRTIMER
 70
     1
  9
$ANGBASE
 50
0.0
  9
$ANGDIR
 70
     0
  9
$PDMODE
 70
     0
  9
$PDSIZE
 40
0.0
  9
$PLINEWID
 40
0.0
  9
$SPLFRAME
 70
     0
  9
$SPLINETYPE
 70
     6
  9
$SPLINESEGS
 70
     8
  9
$HANDSEED
  5
4815
  9
$SURFTAB1
 70
     6
  9
$SURFTAB2
 70
     6
  9
$SURFTYPE
 70
     6
  9
$SURFU
 70
     6
  9
$SURFV
 70
     6
  9
$UCSBASE
  2

  9
$UCSNAME
  2

  9
$UCSORG
 10
0.0
 20
0.0
 30
0.0
  9
$UCSXDIR
 10
1.0
 20
0.0
 30
0.0
  9
$UCSYDIR
 10
0.0
 20
1.0
 30
0.0
  9
$UCSORTHOREF
  2

  9
$UCSORTHOVIEW
 70
     0
  9
$UCSORGTOP
 10
0.0
 20
0.0
 30
0.0
  9
$UCSORGBOTTOM
 10
0.0
 20
0.0
 30
0.0
  9
$UCSORGLEFT
 10
0.0
 20
0.0
 30
0.0
  9
$UCSORGRIGHT
 10
0.0
 20
0.0
 30
0.0
  9
$UCSORGFRONT
 10
0.0
 20
0.0
 30
0.0
  9
$UCSORGBACK
 10
0.0
 20
0.0
 30
0.0
  9
$PUCSBASE
  2

  9
$PUCSNAME
  2

  9
$PUCSORG
 10
0.0
 20
0.0
 30
0.0
  9
$PUCSXDIR
 10
1.0
 20
0.0
 30
0.0
  9
$PUCSYDIR
 10
0.0
 20
1.0
 30
0.0
  9
$PUCSORTHOREF
  2

  9
$PUCSORTHOVIEW
 70
     0
  9
$PUCSORGTOP
 10
0.0
 20
0.0
 30
0.0
  9
$PUCSORGBOTTOM
 10
0.0
 20
0.0
 30
0.0
  9
$PUCSORGLEFT
 10
0.0
 20
0.0
 30
0.0
  9
$PUCSORGRIGHT
 10
0.0
 20
0.0
 30
0.0
  9
$PUCSORGFRONT
 10
0.0
 20
0.0
 30
0.0
  9
$PUCSORGBACK
 10
0.0
 20
0.0
 30
0.0
  9
$USERI1
 70
     0
  9
$USERI2
 70
     0
  9
$USERI3
 70
     0
  9
$USERI4
 70
     0
  9
$USERI5
 70
     0
  9
$USERR1
 40
0.0
  9
$USERR2
 40
0.0
  9
$USERR3
 40
0.0
  9
$USERR4
 40
0.0
  9
$USERR5
 40
0.0
  9
$WORLDVIEW
 70
     1
  9
$SHADEDGE
 70
     3
  9
$SHADEDIF
 70
    70
  9
$TILEMODE
 70
     1
  9
$MAXACTVP
 70
    64
  9
$PINSBASE
 10
0.0
 20
0.0
 30
0.0
  9
$PLIMCHECK
 70
     0
  9
$PEXTMIN
 10
6.561544945354853
 20
3.282189374834842
 30
0.0
  9
$PEXTMAX
 10
296.6096419909582
 20
206.4421558651099
 30
0.0
  9
$PLIMMIN
 10
3.386557152386103
 20
0.1071894225185588
  9
$PLIMMAX
 10
300.4395661855892
 20
209.9958460387295
  9
$UNITMODE
 70
     0
  9
$VISRETAIN
 70
     1
  9
$PLINEGEN
 70
     0
  9
$PSLTSCALE
 70
     0
  9
$TREEDEPTH
 70
  3020
  9
$CMLSTYLE
  2
Standard
  9
$CMLJUST
 70
     0
  9
$CMLSCALE
 40
1.0
  9
$PROXYGRAPHICS
 70
     1
  9
$MEASUREMENT
 70
     0
  9
$CELWEIGHT
370
    -1
  9
$ENDCAPS
280
     0
  9
$JOINSTYLE
280
     0
  9
$LWDISPLAY
290
     0
  9
$INSUNITS
 70
     1
  9
$HYPERLINKBASE
  1

  9
$STYLESHEET
  1

  9
$XEDIT
290
     1
  9
$CEPSNTYPE
380
     0
  9
$PSTYLEMODE
290
     1
  9
$FINGERPRINTGUID
  2
{1B330B5B-CE04-4EC8-B886-8C8BFC3A02BF}
  9
$VERSIONGUID
  2
{B4B64C20-574C-455D-AA58-575571B5CACB}
  9
$EXTNAMES
290
     1
  9
$PSVPSCALE
 40
0.0
  9
$OLESTARTUP
290
     0
  9
$SORTENTS
280
   127
  9
$INDEXCTL
280
     0
  9
$HIDETEXT
280
     1
  9
$XCLIPFRAME
290
     0
  9
$HALOGAP
280
     0
  9
$OBSCOLOR
 70
   257
  9
$OBSLTYPE
280
     0
  9
$INTERSECTIONDISPLAY
280
     0
  9
$INTERSECTIONCOLOR
 70
   257
  9
$DIMASSOC
280
     2
  9
$PROJECTNAME
  1

  0
ENDSEC
  0
SECTION
  2
CLASSES
  0
CLASS
  1
ACDBDICTIONARYWDFLT
  2
AcDbDictionaryWithDefault
  3
ObjectDBX Classes
 90
        0
 91
        1
280
     0
281
     0
  0
CLASS
  1
VISUALSTYLE
  2
AcDbVisualStyle
  3
ObjectDBX Classes
 90
     4095
 91
       16
280
     0
281
     0
  0
CLASS
  1
MATERIAL
  2
AcDbMaterial
  3
ObjectDBX Classes
 90
     1153
 91
        3
280
     0
281
     0
  0
CLASS
  1
DICTIONARYVAR
  2
AcDbDictionaryVar
  3
ObjectDBX Classes
 90
        0
 91
        9
280
     0
281
     0
  0
CLASS
  1
TABLESTYLE
  2
AcDbTableStyle
  3
ObjectDBX Classes
 90
     4095
 91
        1
280
     0
281
     0
  0
CLASS
  1
SORTENTSTABLE
  2
AcDbSortentsTable
  3
ObjectDBX Classes
 90
        0
 91
        1
280
     0
281
     0
  0
CLASS
  1
DIMASSOC
  2
AcDbDimAssoc
  3
"AcDbDimAssoc|Product Desc:     AcDim ARX App For Dimension|Company:          Autodesk, Inc.|WEB Address:      www.autodesk.com"
 90
        0
 91
        1
280
     0
281
     0
  0
CLASS
  1
SCALE
  2
AcDbScale
  3
ObjectDBX Classes
 90
     1153
 91
       33
280
     0
281
     0
  0
CLASS
  1
MLEADERSTYLE
  2
AcDbMLeaderStyle
  3
ACDB_MLEADERSTYLE_CLASS
 90
     4095
 91
        1
280
     0
281
     0
  0
CLASS
  1
CELLSTYLEMAP
  2
AcDbCellStyleMap
  3
ObjectDBX Classes
 90
     1152
 91
        2
280
     0
281
     0
  0
ENDSEC
  0
SECTION
  2
TABLES
  0
TABLE
  2
VPORT
  5
8
102
{ACAD_XDICTIONARY
360
84C
102
}
330
0
100
AcDbSymbolTable
 70
     1
  0
VPORT
  5
29
330
8
100
AcDbSymbolTableRecord
100
AcDbViewportTableRecord
  2
*Active
 70
     0
 10
0.0
 20
0.0
 11
1.0
 21
1.0
 12
11.81084427906252
 22
6.81147261217441
 13
0.0
 23
0.0
 14
0.5
 24
0.5
 15
0.5
 25
0.5
 16
0.0
 26
0.0
 36
1.0
 17
0.0
 27
0.0
 37
-1000.0
 40
5.563477819093641
 41
2.060556464811783
 42
50.0
 43
4.148984367261674
 44
9.217858496371269
 50
0.0
 51
0.0
 71
     0
 72
   100
 73
     1
 74
     3
 75
     0
 76
     0
 77
     0
 78
     0
281
     0
 65
     1
110
0.0
120
0.0
130
0.0
111
1.0
121
0.0
131
0.0
112
0.0
122
1.0
132
0.0
 79
     0
146
0.0
  0
ENDTAB
  0
TABLE
  2
LTYPE
  5
5
330
0
100
AcDbSymbolTable
 70
     2
  0
LTYPE
  5
14
330
5
100
AcDbSymbolTableRecord
100
AcDbLinetypeTableRecord
  2
ByBlock
 70
     0
  3

 72
    65
 73
     0
 40
0.0
  0
LTYPE
  5
15
330
5
100
AcDbSymbolTableRecord
100
AcDbLinetypeTableRecord
  2
ByLayer
 70
     0
  3

 72
    65
 73
     0
 40
0.0
  0
LTYPE
  5
16
330
5
100
AcDbSymbolTableRecord
100
AcDbLinetypeTableRecord
  2
Continuous
 70
     0
  3
Solid line
 72
    65
 73
     0
 40
0.0
  0
LTYPE
  5
886
330
5
100
AcDbSymbolTableRecord
100
AcDbLinetypeTableRecord
  2
DASHED
 70
     0
  3
Dashed __ __ __ __ __ __ __ __ __ __ __ __ __ _
 72
    65
 73
     2
 40
0.75
 49
0.5
 74
     0
 49
-0.25
 74
     0
  0
ENDTAB
  0
TABLE
  2
LAYER
  5
2
102
{ACAD_XDICTIONARY
360
7D1
102
}
330
0
100
AcDbSymbolTable
 70
     4
  0
LAYER
  5
10
102
{ACAD_XDICTIONARY
360
423C
102
}
330
2
100
AcDbSymbolTableRecord
100
AcDbLayerTableRecord
  2
0
 70
     0
 62
     7
  6
Continuous
370
    80
390
F
  0
LAYER
  5
87B
102
{ACAD_XDICTIONARY
360
423E
102
}
330
2
100
AcDbSymbolTableRecord
100
AcDbLayerTableRecord
  2
STREFA BEZPIECZEŃSTWA
 70
     0
 62
     7
  6
DASHED
370
   100
390
F
1001
AcAecLayerStandard
1000

1000

  0
LAYER
  5
87D
102
{ACAD_XDICTIONARY
360
4240
102
}
330
2
100
AcDbSymbolTableRecord
100
AcDbLayerTableRecord
  2
WYMIAR
 70
     0
 62
     7
  6
Continuous
370
   100
390
F
1001
AcAecLayerStandard
1000

1000

  0
LAYER
  5
8CC
330
2
100
AcDbSymbolTableRecord
100
AcDbLayerTableRecord
  2
Defpoints
 70
     0
 62
     7
  6
Continuous
290
     0
370
     5
390
F
1001
RAK
1000
{ACET-LAYISO
1070
     0
1070
     7
1000
Continuous
1071
        5
1071
        0
1005
F
1000
ACET-LAYISO}
  0
ENDTAB
  0
TABLE
  2
STYLE
  5
3
330
0
100
AcDbSymbolTable
 70
     2
  0
STYLE
  5
11
330
3
100
AcDbSymbolTableRecord
100
AcDbTextStyleTableRecord
  2
Standard
 70
     0
 40
0.0
 41
1.0
 50
0.0
 71
     0
 42
0.2
  3
txt
  4

  0
STYLE
  5
8CE
330
3
100
AcDbSymbolTableRecord
100
AcDbTextStyleTableRecord
  2
AR 01 SWIS
 70
     0
 40
0.0
 41
1.0
 50
0.0
 71
     0
 42
55.0
  3

  4

1001
ACAD
1000
Swis721 Cn BT
1071
       34
  0
ENDTAB
  0
TABLE
  2
VIEW
  5
6
330
0
100
AcDbSymbolTable
 70
     0
  0
ENDTAB
  0
TABLE
  2
UCS
  5
7
330
0
100
AcDbSymbolTable
 70
     0
  0
ENDTAB
  0
TABLE
  2
APPID
  5
9
330
0
100
AcDbSymbolTable
 70
     9
  0
APPID
  5
12
330
9
100
AcDbSymbolTableRecord
100
AcDbRegAppTableRecord
  2
ACAD
 70
     0
  0
APPID
  5
7CB
330
9
100
AcDbSymbolTableRecord
100
AcDbRegAppTableRecord
  2
ACAD_PSEXT
 70
     0
  0
APPID
  5
875
330
9
100
AcDbSymbolTableRecord
100
AcDbRegAppTableRecord
  2
ACAD_EXEMPT_FROM_CAD_STANDARDS
 70
     0
  0
APPID
  5
87C
330
9
100
AcDbSymbolTableRecord
100
AcDbRegAppTableRecord
  2
AcAecLayerStandard
 70
     0
  0
APPID
  5
8D4
330
9
100
AcDbSymbolTableRecord
100
AcDbRegAppTableRecord
  2
RAK
 70
     0
  0
APPID
  5
8D5
330
9
100
AcDbSymbolTableRecord
100
AcDbRegAppTableRecord
  2
ACAD_DSTYLE_DIMJOGGED_JOGANGLE_SYMBOL
 70
     0
  0
APPID
  5
8D6
330
9
100
AcDbSymbolTableRecord
100
AcDbRegAppTableRecord
  2
ACAD_DSTYLE_DIMJAG
 70
     0
  0
APPID
  5
8D7
330
9
100
AcDbSymbolTableRecord
100
AcDbRegAppTableRecord
  2
ACAD_DSTYLE_DIMTALN
 70
     0
  0
APPID
  5
4236
330
9
100
AcDbSymbolTableRecord
100
AcDbRegAppTableRecord
  2
ACAD_MLEADERVER
 70
     0
  0
ENDTAB
  0
TABLE
  2
DIMSTYLE
  5
A
330
0
100
AcDbSymbolTable
 70
     2
100
AcDbDimStyleTable
 71
     1
340
8CF
  0
DIMSTYLE
105
8CF
102
{ACAD_REACTORS
330
453B
330
453E
102
}
330
A
100
AcDbSymbolTableRecord
100
AcDbDimStyleTableRecord
  2
AR SKALA 1-50
 70
     0
 40
0.02
 41
3.0
 42
20.0
 43
0.0
 44
5.0
 45
0.1
 73
     0
 74
     0
 75
     1
 76
     1
 77
     1
 78
     1
140
9.0
141
12.0
143
1.0
146
0.01
147
6.0
171
     4
172
     1
173
     1
174
     1
176
   256
177
   256
178
   256
179
     1
271
     2
272
     2
274
     4
279
     2
340
8CE
341
8BC
343
8BC
344
8BC
  0
DIMSTYLE
105
A46
330
A
100
AcDbSymbolTableRecord
100
AcDbDimStyleTableRecord
  2
Standard
 70
     0
340
11
  0
ENDTAB
  0
TABLE
  2
BLOCK_RECORD
  5
1
330
0
100
AcDbSymbolTable
 70
     3
  0
BLOCK_RECORD
  5
1F
102
{ACAD_XDICTIONARY
360
5F8
102
}
330
1
100
AcDbSymbolTableRecord
100
AcDbBlockTableRecord
  2
*Model_Space
340
22
  0
BLOCK_RECORD
  5
1B
330
1
100
AcDbSymbolTableRecord
100
AcDbBlockTableRecord
  2
*Paper_Space
340
1E
  0
BLOCK_RECORD
  5
8BC
330
1
100
AcDbSymbolTableRecord
100
AcDbBlockTableRecord
  2
MAR-STRZ
340
0
310
2800000020000000200000000100080000000000000400000000000000000000000000000000000000000000000080000080000000808000800000008000800080800000C0C0C000C0DCC000F0CAA6000020400000206000002080000020A0000020C0000020E00000400000004020000040400000406000004080000040A0
310
000040C0000040E00000600000006020000060400000606000006080000060A0000060C0000060E00000800000008020000080400000806000008080000080A0000080C0000080E00000A0000000A0200000A0400000A0600000A0800000A0A00000A0C00000A0E00000C0000000C0200000C0400000C0600000C0800000C0
310
A00000C0C00000C0E00000E0000000E0200000E0400000E0600000E0800000E0A00000E0C00000E0E00040000000400020004000400040006000400080004000A0004000C0004000E00040200000402020004020400040206000402080004020A0004020C0004020E000404000004040200040404000404060004040800040
310
40A0004040C0004040E00040600000406020004060400040606000406080004060A0004060C0004060E00040800000408020004080400040806000408080004080A0004080C0004080E00040A0000040A0200040A0400040A0600040A0800040A0A00040A0C00040A0E00040C0000040C0200040C0400040C0600040C08000
310
40C0A00040C0C00040C0E00040E0000040E0200040E0400040E0600040E0800040E0A00040E0C00040E0E00080000000800020008000400080006000800080008000A0008000C0008000E00080200000802020008020400080206000802080008020A0008020C0008020E00080400000804020008040400080406000804080
310
008040A0008040C0008040E00080600000806020008060400080606000806080008060A0008060C0008060E00080800000808020008080400080806000808080008080A0008080C0008080E00080A0000080A0200080A0400080A0600080A0800080A0A00080A0C00080A0E00080C0000080C0200080C0400080C0600080C0
310
800080C0A00080C0C00080C0E00080E0000080E0200080E0400080E0600080E0800080E0A00080E0C00080E0E000C0000000C0002000C0004000C0006000C0008000C000A000C000C000C000E000C0200000C0202000C0204000C0206000C0208000C020A000C020C000C020E000C0400000C0402000C0404000C0406000C0
310
408000C040A000C040C000C040E000C0600000C0602000C0604000C0606000C0608000C060A000C060C000C060E000C0800000C0802000C0804000C0806000C0808000C080A000C080C000C080E000C0A00000C0A02000C0A04000C0A06000C0A08000C0A0A000C0A0C000C0A0E000C0C00000C0C02000C0C04000C0C06000
310
C0C08000C0C0A000F0FBFF00A4A0A000808080000000FF0000FF000000FFFF00FF000000FF00FF00FFFF0000FFFFFF00000000000000000000000000000000000000000000000000000000000000000000000000000000000000000000000000FF000000000000000000000000000000000000000000000000000000000000
310
00FF00000000000000000000000000000000000000000000000000000000000000FF00000000000000000000000000000000000000000000000000000000000000FF00000000000000000000000000000000000000000000000000000000000000FF000000000000000000000000000000000000000000F900000000000000
310
0000FF00000000000000000000000000000000000000000000F90000000000000000FF0000000000000000000000000000000000000000000000F900000000000000FF000000000000000000000000000000000000000000000000F9000000000000FF00000000000000000000000000000000000000000000000000F90000
310
000000FF0000000000000000000000000000000000000000000000000000F900000000FF000000000000000000000000000000000000000000000000000000F9000000FF00000000000000000000000000000000000000000000000000000000F90000FF000000000000000000000000000000000000000000000000000000
310
0000F900FF000000000000000000000000000000000000000000000000000000000000F9FF00000000000000000000000000000000000000000000FFFFFFFFFFFFFFFFFFFFFFFFFFFFFFFFFFFF0000000000000000000000000000000000000000000000FFF900000000000000000000000000000000000000000000000000
310
0000000000FF00F90000000000000000000000000000000000000000000000000000000000FF0000F900000000000000000000000000000000000000000000000000000000FF000000F9000000000000000000000000000000000000000000000000000000FF00000000F90000000000000000000000000000000000000000
310
000000000000FF0000000000F900000000000000000000000000000000000000000000000000FF000000000000F9000000000000000000000000000000000000000000000000FF00000000000000F90000000000000000000000000000000000000000000000FF0000000000000000F9000000000000000000000000000000
310
00000000000000FF00000000000000000000000000000000000000000000000000000000000000FF00000000000000000000000000000000000000000000000000000000000000FF00000000000000000000000000000000000000000000000000000000000000FF0000000000000000000000000000000000000000000000
310
0000000000000000FF0000000000000000000000000000000000000000000000000000000000000000000000000000000000000000000000
102
{BLKREFS
331
47CA
331
47CB
331
47EA
331
47EB
102
}
  0
BLOCK_RECORD
  5
47C6
330
1
100
AcDbSymbolTableRecord
100
AcDbBlockTableRecord
  2
*D1
340
0
  0
BLOCK_RECORD
  5
47D0
330
1
100
AcDbSymbolTableRecord
100
AcDbBlockTableRecord
  2
*D2
340
0
  0
ENDTAB
  0
ENDSEC
  0
SECTION
  2
BLOCKS
  0
BLOCK
  5
20
330
1F
100
AcDbEntity
  8
0
100
AcDbBlockBegin
  2
*Model_Space
 70
     0
 10
0.0
 20
0.0
 30
0.0
  3
*Model_Space
  1

  0
ENDBLK
  5
21
330
1F
100
AcDbEntity
  8
0
100
AcDbBlockEnd
  0
BLOCK
  5
1C
330
1B
100
AcDbEntity
 67
     1
  8
0
100
AcDbBlockBegin
  2
*Paper_Space
 70
     0
 10
0.0
 20
0.0
 30
0.0
  3
*Paper_Space
  1

  0
ENDBLK
  5
1D
330
1B
100
AcDbEntity
 67
     1
  8
0
100
AcDbBlockEnd
  0
BLOCK
  5
8BD
330
8BC
100
AcDbEntity
  8
0
100
AcDbBlockBegin
  2
MAR-STRZ
 70
     0
 10
0.0
 20
0.0
 30
0.0
  3
MAR-STRZ
  1

  0
LINE
  5
8BE
330
8BC
100
AcDbEntity
  8
0
100
AcDbLine
 10
0.0
 20
2.299999999999272
 30
0.0
 11
0.0
 21
-2.299999999999272
 31
0.0
  0
LINE
  5
8BF
330
8BC
100
AcDbEntity
  8
0
 62
    10
100
AcDbLine
 10
1.5
 20
1.5
 30
0.0
 11
-1.5
 21
-1.5
 31
0.0
  0
LINE
  5
8C0
330
8BC
100
AcDbEntity
  8
0
100
AcDbLine
 10
1.399999999999636
 20
0.0
 30
0.0
 11
-1.399999999999636
 21
0.0
 31
0.0
  0
ENDBLK
  5
8C1
330
8BC
100
AcDbEntity
  8
0
100
AcDbBlockEnd
  0
BLOCK
  5
47C7
330
47C6
100
AcDbEntity
  8
0
100
AcDbBlockBegin
  2
*D1
 70
     1
 10
0.0
 20
0.0
 30
0.0
  3
*D1
  1

  0
LINE
  5
47C9
330
47C6
100
AcDbEntity
  8
WYMIAR
370
    -2
100
AcDbLine
 10
15.56359097244748
 20
8.356751114705634
 30
0.0
 11
15.56359097244748
 21
4.976751114705634
 31
0.0
  0
INSERT
  5
47CA
330
47C6
100
AcDbEntity
  8
WYMIAR
370
    -2
100
AcDbBlockReference
  2
MAR-STRZ
 10
15.56359097244748
 20
8.416751114705634
 30
0.0
 41
0.06
 42
0.06
 43
0.06
 50
90.0
  0
INSERT
  5
47CB
330
47C6
100
AcDbEntity
  8
WYMIAR
370
    -2
100
AcDbBlockReference
  2
MAR-STRZ
 10
15.56359097244748
 20
4.916751114705634
 30
0.0
 41
0.06
 42
0.06
 43
0.06
 50
270.0
  0
MTEXT
  5
47CC
330
47C6
100
AcDbEntity
  8
WYMIAR
100
AcDbMText
 10
15.35359097244748
 20
6.666751114705637
 30
0.0
 40
0.18
 41
0.0
 71
     5
 72
     1
  1
\A1;3.50
  7
AR 01 SWIS
 11
0.0000000000000001
 21
1.0
 31
0.0
 73
     1
 44
1.0
  0
POINT
  5
47CD
330
47C6
100
AcDbEntity
  8
Defpoints
 62
     0
100
AcDbPoint
 10
14.88252243047745
 20
8.416751114705634
 30
0.0
  0
POINT
  5
47CE
330
47C6
100
AcDbEntity
  8
Defpoints
 62
     0
100
AcDbPoint
 10
14.88252243047745
 20
4.916751114705634
 30
0.0
  0
POINT
  5
47CF
330
47C6
100
AcDbEntity
  8
Defpoints
 62
     0
100
AcDbPoint
 10
15.56359097244748
 20
4.916751114705634
 30
0.0
  0
ENDBLK
  5
47C8
330
47C6
100
AcDbEntity
  8
0
100
AcDbBlockEnd
  0
BLOCK
  5
47D1
330
47D0
100
AcDbEntity
  8
0
100
AcDbBlockBegin
  2
*D2
 70
     1
 10
0.0
 20
0.0
 30
0.0
  3
*D2
  1

  0
LINE
  5
47E9
330
47D0
100
AcDbEntity
  8
WYMIAR
370
    -2
100
AcDbLine
 10
14.82252243047745
 20
9.016725458177736
 30
0.0
 11
8.942522430477447
 21
9.016725458177736
 31
0.0
  0
INSERT
  5
47EA
330
47D0
100
AcDbEntity
  8
WYMIAR
370
    -2
100
AcDbBlockReference
  2
MAR-STRZ
 10
14.88252243047745
 20
9.016725458177736
 30
0.0
 41
0.06
 42
0.06
 43
0.06
  0
INSERT
  5
47EB
330
47D0
100
AcDbEntity
  8
WYMIAR
370
    -2
100
AcDbBlockReference
  2
MAR-STRZ
 10
8.882522430477447
 20
9.016725458177736
 30
0.0
 41
0.06
 42
0.06
 43
0.06
 50
180.0
  0
MTEXT
  5
47EC
330
47D0
100
AcDbEntity
  8
WYMIAR
100
AcDbMText
 10
11.88252243047745
 20
9.226725458177737
 30
0.0
 40
0.18
 41
0.0
 71
     5
 72
     1
  1
\A1;6.00
  7
AR 01 SWIS
 73
     1
 44
1.0
  0
POINT
  5
47ED
330
47D0
100
AcDbEntity
  8
Defpoints
 62
     0
100
AcDbPoint
 10
14.88252243047745
 20
8.162172663000363
 30
0.0
  0
POINT
  5
47EE
330
47D0
100
AcDbEntity
  8
Defpoints
 62
     0
100
AcDbPoint
 10
8.882522430477447
 20
8.162172663000365
 30
0.0
  0
POINT
  5
47EF
330
47D0
100
AcDbEntity
  8
Defpoints
 62
     0
100
AcDbPoint
 10
8.882522430477447
 20
9.016725458177736
 30
0.0
  0
ENDBLK
  5
47D2
330
47D0
100
AcDbEntity
  8
0
100
AcDbBlockEnd
  0
ENDSEC
  0
SECTION
  2
ENTITIES
  0
LWPOLYLINE
  5
453A
102
{ACAD_REACTORS
330
453D
102
}
330
1F
100
AcDbEntity
  8
STREFA BEZPIECZEŃSTWA
 48
0.5
100
AcDbPolyline
 90
        4
 70
     1
 43
0.0
 10
8.882522430477447
 20
8.416751114705636
 10
8.882522430477447
 20
4.916751114705636
 10
14.88252243047745
 20
4.916751114705634
 10
14.88252243047745
 20
8.416751114705634
  0
DIMENSION
  5
453B
102
{ACAD_XDICTIONARY
360
453C
102
}
102
{ACAD_REACTORS
330
453D
102
}
330
1F
100
AcDbEntity
  8
WYMIAR
100
AcDbDimension
  2
*D1
 10
15.56359097244748
 20
4.916751114705634
 30
0.0
 11
15.35359097244748
 21
6.666751114705637
 31
0.0
 70
    33
 71
     5
 42
3.5
  3
AR SKALA 1-50
100
AcDbAlignedDimension
 13
14.88252243047745
 23
8.416751114705634
 33
0.0
 14
14.88252243047745
 24
4.916751114705634
 34
0.0
  0
DIMENSION
  5
453E
330
1F
100
AcDbEntity
  8
WYMIAR
100
AcDbDimension
  2
*D2
 10
8.882522430477447
 20
9.016725458177736
 30
0.0
 11
11.88252243047745
 21
9.226725458177737
 31
0.0
 70
    33
 71
     5
 42
6.000000000000003
  3
AR SKALA 1-50
100
AcDbAlignedDimension
 13
14.88252243047745
 23
8.162172663000363
 33
0.0
 14
8.882522430477447
 24
8.162172663000365
 34
0.0
  0
LINE
  5
4541
330
1F
100
AcDbEntity
  8
0
100
AcDbLine
 10
13.34874262027389
 20
6.574767232877969
 30
0.0
 11
13.34941214336296
 21
6.576173901762596
 31
0.0
  0
LINE
  5
4542
330
1F
100
AcDbEntity
  8
0
100
AcDbLine
 10
13.34941214336296
 20
6.576173901762596
 30
0.0
 11
13.34993982428947
 21
6.577640225670147
 31
0.0
  0
LINE
  5
4543
330
1F
100
AcDbEntity
  8
0
100
AcDbLine
 10
13.34993982428947
 20
6.577640225670147
 30
0.0
 11
13.35032048324185
 21
6.57915181089957
 31
0.0
  0
LINE
  5
4544
330
1F
100
AcDbEntity
  8
0
100
AcDbLine
 10
13.35032048324185
 20
6.57915181089957
 30
0.0
 11
13.3505503836029
 21
6.580693819456494
 31
0.0
  0
LINE
  5
4545
330
1F
100
AcDbEntity
  8
0
100
AcDbLine
 10
13.33858118639027
 20
6.764383240229501
 30
0.0
 11
13.34030373372057
 21
6.76404923797413
 31
0.0
  0
LINE
  5
4546
330
1F
100
AcDbEntity
  8
0
100
AcDbLine
 10
13.34030373372057
 20
6.76404923797413
 30
0.0
 11
13.34197023906114
 21
6.763498558660937
 31
0.0
  0
LINE
  5
4547
330
1F
100
AcDbEntity
  8
0
100
AcDbLine
 10
13.33906775395734
 20
6.567644466695209
 30
0.0
 11
13.34079297750271
 21
6.567644466695209
 31
0.0
  0
LINE
  5
4548
330
1F
100
AcDbEntity
  8
0
100
AcDbLine
 10
13.34502890638205
 20
6.761786062142983
 30
0.0
 11
13.34637171712486
 21
6.760651875868144
 31
0.0
  0
LINE
  5
4549
330
1F
100
AcDbEntity
  8
0
100
AcDbLine
 10
13.34637171712486
 20
6.760651875868144
 30
0.0
 11
13.34756057967937
 21
6.759355828573528
 31
0.0
  0
LINE
  5
454A
330
1F
100
AcDbEntity
  8
0
100
AcDbLine
 10
13.34756057967937
 20
6.759355828573528
 30
0.0
 11
13.34857631188805
 21
6.757918831829793
 31
0.0
  0
LINE
  5
454B
330
1F
100
AcDbEntity
  8
0
100
AcDbLine
 10
13.34857631188805
 20
6.757918831829793
 30
0.0
 11
13.34940252503118
 21
6.756364071410426
 31
0.0
  0
LINE
  5
454C
330
1F
100
AcDbEntity
  8
0
100
AcDbLine
 10
13.34354215867323
 20
6.569084120223901
 30
0.0
 11
13.34479698945294
 21
6.570001690541583
 31
0.0
  0
LINE
  5
454D
330
1F
100
AcDbEntity
  8
0
100
AcDbLine
 10
13.34220310656381
 20
6.568295799508812
 30
0.0
 11
13.34354215867323
 21
6.569084120223901
 31
0.0
  0
LINE
  5
454E
330
1F
100
AcDbEntity
  8
0
100
AcDbLine
 10
13.34079297750271
 20
6.567644466695209
 30
0.0
 11
13.34220310656381
 21
6.568295799508812
 31
0.0
  0
LINE
  5
454F
330
1F
100
AcDbEntity
  8
0
100
AcDbLine
 10
13.34479698945294
 20
6.570001690541583
 30
0.0
 11
13.34595528125674
 21
6.571039503425434
 31
0.0
  0
LINE
  5
4550
330
1F
100
AcDbEntity
  8
0
100
AcDbLine
 10
13.34595528125674
 20
6.571039503425434
 30
0.0
 11
13.3470056640825
 21
6.572187371516203
 31
0.0
  0
LINE
  5
4551
330
1F
100
AcDbEntity
  8
0
100
AcDbLine
 10
13.3470056640825
 20
6.572187371516203
 30
0.0
 11
13.34793782718216
 21
6.573434027132829
 31
0.0
  0
LINE
  5
4552
330
1F
100
AcDbEntity
  8
0
100
AcDbLine
 10
13.34793782718216
 20
6.573434027132829
 30
0.0
 11
13.34874262027389
 21
6.574767232877969
 31
0.0
  0
LINE
  5
4553
330
1F
100
AcDbEntity
  8
0
100
AcDbLine
 10
13.34197023906114
 20
6.763498558660937
 30
0.0
 11
13.34355381354432
 21
6.762740087435882
 31
0.0
  0
LINE
  5
4554
330
1F
100
AcDbEntity
  8
0
100
AcDbLine
 10
13.34355381354432
 20
6.762740087435882
 30
0.0
 11
13.34502890638205
 21
6.761786062142983
 31
0.0
  0
LINE
  5
4555
330
1F
100
AcDbEntity
  8
0
100
AcDbLine
 10
13.35043634367277
 20
6.753003098396173
 30
0.0
 11
13.35062726862903
 21
6.751251114705634
 31
0.0
  0
LINE
  5
4556
330
1F
100
AcDbEntity
  8
0
100
AcDbLine
 10
13.35002588825687
 20
6.754716633191914
 30
0.0
 11
13.35043634367277
 21
6.753003098396173
 31
0.0
  0
LINE
  5
4557
330
1F
100
AcDbEntity
  8
0
100
AcDbLine
 10
13.34940252503118
 20
6.756364071410426
 30
0.0
 11
13.35002588825687
 21
6.754716633191914
 31
0.0
  0
LINE
  5
4558
330
1F
100
AcDbEntity
  8
0
100
AcDbLine
 10
13.33683039016885
 20
6.764495176339944
 30
0.0
 11
13.33858118639027
 21
6.764383240229501
 31
0.0
  0
LINE
  5
4559
330
1F
100
AcDbEntity
  8
0
100
AcDbLine
 10
13.3505503836029
 20
6.580693819456494
 30
0.0
 11
13.35062726862903
 21
6.582251114705623
 31
0.0
  0
LINE
  5
455A
330
1F
100
AcDbEntity
  8
0
100
AcDbLine
 10
13.34890204508367
 20
6.582251114705623
 30
0.0
 11
13.34890204508367
 21
6.751251114705634
 31
0.0
  0
LINE
  5
455B
330
1F
100
AcDbEntity
  8
0
100
AcDbLine
 10
13.34871112012741
 20
6.753003098396173
 30
0.0
 11
13.34890204508367
 21
6.751251114705634
 31
0.0
  0
LINE
  5
455C
330
1F
100
AcDbEntity
  8
0
100
AcDbLine
 10
13.3483006647115
 20
6.754716633191914
 30
0.0
 11
13.34871112012741
 21
6.753003098396173
 31
0.0
  0
LINE
  5
455D
330
1F
100
AcDbEntity
  8
0
100
AcDbLine
 10
13.34767730148582
 20
6.756364071410426
 30
0.0
 11
13.3483006647115
 21
6.754716633191914
 31
0.0
  0
LINE
  5
455E
330
1F
100
AcDbEntity
  8
0
100
AcDbLine
 10
13.34685108834268
 20
6.757918831829793
 30
0.0
 11
13.34767730148582
 21
6.756364071410426
 31
0.0
  0
LINE
  5
455F
330
1F
100
AcDbEntity
  8
0
100
AcDbLine
 10
13.345835356134
 20
6.759355828573528
 30
0.0
 11
13.34685108834268
 21
6.757918831829793
 31
0.0
  0
LINE
  5
4560
330
1F
100
AcDbEntity
  8
0
100
AcDbLine
 10
13.34464649357951
 20
6.760651875868144
 30
0.0
 11
13.345835356134
 21
6.759355828573528
 31
0.0
  0
LINE
  5
4561
330
1F
100
AcDbEntity
  8
0
100
AcDbLine
 10
13.34330368283668
 20
6.761786062142983
 30
0.0
 11
13.34464649357951
 21
6.760651875868144
 31
0.0
  0
LINE
  5
4562
330
1F
100
AcDbEntity
  8
0
100
AcDbLine
 10
13.34182858999896
 20
6.762740087435882
 30
0.0
 11
13.34330368283668
 21
6.761786062142983
 31
0.0
  0
LINE
  5
4563
330
1F
100
AcDbEntity
  8
0
100
AcDbLine
 10
13.34024501551578
 20
6.763498558660937
 30
0.0
 11
13.34182858999896
 21
6.762740087435882
 31
0.0
  0
LINE
  5
4564
330
1F
100
AcDbEntity
  8
0
100
AcDbLine
 10
13.3385785101752
 20
6.76404923797413
 30
0.0
 11
13.34024501551578
 21
6.763498558660937
 31
0.0
  0
LINE
  5
4565
330
1F
100
AcDbEntity
  8
0
100
AcDbLine
 10
13.33685596284491
 20
6.764383240229501
 30
0.0
 11
13.3385785101752
 21
6.76404923797413
 31
0.0
  0
LINE
  5
4566
330
1F
100
AcDbEntity
  8
0
100
AcDbLine
 10
13.33510516662348
 20
6.764495176339944
 30
0.0
 11
13.33685596284491
 21
6.764383240229501
 31
0.0
  0
LINE
  5
4567
330
1F
100
AcDbEntity
  8
0
100
AcDbLine
 10
13.16417713026235
 20
6.76396545114522
 30
0.0
 11
13.16586881544145
 21
6.764495176339944
 31
0.0
  0
LINE
  5
4568
330
1F
100
AcDbEntity
  8
0
100
AcDbLine
 10
13.16255913088359
 20
6.76323967799848
 30
0.0
 11
13.16417713026235
 21
6.76396545114522
 31
0.0
  0
LINE
  5
4569
330
1F
100
AcDbEntity
  8
0
100
AcDbLine
 10
13.16103723931299
 20
6.762327914561917
 30
0.0
 11
13.16255913088359
 21
6.76323967799848
 31
0.0
  0
LINE
  5
456A
330
1F
100
AcDbEntity
  8
0
100
AcDbLine
 10
13.15963254570986
 20
6.761242795924981
 30
0.0
 11
13.16103723931299
 21
6.762327914561917
 31
0.0
  0
LINE
  5
456B
330
1F
100
AcDbEntity
  8
0
100
AcDbLine
 10
13.15836451612058
 20
6.759999359509119
 30
0.0
 11
13.15963254570986
 21
6.761242795924981
 31
0.0
  0
LINE
  5
456C
330
1F
100
AcDbEntity
  8
0
100
AcDbLine
 10
13.15725072272083
 20
6.758614836681284
 30
0.0
 11
13.15836451612058
 21
6.759999359509119
 31
0.0
  0
LINE
  5
456D
330
1F
100
AcDbEntity
  8
0
100
AcDbLine
 10
13.15630660030289
 20
6.757108413964071
 30
0.0
 11
13.15725072272083
 21
6.758614836681284
 31
0.0
  0
LINE
  5
456E
330
1F
100
AcDbEntity
  8
0
100
AcDbLine
 10
13.15554523238242
 20
6.755500967151614
 30
0.0
 11
13.15630660030289
 21
6.757108413964071
 31
0.0
  0
LINE
  5
456F
330
1F
100
AcDbEntity
  8
0
100
AcDbLine
 10
13.15497716988898
 20
6.753814772015739
 30
0.0
 11
13.15554523238242
 21
6.755500967151614
 31
0.0
  0
LINE
  5
4570
330
1F
100
AcDbEntity
  8
0
100
AcDbLine
 10
13.15461028495269
 20
6.752073195611454
 30
0.0
 11
13.15497716988898
 21
6.753814772015739
 31
0.0
  0
LINE
  5
4571
330
1F
100
AcDbEntity
  8
0
100
AcDbLine
 10
13.1544496618134
 20
6.750300372459601
 30
0.0
 11
13.15461028495269
 21
6.752073195611454
 31
0.0
  0
LINE
  5
4572
330
1F
100
AcDbEntity
  8
0
100
AcDbLine
 10
13.15449752636398
 20
6.748520870094078
 30
0.0
 11
13.1544496618134
 21
6.750300372459601
 31
0.0
  0
LINE
  5
4573
330
1F
100
AcDbEntity
  8
0
100
AcDbLine
 10
13.15452111836189
 20
6.747116899944198
 30
0.0
 11
13.15449752636398
 21
6.748520870094078
 31
0.0
  0
LINE
  5
4574
330
1F
100
AcDbEntity
  8
0
100
AcDbLine
 10
13.15435216012647
 20
6.745723026791973
 30
0.0
 11
13.15452111836189
 21
6.747116899944198
 31
0.0
  0
LINE
  5
4575
330
1F
100
AcDbEntity
  8
0
100
AcDbLine
 10
13.15399386692917
 20
6.744365776012197
 30
0.0
 11
13.15435216012647
 21
6.745723026791973
 31
0.0
  0
LINE
  5
4576
330
1F
100
AcDbEntity
  8
0
100
AcDbLine
 10
13.15345305708145
 20
6.743070976056652
 30
0.0
 11
13.15399386692917
 21
6.744365776012197
 31
0.0
  0
LINE
  5
4577
330
1F
100
AcDbEntity
  8
0
100
AcDbLine
 10
13.15274002218256
 20
6.741863266939428
 30
0.0
 11
13.15345305708145
 21
6.743070976056652
 31
0.0
  0
LINE
  5
4578
330
1F
100
AcDbEntity
  8
0
100
AcDbLine
 10
13.15186833127062
 20
6.74076563133786
 30
0.0
 11
13.15274002218256
 21
6.741863266939428
 31
0.0
  0
LINE
  5
4579
330
1F
100
AcDbEntity
  8
0
100
AcDbLine
 10
13.15085457260407
 20
6.739798957232788
 30
0.0
 11
13.15186833127062
 21
6.74076563133786
 31
0.0
  0
LINE
  5
457A
330
1F
100
AcDbEntity
  8
0
100
AcDbLine
 10
13.14971803798756
 20
6.73898164041068
 30
0.0
 11
13.15085457260407
 21
6.739798957232788
 31
0.0
  0
LINE
  5
457B
330
1F
100
AcDbEntity
  8
0
100
AcDbLine
 10
13.14848035564929
 20
6.738329234392305
 30
0.0
 11
13.14971803798756
 21
6.73898164041068
 31
0.0
  0
LINE
  5
457C
330
1F
100
AcDbEntity
  8
0
100
AcDbLine
 10
13.14716507865633
 20
6.737854154449517
 30
0.0
 11
13.14848035564929
 21
6.738329234392305
 31
0.0
  0
LINE
  5
457D
330
1F
100
AcDbEntity
  8
0
100
AcDbLine
 10
13.1457972367003
 20
6.737565441342975
 30
0.0
 11
13.14716507865633
 21
6.737854154449517
 31
0.0
  0
LINE
  5
457E
330
1F
100
AcDbEntity
  8
0
100
AcDbLine
 10
13.14440285978287
 20
6.737468589276569
 30
0.0
 11
13.1457972367003
 21
6.737565441342975
 31
0.0
  0
LINE
  5
457F
330
1F
100
AcDbEntity
  8
0
100
AcDbLine
 10
13.14440285978287
 20
6.737468589276569
 30
0.0
 11
13.03590467416084
 21
6.737468589276569
 31
0.0
  0
LINE
  5
4580
330
1F
100
AcDbEntity
  8
0
100
AcDbLine
 10
13.03590467416084
 20
6.737468589276569
 30
0.0
 11
13.03391092157013
 21
6.737377998466167
 31
0.0
  0
LINE
  5
4581
330
1F
100
AcDbEntity
  8
0
100
AcDbLine
 10
13.03391092157013
 20
6.737377998466167
 30
0.0
 11
13.03193344924527
 21
6.737106965766908
 31
0.0
  0
LINE
  5
4582
330
1F
100
AcDbEntity
  8
0
100
AcDbLine
 10
13.03193344924527
 20
6.737106965766908
 30
0.0
 11
13.02998840451331
 21
6.73665770433423
 31
0.0
  0
LINE
  5
4583
330
1F
100
AcDbEntity
  8
0
100
AcDbLine
 10
13.02998840451331
 20
6.73665770433423
 30
0.0
 11
13.02809166990925
 21
6.736033882675253
 31
0.0
  0
LINE
  5
4584
330
1F
100
AcDbEntity
  8
0
100
AcDbLine
 10
13.02809166990925
 20
6.736033882675253
 30
0.0
 11
13.026258733485
 21
6.735240594693048
 31
0.0
  0
LINE
  5
4585
330
1F
100
AcDbEntity
  8
0
100
AcDbLine
 10
13.026258733485
 20
6.735240594693048
 30
0.0
 11
13.02450456233949
 21
6.734284318091662
 31
0.0
  0
LINE
  5
4586
330
1F
100
AcDbEntity
  8
0
100
AcDbLine
 10
13.02450456233949
 20
6.734284318091662
 30
0.0
 11
13.02284348040273
 21
6.73317286148153
 31
0.0
  0
LINE
  5
4587
330
1F
100
AcDbEntity
  8
0
100
AcDbLine
 10
13.02284348040273
 20
6.73317286148153
 30
0.0
 11
13.02128905147178
 21
6.731915300617198
 31
0.0
  0
LINE
  5
4588
330
1F
100
AcDbEntity
  8
0
100
AcDbLine
 10
13.02128905147178
 20
6.731915300617198
 30
0.0
 11
13.01985396845365
 21
6.730521904287892
 31
0.0
  0
LINE
  5
4589
330
1F
100
AcDbEntity
  8
0
100
AcDbLine
 10
13.01985396845365
 20
6.730521904287892
 30
0.0
 11
13.01854994971959
 21
6.72900405046641
 31
0.0
  0
LINE
  5
458A
330
1F
100
AcDbEntity
  8
0
100
AcDbLine
 10
13.01854994971959
 20
6.72900405046641
 30
0.0
 11
13.0173876434171
 21
6.727374133400554
 31
0.0
  0
LINE
  5
458B
330
1F
100
AcDbEntity
  8
0
100
AcDbLine
 10
13.01720664692516
 20
6.605928231169637
 30
0.0
 11
13.01819884788616
 21
6.604300116210803
 31
0.0
  0
LINE
  5
458C
330
1F
100
AcDbEntity
  8
0
100
AcDbLine
 10
13.01819884788616
 20
6.604300116210803
 30
0.0
 11
13.01934376142301
 21
6.602776512539672
 31
0.0
  0
LINE
  5
458D
330
1F
100
AcDbEntity
  8
0
100
AcDbLine
 10
13.01934376142301
 20
6.602776512539672
 30
0.0
 11
13.02063056154635
 21
6.601371826935941
 31
0.0
  0
LINE
  5
458E
330
1F
100
AcDbEntity
  8
0
100
AcDbLine
 10
13.02063056154635
 20
6.601371826935941
 30
0.0
 11
13.02204708062606
 21
6.600099341722606
 31
0.0
  0
LINE
  5
458F
330
1F
100
AcDbEntity
  8
0
100
AcDbLine
 10
13.02204708062606
 20
6.600099341722606
 30
0.0
 11
13.02357992444505
 21
6.598971089171921
 31
0.0
  0
LINE
  5
4590
330
1F
100
AcDbEntity
  8
0
100
AcDbLine
 10
13.02357992444505
 20
6.598971089171921
 30
0.0
 11
13.02521459885126
 21
6.597997737731513
 31
0.0
  0
LINE
  5
4591
330
1F
100
AcDbEntity
  8
0
100
AcDbLine
 10
13.02521459885126
 20
6.597997737731513
 30
0.0
 11
13.02693564681049
 21
6.597188491146463
 31
0.0
  0
LINE
  5
4592
330
1F
100
AcDbEntity
  8
0
100
AcDbLine
 10
13.02693564681049
 20
6.597188491146463
 30
0.0
 11
13.02872679456381
 21
6.59655100143119
 31
0.0
  0
LINE
  5
4593
330
1F
100
AcDbEntity
  8
0
100
AcDbLine
 10
13.02872679456381
 20
6.59655100143119
 30
0.0
 11
13.03057110550781
 21
6.596091296514155
 31
0.0
  0
LINE
  5
4594
330
1F
100
AcDbEntity
  8
0
100
AcDbLine
 10
13.03057110550781
 20
6.596091296514155
 30
0.0
 11
13.03245114034249
 21
6.595813723239355
 31
0.0
  0
LINE
  5
4595
330
1F
100
AcDbEntity
  8
0
100
AcDbLine
 10
13.03245114034249
 20
6.595813723239355
 30
0.0
 11
13.03434912197251
 21
6.59572090626376
 31
0.0
  0
LINE
  5
4596
330
1F
100
AcDbEntity
  8
0
100
AcDbLine
 10
13.14185191139616
 20
6.59572090626376
 30
0.0
 11
13.14316387424337
 21
6.595626677717883
 31
0.0
  0
LINE
  5
4597
330
1F
100
AcDbEntity
  8
0
100
AcDbLine
 10
13.14316387424337
 20
6.595626677717883
 30
0.0
 11
13.14444915122328
 21
6.595345908727845
 31
0.0
  0
LINE
  5
4598
330
1F
100
AcDbEntity
  8
0
100
AcDbLine
 10
13.14444915122328
 20
6.595345908727845
 30
0.0
 11
13.14568159927017
 21
6.594884310251113
 31
0.0
  0
LINE
  5
4599
330
1F
100
AcDbEntity
  8
0
100
AcDbLine
 10
13.14568159927017
 20
6.594884310251113
 30
0.0
 11
13.14683614988069
 21
6.59425127139175
 31
0.0
  0
LINE
  5
459A
330
1F
100
AcDbEntity
  8
0
100
AcDbLine
 10
13.14683614988069
 20
6.59425127139175
 30
0.0
 11
13.14788931901759
 21
6.593459668422165
 31
0.0
  0
LINE
  5
459B
330
1F
100
AcDbEntity
  8
0
100
AcDbLine
 10
13.14788931901759
 20
6.593459668422165
 30
0.0
 11
13.14881968478474
 21
6.59252560287437
 31
0.0
  0
LINE
  5
459C
330
1F
100
AcDbEntity
  8
0
100
AcDbLine
 10
13.14881968478474
 20
6.59252560287437
 30
0.0
 11
13.14960832315737
 21
6.591468074028195
 31
0.0
  0
LINE
  5
459D
330
1F
100
AcDbEntity
  8
0
100
AcDbLine
 10
13.14960832315737
 20
6.591468074028195
 30
0.0
 11
13.1502391929046
 21
6.590308592458067
 31
0.0
  0
LINE
  5
459E
330
1F
100
AcDbEntity
  8
0
100
AcDbLine
 10
13.1502391929046
 20
6.590308592458067
 30
0.0
 11
13.15069946187466
 21
6.589070742498985
 31
0.0
  0
LINE
  5
459F
330
1F
100
AcDbEntity
  8
0
100
AcDbLine
 10
13.15069946187466
 20
6.589070742498985
 30
0.0
 11
13.15097976800621
 21
6.587779702531444
 31
0.0
  0
LINE
  5
45A0
330
1F
100
AcDbEntity
  8
0
100
AcDbLine
 10
13.15097976800621
 20
6.587779702531444
 30
0.0
 11
13.15107440975652
 21
6.586461732842717
 31
0.0
  0
LINE
  5
45A1
330
1F
100
AcDbEntity
  8
0
100
AcDbLine
 10
13.15082767345914
 20
6.582981033471194
 30
0.0
 11
13.15097911451104
 21
6.580818258264126
 31
0.0
  0
LINE
  5
45A2
330
1F
100
AcDbEntity
  8
0
100
AcDbLine
 10
13.15097911451104
 20
6.580818258264126
 30
0.0
 11
13.15143275595386
 21
6.578698577848551
 31
0.0
  0
LINE
  5
45A3
330
1F
100
AcDbEntity
  8
0
100
AcDbLine
 10
13.15143275595386
 20
6.578698577848551
 30
0.0
 11
13.15217952359876
 21
6.576664392187505
 31
0.0
  0
LINE
  5
45A4
330
1F
100
AcDbEntity
  8
0
100
AcDbLine
 10
13.15217952359876
 20
6.576664392187505
 30
0.0
 11
13.15320447985404
 21
6.574756391092587
 31
0.0
  0
LINE
  5
45A5
330
1F
100
AcDbEntity
  8
0
100
AcDbLine
 10
13.15320447985404
 20
6.574756391092587
 30
0.0
 11
13.15448712252184
 21
6.573012740305808
 31
0.0
  0
LINE
  5
45A6
330
1F
100
AcDbEntity
  8
0
100
AcDbLine
 10
13.15448712252184
 20
6.573012740305808
 30
0.0
 11
13.15600179490349
 21
6.571468318070297
 31
0.0
  0
LINE
  5
45A7
330
1F
100
AcDbEntity
  8
0
100
AcDbLine
 10
13.15600179490349
 20
6.571468318070297
 30
0.0
 11
13.15771819901045
 21
6.57015401746086
 31
0.0
  0
LINE
  5
45A8
330
1F
100
AcDbEntity
  8
0
100
AcDbLine
 10
13.15771819901045
 20
6.57015401746086
 30
0.0
 11
13.15960200161487
 21
6.569096128429914
 31
0.0
  0
LINE
  5
45A9
330
1F
100
AcDbEntity
  8
0
100
AcDbLine
 10
13.15960200161487
 20
6.569096128429914
 30
0.0
 11
13.1616155210171
 21
6.568315811929561
 31
0.0
  0
LINE
  5
45AA
330
1F
100
AcDbEntity
  8
0
100
AcDbLine
 10
13.1616155210171
 20
6.568315811929561
 30
0.0
 11
13.16371848079266
 21
6.5678286766292
 31
0.0
  0
LINE
  5
45AB
330
1F
100
AcDbEntity
  8
0
100
AcDbLine
 10
13.16371848079266
 20
6.5678286766292
 30
0.0
 11
13.16586881544145
 21
6.567644466695209
 31
0.0
  0
LINE
  5
45AC
330
1F
100
AcDbEntity
  8
0
100
AcDbLine
 10
13.33906775395734
 20
6.567644466695209
 30
0.0
 11
13.34047788301844
 21
6.568295799508812
 31
0.0
  0
LINE
  5
45AD
330
1F
100
AcDbEntity
  8
0
100
AcDbLine
 10
13.34047788301844
 20
6.568295799508812
 30
0.0
 11
13.34181693512787
 21
6.569084120223901
 31
0.0
  0
LINE
  5
45AE
330
1F
100
AcDbEntity
  8
0
100
AcDbLine
 10
13.34181693512787
 20
6.569084120223901
 30
0.0
 11
13.34307176590758
 21
6.570001690541583
 31
0.0
  0
LINE
  5
45AF
330
1F
100
AcDbEntity
  8
0
100
AcDbLine
 10
13.34307176590758
 20
6.570001690541583
 30
0.0
 11
13.34423005771138
 21
6.571039503425434
 31
0.0
  0
LINE
  5
45B0
330
1F
100
AcDbEntity
  8
0
100
AcDbLine
 10
13.34423005771138
 20
6.571039503425434
 30
0.0
 11
13.34528044053713
 21
6.572187371516203
 31
0.0
  0
LINE
  5
45B1
330
1F
100
AcDbEntity
  8
0
100
AcDbLine
 10
13.34528044053713
 20
6.572187371516203
 30
0.0
 11
13.34621260363679
 21
6.573434027132829
 31
0.0
  0
LINE
  5
45B2
330
1F
100
AcDbEntity
  8
0
100
AcDbLine
 10
13.34621260363679
 20
6.573434027132829
 30
0.0
 11
13.34701739672853
 21
6.574767232877969
 31
0.0
  0
LINE
  5
45B3
330
1F
100
AcDbEntity
  8
0
100
AcDbLine
 10
13.34701739672853
 20
6.574767232877969
 30
0.0
 11
13.3476869198176
 21
6.576173901762596
 31
0.0
  0
LINE
  5
45B4
330
1F
100
AcDbEntity
  8
0
100
AcDbLine
 10
13.3476869198176
 20
6.576173901762596
 30
0.0
 11
13.34821460074411
 21
6.577640225670147
 31
0.0
  0
LINE
  5
45B5
330
1F
100
AcDbEntity
  8
0
100
AcDbLine
 10
13.34821460074411
 20
6.577640225670147
 30
0.0
 11
13.34859525969649
 21
6.57915181089957
 31
0.0
  0
LINE
  5
45B6
330
1F
100
AcDbEntity
  8
0
100
AcDbLine
 10
13.34859525969649
 20
6.57915181089957
 30
0.0
 11
13.34882516005754
 21
6.580693819456494
 31
0.0
  0
LINE
  5
45B7
330
1F
100
AcDbEntity
  8
0
100
AcDbLine
 10
13.34882516005754
 20
6.580693819456494
 30
0.0
 11
13.34890204508367
 21
6.582251114705623
 31
0.0
  0
LINE
  5
45B8
330
1F
100
AcDbEntity
  8
0
100
AcDbLine
 10
13.35062726862903
 20
6.751251114705634
 30
0.0
 11
13.34890204508367
 21
6.751251114705634
 31
0.0
  0
LINE
  5
45B9
330
1F
100
AcDbEntity
  8
0
100
AcDbLine
 10
13.35062726862903
 20
6.582251114705623
 30
0.0
 11
13.34890204508367
 21
6.582251114705623
 31
0.0
  0
LINE
  5
45BA
330
1F
100
AcDbEntity
  8
0
100
AcDbLine
 10
13.33683039016885
 20
6.764495176339944
 30
0.0
 11
13.33510516662348
 21
6.764495176339944
 31
0.0
  0
LINE
  5
45BB
330
1F
100
AcDbEntity
  8
0
100
AcDbLine
 10
12.91928872955225
 20
6.833027472648306
 30
0.0
 11
12.91522042974457
 21
6.827439308159706
 31
0.0
  0
LINE
  5
45BC
330
1F
100
AcDbEntity
  8
0
100
AcDbLine
 10
12.91522042974457
 20
6.827439308159706
 30
0.0
 11
12.91409893859616
 21
6.824643753201978
 31
0.0
  0
LINE
  5
45BD
330
1F
100
AcDbEntity
  8
0
100
AcDbLine
 10
12.91928872955225
 20
6.833027472648306
 30
0.0
 11
12.92118697346565
 21
6.83551275402254
 31
0.0
  0
LINE
  5
45BE
330
1F
100
AcDbEntity
  8
0
100
AcDbLine
 10
12.92118697346565
 20
6.83551275402254
 30
0.0
 11
12.92366081309744
 21
6.837419777493717
 31
0.0
  0
LINE
  5
45BF
330
1F
100
AcDbEntity
  8
0
100
AcDbLine
 10
12.92366081309744
 20
6.837419777493717
 30
0.0
 11
12.92654166036493
 21
6.838618582563777
 31
0.0
  0
LINE
  5
45C0
330
1F
100
AcDbEntity
  8
0
100
AcDbLine
 10
12.92654166036493
 20
6.838618582563777
 30
0.0
 11
12.92963319028765
 21
6.839027472648306
 31
0.0
  0
LINE
  5
45C1
330
1F
100
AcDbEntity
  8
0
100
AcDbLine
 10
12.92963319028765
 20
6.839027472648306
 30
0.0
 11
12.93272472021037
 21
6.838618582563777
 31
0.0
  0
LINE
  5
45C2
330
1F
100
AcDbEntity
  8
0
100
AcDbLine
 10
12.93272472021037
 20
6.838618582563777
 30
0.0
 11
12.93560556747785
 21
6.837419777493717
 31
0.0
  0
LINE
  5
45C3
330
1F
100
AcDbEntity
  8
0
100
AcDbLine
 10
12.93560556747785
 20
6.837419777493717
 30
0.0
 11
12.93807940710964
 21
6.83551275402254
 31
0.0
  0
LINE
  5
45C4
330
1F
100
AcDbEntity
  8
0
100
AcDbLine
 10
12.93807940710964
 20
6.83551275402254
 30
0.0
 11
12.93997765102304
 21
6.833027472648306
 31
0.0
  0
LINE
  5
45C5
330
1F
100
AcDbEntity
  8
0
100
AcDbLine
 10
12.93997765102304
 20
6.833027472648306
 30
0.0
 11
12.94117093703236
 21
6.830133301189529
 31
0.0
  0
LINE
  5
45C6
330
1F
100
AcDbEntity
  8
0
100
AcDbLine
 10
12.94117093703236
 20
6.830133301189529
 30
0.0
 11
12.94157794466805
 21
6.827027472648306
 31
0.0
  0
LINE
  5
45C7
330
1F
100
AcDbEntity
  8
0
100
AcDbLine
 10
12.94157794466805
 20
6.827027472648306
 30
0.0
 11
12.94117093703236
 21
6.823921644107069
 31
0.0
  0
LINE
  5
45C8
330
1F
100
AcDbEntity
  8
0
100
AcDbLine
 10
12.94117093703236
 20
6.823921644107069
 30
0.0
 11
12.93997765102304
 21
6.821027472648306
 31
0.0
  0
LINE
  5
45C9
330
1F
100
AcDbEntity
  8
0
100
AcDbLine
 10
12.93997765102304
 20
6.821027472648306
 30
0.0
 11
12.93690279200294
 21
6.816803885696539
 31
0.0
  0
LINE
  5
45CA
330
1F
100
AcDbEntity
  8
0
100
AcDbLine
 10
12.91409893859616
 20
6.824643753201978
 30
0.0
 11
12.91037478885697
 21
6.808549212862753
 31
0.0
  0
LINE
  5
45CB
330
1F
100
AcDbEntity
  8
0
100
AcDbLine
 10
12.91037478885697
 20
6.808549212862753
 30
0.0
 11
12.90717678897564
 21
6.782946496498477
 31
0.0
  0
LINE
  5
45CC
330
1F
100
AcDbEntity
  8
0
100
AcDbLine
 10
12.90717678897564
 20
6.782946496498477
 30
0.0
 11
12.90698027322155
 21
6.780750344075779
 31
0.0
  0
LINE
  5
45CD
330
1F
100
AcDbEntity
  8
0
100
AcDbLine
 10
12.93374796282013
 20
6.803169760029741
 30
0.0
 11
12.93075838019126
 21
6.779235601513472
 31
0.0
  0
LINE
  5
45CE
330
1F
100
AcDbEntity
  8
0
100
AcDbLine
 10
12.90698027322155
 20
6.780750344075779
 30
0.0
 11
12.90457366857592
 21
6.748027472648298
 31
0.0
  0
LINE
  5
45CF
330
1F
100
AcDbEntity
  8
0
100
AcDbLine
 10
12.90306081365074
 20
6.709920881774503
 30
0.0
 11
12.90254480700905
 21
6.669027472648305
 31
0.0
  0
LINE
  5
45D0
330
1F
100
AcDbEntity
  8
0
100
AcDbLine
 10
12.92695032241155
 20
6.709920881774503
 30
0.0
 11
12.92643431576986
 21
6.669027472648305
 31
0.0
  0
LINE
  5
45D1
330
1F
100
AcDbEntity
  8
0
100
AcDbLine
 10
12.90457366857592
 20
6.590027472648297
 30
0.0
 11
12.90698027322155
 21
6.55730460122083
 31
0.0
  0
LINE
  5
45D2
330
1F
100
AcDbEntity
  8
0
100
AcDbLine
 10
12.90717678897564
 20
6.555108448798118
 30
0.0
 11
12.90698027322155
 21
6.55730460122083
 31
0.0
  0
LINE
  5
45D3
330
1F
100
AcDbEntity
  8
0
100
AcDbLine
 10
12.90717678897564
 20
6.555108448798118
 30
0.0
 11
12.91037478885697
 21
6.529505732433857
 31
0.0
  0
LINE
  5
45D4
330
1F
100
AcDbEntity
  8
0
100
AcDbLine
 10
12.94889159171832
 20
6.529505732433857
 30
0.0
 11
12.95208959159965
 21
6.555108448798118
 31
0.0
  0
LINE
  5
45D5
330
1F
100
AcDbEntity
  8
0
100
AcDbLine
 10
12.95228610735374
 20
6.55730460122083
 30
0.0
 11
12.95208959159965
 21
6.555108448798118
 31
0.0
  0
LINE
  5
45D6
330
1F
100
AcDbEntity
  8
0
100
AcDbLine
 10
12.93075838019126
 20
6.558819343783123
 30
0.0
 11
12.93374796282013
 21
6.534885185266868
 31
0.0
  0
LINE
  5
45D7
330
1F
100
AcDbEntity
  8
0
100
AcDbLine
 10
12.91037478885697
 20
6.529505732433857
 30
0.0
 11
12.91409893859616
 21
6.513411192094632
 31
0.0
  0
LINE
  5
45D8
330
1F
100
AcDbEntity
  8
0
100
AcDbLine
 10
12.91522042974457
 20
6.510615637136889
 30
0.0
 11
12.91409893859616
 21
6.513411192094632
 31
0.0
  0
LINE
  5
45D9
330
1F
100
AcDbEntity
  8
0
100
AcDbLine
 10
12.95469271199938
 20
6.590027472648297
 30
0.0
 11
12.95534441489342
 21
6.606442910203649
 31
0.0
  0
LINE
  5
45DA
330
1F
100
AcDbEntity
  8
0
100
AcDbLine
 10
12.91522042974457
 20
6.510615637136889
 30
0.0
 11
12.91928872955225
 21
6.505027472648303
 31
0.0
  0
LINE
  5
45DB
330
1F
100
AcDbEntity
  8
0
100
AcDbLine
 10
12.92118697346565
 20
6.502542191274069
 30
0.0
 11
12.91928872955225
 21
6.505027472648303
 31
0.0
  0
LINE
  5
45DC
330
1F
100
AcDbEntity
  8
0
100
AcDbLine
 10
12.92366081309744
 20
6.500635167802893
 30
0.0
 11
12.92118697346565
 21
6.502542191274069
 31
0.0
  0
LINE
  5
45DD
330
1F
100
AcDbEntity
  8
0
100
AcDbLine
 10
12.92654166036493
 20
6.499436362732832
 30
0.0
 11
12.92366081309744
 21
6.500635167802893
 31
0.0
  0
LINE
  5
45DE
330
1F
100
AcDbEntity
  8
0
100
AcDbLine
 10
12.92963319028765
 20
6.499027472648303
 30
0.0
 11
12.92654166036493
 21
6.499436362732832
 31
0.0
  0
LINE
  5
45DF
330
1F
100
AcDbEntity
  8
0
100
AcDbLine
 10
12.93272472021037
 20
6.499436362732832
 30
0.0
 11
12.92963319028765
 21
6.499027472648303
 31
0.0
  0
LINE
  5
45E0
330
1F
100
AcDbEntity
  8
0
100
AcDbLine
 10
12.93560556747785
 20
6.500635167802893
 30
0.0
 11
12.93272472021037
 21
6.499436362732832
 31
0.0
  0
LINE
  5
45E1
330
1F
100
AcDbEntity
  8
0
100
AcDbLine
 10
12.93807940710964
 20
6.502542191274055
 30
0.0
 11
12.93560556747785
 21
6.500635167802893
 31
0.0
  0
LINE
  5
45E2
330
1F
100
AcDbEntity
  8
0
100
AcDbLine
 10
12.93997765102304
 20
6.505027472648303
 30
0.0
 11
12.93807940710964
 21
6.502542191274055
 31
0.0
  0
LINE
  5
45E3
330
1F
100
AcDbEntity
  8
0
100
AcDbLine
 10
12.93690279200294
 20
6.521251059600071
 30
0.0
 11
12.93997765102304
 21
6.517027472648304
 31
0.0
  0
LINE
  5
45E4
330
1F
100
AcDbEntity
  8
0
100
AcDbLine
 10
12.93997765102304
 20
6.505027472648303
 30
0.0
 11
12.94404595083073
 21
6.510615637136889
 31
0.0
  0
LINE
  5
45E5
330
1F
100
AcDbEntity
  8
0
100
AcDbLine
 10
12.94516744197914
 20
6.513411192094632
 30
0.0
 11
12.94404595083073
 21
6.510615637136889
 31
0.0
  0
LINE
  5
45E6
330
1F
100
AcDbEntity
  8
0
100
AcDbLine
 10
12.94516744197914
 20
6.513411192094632
 30
0.0
 11
12.94889159171832
 21
6.529505732433857
 31
0.0
  0
LINE
  5
45E7
330
1F
100
AcDbEntity
  8
0
100
AcDbLine
 10
12.92963319028765
 20
6.574118676232283
 30
0.0
 11
12.93080320323856
 21
6.590027472648297
 31
0.0
  0
LINE
  5
45E8
330
1F
100
AcDbEntity
  8
0
100
AcDbLine
 10
12.95228610735374
 20
6.55730460122083
 30
0.0
 11
12.95469271199938
 21
6.590027472648297
 31
0.0
  0
LINE
  5
45E9
330
1F
100
AcDbEntity
  8
0
100
AcDbLine
 10
12.93080320323856
 20
6.590027472648297
 30
0.0
 11
12.93145490613261
 21
6.606442910203649
 31
0.0
  0
LINE
  5
45EA
330
1F
100
AcDbEntity
  8
0
100
AcDbLine
 10
12.93162778822789
 20
6.727257389340318
 30
0.0
 11
12.93080320323856
 21
6.748027472648298
 31
0.0
  0
LINE
  5
45EB
330
1F
100
AcDbEntity
  8
0
100
AcDbLine
 10
12.9555172969887
 20
6.727257389340318
 30
0.0
 11
12.95469271199938
 21
6.748027472648298
 31
0.0
  0
LINE
  5
45EC
330
1F
100
AcDbEntity
  8
0
100
AcDbLine
 10
12.93080320323856
 20
6.748027472648298
 30
0.0
 11
12.92963319028765
 21
6.763936269064326
 31
0.0
  0
LINE
  5
45ED
330
1F
100
AcDbEntity
  8
0
100
AcDbLine
 10
12.95469271199938
 20
6.748027472648298
 30
0.0
 11
12.95228610735374
 21
6.780750344075779
 31
0.0
  0
LINE
  5
45EE
330
1F
100
AcDbEntity
  8
0
100
AcDbLine
 10
12.95228610735374
 20
6.780750344075779
 30
0.0
 11
12.95208959159965
 21
6.782946496498477
 31
0.0
  0
LINE
  5
45EF
330
1F
100
AcDbEntity
  8
0
100
AcDbLine
 10
12.95208959159965
 20
6.782946496498477
 30
0.0
 11
12.94889159171832
 21
6.808549212862753
 31
0.0
  0
LINE
  5
45F0
330
1F
100
AcDbEntity
  8
0
100
AcDbLine
 10
12.94889159171832
 20
6.808549212862753
 30
0.0
 11
12.94516744197914
 21
6.824643753201978
 31
0.0
  0
LINE
  5
45F1
330
1F
100
AcDbEntity
  8
0
100
AcDbLine
 10
12.94516744197914
 20
6.824643753201978
 30
0.0
 11
12.94404595083073
 21
6.827439308159706
 31
0.0
  0
LINE
  5
45F2
330
1F
100
AcDbEntity
  8
0
100
AcDbLine
 10
12.94404595083073
 20
6.827439308159706
 30
0.0
 11
12.93997765102304
 21
6.833027472648306
 31
0.0
  0
LINE
  5
45F3
330
1F
100
AcDbEntity
  8
0
100
AcDbLine
 10
12.97262966747895
 20
6.724257389340318
 30
0.0
 11
12.92751949051564
 21
6.724257389340318
 31
0.0
  0
LINE
  5
45F4
330
1F
100
AcDbEntity
  8
0
100
AcDbLine
 10
12.97276744981836
 20
6.724257389340318
 30
0.0
 11
12.97262966747895
 21
6.724257389340318
 31
0.0
  0
LINE
  5
45F5
330
1F
100
AcDbEntity
  8
0
100
AcDbLine
 10
12.92763859234741
 20
6.727257389340318
 30
0.0
 11
12.93162778822789
 21
6.727257389340318
 31
0.0
  0
LINE
  5
45F6
330
1F
100
AcDbEntity
  8
0
100
AcDbLine
 10
12.97531334854951
 20
6.727257389340318
 30
0.0
 11
12.97262966747895
 21
6.727257389340318
 31
0.0
  0
LINE
  5
45F7
330
1F
100
AcDbEntity
  8
0
100
AcDbLine
 10
12.97262966747895
 20
6.724257389340318
 30
0.0
 11
12.97262966747895
 21
6.727257389340318
 31
0.0
  0
LINE
  5
45F8
330
1F
100
AcDbEntity
  8
0
100
AcDbLine
 10
12.97531334854951
 20
6.72675111470563
 30
0.0
 11
12.97531334854951
 21
6.727257389340318
 31
0.0
  0
LINE
  5
45F9
330
1F
100
AcDbEntity
  8
0
100
AcDbLine
 10
12.97531334854951
 20
6.606442910203649
 30
0.0
 11
12.97531334854951
 21
6.606751114705626
 31
0.0
  0
LINE
  5
45FA
330
1F
100
AcDbEntity
  8
0
100
AcDbLine
 10
12.97272161795131
 20
6.609442910203649
 30
0.0
 11
12.97262966747895
 21
6.609442910203649
 31
0.0
  0
LINE
  5
45FB
330
1F
100
AcDbEntity
  8
0
100
AcDbLine
 10
12.97262966747895
 20
6.606442910203649
 30
0.0
 11
12.97262966747895
 21
6.609442910203649
 31
0.0
  0
LINE
  5
45FC
330
1F
100
AcDbEntity
  8
0
100
AcDbLine
 10
12.92781147444269
 20
6.606442910203649
 30
0.0
 11
12.93145490613261
 21
6.606442910203649
 31
0.0
  0
LINE
  5
45FD
330
1F
100
AcDbEntity
  8
0
100
AcDbLine
 10
12.97531334854951
 20
6.606442910203649
 30
0.0
 11
12.97262966747895
 21
6.606442910203649
 31
0.0
  0
LINE
  5
45FE
330
1F
100
AcDbEntity
  8
0
100
AcDbLine
 10
10.69033084941589
 20
6.597997737731513
 30
0.0
 11
10.68860980145667
 21
6.597188491146463
 31
0.0
  0
LINE
  5
45FF
330
1F
100
AcDbEntity
  8
0
100
AcDbLine
 10
10.68309430792467
 20
6.595813723239355
 30
0.0
 11
10.68119632629465
 21
6.59572090626376
 31
0.0
  0
LINE
  5
4600
330
1F
100
AcDbEntity
  8
0
100
AcDbLine
 10
10.698338801342
 20
6.605928231169637
 30
0.0
 11
10.69734660038099
 21
6.604300116210803
 31
0.0
  0
LINE
  5
4601
330
1F
100
AcDbEntity
  8
0
100
AcDbLine
 10
10.68497434275935
 20
6.596091296514155
 30
0.0
 11
10.68309430792467
 21
6.595813723239355
 31
0.0
  0
LINE
  5
4602
330
1F
100
AcDbEntity
  8
0
100
AcDbLine
 10
10.67964077410631
 20
6.737468589276569
 30
0.0
 11
10.68163452669702
 21
6.737377998466167
 31
0.0
  0
LINE
  5
4603
330
1F
100
AcDbEntity
  8
0
100
AcDbLine
 10
10.68361199902188
 20
6.737106965766908
 30
0.0
 11
10.68555704375385
 21
6.73665770433423
 31
0.0
  0
LINE
  5
4604
330
1F
100
AcDbEntity
  8
0
100
AcDbLine
 10
10.68555704375385
 20
6.73665770433423
 30
0.0
 11
10.6874537783579
 21
6.736033882675253
 31
0.0
  0
LINE
  5
4605
330
1F
100
AcDbEntity
  8
0
100
AcDbLine
 10
10.6874537783579
 20
6.736033882675253
 30
0.0
 11
10.68928671478215
 21
6.735240594693048
 31
0.0
  0
LINE
  5
4606
330
1F
100
AcDbEntity
  8
0
100
AcDbLine
 10
10.68928671478215
 20
6.735240594693048
 30
0.0
 11
10.69104088592767
 21
6.734284318091662
 31
0.0
  0
LINE
  5
4607
330
1F
100
AcDbEntity
  8
0
100
AcDbLine
 10
10.69104088592767
 20
6.734284318091662
 30
0.0
 11
10.69270196786443
 21
6.73317286148153
 31
0.0
  0
LINE
  5
4608
330
1F
100
AcDbEntity
  8
0
100
AcDbLine
 10
10.69270196786443
 20
6.73317286148153
 30
0.0
 11
10.69425639679538
 21
6.731915300617198
 31
0.0
  0
LINE
  5
4609
330
1F
100
AcDbEntity
  8
0
100
AcDbLine
 10
10.69425639679538
 20
6.731915300617198
 30
0.0
 11
10.69569147981351
 21
6.730521904287892
 31
0.0
  0
LINE
  5
460A
330
1F
100
AcDbEntity
  8
0
100
AcDbLine
 10
10.69569147981351
 20
6.730521904287892
 30
0.0
 11
10.69699549854757
 21
6.72900405046641
 31
0.0
  0
LINE
  5
460B
330
1F
100
AcDbEntity
  8
0
100
AcDbLine
 10
10.69699549854757
 20
6.72900405046641
 30
0.0
 11
10.69815780485005
 21
6.727374133400554
 31
0.0
  0
LINE
  5
460C
330
1F
100
AcDbEntity
  8
0
100
AcDbLine
 10
10.57114258848429
 20
6.737468589276569
 30
0.0
 11
10.56974821156686
 21
6.737565441342975
 31
0.0
  0
LINE
  5
460D
330
1F
100
AcDbEntity
  8
0
100
AcDbLine
 10
10.56974821156686
 20
6.737565441342975
 30
0.0
 11
10.56838036961083
 21
6.737854154449517
 31
0.0
  0
LINE
  5
460E
330
1F
100
AcDbEntity
  8
0
100
AcDbLine
 10
10.56104792190318
 20
6.748520870094078
 30
0.0
 11
10.56109578645375
 21
6.750300372459601
 31
0.0
  0
LINE
  5
460F
330
1F
100
AcDbEntity
  8
0
100
AcDbLine
 10
10.56838036961083
 20
6.737854154449517
 30
0.0
 11
10.56706509261787
 21
6.738329234392305
 31
0.0
  0
LINE
  5
4610
330
1F
100
AcDbEntity
  8
0
100
AcDbLine
 10
10.56706509261787
 20
6.738329234392305
 30
0.0
 11
10.5658274102796
 21
6.73898164041068
 31
0.0
  0
LINE
  5
4611
330
1F
100
AcDbEntity
  8
0
100
AcDbLine
 10
10.5658274102796
 20
6.73898164041068
 30
0.0
 11
10.56469087566308
 21
6.739798957232788
 31
0.0
  0
LINE
  5
4612
330
1F
100
AcDbEntity
  8
0
100
AcDbLine
 10
10.68681865370335
 20
6.59655100143119
 30
0.0
 11
10.68497434275935
 21
6.596091296514155
 31
0.0
  0
LINE
  5
4613
330
1F
100
AcDbEntity
  8
0
100
AcDbLine
 10
10.68163452669702
 20
6.737377998466167
 30
0.0
 11
10.68361199902188
 21
6.737106965766908
 31
0.0
  0
LINE
  5
4614
330
1F
100
AcDbEntity
  8
0
100
AcDbLine
 10
10.6934983676411
 20
6.600099341722606
 30
0.0
 11
10.69196552382211
 21
6.598971089171921
 31
0.0
  0
LINE
  5
4615
330
1F
100
AcDbEntity
  8
0
100
AcDbLine
 10
10.69620168684415
 20
6.602776512539672
 30
0.0
 11
10.6949148867208
 21
6.601371826935941
 31
0.0
  0
LINE
  5
4616
330
1F
100
AcDbEntity
  8
0
100
AcDbLine
 10
10.6949148867208
 20
6.601371826935941
 30
0.0
 11
10.6934983676411
 21
6.600099341722606
 31
0.0
  0
LINE
  5
4617
330
1F
100
AcDbEntity
  8
0
100
AcDbLine
 10
10.68860980145667
 20
6.597188491146463
 30
0.0
 11
10.68681865370335
 21
6.59655100143119
 31
0.0
  0
LINE
  5
4618
330
1F
100
AcDbEntity
  8
0
100
AcDbLine
 10
10.69734660038099
 20
6.604300116210803
 30
0.0
 11
10.69620168684415
 21
6.602776512539672
 31
0.0
  0
LINE
  5
4619
330
1F
100
AcDbEntity
  8
0
100
AcDbLine
 10
10.69196552382211
 20
6.598971089171921
 30
0.0
 11
10.69033084941589
 21
6.597997737731513
 31
0.0
  0
LINE
  5
461A
330
1F
100
AcDbEntity
  8
0
100
AcDbLine
 10
10.56209239118571
 20
6.743070976056652
 30
0.0
 11
10.56155158133799
 21
6.744365776012197
 31
0.0
  0
LINE
  5
461B
330
1F
100
AcDbEntity
  8
0
100
AcDbLine
 10
10.5518269674745
 20
6.5678286766292
 30
0.0
 11
10.5496766328257
 21
6.567644466695209
 31
0.0
  0
LINE
  5
461C
330
1F
100
AcDbEntity
  8
0
100
AcDbLine
 10
10.56593712510979
 20
6.591468074028195
 30
0.0
 11
10.56530625536256
 21
6.590308592458067
 31
0.0
  0
LINE
  5
461D
330
1F
100
AcDbEntity
  8
0
100
AcDbLine
 10
10.55298631738357
 20
6.76323967799848
 30
0.0
 11
10.55136831800481
 21
6.76396545114522
 31
0.0
  0
LINE
  5
461E
330
1F
100
AcDbEntity
  8
0
100
AcDbLine
 10
10.56109578645375
 20
6.750300372459601
 30
0.0
 11
10.56093516331447
 21
6.752073195611454
 31
0.0
  0
LINE
  5
461F
330
1F
100
AcDbEntity
  8
0
100
AcDbLine
 10
10.55450820895417
 20
6.762327914561917
 30
0.0
 11
10.55298631738357
 21
6.76323967799848
 31
0.0
  0
LINE
  5
4620
330
1F
100
AcDbEntity
  8
0
100
AcDbLine
 10
10.56765612924957
 20
6.593459668422165
 30
0.0
 11
10.56672576348242
 21
6.59252560287437
 31
0.0
  0
LINE
  5
4621
330
1F
100
AcDbEntity
  8
0
100
AcDbLine
 10
10.55392992725006
 20
6.568315811929561
 30
0.0
 11
10.5518269674745
 21
6.5678286766292
 31
0.0
  0
LINE
  5
4622
330
1F
100
AcDbEntity
  8
0
100
AcDbLine
 10
10.56234096841311
 20
6.574756391092587
 30
0.0
 11
10.56105832574532
 21
6.573012740305808
 31
0.0
  0
LINE
  5
4623
330
1F
100
AcDbEntity
  8
0
100
AcDbLine
 10
10.56280542608459
 20
6.741863266939428
 30
0.0
 11
10.56209239118571
 21
6.743070976056652
 31
0.0
  0
LINE
  5
4624
330
1F
100
AcDbEntity
  8
0
100
AcDbLine
 10
10.56456398619394
 20
6.585143641481731
 30
0.0
 11
10.56471777480801
 21
6.582981033471194
 31
0.0
  0
LINE
  5
4625
330
1F
100
AcDbEntity
  8
0
100
AcDbLine
 10
10.56093516331447
 20
6.752073195611454
 30
0.0
 11
10.56056827837818
 21
6.753814772015739
 31
0.0
  0
LINE
  5
4626
330
1F
100
AcDbEntity
  8
0
100
AcDbLine
 10
10.56456633375611
 20
6.580818258264126
 30
0.0
 11
10.5641126923133
 21
6.578698577848551
 31
0.0
  0
LINE
  5
4627
330
1F
100
AcDbEntity
  8
0
100
AcDbLine
 10
10.56155158133799
 20
6.744365776012197
 30
0.0
 11
10.56119328814068
 21
6.745723026791973
 31
0.0
  0
LINE
  5
4628
330
1F
100
AcDbEntity
  8
0
100
AcDbLine
 10
10.56119328814068
 20
6.745723026791973
 30
0.0
 11
10.56102432990527
 21
6.747116899944198
 31
0.0
  0
LINE
  5
4629
330
1F
100
AcDbEntity
  8
0
100
AcDbLine
 10
10.56105832574532
 20
6.573012740305808
 30
0.0
 11
10.55954365336366
 21
6.571468318070297
 31
0.0
  0
LINE
  5
462A
330
1F
100
AcDbEntity
  8
0
100
AcDbLine
 10
10.55782724925671
 20
6.57015401746086
 30
0.0
 11
10.55594344665229
 21
6.569096128429914
 31
0.0
  0
LINE
  5
462B
330
1F
100
AcDbEntity
  8
0
100
AcDbLine
 10
10.56986384899698
 20
6.594884310251113
 30
0.0
 11
10.56870929838646
 21
6.59425127139175
 31
0.0
  0
LINE
  5
462C
330
1F
100
AcDbEntity
  8
0
100
AcDbLine
 10
10.56000021588474
 20
6.755500967151614
 30
0.0
 11
10.55923884796427
 21
6.757108413964071
 31
0.0
  0
LINE
  5
462D
330
1F
100
AcDbEntity
  8
0
100
AcDbLine
 10
10.55954365336366
 20
6.571468318070297
 30
0.0
 11
10.55782724925671
 21
6.57015401746086
 31
0.0
  0
LINE
  5
462E
330
1F
100
AcDbEntity
  8
0
100
AcDbLine
 10
10.57369353687099
 20
6.59572090626376
 30
0.0
 11
10.57238157402379
 21
6.595626677717883
 31
0.0
  0
LINE
  5
462F
330
1F
100
AcDbEntity
  8
0
100
AcDbLine
 10
10.56447103851064
 20
6.586461732842717
 30
0.0
 11
10.56456398619394
 21
6.585143641481731
 31
0.0
  0
LINE
  5
4630
330
1F
100
AcDbEntity
  8
0
100
AcDbLine
 10
10.56471777480801
 20
6.582981033471194
 30
0.0
 11
10.56456633375611
 21
6.580818258264126
 31
0.0
  0
LINE
  5
4631
330
1F
100
AcDbEntity
  8
0
100
AcDbLine
 10
10.57109629704387
 20
6.595345908727845
 30
0.0
 11
10.56986384899698
 21
6.594884310251113
 31
0.0
  0
LINE
  5
4632
330
1F
100
AcDbEntity
  8
0
100
AcDbLine
 10
10.57238157402379
 20
6.595626677717883
 30
0.0
 11
10.57109629704387
 21
6.595345908727845
 31
0.0
  0
LINE
  5
4633
330
1F
100
AcDbEntity
  8
0
100
AcDbLine
 10
10.55923884796427
 20
6.757108413964071
 30
0.0
 11
10.55829472554632
 21
6.758614836681284
 31
0.0
  0
LINE
  5
4634
330
1F
100
AcDbEntity
  8
0
100
AcDbLine
 10
10.55829472554632
 20
6.758614836681284
 30
0.0
 11
10.55718093214658
 21
6.759999359509119
 31
0.0
  0
LINE
  5
4635
330
1F
100
AcDbEntity
  8
0
100
AcDbLine
 10
10.55594344665229
 20
6.569096128429914
 30
0.0
 11
10.55392992725006
 21
6.568315811929561
 31
0.0
  0
LINE
  5
4636
330
1F
100
AcDbEntity
  8
0
100
AcDbLine
 10
10.5633659246684
 20
6.576664392187505
 30
0.0
 11
10.56234096841311
 21
6.574756391092587
 31
0.0
  0
LINE
  5
4637
330
1F
100
AcDbEntity
  8
0
100
AcDbLine
 10
10.5648459863925
 20
6.589070742498985
 30
0.0
 11
10.56456568026095
 21
6.587779702531444
 31
0.0
  0
LINE
  5
4638
330
1F
100
AcDbEntity
  8
0
100
AcDbLine
 10
10.56870929838646
 20
6.59425127139175
 30
0.0
 11
10.56765612924957
 21
6.593459668422165
 31
0.0
  0
LINE
  5
4639
330
1F
100
AcDbEntity
  8
0
100
AcDbLine
 10
10.56056827837818
 20
6.753814772015739
 30
0.0
 11
10.56000021588474
 21
6.755500967151614
 31
0.0
  0
LINE
  5
463A
330
1F
100
AcDbEntity
  8
0
100
AcDbLine
 10
10.56672576348242
 20
6.59252560287437
 30
0.0
 11
10.56593712510979
 21
6.591468074028195
 31
0.0
  0
LINE
  5
463B
330
1F
100
AcDbEntity
  8
0
100
AcDbLine
 10
10.56530625536256
 20
6.590308592458067
 30
0.0
 11
10.5648459863925
 21
6.589070742498985
 31
0.0
  0
LINE
  5
463C
330
1F
100
AcDbEntity
  8
0
100
AcDbLine
 10
10.56456568026095
 20
6.587779702531444
 30
0.0
 11
10.56447103851064
 21
6.586461732842717
 31
0.0
  0
LINE
  5
463D
330
1F
100
AcDbEntity
  8
0
100
AcDbLine
 10
10.55136831800481
 20
6.76396545114522
 30
0.0
 11
10.5496766328257
 21
6.764495176339944
 31
0.0
  0
LINE
  5
463E
330
1F
100
AcDbEntity
  8
0
100
AcDbLine
 10
10.55591290255729
 20
6.761242795924981
 30
0.0
 11
10.55450820895417
 21
6.762327914561917
 31
0.0
  0
LINE
  5
463F
330
1F
100
AcDbEntity
  8
0
100
AcDbLine
 10
10.55718093214658
 20
6.759999359509119
 30
0.0
 11
10.55591290255729
 21
6.761242795924981
 31
0.0
  0
LINE
  5
4640
330
1F
100
AcDbEntity
  8
0
100
AcDbLine
 10
10.56102432990527
 20
6.747116899944198
 30
0.0
 11
10.56104792190318
 21
6.748520870094078
 31
0.0
  0
LINE
  5
4641
330
1F
100
AcDbEntity
  8
0
100
AcDbLine
 10
10.56367711699654
 20
6.74076563133786
 30
0.0
 11
10.56280542608459
 21
6.741863266939428
 31
0.0
  0
LINE
  5
4642
330
1F
100
AcDbEntity
  8
0
100
AcDbLine
 10
10.56469087566308
 20
6.739798957232788
 30
0.0
 11
10.56367711699654
 21
6.74076563133786
 31
0.0
  0
LINE
  5
4643
330
1F
100
AcDbEntity
  8
0
100
AcDbLine
 10
10.5641126923133
 20
6.578698577848551
 30
0.0
 11
10.5633659246684
 21
6.576664392187505
 31
0.0
  0
LINE
  5
4644
330
1F
100
AcDbEntity
  8
0
100
AcDbLine
 10
10.36510910459438
 20
6.753003098396173
 30
0.0
 11
10.36491817963812
 21
6.751251114705634
 31
0.0
  0
LINE
  5
4645
330
1F
100
AcDbEntity
  8
0
100
AcDbLine
 10
10.36551956001029
 20
6.754716633191914
 30
0.0
 11
10.36510910459438
 21
6.753003098396173
 31
0.0
  0
LINE
  5
4646
330
1F
100
AcDbEntity
  8
0
100
AcDbLine
 10
10.36614292323597
 20
6.756364071410426
 30
0.0
 11
10.36551956001029
 21
6.754716633191914
 31
0.0
  0
LINE
  5
4647
330
1F
100
AcDbEntity
  8
0
100
AcDbLine
 10
10.36696913637911
 20
6.757918831829793
 30
0.0
 11
10.36614292323597
 21
6.756364071410426
 31
0.0
  0
LINE
  5
4648
330
1F
100
AcDbEntity
  8
0
100
AcDbLine
 10
10.36798486858779
 20
6.759355828573528
 30
0.0
 11
10.36696913637911
 21
6.757918831829793
 31
0.0
  0
LINE
  5
4649
330
1F
100
AcDbEntity
  8
0
100
AcDbLine
 10
10.36917373114229
 20
6.760651875868144
 30
0.0
 11
10.36798486858779
 21
6.759355828573528
 31
0.0
  0
LINE
  5
464A
330
1F
100
AcDbEntity
  8
0
100
AcDbLine
 10
10.37051654188511
 20
6.761786062142983
 30
0.0
 11
10.36917373114229
 21
6.760651875868144
 31
0.0
  0
LINE
  5
464B
330
1F
100
AcDbEntity
  8
0
100
AcDbLine
 10
10.37199163472284
 20
6.762740087435882
 30
0.0
 11
10.37051654188511
 21
6.761786062142983
 31
0.0
  0
LINE
  5
464C
330
1F
100
AcDbEntity
  8
0
100
AcDbLine
 10
10.37357520920601
 20
6.763498558660937
 30
0.0
 11
10.37199163472284
 21
6.762740087435882
 31
0.0
  0
LINE
  5
464D
330
1F
100
AcDbEntity
  8
0
100
AcDbLine
 10
10.37524171454659
 20
6.76404923797413
 30
0.0
 11
10.37357520920601
 21
6.763498558660937
 31
0.0
  0
LINE
  5
464E
330
1F
100
AcDbEntity
  8
0
100
AcDbLine
 10
10.37696426187688
 20
6.764383240229501
 30
0.0
 11
10.37524171454659
 21
6.76404923797413
 31
0.0
  0
LINE
  5
464F
330
1F
100
AcDbEntity
  8
0
100
AcDbLine
 10
10.37871505809831
 20
6.764495176339944
 30
0.0
 11
10.37696426187688
 21
6.764383240229501
 31
0.0
  0
LINE
  5
4650
330
1F
100
AcDbEntity
  8
0
100
AcDbLine
 10
10.54964309445945
 20
6.76396545114522
 30
0.0
 11
10.54795140928034
 21
6.764495176339944
 31
0.0
  0
LINE
  5
4651
330
1F
100
AcDbEntity
  8
0
100
AcDbLine
 10
10.5512610938382
 20
6.76323967799848
 30
0.0
 11
10.54964309445945
 21
6.76396545114522
 31
0.0
  0
LINE
  5
4652
330
1F
100
AcDbEntity
  8
0
100
AcDbLine
 10
10.55278298540881
 20
6.762327914561917
 30
0.0
 11
10.5512610938382
 21
6.76323967799848
 31
0.0
  0
LINE
  5
4653
330
1F
100
AcDbEntity
  8
0
100
AcDbLine
 10
10.55418767901193
 20
6.761242795924981
 30
0.0
 11
10.55278298540881
 21
6.762327914561917
 31
0.0
  0
LINE
  5
4654
330
1F
100
AcDbEntity
  8
0
100
AcDbLine
 10
10.55545570860122
 20
6.759999359509119
 30
0.0
 11
10.55418767901193
 21
6.761242795924981
 31
0.0
  0
LINE
  5
4655
330
1F
100
AcDbEntity
  8
0
100
AcDbLine
 10
10.55656950200096
 20
6.758614836681284
 30
0.0
 11
10.55545570860122
 21
6.759999359509119
 31
0.0
  0
LINE
  5
4656
330
1F
100
AcDbEntity
  8
0
100
AcDbLine
 10
10.5575136244189
 20
6.757108413964071
 30
0.0
 11
10.55656950200096
 21
6.758614836681284
 31
0.0
  0
LINE
  5
4657
330
1F
100
AcDbEntity
  8
0
100
AcDbLine
 10
10.55827499233937
 20
6.755500967151614
 30
0.0
 11
10.5575136244189
 21
6.757108413964071
 31
0.0
  0
LINE
  5
4658
330
1F
100
AcDbEntity
  8
0
100
AcDbLine
 10
10.55884305483282
 20
6.753814772015739
 30
0.0
 11
10.55827499233937
 21
6.755500967151614
 31
0.0
  0
LINE
  5
4659
330
1F
100
AcDbEntity
  8
0
100
AcDbLine
 10
10.5592099397691
 20
6.752073195611454
 30
0.0
 11
10.55884305483282
 21
6.753814772015739
 31
0.0
  0
LINE
  5
465A
330
1F
100
AcDbEntity
  8
0
100
AcDbLine
 10
10.55937056290839
 20
6.750300372459601
 30
0.0
 11
10.5592099397691
 21
6.752073195611454
 31
0.0
  0
LINE
  5
465B
330
1F
100
AcDbEntity
  8
0
100
AcDbLine
 10
10.55932269835782
 20
6.748520870094078
 30
0.0
 11
10.55937056290839
 21
6.750300372459601
 31
0.0
  0
LINE
  5
465C
330
1F
100
AcDbEntity
  8
0
100
AcDbLine
 10
10.55929910635991
 20
6.747116899944198
 30
0.0
 11
10.55932269835782
 21
6.748520870094078
 31
0.0
  0
LINE
  5
465D
330
1F
100
AcDbEntity
  8
0
100
AcDbLine
 10
10.55946806459532
 20
6.745723026791973
 30
0.0
 11
10.55929910635991
 21
6.747116899944198
 31
0.0
  0
LINE
  5
465E
330
1F
100
AcDbEntity
  8
0
100
AcDbLine
 10
10.55982635779263
 20
6.744365776012197
 30
0.0
 11
10.55946806459532
 21
6.745723026791973
 31
0.0
  0
LINE
  5
465F
330
1F
100
AcDbEntity
  8
0
100
AcDbLine
 10
10.56036716764035
 20
6.743070976056652
 30
0.0
 11
10.55982635779263
 21
6.744365776012197
 31
0.0
  0
LINE
  5
4660
330
1F
100
AcDbEntity
  8
0
100
AcDbLine
 10
10.56108020253923
 20
6.741863266939428
 30
0.0
 11
10.56036716764035
 21
6.743070976056652
 31
0.0
  0
LINE
  5
4661
330
1F
100
AcDbEntity
  8
0
100
AcDbLine
 10
10.56195189345118
 20
6.74076563133786
 30
0.0
 11
10.56108020253923
 21
6.741863266939428
 31
0.0
  0
LINE
  5
4662
330
1F
100
AcDbEntity
  8
0
100
AcDbLine
 10
10.56296565211772
 20
6.739798957232788
 30
0.0
 11
10.56195189345118
 21
6.74076563133786
 31
0.0
  0
LINE
  5
4663
330
1F
100
AcDbEntity
  8
0
100
AcDbLine
 10
10.56410218673423
 20
6.73898164041068
 30
0.0
 11
10.56296565211772
 21
6.739798957232788
 31
0.0
  0
LINE
  5
4664
330
1F
100
AcDbEntity
  8
0
100
AcDbLine
 10
10.56533986907251
 20
6.738329234392305
 30
0.0
 11
10.56410218673423
 21
6.73898164041068
 31
0.0
  0
LINE
  5
4665
330
1F
100
AcDbEntity
  8
0
100
AcDbLine
 10
10.56665514606547
 20
6.737854154449517
 30
0.0
 11
10.56533986907251
 21
6.738329234392305
 31
0.0
  0
LINE
  5
4666
330
1F
100
AcDbEntity
  8
0
100
AcDbLine
 10
10.5680229880215
 20
6.737565441342975
 30
0.0
 11
10.56665514606547
 21
6.737854154449517
 31
0.0
  0
LINE
  5
4667
330
1F
100
AcDbEntity
  8
0
100
AcDbLine
 10
10.56941736493893
 20
6.737468589276569
 30
0.0
 11
10.5680229880215
 21
6.737565441342975
 31
0.0
  0
LINE
  5
4668
330
1F
100
AcDbEntity
  8
0
100
AcDbLine
 10
10.67791555056095
 20
6.737468589276569
 30
0.0
 11
10.67990930315166
 21
6.737377998466167
 31
0.0
  0
LINE
  5
4669
330
1F
100
AcDbEntity
  8
0
100
AcDbLine
 10
10.67990930315166
 20
6.737377998466167
 30
0.0
 11
10.68188677547652
 21
6.737106965766908
 31
0.0
  0
LINE
  5
466A
330
1F
100
AcDbEntity
  8
0
100
AcDbLine
 10
10.68188677547652
 20
6.737106965766908
 30
0.0
 11
10.68383182020849
 21
6.73665770433423
 31
0.0
  0
LINE
  5
466B
330
1F
100
AcDbEntity
  8
0
100
AcDbLine
 10
10.68383182020849
 20
6.73665770433423
 30
0.0
 11
10.68572855481254
 21
6.736033882675253
 31
0.0
  0
LINE
  5
466C
330
1F
100
AcDbEntity
  8
0
100
AcDbLine
 10
10.68572855481254
 20
6.736033882675253
 30
0.0
 11
10.68756149123679
 21
6.735240594693048
 31
0.0
  0
LINE
  5
466D
330
1F
100
AcDbEntity
  8
0
100
AcDbLine
 10
10.68756149123679
 20
6.735240594693048
 30
0.0
 11
10.6893156623823
 21
6.734284318091662
 31
0.0
  0
LINE
  5
466E
330
1F
100
AcDbEntity
  8
0
100
AcDbLine
 10
10.6893156623823
 20
6.734284318091662
 30
0.0
 11
10.69097674431906
 21
6.73317286148153
 31
0.0
  0
LINE
  5
466F
330
1F
100
AcDbEntity
  8
0
100
AcDbLine
 10
10.69097674431906
 20
6.73317286148153
 30
0.0
 11
10.69253117325001
 21
6.731915300617198
 31
0.0
  0
LINE
  5
4670
330
1F
100
AcDbEntity
  8
0
100
AcDbLine
 10
10.69253117325001
 20
6.731915300617198
 30
0.0
 11
10.69396625626815
 21
6.730521904287892
 31
0.0
  0
LINE
  5
4671
330
1F
100
AcDbEntity
  8
0
100
AcDbLine
 10
10.69396625626815
 20
6.730521904287892
 30
0.0
 11
10.6952702750022
 21
6.72900405046641
 31
0.0
  0
LINE
  5
4672
330
1F
100
AcDbEntity
  8
0
100
AcDbLine
 10
10.6952702750022
 20
6.72900405046641
 30
0.0
 11
10.69643258130469
 21
6.727374133400554
 31
0.0
  0
LINE
  5
4673
330
1F
100
AcDbEntity
  8
0
100
AcDbLine
 10
10.69643258130469
 20
6.727374133400554
 30
0.0
 11
10.6974436842008
 21
6.725645462406272
 31
0.0
  0
LINE
  5
4674
330
1F
100
AcDbEntity
  8
0
100
AcDbLine
 10
10.6974436842008
 20
6.607645462406277
 30
0.0
 11
10.6974436842008
 21
6.725645462406272
 31
0.0
  0
LINE
  5
4675
330
1F
100
AcDbEntity
  8
0
100
AcDbLine
 10
10.6974436842008
 20
6.607645462406277
 30
0.0
 11
10.69661357779663
 21
6.605928231169637
 31
0.0
  0
LINE
  5
4676
330
1F
100
AcDbEntity
  8
0
100
AcDbLine
 10
10.69661357779663
 20
6.605928231169637
 30
0.0
 11
10.69562137683563
 21
6.604300116210803
 31
0.0
  0
LINE
  5
4677
330
1F
100
AcDbEntity
  8
0
100
AcDbLine
 10
10.69562137683563
 20
6.604300116210803
 30
0.0
 11
10.69447646329878
 21
6.602776512539672
 31
0.0
  0
LINE
  5
4678
330
1F
100
AcDbEntity
  8
0
100
AcDbLine
 10
10.69447646329878
 20
6.602776512539672
 30
0.0
 11
10.69318966317544
 21
6.601371826935941
 31
0.0
  0
LINE
  5
4679
330
1F
100
AcDbEntity
  8
0
100
AcDbLine
 10
10.69318966317544
 20
6.601371826935941
 30
0.0
 11
10.69177314409573
 21
6.600099341722606
 31
0.0
  0
LINE
  5
467A
330
1F
100
AcDbEntity
  8
0
100
AcDbLine
 10
10.69177314409573
 20
6.600099341722606
 30
0.0
 11
10.69024030027675
 21
6.598971089171921
 31
0.0
  0
LINE
  5
467B
330
1F
100
AcDbEntity
  8
0
100
AcDbLine
 10
10.69024030027675
 20
6.598971089171921
 30
0.0
 11
10.68860562587053
 21
6.597997737731513
 31
0.0
  0
LINE
  5
467C
330
1F
100
AcDbEntity
  8
0
100
AcDbLine
 10
10.68860562587053
 20
6.597997737731513
 30
0.0
 11
10.68688457791131
 21
6.597188491146463
 31
0.0
  0
LINE
  5
467D
330
1F
100
AcDbEntity
  8
0
100
AcDbLine
 10
10.68688457791131
 20
6.597188491146463
 30
0.0
 11
10.68509343015799
 21
6.59655100143119
 31
0.0
  0
LINE
  5
467E
330
1F
100
AcDbEntity
  8
0
100
AcDbLine
 10
10.68509343015799
 20
6.59655100143119
 30
0.0
 11
10.68324911921398
 21
6.596091296514155
 31
0.0
  0
LINE
  5
467F
330
1F
100
AcDbEntity
  8
0
100
AcDbLine
 10
10.68324911921398
 20
6.596091296514155
 30
0.0
 11
10.6813690843793
 21
6.595813723239355
 31
0.0
  0
LINE
  5
4680
330
1F
100
AcDbEntity
  8
0
100
AcDbLine
 10
10.6813690843793
 20
6.595813723239355
 30
0.0
 11
10.67947110274928
 21
6.59572090626376
 31
0.0
  0
LINE
  5
4681
330
1F
100
AcDbEntity
  8
0
100
AcDbLine
 10
10.57196831332563
 20
6.59572090626376
 30
0.0
 11
10.57065635047842
 21
6.595626677717883
 31
0.0
  0
LINE
  5
4682
330
1F
100
AcDbEntity
  8
0
100
AcDbLine
 10
10.57065635047842
 20
6.595626677717883
 30
0.0
 11
10.56937107349851
 21
6.595345908727845
 31
0.0
  0
LINE
  5
4683
330
1F
100
AcDbEntity
  8
0
100
AcDbLine
 10
10.56937107349851
 20
6.595345908727845
 30
0.0
 11
10.56813862545162
 21
6.594884310251113
 31
0.0
  0
LINE
  5
4684
330
1F
100
AcDbEntity
  8
0
100
AcDbLine
 10
10.56813862545162
 20
6.594884310251113
 30
0.0
 11
10.5669840748411
 21
6.59425127139175
 31
0.0
  0
LINE
  5
4685
330
1F
100
AcDbEntity
  8
0
100
AcDbLine
 10
10.5669840748411
 20
6.59425127139175
 30
0.0
 11
10.5659309057042
 21
6.593459668422165
 31
0.0
  0
LINE
  5
4686
330
1F
100
AcDbEntity
  8
0
100
AcDbLine
 10
10.5659309057042
 20
6.593459668422165
 30
0.0
 11
10.56500053993706
 21
6.59252560287437
 31
0.0
  0
LINE
  5
4687
330
1F
100
AcDbEntity
  8
0
100
AcDbLine
 10
10.56500053993706
 20
6.59252560287437
 30
0.0
 11
10.56421190156442
 21
6.591468074028195
 31
0.0
  0
LINE
  5
4688
330
1F
100
AcDbEntity
  8
0
100
AcDbLine
 10
10.56421190156442
 20
6.591468074028195
 30
0.0
 11
10.56358103181719
 21
6.590308592458067
 31
0.0
  0
LINE
  5
4689
330
1F
100
AcDbEntity
  8
0
100
AcDbLine
 10
10.56358103181719
 20
6.590308592458067
 30
0.0
 11
10.56312076284713
 21
6.589070742498985
 31
0.0
  0
LINE
  5
468A
330
1F
100
AcDbEntity
  8
0
100
AcDbLine
 10
10.56312076284713
 20
6.589070742498985
 30
0.0
 11
10.56284045671558
 21
6.587779702531444
 31
0.0
  0
LINE
  5
468B
330
1F
100
AcDbEntity
  8
0
100
AcDbLine
 10
10.56284045671558
 20
6.587779702531444
 30
0.0
 11
10.56274581496527
 21
6.586461732842717
 31
0.0
  0
LINE
  5
468C
330
1F
100
AcDbEntity
  8
0
100
AcDbLine
 10
10.56274581496527
 20
6.586461732842717
 30
0.0
 11
10.56283876264857
 21
6.585143641481731
 31
0.0
  0
LINE
  5
468D
330
1F
100
AcDbEntity
  8
0
100
AcDbLine
 10
10.56283876264857
 20
6.585143641481731
 30
0.0
 11
10.56299255126265
 21
6.582981033471194
 31
0.0
  0
LINE
  5
468E
330
1F
100
AcDbEntity
  8
0
100
AcDbLine
 10
10.56299255126265
 20
6.582981033471194
 30
0.0
 11
10.56284111021075
 21
6.580818258264126
 31
0.0
  0
LINE
  5
468F
330
1F
100
AcDbEntity
  8
0
100
AcDbLine
 10
10.56284111021075
 20
6.580818258264126
 30
0.0
 11
10.56238746876793
 21
6.578698577848551
 31
0.0
  0
LINE
  5
4690
330
1F
100
AcDbEntity
  8
0
100
AcDbLine
 10
10.56238746876793
 20
6.578698577848551
 30
0.0
 11
10.56164070112304
 21
6.576664392187505
 31
0.0
  0
LINE
  5
4691
330
1F
100
AcDbEntity
  8
0
100
AcDbLine
 10
10.56164070112304
 20
6.576664392187505
 30
0.0
 11
10.56061574486776
 21
6.574756391092587
 31
0.0
  0
LINE
  5
4692
330
1F
100
AcDbEntity
  8
0
100
AcDbLine
 10
10.56061574486776
 20
6.574756391092587
 30
0.0
 11
10.55933310219995
 21
6.573012740305808
 31
0.0
  0
LINE
  5
4693
330
1F
100
AcDbEntity
  8
0
100
AcDbLine
 10
10.55933310219995
 20
6.573012740305808
 30
0.0
 11
10.5578184298183
 21
6.571468318070297
 31
0.0
  0
LINE
  5
4694
330
1F
100
AcDbEntity
  8
0
100
AcDbLine
 10
10.5578184298183
 20
6.571468318070297
 30
0.0
 11
10.55610202571134
 21
6.57015401746086
 31
0.0
  0
LINE
  5
4695
330
1F
100
AcDbEntity
  8
0
100
AcDbLine
 10
10.55610202571134
 20
6.57015401746086
 30
0.0
 11
10.55421822310693
 21
6.569096128429914
 31
0.0
  0
LINE
  5
4696
330
1F
100
AcDbEntity
  8
0
100
AcDbLine
 10
10.55421822310693
 20
6.569096128429914
 30
0.0
 11
10.55220470370469
 21
6.568315811929561
 31
0.0
  0
LINE
  5
4697
330
1F
100
AcDbEntity
  8
0
100
AcDbLine
 10
10.55220470370469
 20
6.568315811929561
 30
0.0
 11
10.55010174392913
 21
6.5678286766292
 31
0.0
  0
LINE
  5
4698
330
1F
100
AcDbEntity
  8
0
100
AcDbLine
 10
10.55010174392913
 20
6.5678286766292
 30
0.0
 11
10.54795140928034
 21
6.567644466695209
 31
0.0
  0
LINE
  5
4699
330
1F
100
AcDbEntity
  8
0
100
AcDbLine
 10
10.37475247076445
 20
6.567644466695209
 30
0.0
 11
10.37334234170335
 21
6.568295799508812
 31
0.0
  0
LINE
  5
469A
330
1F
100
AcDbEntity
  8
0
100
AcDbLine
 10
10.37334234170335
 20
6.568295799508812
 30
0.0
 11
10.37200328959393
 21
6.569084120223901
 31
0.0
  0
LINE
  5
469B
330
1F
100
AcDbEntity
  8
0
100
AcDbLine
 10
10.37200328959393
 20
6.569084120223901
 30
0.0
 11
10.37074845881422
 21
6.570001690541583
 31
0.0
  0
LINE
  5
469C
330
1F
100
AcDbEntity
  8
0
100
AcDbLine
 10
10.37074845881422
 20
6.570001690541583
 30
0.0
 11
10.36959016701041
 21
6.571039503425434
 31
0.0
  0
LINE
  5
469D
330
1F
100
AcDbEntity
  8
0
100
AcDbLine
 10
10.36959016701041
 20
6.571039503425434
 30
0.0
 11
10.36853978418466
 21
6.572187371516203
 31
0.0
  0
LINE
  5
469E
330
1F
100
AcDbEntity
  8
0
100
AcDbLine
 10
10.36853978418466
 20
6.572187371516203
 30
0.0
 11
10.367607621085
 21
6.573434027132829
 31
0.0
  0
LINE
  5
469F
330
1F
100
AcDbEntity
  8
0
100
AcDbLine
 10
10.367607621085
 20
6.573434027132829
 30
0.0
 11
10.36680282799327
 21
6.574767232877969
 31
0.0
  0
LINE
  5
46A0
330
1F
100
AcDbEntity
  8
0
100
AcDbLine
 10
10.36680282799327
 20
6.574767232877969
 30
0.0
 11
10.36613330490419
 21
6.576173901762596
 31
0.0
  0
LINE
  5
46A1
330
1F
100
AcDbEntity
  8
0
100
AcDbLine
 10
10.36613330490419
 20
6.576173901762596
 30
0.0
 11
10.36560562397769
 21
6.577640225670147
 31
0.0
  0
LINE
  5
46A2
330
1F
100
AcDbEntity
  8
0
100
AcDbLine
 10
10.36560562397769
 20
6.577640225670147
 30
0.0
 11
10.3652249650253
 21
6.57915181089957
 31
0.0
  0
LINE
  5
46A3
330
1F
100
AcDbEntity
  8
0
100
AcDbLine
 10
10.3652249650253
 20
6.57915181089957
 30
0.0
 11
10.36499506466425
 21
6.580693819456494
 31
0.0
  0
LINE
  5
46A4
330
1F
100
AcDbEntity
  8
0
100
AcDbLine
 10
10.36499506466425
 20
6.580693819456494
 30
0.0
 11
10.36491817963812
 21
6.582251114705623
 31
0.0
  0
LINE
  5
46A5
330
1F
100
AcDbEntity
  8
0
100
AcDbLine
 10
10.5496766328257
 20
6.764495176339944
 30
0.0
 11
10.54795140928034
 21
6.764495176339944
 31
0.0
  0
LINE
  5
46A6
330
1F
100
AcDbEntity
  8
0
100
AcDbLine
 10
10.56104792190318
 20
6.748520870094078
 30
0.0
 11
10.55932269835782
 21
6.748520870094078
 31
0.0
  0
LINE
  5
46A7
330
1F
100
AcDbEntity
  8
0
100
AcDbLine
 10
10.67964077410631
 20
6.737468589276569
 30
0.0
 11
10.67791555056095
 21
6.737468589276569
 31
0.0
  0
LINE
  5
46A8
330
1F
100
AcDbEntity
  8
0
100
AcDbLine
 10
10.69916890774616
 20
6.725645462406272
 30
0.0
 11
10.6974436842008
 21
6.725645462406272
 31
0.0
  0
LINE
  5
46A9
330
1F
100
AcDbEntity
  8
0
100
AcDbLine
 10
10.69916890774616
 20
6.607645462406277
 30
0.0
 11
10.6974436842008
 21
6.607645462406277
 31
0.0
  0
LINE
  5
46AA
330
1F
100
AcDbEntity
  8
0
100
AcDbLine
 10
10.68119632629465
 20
6.59572090626376
 30
0.0
 11
10.67947110274928
 21
6.59572090626376
 31
0.0
  0
LINE
  5
46AB
330
1F
100
AcDbEntity
  8
0
100
AcDbLine
 10
10.57369353687099
 20
6.59572090626376
 30
0.0
 11
10.57196831332563
 21
6.59572090626376
 31
0.0
  0
LINE
  5
46AC
330
1F
100
AcDbEntity
  8
0
100
AcDbLine
 10
10.56456398619394
 20
6.585143641481731
 30
0.0
 11
10.56283876264857
 21
6.585143641481731
 31
0.0
  0
LINE
  5
46AD
330
1F
100
AcDbEntity
  8
0
100
AcDbLine
 10
10.5496766328257
 20
6.567644466695209
 30
0.0
 11
10.54795140928034
 21
6.567644466695209
 31
0.0
  0
LINE
  5
46AE
330
1F
100
AcDbEntity
  8
0
100
AcDbLine
 10
11.90245822822812
 20
6.545320966408378
 30
0.0
 11
11.86258663272678
 21
6.545320966408378
 31
0.0
  0
LINE
  5
46AF
330
1F
100
AcDbEntity
  8
0
100
AcDbLine
 10
13.35858274343624
 20
6.72675111470563
 30
0.0
 11
13.35062726862903
 21
6.72675111470563
 31
0.0
  0
LINE
  5
46B0
330
1F
100
AcDbEntity
  8
0
100
AcDbLine
 10
10.74728250511601
 20
6.72675111470563
 30
0.0
 11
10.69852220964938
 21
6.72675111470563
 31
0.0
  0
LINE
  5
46B1
330
1F
100
AcDbEntity
  8
0
100
AcDbLine
 10
13.35709434106757
 20
6.724706664282972
 30
0.0
 11
13.35858274343624
 21
6.72675111470563
 31
0.0
  0
LINE
  5
46B2
330
1F
100
AcDbEntity
  8
0
100
AcDbLine
 10
13.35570737086063
 20
6.718712638932696
 30
0.0
 11
13.35709434106757
 21
6.724706664282972
 31
0.0
  0
LINE
  5
46B3
330
1F
100
AcDbEntity
  8
0
100
AcDbLine
 10
13.35451635254294
 20
6.709177521576815
 30
0.0
 11
13.35570737086063
 21
6.718712638932696
 31
0.0
  0
LINE
  5
46B4
330
1F
100
AcDbEntity
  8
0
100
AcDbLine
 10
13.3536024520446
 20
6.696751114705629
 30
0.0
 11
13.35451635254294
 21
6.709177521576815
 31
0.0
  0
LINE
  5
46B5
330
1F
100
AcDbEntity
  8
0
100
AcDbLine
 10
13.35302795017428
 20
6.682280257411785
 30
0.0
 11
13.3536024520446
 21
6.696751114705629
 31
0.0
  0
LINE
  5
46B6
330
1F
100
AcDbEntity
  8
0
100
AcDbLine
 10
10.35828994352467
 20
6.641751114705622
 30
0.0
 11
10.35781119196606
 21
6.653810162450507
 31
0.0
  0
LINE
  5
46B7
330
1F
100
AcDbEntity
  8
0
100
AcDbLine
 10
10.35781119196606
 20
6.653810162450507
 30
0.0
 11
10.35764789872502
 21
6.666751114705628
 31
0.0
  0
LINE
  5
46B8
330
1F
100
AcDbEntity
  8
0
100
AcDbLine
 10
10.35905152727329
 20
6.631395775646292
 30
0.0
 11
10.35828994352467
 21
6.641751114705622
 31
0.0
  0
LINE
  5
46B9
330
1F
100
AcDbEntity
  8
0
100
AcDbLine
 10
13.35858274343624
 20
6.606751114705626
 30
0.0
 11
13.35062726862903
 21
6.606751114705626
 31
0.0
  0
LINE
  5
46BA
330
1F
100
AcDbEntity
  8
0
100
AcDbLine
 10
10.7822078701054
 20
6.606751114705626
 30
0.0
 11
10.69873658172157
 21
6.606751114705626
 31
0.0
  0
LINE
  5
46BB
330
1F
100
AcDbEntity
  8
0
100
AcDbLine
 10
13.35283199828503
 20
6.666751114705628
 30
0.0
 11
13.35302795017428
 21
6.682280257411785
 31
0.0
  0
LINE
  5
46BC
330
1F
100
AcDbEntity
  8
0
100
AcDbLine
 10
13.35283199828503
 20
6.666751114705628
 30
0.0
 11
13.35062726862903
 21
6.666751114705628
 31
0.0
  0
LINE
  5
46BD
330
1F
100
AcDbEntity
  8
0
100
AcDbLine
 10
13.35302795017428
 20
6.651221971999471
 30
0.0
 11
13.35283199828503
 21
6.666751114705628
 31
0.0
  0
LINE
  5
46BE
330
1F
100
AcDbEntity
  8
0
100
AcDbLine
 10
13.3536024520446
 20
6.636751114705627
 30
0.0
 11
13.35302795017428
 21
6.651221971999471
 31
0.0
  0
LINE
  5
46BF
330
1F
100
AcDbEntity
  8
0
100
AcDbLine
 10
13.35451635254294
 20
6.624324707834428
 30
0.0
 11
13.3536024520446
 21
6.636751114705627
 31
0.0
  0
LINE
  5
46C0
330
1F
100
AcDbEntity
  8
0
100
AcDbLine
 10
13.35570737086063
 20
6.614789590478561
 30
0.0
 11
13.35451635254294
 21
6.624324707834428
 31
0.0
  0
LINE
  5
46C1
330
1F
100
AcDbEntity
  8
0
100
AcDbLine
 10
13.35709434106757
 20
6.608795565128285
 30
0.0
 11
13.35570737086063
 21
6.614789590478561
 31
0.0
  0
LINE
  5
46C2
330
1F
100
AcDbEntity
  8
0
100
AcDbLine
 10
13.35858274343624
 20
6.606751114705626
 30
0.0
 11
13.35709434106757
 21
6.608795565128285
 31
0.0
  0
LINE
  5
46C3
330
1F
100
AcDbEntity
  8
0
100
AcDbLine
 10
13.36390771103495
 20
6.67969206696075
 30
0.0
 11
13.3637444177939
 21
6.666751114705628
 31
0.0
  0
LINE
  5
46C4
330
1F
100
AcDbEntity
  8
0
100
AcDbLine
 10
10.36004404253803
 20
6.62344984451641
 30
0.0
 11
10.35905152727329
 21
6.631395775646292
 31
0.0
  0
LINE
  5
46C5
330
1F
100
AcDbEntity
  8
0
100
AcDbLine
 10
10.36150410161445
 20
6.617300129136562
 30
0.0
 11
10.36119985104381
 21
6.618454823391171
 31
0.0
  0
LINE
  5
46C6
330
1F
100
AcDbEntity
  8
0
100
AcDbLine
 10
10.36119985104381
 20
6.618454823391171
 30
0.0
 11
10.36004404253803
 21
6.62344984451641
 31
0.0
  0
LINE
  5
46C7
330
1F
100
AcDbEntity
  8
0
100
AcDbLine
 10
10.36191838214353
 20
6.616180540418876
 30
0.0
 11
10.36150410161445
 21
6.617300129136562
 31
0.0
  0
LINE
  5
46C8
330
1F
100
AcDbEntity
  8
0
100
AcDbLine
 10
10.36243910757464
 20
6.615105745814839
 30
0.0
 11
10.36191838214353
 21
6.616180540418876
 31
0.0
  0
LINE
  5
46C9
330
1F
100
AcDbEntity
  8
0
100
AcDbLine
 10
10.3630617717099
 20
6.614085046266732
 30
0.0
 11
10.36243910757464
 21
6.615105745814839
 31
0.0
  0
LINE
  5
46CA
330
1F
100
AcDbEntity
  8
0
100
AcDbLine
 10
10.36491817963812
 20
6.611555519264409
 30
0.0
 11
10.36441433072426
 21
6.612227188534997
 31
0.0
  0
LINE
  5
46CB
330
1F
100
AcDbEntity
  8
0
100
AcDbLine
 10
10.36491817963812
 20
6.721946710146847
 30
0.0
 11
10.36441433072426
 21
6.72127504087626
 31
0.0
  0
LINE
  5
46CC
330
1F
100
AcDbEntity
  8
0
100
AcDbLine
 10
10.36004404253803
 20
6.710052384894846
 30
0.0
 11
10.36119985104381
 21
6.715047406020086
 31
0.0
  0
LINE
  5
46CD
330
1F
100
AcDbEntity
  8
0
100
AcDbLine
 10
10.35764789872502
 20
6.666751114705628
 30
0.0
 11
10.35781119196606
 21
6.67969206696075
 31
0.0
  0
LINE
  5
46CE
330
1F
100
AcDbEntity
  8
0
100
AcDbLine
 10
10.35781119196606
 20
6.67969206696075
 30
0.0
 11
10.35828994352467
 21
6.691751114705634
 31
0.0
  0
LINE
  5
46CF
330
1F
100
AcDbEntity
  8
0
100
AcDbLine
 10
10.35828994352467
 20
6.691751114705634
 30
0.0
 11
10.35905152727329
 21
6.70210645376495
 31
0.0
  0
LINE
  5
46D0
330
1F
100
AcDbEntity
  8
0
100
AcDbLine
 10
10.35905152727329
 20
6.70210645376495
 30
0.0
 11
10.36004404253803
 21
6.710052384894846
 31
0.0
  0
LINE
  5
46D1
330
1F
100
AcDbEntity
  8
0
100
AcDbLine
 10
10.36150410161445
 20
6.716202100274681
 30
0.0
 11
10.36119985104381
 21
6.715047406020086
 31
0.0
  0
LINE
  5
46D2
330
1F
100
AcDbEntity
  8
0
100
AcDbLine
 10
10.36191838214353
 20
6.71732168899238
 30
0.0
 11
10.36150410161445
 21
6.716202100274681
 31
0.0
  0
LINE
  5
46D3
330
1F
100
AcDbEntity
  8
0
100
AcDbLine
 10
10.36243910757464
 20
6.718396483596417
 30
0.0
 11
10.36191838214353
 21
6.71732168899238
 31
0.0
  0
LINE
  5
46D4
330
1F
100
AcDbEntity
  8
0
100
AcDbLine
 10
10.3630617717099
 20
6.719417183144524
 30
0.0
 11
10.36243910757464
 21
6.718396483596417
 31
0.0
  0
LINE
  5
46D5
330
1F
100
AcDbEntity
  8
0
100
AcDbLine
 10
13.36438646259354
 20
6.691751114705634
 30
0.0
 11
13.36390771103495
 21
6.67969206696075
 31
0.0
  0
LINE
  5
46D6
330
1F
100
AcDbEntity
  8
0
100
AcDbLine
 10
13.3694727901565
 20
6.716202100274695
 30
0.0
 11
13.36977704072713
 21
6.715047406020086
 31
0.0
  0
LINE
  5
46D7
330
1F
100
AcDbEntity
  8
0
100
AcDbLine
 10
13.36977704072713
 20
6.715047406020086
 30
0.0
 11
13.36853670541991
 21
6.716751114705625
 31
0.0
  0
LINE
  5
46D8
330
1F
100
AcDbEntity
  8
0
100
AcDbLine
 10
13.36514804634216
 20
6.70210645376495
 30
0.0
 11
13.36438646259354
 21
6.691751114705634
 31
0.0
  0
LINE
  5
46D9
330
1F
100
AcDbEntity
  8
0
100
AcDbLine
 10
13.36853670541991
 20
6.716751114705625
 30
0.0
 11
13.36729637011269
 21
6.715047406020086
 31
0.0
  0
LINE
  5
46DA
330
1F
100
AcDbEntity
  8
0
100
AcDbLine
 10
13.36581874925853
 20
6.722266599074468
 30
0.0
 11
13.36656256104669
 21
6.72127504087626
 31
0.0
  0
LINE
  5
46DB
330
1F
100
AcDbEntity
  8
0
100
AcDbLine
 10
13.36498643992961
 20
6.7231844289014
 30
0.0
 11
13.36581874925853
 21
6.722266599074468
 31
0.0
  0
LINE
  5
46DC
330
1F
100
AcDbEntity
  8
0
100
AcDbLine
 10
13.36407283560914
 20
6.724020587739739
 30
0.0
 11
13.36498643992961
 21
6.7231844289014
 31
0.0
  0
LINE
  5
46DD
330
1F
100
AcDbEntity
  8
0
100
AcDbLine
 10
13.36308584234818
 20
6.724767839727813
 30
0.0
 11
13.36407283560914
 21
6.724020587739739
 31
0.0
  0
LINE
  5
46DE
330
1F
100
AcDbEntity
  8
0
100
AcDbLine
 10
13.36905850962742
 20
6.71732168899238
 30
0.0
 11
13.3694727901565
 21
6.716202100274695
 31
0.0
  0
LINE
  5
46DF
330
1F
100
AcDbEntity
  8
0
100
AcDbLine
 10
13.36853778419631
 20
6.718396483596417
 30
0.0
 11
13.36905850962742
 21
6.71732168899238
 31
0.0
  0
LINE
  5
46E0
330
1F
100
AcDbEntity
  8
0
100
AcDbLine
 10
13.36656256104669
 20
6.72127504087626
 30
0.0
 11
13.36791512006104
 21
6.719417183144524
 31
0.0
  0
LINE
  5
46E1
330
1F
100
AcDbEntity
  8
0
100
AcDbLine
 10
13.36791512006104
 20
6.719417183144524
 30
0.0
 11
13.36853778419631
 21
6.718396483596417
 31
0.0
  0
LINE
  5
46E2
330
1F
100
AcDbEntity
  8
0
100
AcDbLine
 10
13.36203400128315
 20
6.725419718376552
 30
0.0
 11
13.36308584234818
 21
6.724767839727813
 31
0.0
  0
LINE
  5
46E3
330
1F
100
AcDbEntity
  8
0
100
AcDbLine
 10
13.36092641472344
 20
6.725970582528385
 30
0.0
 11
13.36203400128315
 21
6.725419718376552
 31
0.0
  0
LINE
  5
46E4
330
1F
100
AcDbEntity
  8
0
100
AcDbLine
 10
13.35977266738281
 20
6.726415665174239
 30
0.0
 11
13.36092641472344
 21
6.725970582528385
 31
0.0
  0
LINE
  5
46E5
330
1F
100
AcDbEntity
  8
0
100
AcDbLine
 10
13.35858274343624
 20
6.72675111470563
 30
0.0
 11
13.35977266738281
 21
6.726415665174239
 31
0.0
  0
LINE
  5
46E6
330
1F
100
AcDbEntity
  8
0
100
AcDbLine
 10
13.37093284923292
 20
6.710052384894846
 30
0.0
 11
13.36977704072713
 21
6.715047406020086
 31
0.0
  0
LINE
  5
46E7
330
1F
100
AcDbEntity
  8
0
100
AcDbLine
 10
13.3661405616069
 20
6.62344984451641
 30
0.0
 11
13.36729637011269
 21
6.618454823391171
 31
0.0
  0
LINE
  5
46E8
330
1F
100
AcDbEntity
  8
0
100
AcDbLine
 10
13.36729637011269
 20
6.618454823391171
 30
0.0
 11
13.36853670541991
 21
6.616751114705631
 31
0.0
  0
LINE
  5
46E9
330
1F
100
AcDbEntity
  8
0
100
AcDbLine
 10
13.36853670541991
 20
6.616751114705631
 30
0.0
 11
13.36977704072713
 21
6.618454823391171
 31
0.0
  0
LINE
  5
46EA
330
1F
100
AcDbEntity
  8
0
100
AcDbLine
 10
13.36977704072713
 20
6.618454823391171
 30
0.0
 11
13.37093284923292
 21
6.62344984451641
 31
0.0
  0
LINE
  5
46EB
330
1F
100
AcDbEntity
  8
0
100
AcDbLine
 10
13.37093284923292
 20
6.62344984451641
 30
0.0
 11
13.37192536449766
 21
6.631395775646292
 31
0.0
  0
LINE
  5
46EC
330
1F
100
AcDbEntity
  8
0
100
AcDbLine
 10
13.37192536449766
 20
6.631395775646292
 30
0.0
 11
13.37268694824628
 21
6.641751114705622
 31
0.0
  0
LINE
  5
46ED
330
1F
100
AcDbEntity
  8
0
100
AcDbLine
 10
13.37268694824628
 20
6.641751114705622
 30
0.0
 11
13.37316569980488
 21
6.653810162450507
 31
0.0
  0
LINE
  5
46EE
330
1F
100
AcDbEntity
  8
0
100
AcDbLine
 10
13.37316569980488
 20
6.653810162450507
 30
0.0
 11
13.37332899304592
 21
6.666751114705628
 31
0.0
  0
LINE
  5
46EF
330
1F
100
AcDbEntity
  8
0
100
AcDbLine
 10
13.37332899304592
 20
6.666751114705628
 30
0.0
 11
13.37316569980488
 21
6.67969206696075
 31
0.0
  0
LINE
  5
46F0
330
1F
100
AcDbEntity
  8
0
100
AcDbLine
 10
13.37316569980488
 20
6.67969206696075
 30
0.0
 11
13.37268694824628
 21
6.691751114705634
 31
0.0
  0
LINE
  5
46F1
330
1F
100
AcDbEntity
  8
0
100
AcDbLine
 10
13.37268694824628
 20
6.691751114705634
 30
0.0
 11
13.37192536449766
 21
6.70210645376495
 31
0.0
  0
LINE
  5
46F2
330
1F
100
AcDbEntity
  8
0
100
AcDbLine
 10
13.37192536449766
 20
6.70210645376495
 30
0.0
 11
13.37093284923292
 21
6.710052384894846
 31
0.0
  0
LINE
  5
46F3
330
1F
100
AcDbEntity
  8
0
100
AcDbLine
 10
13.36729637011269
 20
6.715047406020086
 30
0.0
 11
13.3661405616069
 21
6.710052384894846
 31
0.0
  0
LINE
  5
46F4
330
1F
100
AcDbEntity
  8
0
100
AcDbLine
 10
13.3661405616069
 20
6.710052384894846
 30
0.0
 11
13.36514804634216
 21
6.70210645376495
 31
0.0
  0
LINE
  5
46F5
330
1F
100
AcDbEntity
  8
0
100
AcDbLine
 10
13.3637444177939
 20
6.666751114705628
 30
0.0
 11
13.36390771103495
 21
6.653810162450507
 31
0.0
  0
LINE
  5
46F6
330
1F
100
AcDbEntity
  8
0
100
AcDbLine
 10
13.36390771103495
 20
6.653810162450507
 30
0.0
 11
13.36438646259354
 21
6.641751114705622
 31
0.0
  0
LINE
  5
46F7
330
1F
100
AcDbEntity
  8
0
100
AcDbLine
 10
13.36438646259354
 20
6.641751114705622
 30
0.0
 11
13.36514804634216
 21
6.631395775646292
 31
0.0
  0
LINE
  5
46F8
330
1F
100
AcDbEntity
  8
0
100
AcDbLine
 10
13.36514804634216
 20
6.631395775646292
 30
0.0
 11
13.3661405616069
 21
6.62344984451641
 31
0.0
  0
LINE
  5
46F9
330
1F
100
AcDbEntity
  8
0
100
AcDbLine
 10
13.3694727901565
 20
6.617300129136562
 30
0.0
 11
13.36977704072713
 21
6.618454823391171
 31
0.0
  0
LINE
  5
46FA
330
1F
100
AcDbEntity
  8
0
100
AcDbLine
 10
13.36905850962742
 20
6.616180540418876
 30
0.0
 11
13.3694727901565
 21
6.617300129136562
 31
0.0
  0
LINE
  5
46FB
330
1F
100
AcDbEntity
  8
0
100
AcDbLine
 10
13.36853778419631
 20
6.615105745814839
 30
0.0
 11
13.36905850962742
 21
6.616180540418876
 31
0.0
  0
LINE
  5
46FC
330
1F
100
AcDbEntity
  8
0
100
AcDbLine
 10
13.36791512006104
 20
6.614085046266732
 30
0.0
 11
13.36656256104669
 21
6.612227188534997
 31
0.0
  0
LINE
  5
46FD
330
1F
100
AcDbEntity
  8
0
100
AcDbLine
 10
13.36791512006104
 20
6.614085046266732
 30
0.0
 11
13.36853778419631
 21
6.615105745814839
 31
0.0
  0
LINE
  5
46FE
330
1F
100
AcDbEntity
  8
0
100
AcDbLine
 10
13.36581874925853
 20
6.611235630336788
 30
0.0
 11
13.36656256104669
 21
6.612227188534997
 31
0.0
  0
LINE
  5
46FF
330
1F
100
AcDbEntity
  8
0
100
AcDbLine
 10
13.36498643992961
 20
6.610317800509856
 30
0.0
 11
13.36581874925853
 21
6.611235630336788
 31
0.0
  0
LINE
  5
4700
330
1F
100
AcDbEntity
  8
0
100
AcDbLine
 10
13.36407283560914
 20
6.609481641671517
 30
0.0
 11
13.36498643992961
 21
6.610317800509856
 31
0.0
  0
LINE
  5
4701
330
1F
100
AcDbEntity
  8
0
100
AcDbLine
 10
13.36308584234818
 20
6.608734389683429
 30
0.0
 11
13.36407283560914
 21
6.609481641671517
 31
0.0
  0
LINE
  5
4702
330
1F
100
AcDbEntity
  8
0
100
AcDbLine
 10
13.36203400128315
 20
6.608082511034704
 30
0.0
 11
13.36308584234818
 21
6.608734389683429
 31
0.0
  0
LINE
  5
4703
330
1F
100
AcDbEntity
  8
0
100
AcDbLine
 10
13.36092641472344
 20
6.607531646882871
 30
0.0
 11
13.36203400128315
 21
6.608082511034704
 31
0.0
  0
LINE
  5
4704
330
1F
100
AcDbEntity
  8
0
100
AcDbLine
 10
13.35977266738281
 20
6.607086564237017
 30
0.0
 11
13.36092641472344
 21
6.607531646882871
 31
0.0
  0
LINE
  5
4705
330
1F
100
AcDbEntity
  8
0
100
AcDbLine
 10
13.35858274343624
 20
6.606751114705626
 30
0.0
 11
13.35977266738281
 21
6.607086564237017
 31
0.0
  0
LINE
  5
4706
330
1F
100
AcDbEntity
  8
0
100
AcDbLine
 10
10.77902173958539
 20
6.821335677150282
 30
0.0
 11
10.7820965986055
 21
6.817112090198516
 31
0.0
  0
LINE
  5
4707
330
1F
100
AcDbEntity
  8
0
100
AcDbLine
 10
10.77902173958539
 20
6.821335677150282
 30
0.0
 11
10.77782845357607
 21
6.824229848609046
 31
0.0
  0
LINE
  5
4708
330
1F
100
AcDbEntity
  8
0
100
AcDbLine
 10
10.77782845357607
 20
6.824229848609046
 30
0.0
 11
10.77742144594038
 21
6.827335677150283
 31
0.0
  0
LINE
  5
4709
330
1F
100
AcDbEntity
  8
0
100
AcDbLine
 10
10.77742144594038
 20
6.827335677150283
 30
0.0
 11
10.77782845357607
 21
6.830441505691505
 31
0.0
  0
LINE
  5
470A
330
1F
100
AcDbEntity
  8
0
100
AcDbLine
 10
10.77782845357607
 20
6.830441505691505
 30
0.0
 11
10.77902173958539
 21
6.833335677150283
 31
0.0
  0
LINE
  5
470B
330
1F
100
AcDbEntity
  8
0
100
AcDbLine
 10
10.77902173958539
 20
6.833335677150283
 30
0.0
 11
10.7809199834988
 21
6.835820958524517
 31
0.0
  0
LINE
  5
470C
330
1F
100
AcDbEntity
  8
0
100
AcDbLine
 10
10.7809199834988
 20
6.835820958524517
 30
0.0
 11
10.78339382313059
 21
6.837727981995693
 31
0.0
  0
LINE
  5
470D
330
1F
100
AcDbEntity
  8
0
100
AcDbLine
 10
10.78339382313059
 20
6.837727981995693
 30
0.0
 11
10.78627467039807
 21
6.838926787065754
 31
0.0
  0
LINE
  5
470E
330
1F
100
AcDbEntity
  8
0
100
AcDbLine
 10
10.78627467039807
 20
6.838926787065754
 30
0.0
 11
10.78936620032079
 21
6.839335677150283
 31
0.0
  0
LINE
  5
470F
330
1F
100
AcDbEntity
  8
0
100
AcDbLine
 10
10.78936620032079
 20
6.839335677150283
 30
0.0
 11
10.79245773024351
 21
6.838926787065754
 31
0.0
  0
LINE
  5
4710
330
1F
100
AcDbEntity
  8
0
100
AcDbLine
 10
10.79245773024351
 20
6.838926787065754
 30
0.0
 11
10.79533857751099
 21
6.837727981995693
 31
0.0
  0
LINE
  5
4711
330
1F
100
AcDbEntity
  8
0
100
AcDbLine
 10
10.79533857751099
 20
6.837727981995693
 30
0.0
 11
10.79781241714278
 21
6.835820958524517
 31
0.0
  0
LINE
  5
4712
330
1F
100
AcDbEntity
  8
0
100
AcDbLine
 10
10.79781241714278
 20
6.835820958524517
 30
0.0
 11
10.79971066105619
 21
6.833335677150283
 31
0.0
  0
LINE
  5
4713
330
1F
100
AcDbEntity
  8
0
100
AcDbLine
 10
10.79971066105619
 20
6.833335677150283
 30
0.0
 11
10.80377896086387
 21
6.827747512661683
 31
0.0
  0
LINE
  5
4714
330
1F
100
AcDbEntity
  8
0
100
AcDbLine
 10
10.80490045201228
 20
6.824951957703954
 30
0.0
 11
10.80377896086387
 21
6.827747512661683
 31
0.0
  0
LINE
  5
4715
330
1F
100
AcDbEntity
  8
0
100
AcDbLine
 10
10.80490045201228
 20
6.824951957703954
 30
0.0
 11
10.80862460175147
 21
6.80885741736473
 31
0.0
  0
LINE
  5
4716
330
1F
100
AcDbEntity
  8
0
100
AcDbLine
 10
10.80862460175147
 20
6.80885741736473
 30
0.0
 11
10.81182260163279
 21
6.783254701000454
 31
0.0
  0
LINE
  5
4717
330
1F
100
AcDbEntity
  8
0
100
AcDbLine
 10
10.78525142778831
 20
6.803477964531718
 30
0.0
 11
10.78824101041718
 21
6.779543806015449
 31
0.0
  0
LINE
  5
4718
330
1F
100
AcDbEntity
  8
0
100
AcDbLine
 10
10.81201911738688
 20
6.781058548577756
 30
0.0
 11
10.81182260163279
 21
6.783254701000454
 31
0.0
  0
LINE
  5
4719
330
1F
100
AcDbEntity
  8
0
100
AcDbLine
 10
10.81201911738688
 20
6.781058548577756
 30
0.0
 11
10.81442572203252
 21
6.748335677150275
 31
0.0
  0
LINE
  5
471A
330
1F
100
AcDbEntity
  8
0
100
AcDbLine
 10
10.79204906819689
 20
6.71022908627648
 30
0.0
 11
10.79256507483858
 21
6.669335677150281
 31
0.0
  0
LINE
  5
471B
330
1F
100
AcDbEntity
  8
0
100
AcDbLine
 10
10.8159385769577
 20
6.71022908627648
 30
0.0
 11
10.81645458359939
 21
6.669335677150281
 31
0.0
  0
LINE
  5
471C
330
1F
100
AcDbEntity
  8
0
100
AcDbLine
 10
10.81182260163279
 20
6.555416653300095
 30
0.0
 11
10.80862460175147
 21
6.529813936935833
 31
0.0
  0
LINE
  5
471D
330
1F
100
AcDbEntity
  8
0
100
AcDbLine
 10
10.81201911738688
 20
6.557612805722807
 30
0.0
 11
10.81182260163279
 21
6.555416653300095
 31
0.0
  0
LINE
  5
471E
330
1F
100
AcDbEntity
  8
0
100
AcDbLine
 10
10.7820965986055
 20
6.521559264102047
 30
0.0
 11
10.77902173958539
 21
6.51733567715028
 31
0.0
  0
LINE
  5
471F
330
1F
100
AcDbEntity
  8
0
100
AcDbLine
 10
10.81442572203252
 20
6.590335677150274
 30
0.0
 11
10.81201911738688
 21
6.557612805722807
 31
0.0
  0
LINE
  5
4720
330
1F
100
AcDbEntity
  8
0
100
AcDbLine
 10
10.78824101041718
 20
6.559127548285114
 30
0.0
 11
10.78525142778831
 21
6.535193389768845
 31
0.0
  0
LINE
  5
4721
330
1F
100
AcDbEntity
  8
0
100
AcDbLine
 10
10.80862460175147
 20
6.529813936935833
 30
0.0
 11
10.80490045201228
 21
6.513719396596608
 31
0.0
  0
LINE
  5
4722
330
1F
100
AcDbEntity
  8
0
100
AcDbLine
 10
10.80490045201228
 20
6.513719396596608
 30
0.0
 11
10.80377896086387
 21
6.510923841638866
 31
0.0
  0
LINE
  5
4723
330
1F
100
AcDbEntity
  8
0
100
AcDbLine
 10
10.78819618736988
 20
6.590335677150274
 30
0.0
 11
10.78754448447583
 21
6.606751114705626
 31
0.0
  0
LINE
  5
4724
330
1F
100
AcDbEntity
  8
0
100
AcDbLine
 10
10.7809199834988
 20
6.502850395776046
 30
0.0
 11
10.77902173958539
 21
6.50533567715028
 31
0.0
  0
LINE
  5
4725
330
1F
100
AcDbEntity
  8
0
100
AcDbLine
 10
10.78339382313059
 20
6.500943372304869
 30
0.0
 11
10.7809199834988
 21
6.502850395776046
 31
0.0
  0
LINE
  5
4726
330
1F
100
AcDbEntity
  8
0
100
AcDbLine
 10
10.78627467039807
 20
6.499744567234809
 30
0.0
 11
10.78339382313059
 21
6.500943372304869
 31
0.0
  0
LINE
  5
4727
330
1F
100
AcDbEntity
  8
0
100
AcDbLine
 10
10.78936620032079
 20
6.49933567715028
 30
0.0
 11
10.78627467039807
 21
6.499744567234809
 31
0.0
  0
LINE
  5
4728
330
1F
100
AcDbEntity
  8
0
100
AcDbLine
 10
10.79245773024351
 20
6.499744567234809
 30
0.0
 11
10.78936620032079
 21
6.49933567715028
 31
0.0
  0
LINE
  5
4729
330
1F
100
AcDbEntity
  8
0
100
AcDbLine
 10
10.79533857751099
 20
6.500943372304869
 30
0.0
 11
10.79245773024351
 21
6.499744567234809
 31
0.0
  0
LINE
  5
472A
330
1F
100
AcDbEntity
  8
0
100
AcDbLine
 10
10.79781241714278
 20
6.502850395776031
 30
0.0
 11
10.79533857751099
 21
6.500943372304869
 31
0.0
  0
LINE
  5
472B
330
1F
100
AcDbEntity
  8
0
100
AcDbLine
 10
10.80377896086387
 20
6.510923841638866
 30
0.0
 11
10.79971066105619
 21
6.50533567715028
 31
0.0
  0
LINE
  5
472C
330
1F
100
AcDbEntity
  8
0
100
AcDbLine
 10
10.79971066105619
 20
6.50533567715028
 30
0.0
 11
10.79781241714278
 21
6.502850395776031
 31
0.0
  0
LINE
  5
472D
330
1F
100
AcDbEntity
  8
0
100
AcDbLine
 10
10.77902173958539
 20
6.50533567715028
 30
0.0
 11
10.77495343977771
 21
6.510923841638866
 31
0.0
  0
LINE
  5
472E
330
1F
100
AcDbEntity
  8
0
100
AcDbLine
 10
10.77495343977771
 20
6.510923841638866
 30
0.0
 11
10.7738319486293
 21
6.513719396596608
 31
0.0
  0
LINE
  5
472F
330
1F
100
AcDbEntity
  8
0
100
AcDbLine
 10
10.7738319486293
 20
6.513719396596608
 30
0.0
 11
10.77010779889011
 21
6.529813936935833
 31
0.0
  0
LINE
  5
4730
330
1F
100
AcDbEntity
  8
0
100
AcDbLine
 10
10.77010779889011
 20
6.529813936935833
 30
0.0
 11
10.76690979900878
 21
6.555416653300095
 31
0.0
  0
LINE
  5
4731
330
1F
100
AcDbEntity
  8
0
100
AcDbLine
 10
10.76690979900878
 20
6.555416653300095
 30
0.0
 11
10.7667132832547
 21
6.557612805722807
 31
0.0
  0
LINE
  5
4732
330
1F
100
AcDbEntity
  8
0
100
AcDbLine
 10
10.77010779889011
 20
6.80885741736473
 30
0.0
 11
10.7738319486293
 21
6.824951957703954
 31
0.0
  0
LINE
  5
4733
330
1F
100
AcDbEntity
  8
0
100
AcDbLine
 10
10.7667132832547
 20
6.557612805722807
 30
0.0
 11
10.76430667860906
 21
6.590335677150274
 31
0.0
  0
LINE
  5
4734
330
1F
100
AcDbEntity
  8
0
100
AcDbLine
 10
10.78936620032079
 20
6.574426880734246
 30
0.0
 11
10.78819618736988
 21
6.590335677150274
 31
0.0
  0
LINE
  5
4735
330
1F
100
AcDbEntity
  8
0
100
AcDbLine
 10
10.76430667860906
 20
6.590335677150274
 30
0.0
 11
10.76365497571502
 21
6.606751114705626
 31
0.0
  0
LINE
  5
4736
330
1F
100
AcDbEntity
  8
0
100
AcDbLine
 10
10.76348209361973
 20
6.727565593842295
 30
0.0
 11
10.76430667860906
 21
6.748335677150275
 31
0.0
  0
LINE
  5
4737
330
1F
100
AcDbEntity
  8
0
100
AcDbLine
 10
10.78737160238055
 20
6.727565593842295
 30
0.0
 11
10.78819618736988
 21
6.748335677150275
 31
0.0
  0
LINE
  5
4738
330
1F
100
AcDbEntity
  8
0
100
AcDbLine
 10
10.76430667860906
 20
6.748335677150275
 30
0.0
 11
10.7667132832547
 21
6.781058548577756
 31
0.0
  0
LINE
  5
4739
330
1F
100
AcDbEntity
  8
0
100
AcDbLine
 10
10.76690979900878
 20
6.783254701000454
 30
0.0
 11
10.7667132832547
 21
6.781058548577756
 31
0.0
  0
LINE
  5
473A
330
1F
100
AcDbEntity
  8
0
100
AcDbLine
 10
10.78819618736988
 20
6.748335677150275
 30
0.0
 11
10.78936620032079
 21
6.764244473566317
 31
0.0
  0
LINE
  5
473B
330
1F
100
AcDbEntity
  8
0
100
AcDbLine
 10
10.76690979900878
 20
6.783254701000454
 30
0.0
 11
10.77010779889011
 21
6.80885741736473
 31
0.0
  0
LINE
  5
473C
330
1F
100
AcDbEntity
  8
0
100
AcDbLine
 10
10.77495343977771
 20
6.827747512661683
 30
0.0
 11
10.7738319486293
 21
6.824951957703954
 31
0.0
  0
LINE
  5
473D
330
1F
100
AcDbEntity
  8
0
100
AcDbLine
 10
10.77495343977771
 20
6.827747512661683
 30
0.0
 11
10.77902173958539
 21
6.833335677150283
 31
0.0
  0
LINE
  5
473E
330
1F
100
AcDbEntity
  8
0
100
AcDbLine
 10
10.7914799000928
 20
6.724565593842295
 30
0.0
 11
10.74728250511601
 21
6.724565593842295
 31
0.0
  0
LINE
  5
473F
330
1F
100
AcDbEntity
  8
0
100
AcDbLine
 10
10.78737160238055
 20
6.727565593842295
 30
0.0
 11
10.79136079826103
 21
6.727565593842295
 31
0.0
  0
LINE
  5
4740
330
1F
100
AcDbEntity
  8
0
100
AcDbLine
 10
10.74728250511601
 20
6.724565593842295
 30
0.0
 11
10.74728250511601
 21
6.727565593842295
 31
0.0
  0
LINE
  5
4741
330
1F
100
AcDbEntity
  8
0
100
AcDbLine
 10
10.74728250511601
 20
6.606751114705626
 30
0.0
 11
10.74728250511601
 21
6.609751114705626
 31
0.0
  0
LINE
  5
4742
330
1F
100
AcDbEntity
  8
0
100
AcDbLine
 10
10.78754448447583
 20
6.606751114705626
 30
0.0
 11
10.79118791616575
 21
6.606751114705626
 31
0.0
  0
LINE
  5
4743
330
1F
100
AcDbEntity
  8
0
100
AcDbLine
 10
13.35062726862903
 20
6.72675111470563
 30
0.0
 11
13.35062726862903
 21
6.751251114705634
 31
0.0
  0
LINE
  5
4744
330
1F
100
AcDbEntity
  8
0
100
AcDbLine
 10
13.0173876434171
 20
6.727374133400554
 30
0.0
 11
13.01702323861778
 21
6.72675111470563
 31
0.0
  0
LINE
  5
4745
330
1F
100
AcDbEntity
  8
0
100
AcDbLine
 10
13.01702323861778
 20
6.72675111470563
 30
0.0
 11
13.016376540521
 21
6.725645462406272
 31
0.0
  0
LINE
  5
4746
330
1F
100
AcDbEntity
  8
0
100
AcDbLine
 10
13.016376540521
 20
6.607645462406277
 30
0.0
 11
13.016376540521
 21
6.666751114705628
 31
0.0
  0
LINE
  5
4747
330
1F
100
AcDbEntity
  8
0
100
AcDbLine
 10
13.016376540521
 20
6.666751114705628
 30
0.0
 11
13.016376540521
 21
6.725645462406272
 31
0.0
  0
LINE
  5
4748
330
1F
100
AcDbEntity
  8
0
100
AcDbLine
 10
13.016376540521
 20
6.607645462406277
 30
0.0
 11
13.01680886654559
 21
6.606751114705626
 31
0.0
  0
LINE
  5
4749
330
1F
100
AcDbEntity
  8
0
100
AcDbLine
 10
13.01680886654559
 20
6.606751114705626
 30
0.0
 11
13.01720664692516
 21
6.605928231169637
 31
0.0
  0
LINE
  5
474A
330
1F
100
AcDbEntity
  8
0
100
AcDbLine
 10
12.9373285228375
 20
6.818643753201977
 30
0.0
 11
12.93690279200294
 21
6.816803885696539
 31
0.0
  0
LINE
  5
474B
330
1F
100
AcDbEntity
  8
0
100
AcDbLine
 10
12.93086978198237
 20
6.780750344075779
 30
0.0
 11
12.93075838019126
 21
6.779235601513472
 31
0.0
  0
LINE
  5
474C
330
1F
100
AcDbEntity
  8
0
100
AcDbLine
 10
12.90457366857592
 20
6.748027472648298
 30
0.0
 11
12.90372898417447
 21
6.72675111470563
 31
0.0
  0
LINE
  5
474D
330
1F
100
AcDbEntity
  8
0
100
AcDbLine
 10
12.90372898417447
 20
6.72675111470563
 30
0.0
 11
12.90306081365074
 21
6.709920881774503
 31
0.0
  0
LINE
  5
474E
330
1F
100
AcDbEntity
  8
0
100
AcDbLine
 10
12.92846317733673
 20
6.748027472648298
 30
0.0
 11
12.92763859234741
 21
6.727257389340318
 31
0.0
  0
LINE
  5
474F
330
1F
100
AcDbEntity
  8
0
100
AcDbLine
 10
12.90254480700905
 20
6.669027472648305
 30
0.0
 11
12.90257353085092
 21
6.666751114705628
 31
0.0
  0
LINE
  5
4750
330
1F
100
AcDbEntity
  8
0
100
AcDbLine
 10
12.90257353085092
 20
6.666751114705628
 30
0.0
 11
12.90306081365074
 21
6.628134063522106
 31
0.0
  0
LINE
  5
4751
330
1F
100
AcDbEntity
  8
0
100
AcDbLine
 10
12.92643431576986
 20
6.669027472648305
 30
0.0
 11
12.92646303961173
 21
6.666751114705628
 31
0.0
  0
LINE
  5
4752
330
1F
100
AcDbEntity
  8
0
100
AcDbLine
 10
12.92646303961173
 20
6.666751114705628
 30
0.0
 11
12.92695032241155
 21
6.628134063522106
 31
0.0
  0
LINE
  5
4753
330
1F
100
AcDbEntity
  8
0
100
AcDbLine
 10
12.90306081365074
 20
6.628134063522106
 30
0.0
 11
12.90390972977496
 21
6.606751114705626
 31
0.0
  0
LINE
  5
4754
330
1F
100
AcDbEntity
  8
0
100
AcDbLine
 10
12.90390972977496
 20
6.606751114705626
 30
0.0
 11
12.90457366857592
 21
6.590027472648297
 31
0.0
  0
LINE
  5
4755
330
1F
100
AcDbEntity
  8
0
100
AcDbLine
 10
12.92695032241155
 20
6.628134063522106
 30
0.0
 11
12.92769237261092
 21
6.609442910203649
 31
0.0
  0
LINE
  5
4756
330
1F
100
AcDbEntity
  8
0
100
AcDbLine
 10
12.93075838019126
 20
6.558819343783123
 30
0.0
 11
12.93086978198237
 21
6.55730460122083
 31
0.0
  0
LINE
  5
4757
330
1F
100
AcDbEntity
  8
0
100
AcDbLine
 10
12.93374796282013
 20
6.534885185266868
 30
0.0
 11
12.93429778856164
 21
6.532509020720321
 31
0.0
  0
LINE
  5
4758
330
1F
100
AcDbEntity
  8
0
100
AcDbLine
 10
11.86258663272678
 20
6.545320966408378
 30
0.0
 11
11.86258663272678
 21
6.569297077496012
 31
0.0
  0
LINE
  5
4759
330
1F
100
AcDbEntity
  8
0
100
AcDbLine
 10
11.86258663272677
 20
6.769297077496015
 30
0.0
 11
11.86258663272678
 21
6.792160764330641
 31
0.0
  0
LINE
  5
475A
330
1F
100
AcDbEntity
  8
0
100
AcDbLine
 10
12.95534441489342
 20
6.606442910203649
 30
0.0
 11
12.97262966747895
 21
6.606442910203649
 31
0.0
  0
LINE
  5
475B
330
1F
100
AcDbEntity
  8
0
100
AcDbLine
 10
12.95534441489342
 20
6.606442910203649
 30
0.0
 11
12.92781147444269
 21
6.60644291020365
 31
0.0
  0
LINE
  5
475C
330
1F
100
AcDbEntity
  8
0
100
AcDbLine
 10
12.93679152050303
 20
6.606442910203649
 30
0.0
 11
12.93145490613261
 21
6.606442910203649
 31
0.0
  0
LINE
  5
475D
330
1F
100
AcDbEntity
  8
0
100
AcDbLine
 10
12.94728884905299
 20
6.609442910203649
 30
0.0
 11
12.94428805845272
 21
6.609442910203649
 31
0.0
  0
LINE
  5
475E
330
1F
100
AcDbEntity
  8
0
100
AcDbLine
 10
12.94033472261662
 20
6.609442910203649
 30
0.0
 11
12.93751783296108
 21
6.609442910203649
 31
0.0
  0
LINE
  5
475F
330
1F
100
AcDbEntity
  8
0
100
AcDbLine
 10
12.93751783296108
 20
6.609442910203649
 30
0.0
 11
12.92769237261092
 21
6.609442910203649
 31
0.0
  0
LINE
  5
4760
330
1F
100
AcDbEntity
  8
0
100
AcDbLine
 10
10.69916890774616
 20
6.607645462406277
 30
0.0
 11
10.69873658172157
 21
6.606751114705626
 31
0.0
  0
LINE
  5
4761
330
1F
100
AcDbEntity
  8
0
100
AcDbLine
 10
10.69873658172157
 20
6.606751114705626
 30
0.0
 11
10.698338801342
 21
6.605928231169637
 31
0.0
  0
LINE
  5
4762
330
1F
100
AcDbEntity
  8
0
100
AcDbLine
 10
10.69815780485005
 20
6.727374133400554
 30
0.0
 11
10.69852220964938
 21
6.72675111470563
 31
0.0
  0
LINE
  5
4763
330
1F
100
AcDbEntity
  8
0
100
AcDbLine
 10
10.69852220964938
 20
6.72675111470563
 30
0.0
 11
10.69916890774616
 21
6.725645462406272
 31
0.0
  0
LINE
  5
4764
330
1F
100
AcDbEntity
  8
0
100
AcDbLine
 10
10.67947110274928
 20
6.59572090626376
 30
0.0
 11
10.57369353687099
 21
6.59572090626376
 31
0.0
  0
LINE
  5
4765
330
1F
100
AcDbEntity
  8
0
100
AcDbLine
 10
10.57114258848429
 20
6.737468589276569
 30
0.0
 11
10.67791555056095
 21
6.737468589276569
 31
0.0
  0
LINE
  5
4766
330
1F
100
AcDbEntity
  8
0
100
AcDbLine
 10
10.69916890774616
 20
6.607645462406277
 30
0.0
 11
10.69916890774616
 21
6.666751114705628
 31
0.0
  0
LINE
  5
4767
330
1F
100
AcDbEntity
  8
0
100
AcDbLine
 10
10.69916890774616
 20
6.666751114705628
 30
0.0
 11
10.69916890774616
 21
6.725645462406272
 31
0.0
  0
LINE
  5
4768
330
1F
100
AcDbEntity
  8
0
100
AcDbLine
 10
10.36491817963812
 20
6.721946710146847
 30
0.0
 11
10.36491817963812
 21
6.751251114705634
 31
0.0
  0
LINE
  5
4769
330
1F
100
AcDbEntity
  8
0
100
AcDbLine
 10
10.56941736493893
 20
6.737468589276569
 30
0.0
 11
10.57114258848429
 21
6.737468589276569
 31
0.0
  0
LINE
  5
476A
330
1F
100
AcDbEntity
  8
0
100
AcDbLine
 10
11.86258663272678
 20
6.792160764330641
 30
0.0
 11
11.88252243047745
 21
6.792160764330641
 31
0.0
  0
LINE
  5
476B
330
1F
100
AcDbEntity
  8
0
100
AcDbLine
 10
11.88252243047745
 20
6.792160764330641
 30
0.0
 11
11.90245822822812
 21
6.792160764330641
 31
0.0
  0
LINE
  5
476C
330
1F
100
AcDbEntity
  8
0
100
AcDbLine
 10
11.90245822822812
 20
6.792160764330641
 30
0.0
 11
11.90245822822812
 21
6.769297077496029
 31
0.0
  0
LINE
  5
476D
330
1F
100
AcDbEntity
  8
0
100
AcDbLine
 10
11.90245822822812
 20
6.569297077496012
 30
0.0
 11
11.90245822822812
 21
6.545320966408378
 31
0.0
  0
LINE
  5
476E
330
1F
100
AcDbEntity
  8
0
100
AcDbLine
 10
13.3637444177939
 20
6.666751114705628
 30
0.0
 11
13.35283199828503
 21
6.666751114705628
 31
0.0
  0
LINE
  5
476F
330
1F
100
AcDbEntity
  8
0
100
AcDbLine
 10
13.01702323861778
 20
6.72675111470563
 30
0.0
 11
12.97531334854951
 21
6.72675111470563
 31
0.0
  0
LINE
  5
4770
330
1F
100
AcDbEntity
  8
0
100
AcDbLine
 10
12.97531334854951
 20
6.72675111470563
 30
0.0
 11
12.97435981086651
 21
6.72675111470563
 31
0.0
  0
LINE
  5
4771
330
1F
100
AcDbEntity
  8
0
100
AcDbLine
 10
13.01680886654559
 20
6.606751114705626
 30
0.0
 11
12.97531334854951
 21
6.606751114705626
 31
0.0
  0
LINE
  5
4772
330
1F
100
AcDbEntity
  8
0
100
AcDbLine
 10
12.97531334854951
 20
6.606751114705626
 30
0.0
 11
12.97435981086651
 21
6.606751114705626
 31
0.0
  0
LINE
  5
4773
330
1F
100
AcDbEntity
  8
0
100
AcDbLine
 10
10.78167086777094
 20
6.818951957703954
 30
0.0
 11
10.7820965986055
 21
6.817112090198516
 31
0.0
  0
LINE
  5
4774
330
1F
100
AcDbEntity
  8
0
100
AcDbLine
 10
10.78812960862607
 20
6.781058548577756
 30
0.0
 11
10.78824101041718
 21
6.779543806015449
 31
0.0
  0
LINE
  5
4775
330
1F
100
AcDbEntity
  8
0
100
AcDbLine
 10
10.79053621327171
 20
6.748335677150275
 30
0.0
 11
10.79136079826103
 21
6.727565593842295
 31
0.0
  0
LINE
  5
4776
330
1F
100
AcDbEntity
  8
0
100
AcDbLine
 10
10.81442572203252
 20
6.748335677150275
 30
0.0
 11
10.81527040643397
 21
6.727059319207607
 31
0.0
  0
LINE
  5
4777
330
1F
100
AcDbEntity
  8
0
100
AcDbLine
 10
10.81527040643397
 20
6.727059319207607
 30
0.0
 11
10.8159385769577
 21
6.71022908627648
 31
0.0
  0
LINE
  5
4778
330
1F
100
AcDbEntity
  8
0
100
AcDbLine
 10
10.79256507483858
 20
6.669335677150281
 30
0.0
 11
10.79253635099671
 21
6.667059319207605
 31
0.0
  0
LINE
  5
4779
330
1F
100
AcDbEntity
  8
0
100
AcDbLine
 10
10.79253635099671
 20
6.667059319207605
 30
0.0
 11
10.79204906819689
 21
6.628442268024083
 31
0.0
  0
LINE
  5
477A
330
1F
100
AcDbEntity
  8
0
100
AcDbLine
 10
10.81645458359939
 20
6.669335677150281
 30
0.0
 11
10.81642585975752
 21
6.667059319207605
 31
0.0
  0
LINE
  5
477B
330
1F
100
AcDbEntity
  8
0
100
AcDbLine
 10
10.81642585975752
 20
6.667059319207605
 30
0.0
 11
10.8159385769577
 21
6.628442268024083
 31
0.0
  0
LINE
  5
477C
330
1F
100
AcDbEntity
  8
0
100
AcDbLine
 10
10.79204906819689
 20
6.628442268024083
 30
0.0
 11
10.79130701799752
 21
6.609751114705626
 31
0.0
  0
LINE
  5
477D
330
1F
100
AcDbEntity
  8
0
100
AcDbLine
 10
10.8159385769577
 20
6.628442268024083
 30
0.0
 11
10.81508966083348
 21
6.607059319207603
 31
0.0
  0
LINE
  5
477E
330
1F
100
AcDbEntity
  8
0
100
AcDbLine
 10
10.81508966083348
 20
6.607059319207603
 30
0.0
 11
10.81442572203252
 21
6.590335677150274
 31
0.0
  0
LINE
  5
477F
330
1F
100
AcDbEntity
  8
0
100
AcDbLine
 10
10.78824101041718
 20
6.559127548285114
 30
0.0
 11
10.78812960862607
 21
6.557612805722807
 31
0.0
  0
LINE
  5
4780
330
1F
100
AcDbEntity
  8
0
100
AcDbLine
 10
10.78525142778831
 20
6.535193389768845
 30
0.0
 11
10.7847016020468
 21
6.532817225222298
 31
0.0
  0
LINE
  5
4781
330
1F
100
AcDbEntity
  8
0
100
AcDbLine
 10
10.74728250511601
 20
6.727565593842295
 30
0.0
 11
10.76348209361973
 21
6.727565593842295
 31
0.0
  0
LINE
  5
4782
330
1F
100
AcDbEntity
  8
0
100
AcDbLine
 10
10.74728250511601
 20
6.606751114705626
 30
0.0
 11
10.76365497571502
 21
6.606751114705626
 31
0.0
  0
LINE
  5
4783
330
1F
100
AcDbEntity
  8
0
100
AcDbLine
 10
10.78754448447583
 20
6.606751114705626
 30
0.0
 11
10.7822078701054
 21
6.606751114705626
 31
0.0
  0
LINE
  5
4784
330
1F
100
AcDbEntity
  8
0
100
AcDbLine
 10
10.77116813004212
 20
6.606751114705626
 30
0.0
 11
10.76365497571502
 21
6.606751114705626
 31
0.0
  0
LINE
  5
4785
330
1F
100
AcDbEntity
  8
0
100
AcDbLine
 10
10.79130701799752
 20
6.609751114705626
 30
0.0
 11
10.78148155764736
 21
6.609751114705626
 31
0.0
  0
LINE
  5
4786
330
1F
100
AcDbEntity
  8
0
100
AcDbLine
 10
10.78148155764736
 20
6.609751114705626
 30
0.0
 11
10.77866466799182
 21
6.609751114705626
 31
0.0
  0
LINE
  5
4787
330
1F
100
AcDbEntity
  8
0
100
AcDbLine
 10
10.77866466799182
 20
6.609751114705626
 30
0.0
 11
10.77171054155544
 21
6.609751114705626
 31
0.0
  0
LINE
  5
4788
330
1F
100
AcDbEntity
  8
0
100
AcDbLine
 10
10.77171054155544
 20
6.609751114705626
 30
0.0
 11
10.74728250511601
 21
6.609751114705626
 31
0.0
  0
LINE
  5
4789
330
1F
100
AcDbEntity
  8
0
100
AcDbLine
 10
13.35062726862903
 20
6.666751114705628
 30
0.0
 11
13.35062726862903
 21
6.72675111470563
 31
0.0
  0
LINE
  5
478A
330
1F
100
AcDbEntity
  8
0
100
AcDbLine
 10
12.93690279200294
 20
6.816803885696539
 30
0.0
 11
12.93429778856164
 21
6.805545924576288
 31
0.0
  0
LINE
  5
478B
330
1F
100
AcDbEntity
  8
0
100
AcDbLine
 10
12.93429778856164
 20
6.805545924576288
 30
0.0
 11
12.93374796282013
 21
6.803169760029741
 31
0.0
  0
LINE
  5
478C
330
1F
100
AcDbEntity
  8
0
100
AcDbLine
 10
12.93075838019126
 20
6.779235601513472
 30
0.0
 11
12.92963319028765
 21
6.763936269064326
 31
0.0
  0
LINE
  5
478D
330
1F
100
AcDbEntity
  8
0
100
AcDbLine
 10
12.92963319028765
 20
6.763936269064326
 30
0.0
 11
12.92846317733673
 21
6.748027472648298
 31
0.0
  0
LINE
  5
478E
330
1F
100
AcDbEntity
  8
0
100
AcDbLine
 10
12.92763859234741
 20
6.727257389340318
 30
0.0
 11
12.92751949051564
 21
6.724257389340318
 31
0.0
  0
LINE
  5
478F
330
1F
100
AcDbEntity
  8
0
100
AcDbLine
 10
12.92751949051564
 20
6.724257389340318
 30
0.0
 11
12.92695032241155
 21
6.709920881774503
 31
0.0
  0
LINE
  5
4790
330
1F
100
AcDbEntity
  8
0
100
AcDbLine
 10
12.92769237261092
 20
6.609442910203649
 30
0.0
 11
12.92781147444269
 21
6.606442910203649
 31
0.0
  0
LINE
  5
4791
330
1F
100
AcDbEntity
  8
0
100
AcDbLine
 10
12.92781147444269
 20
6.60644291020365
 30
0.0
 11
12.92846317733673
 21
6.590027472648297
 31
0.0
  0
LINE
  5
4792
330
1F
100
AcDbEntity
  8
0
100
AcDbLine
 10
12.92846317733673
 20
6.590027472648297
 30
0.0
 11
12.92963319028765
 21
6.574118676232283
 31
0.0
  0
LINE
  5
4793
330
1F
100
AcDbEntity
  8
0
100
AcDbLine
 10
12.92963319028765
 20
6.574118676232283
 30
0.0
 11
12.93075838019126
 21
6.558819343783123
 31
0.0
  0
LINE
  5
4794
330
1F
100
AcDbEntity
  8
0
100
AcDbLine
 10
12.93429778856164
 20
6.532509020720321
 30
0.0
 11
12.93690279200294
 21
6.521251059600071
 31
0.0
  0
LINE
  5
4795
330
1F
100
AcDbEntity
  8
0
100
AcDbLine
 10
12.93690279200294
 20
6.521251059600071
 30
0.0
 11
12.9373285228375
 21
6.519411192094632
 31
0.0
  0
LINE
  5
4796
330
1F
100
AcDbEntity
  8
0
100
AcDbLine
 10
12.94233828066643
 20
6.727257389340318
 30
0.0
 11
12.93162778822789
 21
6.727257389340318
 31
0.0
  0
LINE
  5
4797
330
1F
100
AcDbEntity
  8
0
100
AcDbLine
 10
10.36491817963812
 20
6.582251114705623
 30
0.0
 11
10.36491817963812
 21
6.611555519264409
 31
0.0
  0
LINE
  5
4798
330
1F
100
AcDbEntity
  8
0
100
AcDbLine
 10
10.36491817963812
 20
6.611555519264409
 30
0.0
 11
10.36491817963812
 21
6.721946710146847
 31
0.0
  0
LINE
  5
4799
330
1F
100
AcDbEntity
  8
0
100
AcDbLine
 10
11.90245822822812
 20
6.72675111470563
 30
0.0
 11
11.86258663272677
 21
6.72675111470563
 31
0.0
  0
LINE
  5
479A
330
1F
100
AcDbEntity
  8
0
100
AcDbLine
 10
11.90245822822812
 20
6.606751114705626
 30
0.0
 11
11.86258663272677
 21
6.606751114705626
 31
0.0
  0
LINE
  5
479B
330
1F
100
AcDbEntity
  8
0
100
AcDbLine
 10
11.86258663272677
 20
6.606751114705626
 30
0.0
 11
11.86091122007534
 21
6.606751114705626
 31
0.0
  0
LINE
  5
479C
330
1F
100
AcDbEntity
  8
0
100
AcDbLine
 10
10.7820965986055
 20
6.817112090198516
 30
0.0
 11
10.7847016020468
 21
6.805854129078265
 31
0.0
  0
LINE
  5
479D
330
1F
100
AcDbEntity
  8
0
100
AcDbLine
 10
10.7847016020468
 20
6.805854129078265
 30
0.0
 11
10.78525142778831
 21
6.803477964531718
 31
0.0
  0
LINE
  5
479E
330
1F
100
AcDbEntity
  8
0
100
AcDbLine
 10
10.78824101041718
 20
6.779543806015449
 30
0.0
 11
10.78936620032079
 21
6.764244473566317
 31
0.0
  0
LINE
  5
479F
330
1F
100
AcDbEntity
  8
0
100
AcDbLine
 10
10.78936620032079
 20
6.764244473566317
 30
0.0
 11
10.79053621327171
 21
6.748335677150275
 31
0.0
  0
LINE
  5
47A0
330
1F
100
AcDbEntity
  8
0
100
AcDbLine
 10
10.79136079826103
 20
6.727565593842295
 30
0.0
 11
10.7914799000928
 21
6.724565593842295
 31
0.0
  0
LINE
  5
47A1
330
1F
100
AcDbEntity
  8
0
100
AcDbLine
 10
10.7914799000928
 20
6.724565593842295
 30
0.0
 11
10.79204906819689
 21
6.71022908627648
 31
0.0
  0
LINE
  5
47A2
330
1F
100
AcDbEntity
  8
0
100
AcDbLine
 10
10.79130701799752
 20
6.609751114705626
 30
0.0
 11
10.79118791616575
 21
6.606751114705626
 31
0.0
  0
LINE
  5
47A3
330
1F
100
AcDbEntity
  8
0
100
AcDbLine
 10
10.79118791616575
 20
6.606751114705626
 30
0.0
 11
10.79053621327171
 21
6.590335677150274
 31
0.0
  0
LINE
  5
47A4
330
1F
100
AcDbEntity
  8
0
100
AcDbLine
 10
10.79053621327171
 20
6.590335677150274
 30
0.0
 11
10.78936620032079
 21
6.574426880734246
 31
0.0
  0
LINE
  5
47A5
330
1F
100
AcDbEntity
  8
0
100
AcDbLine
 10
10.78936620032079
 20
6.574426880734246
 30
0.0
 11
10.78824101041718
 21
6.559127548285114
 31
0.0
  0
LINE
  5
47A6
330
1F
100
AcDbEntity
  8
0
100
AcDbLine
 10
10.7847016020468
 20
6.532817225222298
 30
0.0
 11
10.7820965986055
 21
6.521559264102047
 31
0.0
  0
LINE
  5
47A7
330
1F
100
AcDbEntity
  8
0
100
AcDbLine
 10
10.7820965986055
 20
6.521559264102047
 30
0.0
 11
10.78167086777094
 21
6.519719396596609
 31
0.0
  0
LINE
  5
47A8
330
1F
100
AcDbEntity
  8
0
100
AcDbLine
 10
13.35062726862903
 20
6.582251114705623
 30
0.0
 11
13.35062726862903
 21
6.606751114705626
 31
0.0
  0
LINE
  5
47A9
330
1F
100
AcDbEntity
  8
0
100
AcDbLine
 10
13.35062726862903
 20
6.606751114705626
 30
0.0
 11
13.35062726862903
 21
6.666751114705628
 31
0.0
  0
LINE
  5
47AA
330
1F
100
AcDbEntity
  8
0
100
AcDbLine
 10
12.9555172969887
 20
6.727257389340318
 30
0.0
 11
12.94233828066643
 21
6.727257389340318
 31
0.0
  0
LINE
  5
47AB
330
1F
100
AcDbEntity
  8
0
100
AcDbLine
 10
11.90477321074574
 20
6.72675111470563
 30
0.0
 11
11.90245822822812
 21
6.72675111470563
 31
0.0
  0
LINE
  5
47AC
330
1F
100
AcDbEntity
  8
0
100
AcDbLine
 10
11.84160868976444
 20
6.72675111470563
 30
0.0
 11
10.81508966083348
 21
6.72675111470563
 31
0.0
  0
LINE
  5
47AD
330
1F
100
AcDbEntity
  8
0
100
AcDbLine
 10
12.90390972977496
 20
6.606751114705626
 30
0.0
 11
11.9230595983971
 21
6.606751114705626
 31
0.0
  0
LINE
  5
47AE
330
1F
100
AcDbEntity
  8
0
100
AcDbLine
 10
11.86091122007534
 20
6.606751114705626
 30
0.0
 11
11.84198526255779
 21
6.606751114705626
 31
0.0
  0
LINE
  5
47AF
330
1F
100
AcDbEntity
  8
0
100
AcDbLine
 10
10.78737160238055
 20
6.727565593842295
 30
0.0
 11
10.77666110994201
 21
6.727565593842295
 31
0.0
  0
LINE
  5
47B0
330
1F
100
AcDbEntity
  8
0
100
AcDbLine
 10
10.77666110994201
 20
6.727565593842295
 30
0.0
 11
10.76348209361973
 21
6.727565593842295
 31
0.0
  0
LINE
  5
47B1
330
1F
100
AcDbEntity
  8
0
100
AcDbLine
 10
12.90372898417447
 20
6.72675111470563
 30
0.0
 11
11.92343617119046
 21
6.72675111470563
 31
0.0
  0
LINE
  5
47B2
330
1F
100
AcDbEntity
  8
0
100
AcDbLine
 10
11.92343617119046
 20
6.72675111470563
 30
0.0
 11
11.90477321074574
 21
6.72675111470563
 31
0.0
  0
LINE
  5
47B3
330
1F
100
AcDbEntity
  8
0
100
AcDbLine
 10
11.86258663272677
 20
6.72675111470563
 30
0.0
 11
11.86027165020916
 21
6.72675111470563
 31
0.0
  0
LINE
  5
47B4
330
1F
100
AcDbEntity
  8
0
100
AcDbLine
 10
11.86027165020916
 20
6.72675111470563
 30
0.0
 11
11.84160868976444
 21
6.72675111470563
 31
0.0
  0
LINE
  5
47B5
330
1F
100
AcDbEntity
  8
0
100
AcDbLine
 10
11.9230595983971
 20
6.606751114705626
 30
0.0
 11
11.90413364087956
 21
6.606751114705626
 31
0.0
  0
LINE
  5
47B6
330
1F
100
AcDbEntity
  8
0
100
AcDbLine
 10
11.90413364087956
 20
6.606751114705626
 30
0.0
 11
11.90245822822812
 21
6.606751114705626
 31
0.0
  0
LINE
  5
47B7
330
1F
100
AcDbEntity
  8
0
100
AcDbLine
 10
11.84198526255779
 20
6.606751114705626
 30
0.0
 11
10.81508966083348
 21
6.606751114705626
 31
0.0
  0
LINE
  5
47B8
330
1F
100
AcDbEntity
  8
0
100
AcDbLine
 10
13.16586881544145
 20
6.764495176339944
 30
0.0
 11
13.33510516662348
 21
6.764495176339944
 31
0.0
  0
LINE
  5
47B9
330
1F
100
AcDbEntity
  8
0
100
AcDbLine
 10
13.15107440975652
 20
6.586461732842717
 30
0.0
 11
13.15082767345914
 21
6.582981033471194
 31
0.0
  0
LINE
  5
47BA
330
1F
100
AcDbEntity
  8
0
100
AcDbLine
 10
13.03434912197251
 20
6.59572090626376
 30
0.0
 11
13.14185191139616
 21
6.59572090626376
 31
0.0
  0
LINE
  5
47BB
330
1F
100
AcDbEntity
  8
0
100
AcDbLine
 10
13.16586881544145
 20
6.567644466695209
 30
0.0
 11
13.33906775395734
 21
6.567644466695209
 31
0.0
  0
LINE
  5
47BC
330
1F
100
AcDbEntity
  8
0
100
AcDbLine
 10
11.90245822822812
 20
6.569297077496012
 30
0.0
 11
11.86258663272678
 21
6.569297077496012
 31
0.0
  0
LINE
  5
47BD
330
1F
100
AcDbEntity
  8
0
100
AcDbLine
 10
11.86258663272677
 20
6.769297077496015
 30
0.0
 11
11.90245822822812
 21
6.769297077496029
 31
0.0
  0
LINE
  5
47BE
330
1F
100
AcDbEntity
  8
0
100
AcDbLine
 10
11.86258663272677
 20
6.606751114705626
 30
0.0
 11
11.86258663272678
 21
6.569297077496012
 31
0.0
  0
LINE
  5
47BF
330
1F
100
AcDbEntity
  8
0
100
AcDbLine
 10
11.86258663272677
 20
6.769297077496015
 30
0.0
 11
11.86258663272677
 21
6.72675111470563
 31
0.0
  0
LINE
  5
47C0
330
1F
100
AcDbEntity
  8
0
100
AcDbLine
 10
12.97262966747895
 20
6.727257389340318
 30
0.0
 11
12.9555172969887
 21
6.727257389340318
 31
0.0
  0
LINE
  5
47C1
330
1F
100
AcDbEntity
  8
0
100
AcDbLine
 10
12.97262966747895
 20
6.609442910203649
 30
0.0
 11
12.92769237261092
 21
6.609442910203649
 31
0.0
  0
LINE
  5
47C2
330
1F
100
AcDbEntity
  8
0
100
AcDbLine
 10
10.37475247076445
 20
6.567644466695209
 30
0.0
 11
10.54795140928034
 21
6.567644466695209
 31
0.0
  0
LINE
  5
47C3
330
1F
100
AcDbEntity
  8
0
100
AcDbLine
 10
10.37871505809831
 20
6.764495176339944
 30
0.0
 11
10.54795140928034
 21
6.764495176339944
 31
0.0
  0
LINE
  5
47C4
330
1F
100
AcDbEntity
  8
0
100
AcDbLine
 10
11.90245822822812
 20
6.769297077496029
 30
0.0
 11
11.90245822822812
 21
6.72675111470563
 31
0.0
  0
LINE
  5
47C5
330
1F
100
AcDbEntity
  8
0
100
AcDbLine
 10
11.90245822822812
 20
6.606751114705626
 30
0.0
 11
11.90245822822812
 21
6.569297077496012
 31
0.0
  0
VIEWPORT
  5
7CA
330
1B
100
AcDbEntity
 67
     1
  8
0
100
AcDbViewport
 10
250.8078564553756
 20
151.9284754761402
 30
0.0
 40
420.4378690602835
 41
204.4576762861672
 68
     1
 69
     1
 12
250.8078564553756
 22
151.9284754761402
 13
0.0
 23
0.0
 14
10.0
 24
10.0
 15
10.0
 25
10.0
 16
0.0
 26
0.0
 36
1.0
 17
0.0
 27
0.0
 37
0.0
 42
50.0
 43
0.0
 44
0.0
 45
204.4576762861672
 50
0.0
 51
0.0
 72
   100
 90
   819232
  1

281
     0
 71
     1
 74
     0
110
0.0
120
0.0
130
0.0
111
1.0
121
0.0
131
0.0
112
0.0
122
1.0
132
0.0
 79
     0
146
0.0
170
     0
  0
VIEWPORT
  5
99A
330
1B
100
AcDbEntity
 67
     1
  8
Defpoints
100
AcDbViewport
 10
151.5855934681565
 20
104.8621726199724
 30
0.0
 40
290.0480970456033
 41
203.1599664902751
 68
     2
 69
     2
 12
10.52628202427198
 22
7.055332186530126
 13
0.0
 23
0.0
 14
0.5
 24
0.5
 15
0.5
 25
0.5
 16
0.0
 26
0.0
 36
1.0
 17
0.0
 27
0.0
 37
-1000.0
 42
50.0
 43
4.148984367261674
 44
9.217858496371269
 45
10.15799927015914
 50
0.0
 51
0.0
 72
   100
 90
   819296
  1

281
     0
 71
     1
 74
     0
110
0.0
120
0.0
130
0.0
111
1.0
121
0.0
131
0.0
112
0.0
122
1.0
132
0.0
 79
     0
146
0.0
170
     0
  0
ENDSEC
  0
SECTION
  2
OBJECTS
  0
DICTIONARY
  5
C
330
0
100
AcDbDictionary
281
     1
  3
ACAD_COLOR
350
4B9
  3
ACAD_GROUP
350
D
  3
ACAD_LAYOUT
350
1A
  3
ACAD_MATERIAL
350
3B
  3
ACAD_MLEADERSTYLE
350
489
  3
ACAD_MLINESTYLE
350
17
  3
ACAD_PLOTSETTINGS
350
19
  3
ACAD_PLOTSTYLENAME
350
E
  3
ACAD_SCALELIST
350
4213
  3
ACAD_TABLESTYLE
350
4BA
  3
ACAD_VISUALSTYLE
350
2A
  3
ACDB_RECOMPOSE_DATA
350
4244
  3
AcDbVariableDictionary
350
487
  0
DICTIONARY
  5
84C
330
8
100
AcDbDictionary
280
     1
281
     1
  0
DICTIONARY
  5
7D1
330
2
100
AcDbDictionary
280
     1
281
     1
  3
ACAD_LAYERFILTERS
360
4281
  3
ACAD_LAYERSTATES
360
7D2
  3
ACLYDICTIONARY
360
4280
  0
DICTIONARY
  5
423C
330
10
100
AcDbDictionary
280
     1
281
     1
  3
ADSK_XREC_LAYER_RECONCILED
360
423D
  0
DICTIONARY
  5
423E
330
87B
100
AcDbDictionary
280
     1
281
     1
  3
ADSK_XREC_LAYER_RECONCILED
360
423F
  0
DICTIONARY
  5
4240
330
87D
100
AcDbDictionary
280
     1
281
     1
  3
ADSK_XREC_LAYER_RECONCILED
360
4241
  0
DICTIONARY
  5
5F8
330
1F
100
AcDbDictionary
280
     1
281
     1
  3
ACAD_SORTENTS
360
5F9
  0
DICTIONARY
  5
453C
330
453B
100
AcDbDictionary
280
     1
281
     1
  3
ACAD_DIMASSOC
360
453D
  0
DICTIONARY
  5
4B9
102
{ACAD_REACTORS
330
C
102
}
330
C
100
AcDbDictionary
281
     1
  0
DICTIONARY
  5
D
102
{ACAD_REACTORS
330
C
102
}
330
C
100
AcDbDictionary
281
     1
  0
DICTIONARY
  5
1A
102
{ACAD_REACTORS
330
C
102
}
330
C
100
AcDbDictionary
281
     1
  3
Layout1
350
1E
  3
Model
350
22
  0
DICTIONARY
  5
3B
102
{ACAD_REACTORS
330
C
102
}
330
C
100
AcDbDictionary
281
     1
  3
ByBlock
350
3D
  3
ByLayer
350
3C
  3
Global
350
3E
  0
DICTIONARY
  5
489
102
{ACAD_REACTORS
330
C
102
}
330
C
100
AcDbDictionary
281
     1
  3
Standard
350
4235
  0
DICTIONARY
  5
17
102
{ACAD_REACTORS
330
C
102
}
330
C
100
AcDbDictionary
281
     1
  3
Standard
350
18
  0
DICTIONARY
  5
19
102
{ACAD_REACTORS
330
C
102
}
330
C
100
AcDbDictionary
281
     1
  0
ACDBDICTIONARYWDFLT
  5
E
102
{ACAD_REACTORS
330
C
102
}
330
C
100
AcDbDictionary
281
     1
  3
Normal
350
F
100
AcDbDictionaryWithDefault
340
F
  0
DICTIONARY
  5
4213
102
{ACAD_REACTORS
330
C
102
}
330
C
100
AcDbDictionary
281
     1
  3
A0
350
4214
  3
A1
350
4215
  3
A2
350
4216
  3
A3
350
4217
  3
A4
350
4218
  3
A5
350
4219
  3
A6
350
421A
  3
A7
350
421B
  3
A8
350
421C
  3
A9
350
421D
  3
B0
350
421E
  3
B1
350
421F
  3
B2
350
4220
  3
B3
350
4221
  3
B4
350
4222
  3
B5
350
4223
  3
B6
350
4224
  3
B7
350
4225
  3
B8
350
4226
  3
B9
350
4227
  3
C0
350
4228
  3
C1
350
4229
  3
C2
350
422A
  3
C3
350
422B
  3
C4
350
422C
  3
C5
350
422D
  3
C6
350
422E
  3
C7
350
422F
  3
C8
350
4230
  3
C9
350
4231
  3
D0
350
4232
  3
D1
350
4233
  3
D2
350
4234
  0
DICTIONARY
  5
4BA
102
{ACAD_REACTORS
330
C
102
}
330
C
100
AcDbDictionary
281
     1
  3
Standard
350
4BB
  0
DICTIONARY
  5
2A
102
{ACAD_REACTORS
330
C
102
}
330
C
100
AcDbDictionary
281
     1
  3
2dWireframe
350
2F
  3
3D Hidden
350
A47
  3
3dWireframe
350
A48
  3
Basic
350
32
  3
Brighten
350
36
  3
ColorChange
350
3A
  3
Conceptual
350
A4B
  3
Dim
350
35
  3
Facepattern
350
39
  3
Flat
350
2B
  3
FlatWithEdges
350
2C
  3
Gouraud
350
2D
  3
GouraudWithEdges
350
2E
  3
Linepattern
350
38
  3
Realistic
350
A4C
  3
Thicken
350
37
  0
XRECORD
  5
4244
102
{ACAD_REACTORS
330
C
102
}
330
C
100
AcDbXrecord
280
     1
 90
        1
330
4BB
  0
DICTIONARY
  5
487
102
{ACAD_REACTORS
330
C
102
}
330
C
100
AcDbDictionary
281
     1
  3
CANNOSCALE
350
4247
  3
CMLEADERSTYLE
350
4245
  3
CTABLESTYLE
350
5FE
  3
DIMASSOC
350
48A
  3
HIDETEXT
350
48B
  3
INDEXCTL
350
86B
  3
LIGHTINGUNITS
350
4248
  3
MSLTSCALE
350
4246
  3
SORTENTS
350
86A
  0
DICTIONARY
  5
4281
102
{ACAD_REACTORS
330
7D1
102
}
330
7D1
100
AcDbDictionary
281
     1
  0
DICTIONARY
  5
7D2
102
{ACAD_REACTORS
330
7D1
102
}
330
7D1
100
AcDbDictionary
281
     1
  0
DICTIONARY
  5
4280
102
{ACAD_REACTORS
330
7D1
102
}
330
7D1
100
AcDbDictionary
281
     1
1001
ACAD
1000
<All
  0
XRECORD
  5
423D
102
{ACAD_REACTORS
330
423C
102
}
330
423C
100
AcDbXrecord
280
     1
290
     1
  0
XRECORD
  5
423F
102
{ACAD_REACTORS
330
423E
102
}
330
423E
100
AcDbXrecord
280
     1
290
     1
  0
XRECORD
  5
4241
102
{ACAD_REACTORS
330
4240
102
}
330
4240
100
AcDbXrecord
280
     1
290
     1
  0
SORTENTSTABLE
  5
5F9
102
{ACAD_REACTORS
330
5F8
102
}
330
5F8
100
AcDbSortentsTable
330
1F
  0
DIMASSOC
  5
453D
102
{ACAD_REACTORS
330
453C
102
}
330
453C
100
AcDbDimAssoc
330
453B
 90
        3
 70
     0
 71
     0
  1
AcDbOsnapPointRef
 72
     1
331
453A
 73
     2
 91
        3
 40
1.0
 10
0.0
 20
0.0
 30
2.000000000000000E+50
 75
     0
  1
AcDbOsnapPointRef
 72
     1
331
453A
 73
     2
 91
        2
 40
1.0
 10
0.0
 20
0.0
 30
2.000000000000000E+50
 75
     0
  0
LAYOUT
  5
1E
102
{ACAD_XDICTIONARY
360
7D4
102
}
102
{ACAD_REACTORS
330
1A
102
}
330
1A
100
AcDbPlotSettings
  1

  2
Bullzip PDF Printer
  4
A4
  6

 40
3.174999952316284
 41
3.174999952316284
 42
3.175003051757812
 43
3.17498779296875
 44
209.8886566162109
 45
297.0530090332031
 46
0.0
 47
0.0
 48
6.561544945354853
 49
3.282189374834842
140
296.6096419909582
141
206.4421558651099
142
1.0
143
1.0
 70
   672
 72
     1
 73
     1
 74
     4
  7
monochrome.ctb
 75
    16
147
25.4
 76
     0
 77
     2
 78
   300
148
-6.561544945354853
149
-3.282189374834842
100
AcDbLayout
  1
Layout1
 70
     0
 71
     1
 10
3.386557152386103
 20
0.1071894225185588
 11
300.4395661855892
 21
209.9958460387295
 12
0.0
 22
0.0
 32
0.0
 14
6.561544945354853
 24
3.282189374834842
 34
0.0
 15
296.6096419909582
 25
206.4421558651099
 35
0.0
146
0.0
 13
0.0
 23
0.0
 33
0.0
 16
1.0
 26
0.0
 36
0.0
 17
0.0
 27
1.0
 37
0.0
 76
     0
330
1B
331
7CA
1001
ACAD_PSEXT
1000
Bullzip PDF Printer
1000
Bullzip PDF Printer
1000
BULLZIP
1000
Bullzip PDF Printer 7.2.0.1338
1070
     0
  0
LAYOUT
  5
22
102
{ACAD_REACTORS
330
1A
102
}
330
1A
100
AcDbPlotSettings
  1

  2
none_device
  4
Letter_(8.50_x_11.00_Inches)
  6

 40
6.349999904632568
 41
6.349999904632568
 42
6.350006103515625
 43
6.350006103515625
 44
215.8999938964844
 45
279.3999938964844
 46
0.0
 47
0.0
 48
0.0
 49
0.0
140
0.0
141
0.0
142
1.0
143
1.722890234054851
 70
 11952
 72
     0
 73
     1
 74
     0
  7

 75
     0
147
0.5804200292240808
 76
     0
 77
     2
 78
   300
148
-81.52243533661561
149
-74.86302292570847
100
AcDbLayout
  1
Model
 70
     1
 71
     0
 10
0.0
 20
0.0
 11
12.0
 21
9.0
 12
0.0
 22
0.0
 32
0.0
 14
1.000000000000000E+20
 24
1.000000000000000E+20
 34
1.000000000000000E+20
 15
-1.000000000000000E+20
 25
-1.000000000000000E+20
 35
-1.000000000000000E+20
146
0.0
 13
0.0
 23
0.0
 33
0.0
 16
1.0
 26
0.0
 36
0.0
 17
0.0
 27
1.0
 37
0.0
 76
     0
330
1F
331
29
1001
ACAD_PSEXT
1000
Brak
1000
Brak
1000
Nie można zastosować.
1000
Arkusz nie zostanie wydrukowany dopóki nie wybrano konfiguracji plotera.
1070
     0
  0
MATERIAL
  5
3D
102
{ACAD_XDICTIONARY
360
4810
102
}
102
{ACAD_REACTORS
330
3B
102
}
330
3B
100
AcDbMaterial
  1
ByBlock
 73
     1
 78
     1
172
     1
176
     1
270
     1
274
     1
  0
MATERIAL
  5
3C
102
{ACAD_XDICTIONARY
360
480E
102
}
102
{ACAD_REACTORS
330
3B
102
}
330
3B
100
AcDbMaterial
  1
ByLayer
 73
     1
 78
     1
172
     1
176
     1
270
     1
274
     1
  0
MATERIAL
  5
3E
102
{ACAD_XDICTIONARY
360
4812
102
}
102
{ACAD_REACTORS
330
3B
102
}
330
3B
100
AcDbMaterial
  1
Global
 73
     1
 78
     1
172
     1
176
     1
270
     1
274
     1
  0
MLEADERSTYLE
  5
4235
102
{ACAD_REACTORS
330
489
102
}
330
489
100
AcDbMLeaderStyle
170
     2
171
     1
172
     0
 90
        2
 40
0.0
 41
0.0
173
     1
 91
-1056964608
340
14
 92
       -2
290
     1
 42
0.09
291
     1
 43
0.36
  3
Standard
 44
0.18
300

342
11
174
     1
178
     6
175
     1
176
     0
 93
-1056964608
 45
0.18
292
     0
297
     0
 46
0.18
 94
-1056964608
 47
1.0
 49
1.0
140
1.0
293
     1
141
0.0
294
     1
177
     0
142
1.0
295
     0
296
     0
143
0.125
1001
ACAD_MLEADERVER
1070
     2
  0
MLINESTYLE
  5
18
102
{ACAD_REACTORS
330
17
102
}
330
17
100
AcDbMlineStyle
  2
STANDARD
 70
     0
  3

 62
   256
 51
90.0
 52
90.0
 71
     2
 49
0.5
 62
   256
  6
BYLAYER
 49
-0.5
 62
   256
  6
BYLAYER
  0
ACDBPLACEHOLDER
  5
F
102
{ACAD_REACTORS
330
E
102
}
330
E
  0
SCALE
  5
4214
102
{ACAD_REACTORS
330
4213
102
}
330
4213
100
AcDbScale
 70
     0
300
1:1
140
1.0
141
1.0
290
     1
  0
SCALE
  5
4215
102
{ACAD_REACTORS
330
4213
102
}
330
4213
100
AcDbScale
 70
     0
300
1:2
140
1.0
141
2.0
290
     0
  0
SCALE
  5
4216
102
{ACAD_REACTORS
330
4213
102
}
330
4213
100
AcDbScale
 70
     0
300
1:4
140
1.0
141
4.0
290
     0
  0
SCALE
  5
4217
102
{ACAD_REACTORS
330
4213
102
}
330
4213
100
AcDbScale
 70
     0
300
1:5
140
1.0
141
5.0
290
     0
  0
SCALE
  5
4218
102
{ACAD_REACTORS
330
4213
102
}
330
4213
100
AcDbScale
 70
     0
300
1:8
140
1.0
141
8.0
290
     0
  0
SCALE
  5
4219
102
{ACAD_REACTORS
330
4213
102
}
330
4213
100
AcDbScale
 70
     0
300
1:10
140
1.0
141
10.0
290
     0
  0
SCALE
  5
421A
102
{ACAD_REACTORS
330
4213
102
}
330
4213
100
AcDbScale
 70
     0
300
1:16
140
1.0
141
16.0
290
     0
  0
SCALE
  5
421B
102
{ACAD_REACTORS
330
4213
102
}
330
4213
100
AcDbScale
 70
     0
300
1:20
140
1.0
141
20.0
290
     0
  0
SCALE
  5
421C
102
{ACAD_REACTORS
330
4213
102
}
330
4213
100
AcDbScale
 70
     0
300
1:30
140
1.0
141
30.0
290
     0
  0
SCALE
  5
421D
102
{ACAD_REACTORS
330
4213
102
}
330
4213
100
AcDbScale
 70
     0
300
1:40
140
1.0
141
40.0
290
     0
  0
SCALE
  5
421E
102
{ACAD_REACTORS
330
4213
102
}
330
4213
100
AcDbScale
 70
     0
300
1:50
140
1.0
141
50.0
290
     0
  0
SCALE
  5
421F
102
{ACAD_REACTORS
330
4213
102
}
330
4213
100
AcDbScale
 70
     0
300
1:100
140
1.0
141
100.0
290
     0
  0
SCALE
  5
4220
102
{ACAD_REACTORS
330
4213
102
}
330
4213
100
AcDbScale
 70
     0
300
2:1
140
2.0
141
1.0
290
     0
  0
SCALE
  5
4221
102
{ACAD_REACTORS
330
4213
102
}
330
4213
100
AcDbScale
 70
     0
300
4:1
140
4.0
141
1.0
290
     0
  0
SCALE
  5
4222
102
{ACAD_REACTORS
330
4213
102
}
330
4213
100
AcDbScale
 70
     0
300
8:1
140
8.0
141
1.0
290
     0
  0
SCALE
  5
4223
102
{ACAD_REACTORS
330
4213
102
}
330
4213
100
AcDbScale
 70
     0
300
10:1
140
10.0
141
1.0
290
     0
  0
SCALE
  5
4224
102
{ACAD_REACTORS
330
4213
102
}
330
4213
100
AcDbScale
 70
     0
300
100:1
140
100.0
141
1.0
290
     0
  0
SCALE
  5
4225
102
{ACAD_REACTORS
330
4213
102
}
330
4213
100
AcDbScale
 70
     0
300
1/128" = 1'-0"
140
0.0078125
141
12.0
290
     0
  0
SCALE
  5
4226
102
{ACAD_REACTORS
330
4213
102
}
330
4213
100
AcDbScale
 70
     0
300
1/64" = 1'-0"
140
0.015625
141
12.0
290
     0
  0
SCALE
  5
4227
102
{ACAD_REACTORS
330
4213
102
}
330
4213
100
AcDbScale
 70
     0
300
1/32" = 1'-0"
140
0.03125
141
12.0
290
     0
  0
SCALE
  5
4228
102
{ACAD_REACTORS
330
4213
102
}
330
4213
100
AcDbScale
 70
     0
300
1/16" = 1'-0"
140
0.0625
141
12.0
290
     0
  0
SCALE
  5
4229
102
{ACAD_REACTORS
330
4213
102
}
330
4213
100
AcDbScale
 70
     0
300
3/32" = 1'-0"
140
0.09375
141
12.0
290
     0
  0
SCALE
  5
422A
102
{ACAD_REACTORS
330
4213
102
}
330
4213
100
AcDbScale
 70
     0
300
1/8" = 1'-0"
140
0.125
141
12.0
290
     0
  0
SCALE
  5
422B
102
{ACAD_REACTORS
330
4213
102
}
330
4213
100
AcDbScale
 70
     0
300
3/16" = 1'-0"
140
0.1875
141
12.0
290
     0
  0
SCALE
  5
422C
102
{ACAD_REACTORS
330
4213
102
}
330
4213
100
AcDbScale
 70
     0
300
1/4" = 1'-0"
140
0.25
141
12.0
290
     0
  0
SCALE
  5
422D
102
{ACAD_REACTORS
330
4213
102
}
330
4213
100
AcDbScale
 70
     0
300
3/8" = 1'-0"
140
0.375
141
12.0
290
     0
  0
SCALE
  5
422E
102
{ACAD_REACTORS
330
4213
102
}
330
4213
100
AcDbScale
 70
     0
300
1/2" = 1'-0"
140
0.5
141
12.0
290
     0
  0
SCALE
  5
422F
102
{ACAD_REACTORS
330
4213
102
}
330
4213
100
AcDbScale
 70
     0
300
3/4" = 1'-0"
140
0.75
141
12.0
290
     0
  0
SCALE
  5
4230
102
{ACAD_REACTORS
330
4213
102
}
330
4213
100
AcDbScale
 70
     0
300
1" = 1'-0"
140
1.0
141
12.0
290
     0
  0
SCALE
  5
4231
102
{ACAD_REACTORS
330
4213
102
}
330
4213
100
AcDbScale
 70
     0
300
1-1/2" = 1'-0"
140
1.5
141
12.0
290
     0
  0
SCALE
  5
4232
102
{ACAD_REACTORS
330
4213
102
}
330
4213
100
AcDbScale
 70
     0
300
3" = 1'-0"
140
3.0
141
12.0
290
     0
  0
SCALE
  5
4233
102
{ACAD_REACTORS
330
4213
102
}
330
4213
100
AcDbScale
 70
     0
300
6" = 1'-0"
140
6.0
141
12.0
290
     0
  0
SCALE
  5
4234
102
{ACAD_REACTORS
330
4213
102
}
330
4213
100
AcDbScale
 70
     0
300
1'-0" = 1'-0"
140
12.0
141
12.0
290
     0
  0
TABLESTYLE
  5
4BB
102
{ACAD_XDICTIONARY
360
4242
102
}
102
{ACAD_REACTORS
330
4BA
102
}
330
4BA
100
AcDbTableStyle
  3
Standard
 70
     0
 71
     0
 40
0.06
 41
0.06
280
     0
281
     0
  7
Standard
140
0.18
170
     2
 62
     0
 63
     7
283
     0
274
    -2
284
     1
 64
     0
275
    -2
285
     1
 65
     0
276
    -2
286
     1
 66
     0
277
    -2
287
     1
 67
     0
278
    -2
288
     1
 68
     0
279
    -2
289
     1
 69
     0
  7
Standard
140
0.25
170
     5
 62
     0
 63
     7
283
     0
274
    -2
284
     1
 64
     0
275
    -2
285
     1
 65
     0
276
    -2
286
     1
 66
     0
277
    -2
287
     1
 67
     0
278
    -2
288
     1
 68
     0
279
    -2
289
     1
 69
     0
  7
Standard
140
0.18
170
     5
 62
     0
 63
     7
283
     0
274
    -2
284
     1
 64
     0
275
    -2
285
     1
 65
     0
276
    -2
286
     1
 66
     0
277
    -2
287
     1
 67
     0
278
    -2
288
     1
 68
     0
279
    -2
289
     1
 69
     0
  0
VISUALSTYLE
  5
2F
102
{ACAD_XDICTIONARY
360
49A
102
}
102
{ACAD_REACTORS
330
2A
102
}
330
2A
100
AcDbVisualStyle
  2
2dWireframe
 70
     4
 71
     0
 72
     2
 73
     0
 90
        0
 40
-0.6
 41
-30.0
 62
     5
 63
     7
 74
     1
 91
        4
 64
     7
 65
   257
 75
     1
175
     1
 42
1.0
 92
        0
 66
   257
 43
1.0
 76
     1
 77
     6
 78
     2
 67
     7
 79
     5
170
     0
171
     0
290
     0
174
     0
 93
        1
 44
0.0
173
     0
291
     0
 45
0.0
1001
ACAD
1000
AcDbSavedByObjectVersion
1070
     0
  0
VISUALSTYLE
  5
A47
102
{ACAD_REACTORS
330
2A
102
}
330
2A
100
AcDbVisualStyle
  2
3D Hidden
 70
     6
 71
     1
 72
     2
 73
     2
 90
        0
 40
-0.6
 41
-30.0
 62
     5
 63
     7
 74
     2
 91
        2
 64
     7
 65
   257
 75
     2
175
     1
 42
40.0
 92
        0
 66
   257
 43
1.0
 76
     1
 77
     6
 78
     2
 67
     7
 79
     3
170
     0
171
     0
290
     0
174
     0
 93
        1
 44
0.0
173
     0
291
     0
 45
0.0
1001
ACAD
1000
AcDbSavedByObjectVersion
1070
     0
  0
VISUALSTYLE
  5
A48
102
{ACAD_XDICTIONARY
360
A49
102
}
102
{ACAD_REACTORS
330
2A
102
}
330
2A
100
AcDbVisualStyle
  2
3dWireframe
 70
     5
 71
     0
 72
     2
 73
     0
 90
        0
 40
-0.6
 41
-30.0
 62
     5
 63
     7
 74
     1
 91
        4
 64
     7
 65
   257
 75
     1
175
     1
 42
1.0
 92
        0
 66
   257
 43
1.0
 76
     1
 77
     6
 78
     2
 67
     7
 79
     5
170
     0
171
     0
290
     0
174
     0
 93
        1
 44
0.0
173
     0
291
     0
 45
0.0
1001
ACAD
1000
AcDbSavedByObjectVersion
1070
     0
  0
VISUALSTYLE
  5
32
102
{ACAD_XDICTIONARY
360
4A0
102
}
102
{ACAD_REACTORS
330
2A
102
}
330
2A
100
AcDbVisualStyle
  2
Basic
 70
     7
 71
     1
 72
     0
 73
     1
 90
        0
 40
-0.6
 41
-30.0
 62
     5
 63
     7
 74
     0
 91
        4
 64
     7
 65
   257
 75
     1
175
     1
 42
1.0
 92
        8
 66
     7
 43
1.0
 76
     1
 77
     6
 78
     2
 67
     7
 79
     5
170
     0
171
     0
290
     0
174
     0
 93
        1
 44
0.0
173
     0
291
     1
 45
0.0
1001
ACAD
1000
AcDbSavedByObjectVersion
1070
     0
  0
VISUALSTYLE
  5
36
102
{ACAD_XDICTIONARY
360
4A8
102
}
102
{ACAD_REACTORS
330
2A
102
}
330
2A
100
AcDbVisualStyle
  2
Brighten
 70
    12
 71
     2
 72
     2
 73
     0
 90
        0
 40
-0.6
 41
-30.0
 62
     5
 63
     7
 74
     1
 91
        4
 64
     7
 65
   257
 75
     1
175
     1
 42
1.0
 92
        8
 66
     7
 43
1.0
 76
     1
 77
     6
 78
     2
 67
     7
 79
     5
170
     0
171
     0
290
     0
174
     0
 93
        1
 44
50.0
173
     0
291
     1
 45
0.0
1001
ACAD
1000
AcDbSavedByObjectVersion
1070
     0
  0
VISUALSTYLE
  5
3A
102
{ACAD_XDICTIONARY
360
4B0
102
}
102
{ACAD_REACTORS
330
2A
102
}
330
2A
100
AcDbVisualStyle
  2
ColorChange
 70
    16
 71
     2
 72
     2
 73
     3
 90
        0
 40
-0.6
 41
-30.0
 62
     5
 63
     8
 74
     1
 91
        4
 64
     7
 65
   257
 75
     1
175
     1
 42
1.0
 92
        8
 66
     8
 43
1.0
 76
     1
 77
     6
 78
     2
 67
     7
 79
     5
170
     0
171
     0
290
     0
174
     0
 93
        1
 44
0.0
173
     0
291
     1
 45
0.0
1001
ACAD
1000
AcDbSavedByObjectVersion
1070
     0
  0
VISUALSTYLE
  5
A4B
102
{ACAD_REACTORS
330
2A
102
}
330
2A
100
AcDbVisualStyle
  2
Conceptual
 70
     9
 71
     3
 72
     2
 73
     0
 90
        0
 40
-0.6
 41
-30.0
 62
     5
 63
     7
 74
     2
 91
        2
 64
     7
 65
   257
 75
     1
175
     1
 42
40.0
 92
        8
 66
     7
 43
1.0
 76
     1
 77
     6
 78
     2
 67
     7
 79
     3
170
     0
171
     0
290
     0
174
     0
 93
        1
 44
0.0
173
     0
291
     0
 45
0.0
1001
ACAD
1000
AcDbSavedByObjectVersion
1070
     0
  0
VISUALSTYLE
  5
35
102
{ACAD_XDICTIONARY
360
4A6
102
}
102
{ACAD_REACTORS
330
2A
102
}
330
2A
100
AcDbVisualStyle
  2
Dim
 70
    11
 71
     2
 72
     2
 73
     0
 90
        0
 40
-0.6
 41
-30.0
 62
     5
 63
     7
 74
     1
 91
        4
 64
     7
 65
   257
 75
     1
175
     1
 42
1.0
 92
        8
 66
     7
 43
1.0
 76
     1
 77
     6
 78
     2
 67
     7
 79
     5
170
     0
171
     0
290
     0
174
     0
 93
        1
 44
-50.0
173
     0
291
     1
 45
0.0
1001
ACAD
1000
AcDbSavedByObjectVersion
1070
     0
  0
VISUALSTYLE
  5
39
102
{ACAD_XDICTIONARY
360
4AE
102
}
102
{ACAD_REACTORS
330
2A
102
}
330
2A
100
AcDbVisualStyle
  2
Facepattern
 70
    15
 71
     2
 72
     2
 73
     0
 90
        0
 40
-0.6
 41
-30.0
 62
     5
 63
     7
 74
     1
 91
        4
 64
     7
 65
   257
 75
     1
175
     1
 42
1.0
 92
        8
 66
     7
 43
1.0
 76
     1
 77
     6
 78
     2
 67
     7
 79
     5
170
     0
171
     0
290
     0
174
     0
 93
        1
 44
0.0
173
     0
291
     1
 45
0.0
1001
ACAD
1000
AcDbSavedByObjectVersion
1070
     0
  0
VISUALSTYLE
  5
2B
102
{ACAD_XDICTIONARY
360
492
102
}
102
{ACAD_REACTORS
330
2A
102
}
330
2A
100
AcDbVisualStyle
  2
Flat
 70
     0
 71
     2
 72
     1
 73
     1
 90
        2
 40
-0.6
 41
30.0
 62
     5
 63
     7
 74
     0
 91
        4
 64
     7
 65
   257
 75
     1
175
     1
 42
1.0
 92
        8
 66
     7
 43
1.0
 76
     1
 77
     6
 78
     2
 67
     7
 79
     5
170
     0
171
     0
290
     0
174
     0
 93
       13
 44
0.0
173
     0
291
     1
 45
0.0
1001
ACAD
1000
AcDbSavedByObjectVersion
1070
     0
  0
VISUALSTYLE
  5
2C
102
{ACAD_XDICTIONARY
360
494
102
}
102
{ACAD_REACTORS
330
2A
102
}
330
2A
100
AcDbVisualStyle
  2
FlatWithEdges
 70
     1
 71
     2
 72
     1
 73
     1
 90
        2
 40
-0.6
 41
30.0
 62
     5
 63
     7
 74
     1
 91
        4
 64
     7
 65
   257
 75
     1
175
     1
 42
1.0
 92
        0
 66
   257
 43
1.0
 76
     1
 77
     6
 78
     2
 67
     7
 79
     5
170
     0
171
     0
290
     0
174
     0
 93
       13
 44
0.0
173
     0
291
     1
 45
0.0
1001
ACAD
1000
AcDbSavedByObjectVersion
1070
     0
  0
VISUALSTYLE
  5
2D
102
{ACAD_XDICTIONARY
360
496
102
}
102
{ACAD_REACTORS
330
2A
102
}
330
2A
100
AcDbVisualStyle
  2
Gouraud
 70
     2
 71
     2
 72
     2
 73
     1
 90
        2
 40
-0.6
 41
30.0
 62
     5
 63
     7
 74
     0
 91
        4
 64
     7
 65
   257
 75
     1
175
     1
 42
1.0
 92
        0
 66
     7
 43
1.0
 76
     1
 77
     6
 78
     2
 67
     7
 79
     5
170
     0
171
     0
290
     0
174
     0
 93
       13
 44
0.0
173
     0
291
     1
 45
0.0
1001
ACAD
1000
AcDbSavedByObjectVersion
1070
     0
  0
VISUALSTYLE
  5
2E
102
{ACAD_XDICTIONARY
360
498
102
}
102
{ACAD_REACTORS
330
2A
102
}
330
2A
100
AcDbVisualStyle
  2
GouraudWithEdges
 70
     3
 71
     2
 72
     2
 73
     1
 90
        2
 40
-0.6
 41
30.0
 62
     5
 63
     7
 74
     1
 91
        4
 64
     7
 65
   257
 75
     1
175
     1
 42
1.0
 92
        0
 66
   257
 43
1.0
 76
     1
 77
     6
 78
     2
 67
     7
 79
     5
170
     0
171
     0
290
     0
174
     0
 93
       13
 44
0.0
173
     0
291
     1
 45
0.0
1001
ACAD
1000
AcDbSavedByObjectVersion
1070
     0
  0
VISUALSTYLE
  5
38
102
{ACAD_XDICTIONARY
360
4AC
102
}
102
{ACAD_REACTORS
330
2A
102
}
330
2A
100
AcDbVisualStyle
  2
Linepattern
 70
    14
 71
     2
 72
     2
 73
     0
 90
        0
 40
-0.6
 41
-30.0
 62
     5
 63
     7
 74
     1
 91
        4
 64
     7
 65
   257
 75
     7
175
     7
 42
1.0
 92
        8
 66
     7
 43
1.0
 76
     1
 77
     6
 78
     2
 67
     7
 79
     5
170
     0
171
     0
290
     0
174
     0
 93
        1
 44
0.0
173
     0
291
     1
 45
0.0
1001
ACAD
1000
AcDbSavedByObjectVersion
1070
     0
  0
VISUALSTYLE
  5
A4C
102
{ACAD_XDICTIONARY
360
A4D
102
}
102
{ACAD_REACTORS
330
2A
102
}
330
2A
100
AcDbVisualStyle
  2
Realistic
 70
     8
 71
     2
 72
     2
 73
     0
 90
        0
 40
-0.6
 41
-30.0
 62
     5
 63
     7
 74
     1
 91
        0
 64
     7
 65
   257
 75
     1
175
     1
 42
1.0
 92
        8
 66
     8
 43
1.0
 76
     1
 77
     6
 78
     2
 67
     7
 79
     5
170
     0
171
     0
290
     0
174
     0
 93
       13
 44
0.0
173
     0
291
     0
 45
0.0
1001
ACAD
1000
AcDbSavedByObjectVersion
1070
     0
  0
VISUALSTYLE
  5
37
102
{ACAD_XDICTIONARY
360
4AA
102
}
102
{ACAD_REACTORS
330
2A
102
}
330
2A
100
AcDbVisualStyle
  2
Thicken
 70
    13
 71
     2
 72
     2
 73
     0
 90
        0
 40
-0.6
 41
-30.0
 62
     5
 63
     7
 74
     1
 91
        4
 64
     7
 65
   257
 75
     1
175
     1
 42
1.0
 92
       12
 66
     7
 43
1.0
 76
     1
 77
     6
 78
     2
 67
     7
 79
     5
170
     0
171
     0
290
     0
174
     0
 93
        1
 44
0.0
173
     0
291
     1
 45
0.0
1001
ACAD
1000
AcDbSavedByObjectVersion
1070
     0
  0
DICTIONARYVAR
  5
4247
102
{ACAD_REACTORS
330
487
102
}
330
487
100
DictionaryVariables
280
     0
  1
1:1
  0
DICTIONARYVAR
  5
4245
102
{ACAD_REACTORS
330
487
102
}
330
487
100
DictionaryVariables
280
     0
  1
STANDARD
  0
DICTIONARYVAR
  5
5FE
102
{ACAD_REACTORS
330
487
102
}
330
487
100
DictionaryVariables
280
     0
  1
STANDARD
  0
DICTIONARYVAR
  5
48A
102
{ACAD_REACTORS
330
487
102
}
330
487
100
DictionaryVariables
280
     0
  1
2
  0
DICTIONARYVAR
  5
48B
102
{ACAD_REACTORS
330
487
102
}
330
487
100
DictionaryVariables
280
     0
  1
1
  0
DICTIONARYVAR
  5
86B
102
{ACAD_REACTORS
330
487
102
}
330
487
100
DictionaryVariables
280
     0
  1
0
  0
DICTIONARYVAR
  5
4248
102
{ACAD_REACTORS
330
487
102
}
330
487
100
DictionaryVariables
280
     0
  1
0
  0
DICTIONARYVAR
  5
4246
102
{ACAD_REACTORS
330
487
102
}
330
487
100
DictionaryVariables
280
     0
  1
0
  0
DICTIONARYVAR
  5
86A
102
{ACAD_REACTORS
330
487
102
}
330
487
100
DictionaryVariables
280
     0
  1
127
  0
DICTIONARY
  5
7D4
330
1E
100
AcDbDictionary
280
     1
281
     1
  3
ADSK_XREC_LAYOUTTHUMBNAIL
360
7D5
  0
DICTIONARY
  5
4810
330
3D
100
AcDbDictionary
280
     1
281
     1
  3
ACAD_XREC_ROUNDTRIP
360
4811
  0
DICTIONARY
  5
480E
330
3C
100
AcDbDictionary
280
     1
281
     1
  3
ACAD_XREC_ROUNDTRIP
360
480F
  0
DICTIONARY
  5
4812
330
3E
100
AcDbDictionary
280
     1
281
     1
  3
ACAD_XREC_ROUNDTRIP
360
4813
  0
DICTIONARY
  5
4242
330
4BB
100
AcDbDictionary
280
     1
281
     1
  3
ACAD_ROUNDTRIP_2008_TABLESTYLE_CELLSTYLEMAP
360
480D
  3
ACAD_XREC_ROUNDTRIP
360
4814
  0
DICTIONARY
  5
49A
330
2F
100
AcDbDictionary
280
     1
281
     1
  3
ACAD_XREC_ROUNDTRIP
360
49B
  0
DICTIONARY
  5
A49
330
A48
100
AcDbDictionary
280
     1
281
     1
  3
ACAD_XREC_ROUNDTRIP
360
A4A
  0
DICTIONARY
  5
4A0
330
32
100
AcDbDictionary
280
     1
281
     1
  3
ACAD_XREC_ROUNDTRIP
360
4A1
  0
DICTIONARY
  5
4A8
330
36
100
AcDbDictionary
280
     1
281
     1
  3
ACAD_XREC_ROUNDTRIP
360
4A9
  0
DICTIONARY
  5
4B0
330
3A
100
AcDbDictionary
280
     1
281
     1
  3
ACAD_XREC_ROUNDTRIP
360
4B1
  0
DICTIONARY
  5
4A6
330
35
100
AcDbDictionary
280
     1
281
     1
  3
ACAD_XREC_ROUNDTRIP
360
4A7
  0
DICTIONARY
  5
4AE
330
39
100
AcDbDictionary
280
     1
281
     1
  3
ACAD_XREC_ROUNDTRIP
360
4AF
  0
DICTIONARY
  5
492
330
2B
100
AcDbDictionary
280
     1
281
     1
  3
ACAD_XREC_ROUNDTRIP
360
493
  0
DICTIONARY
  5
494
330
2C
100
AcDbDictionary
280
     1
281
     1
  3
ACAD_XREC_ROUNDTRIP
360
495
  0
DICTIONARY
  5
496
330
2D
100
AcDbDictionary
280
     1
281
     1
  3
ACAD_XREC_ROUNDTRIP
360
497
  0
DICTIONARY
  5
498
330
2E
100
AcDbDictionary
280
     1
281
     1
  3
ACAD_XREC_ROUNDTRIP
360
499
  0
DICTIONARY
  5
4AC
330
38
100
AcDbDictionary
280
     1
281
     1
  3
ACAD_XREC_ROUNDTRIP
360
4AD
  0
DICTIONARY
  5
A4D
330
A4C
100
AcDbDictionary
280
     1
281
     1
  3
ACAD_XREC_ROUNDTRIP
360
A4E
  0
DICTIONARY
  5
4AA
330
37
100
AcDbDictionary
280
     1
281
     1
  3
ACAD_XREC_ROUNDTRIP
360
4AB
  0
XRECORD
  5
7D5
102
{ACAD_REACTORS
330
7D4
102
}
330
7D4
100
AcDbXrecord
280
     1
310
28000000B40000007F00000001000800000000004C59000000000000000000000001000000000000FFFFFF0000000000FFFFFF000000000000000000000000000000000000000000000000000000000000000000330000006600000099000000CC000000FF00000000330000333300006633000099330000CC330000FF3300
310
0000660000336600006666000099660000CC660000FF66000000990000339900006699000099990000CC990000FF99000000CC000033CC000066CC000099CC0000CCCC0000FFCC000000FF000033FF000066FF000099FF0000CCFF0000FFFF000000003300330033006600330099003300CC003300FF003300003333003333
310
33006633330099333300CC333300FF33330000663300336633006666330099663300CC663300FF66330000993300339933006699330099993300CC993300FF99330000CC330033CC330066CC330099CC3300CCCC3300FFCC330000FF330033FF330066FF330099FF3300CCFF3300FFFF330000006600330066006600660099
310
006600CC006600FF00660000336600333366006633660099336600CC336600FF33660000666600336666006666660099666600CC666600FF66660000996600339966006699660099996600CC996600FF99660000CC660033CC660066CC660099CC6600CCCC6600FFCC660000FF660033FF660066FF660099FF6600CCFF6600
310
FFFF660000009900330099006600990099009900CC009900FF00990000339900333399006633990099339900CC339900FF33990000669900336699006666990099669900CC669900FF66990000999900339999006699990099999900CC999900FF99990000CC990033CC990066CC990099CC9900CCCC9900FFCC990000FF99
310
0033FF990066FF990099FF9900CCFF9900FFFF99000000CC003300CC006600CC009900CC00CC00CC00FF00CC000033CC003333CC006633CC009933CC00CC33CC00FF33CC000066CC003366CC006666CC009966CC00CC66CC00FF66CC000099CC003399CC006699CC009999CC00CC99CC00FF99CC0000CCCC0033CCCC0066CC
310
CC0099CCCC00CCCCCC00FFCCCC0000FFCC0033FFCC0066FFCC0099FFCC00CCFFCC00FFFFCC000000FF003300FF006600FF009900FF00CC00FF00FF00FF000033FF003333FF006633FF009933FF00CC33FF00FF33FF000066FF003366FF006666FF009966FF00CC66FF00FF66FF000099FF003399FF006699FF009999FF00CC
310
99FF00FF99FF0000CCFF0033CCFF0066CCFF0099CCFF00CCCCFF00FFCCFF0000FFFF0033FFFF0066FFFF0099FFFF00CCFFFF00FFFFFF00000000000D0D0D001A1A1A00282828003535350043434300505050005D5D5D006B6B6B00787878008686860093939300A1A1A100AEAEAE00BBBBBB00C9C9C900D6D6D600E4E4E400
310
F1F1F100FFFFFF0000000000000000000000000000000000000000000000000000000000000000000000000000000000E2E2E2E2E2E2E2E2E2E2E2E2E2E2E2E2E2E2E2E2E2E2E2E2E2E2E2E2E2E2E2E2E2E2E2E2E2E2E2E2E2E2E2E2E2E2E2E2E2E2E2E2E2E2E2E2E2E2E2E2E2E2E2E2E2E2E2E2E2E2E2E2E2E2E2E2E2E2E2
310
E2E2E2E2E2E2E2E2E2E2E2E2E2E2E2E2E2E2E2E2E2E2E2E2E2E2E2E2E2E2E2E2E2E2E2E2E2E2E2E2E2E2E2E2E2E2E2E2E2E2E2E2E2E2E2E2E2E2E2E2E2E2E2E2E2E2E2E2E2E2E2E2E2E2E2E2E2E2E2E2E2E2E2E2E2E2E2E2E2E2E2E2E2E2E2E2E2E2E2E2E2E2F5F5F5F5F5F5F5F5F5F5F5F5F5F5F5F5F5F5F5F5F5F5F5F5F5
310
F5F5F5F5F5F5F5F5F5F5F5F5F5F5F5F5F5F5F5F5F5F5F5F5F5F5F5F5F5F5F5F5F5F5F5F5F5F5F5F5F5F5F5F5F5F5F5F5F5F5F5F5F5F5F5F5F5F5F5F5F5F5F5F5F5F5F5F5F5F5F5F5F5F5F5F5F5F5F5F5F5F5F5F5F5F5F5F5F5F5F5F5F5F5F5F5F5F5F5F5F5F5F5F5F5F5F5F5F5F5F5F5F5F5F5F5F5F5F5F5F5F5F5F5F5F5F5
310
F5F5F5F5F5F5F5F5F5F5F5F5F5F5F5F5F5F5F5F5F5F5F5F5F5E2E2E2F5E2E2E2E2E2E2E2E2E2E2E2E2E2E2E2E2E2E2E2E2E2E2E2E2E2E2E2E2E2E2E2E2E2E2E2E2E2E2E2E2E2E2E2E2E2E2E2E2E2E2E2E2E2E2E2E2E2E2E2E2E2E2E2E2E2E2E2E2E2E2E2E2E2E2E2E2E2E2E2E2E2E2E2E2E2E2E2E2E2E2E2E2E2E2E2E2E2E2
310
E2E2E2E2E2E2E2E2E2E2E2E2E2E2E2E2E2E2E2E2E2E2E2E2E2E2E2E2E2E2E2E2E2E2E2E2E2E2E2E2E2E2E2E2E2E2E2E2E2E2E2E2E2E2E2E2E2E2E2E2E2E2E2E2E2E2E2E2E2E2E2E2E2E2E2E2E2F5E2E2E2F5E2F5F5F5F5F5F5F5F5F5F5F5F5F5F5F5F5F5F5F5F5F5F5F5F5F5F5F5F5F5F5F5F5F5F5F5F5F5F5F5F5F5F5F5F5
310
F5F5F5F5F5F5F5F5F5F5F5F5F5F5F5F5F5F5F5F5F5F5F5F5F5F5F5F5F5F5F5F5F5F5F5F5F5F5F5F5F5F5F5F5F5F5F5F5F5F5F5F5F5F5F5F5F5F5F5F5F5F5F5F5F5F5F5F5F5F5F5F5F5F5F5F5F5F5F5F5F5F5F5F5F5F5F5F5F5F5F5F5F5F5F5F5F5F5F5F5F5F5F5F5F5F5F5F5F5F5F5F5F5F5F5F5F5F5F5F5F5F5F5F5F5F5F5
310
F5F5E2F5E2E2E2F5E2F5F5F5F5F5F5F5F5F5F5F5F5F5F5F5F5F5F5F5F5F5F5F5F5F5F5F5F5F5F5F5F5F5F5F5F5F5F5F5F5F5F5F5F5F5F5F5F5F5F5F5F5F5F5F5F5F5F5F5F5F5F5F5F5F5F5F5F5F5F5F5F5F5F5F5F5F5F5F5F5F5F5F5F5F5F5F5F5F5F5F5F5F5F5F5F5F5F5F5F5F5F5F5F5F5F5F5F5F5F5F5F5F5F5F5F5F5F5
310
F5F5F5F5F5F5F5F5F5F5F5F5F5F5F5F5F5F5F5F5F5F5F5F5F5F5F5F5F5F5F5F5F5F5F5F5F5F5F5F5F5F5F5F5F5F5F5F5F5F5F5F5F5F5F5E2F5E2E2E2F5E2F5F5F5F5F5F5F5F5F5F5F5F5F5F5F5F5F5F5F5F5F5F5F5F5F5F5F5F5F5F5F5F5F5F5F5F5F5F5F5F5F5F5F5F5F5F5F5F5F5F5F5F5F5F5F5F5F5F5F5F5F5F5F5F5F5
310
F5F5F5F5F5F5F5F5F5F5F5F5F5F5F5F5F5F5F5F5F5F5F5F5F5F5F5F5F5F5F5F5F5F5F5F5F5F5F5F5F5F5F5F5F5F5F5F5F5F5F5F5F5F5F5F5F5F5F5F5F5F5F5F5F5F5F5F5F5F5F5F5F5F5F5F5F5F5F5F5F5F5F5F5F5F5F5F5F5F5F5F5F5F5F5F5F5F5F5F5F5F5F5F5F5F5F5F5E2F5E2E2E2F5E2F5F5F5F5F5F5F5F5F5F5F5F5
310
F5F5F5F5F5F5F5F5F5F5F5F5F5F5F5F5F5F5F5F5F5F5F5F5F5F5F5F5F5F5F5F5F5F5F5F5F5F5F5F5F5F5F5F5F5F5F5F5F5F5F5F5F5F5F5F5F5F5F5F5F5F5F5F5F5F5F5F5F5F5F5F5F5F5F5F5F5F5F5F5F5F5F5F5F5F5F5F5F5F5F5F5F5F5F5F5F5F5F5F5F5F5F5F5F5F5F5F5F5F5F5F5F5F5F5F5F5F5F5F5F5F5F5F5F5F5F5
310
F5F5F5F5F5F5F5F5F5F5F5F5F5F5F5F5F5F5F5F5F5F5F5F5F5F5F5F5F5F5F5F5F5F5E2F5E2E2E2F5E2F5F5F5F5F5F5F5F5F5F5F5F5F5F5F5F5F5F5F5F5F5F5F5F5F5F5F5F5F5F5F5F5F5F5F5F5F5F5F5F5F5F5F5F5F5F5F5F5F5F5F5F5F5F5F5F5F5F5F5F5F5F5F5F5F5F5F5F5F5F5F5F5F5F5F5F5F5F5F5F5F5F5F5F5F5F5
310
F5F5F5F5F5F5F5F5F5F5F5F5F5F5F5F5F5F5F5F5F5F5F5F5F5F5F5F5F5F5F5F5F5F5F5F5F5F5F5F5F5F5F5F5F5F5F5F5F5F5F5F5F5F5F5F5F5F5F5F5F5F5F5F5F5F5F5F5F5F5F5F5F5F5F5F5F5F5F5F5F5F5F5F5F5F5F5E2F5E2E2E2F5E2F5F5F5F5F5F5F5F5F5F5F5F5F5F5F5F5F5F5F5F5F5F5F5F5F5F5F5F5F5F5F5F5F5
310
F5F5F5F5F5F5F5F5F5F5F5F5F5F5F5F5F5F5F5F5F5F5F5F5F5F5F5F5F5F5F5F5F5F5F5F5F5F5F5F5F5F5F5F5F5F5F5F5F5F5F5F5F5F5F5F5F5F5F5F5F5F5F5F5F5F5F5F5F5F5F5F5F5F5F5F5F5F5F5F5F5F5F5F5F5F5F5F5F5F5F5F5F5F5F5F5F5F5F5F5F5F5F5F5F5F5F5F5F5F5F5F5F5F5F5F5F5F5F5F5F5F5F5F5F5F5F5
310
F5F5F5F5F5F5F5F5F5F5F5F5F5E2F5E2E2E2F5E2F5F5F5F5F5F5F5F5F5F5F5F5F5F5F5F5F5F5F5F5F5F5F5F5F5F5F5F5F5F5F5F5F5F5F5F5F5F5F5F5F5F5F5F5F5F5F5F5F5F5F5F5F5F5F5F5F5F5F5F5F5F5F5F5F5F5F5F5F5F5F5F5F5F5F5F5F5F5F5F5F5F5F5F5F5F5F5F5F5F5F5F5F5F5F5F5F5F5F5F5F5F5F5F5F5F5F5
310
F5F5F5F5F5F5F5F5F5F5F5F5F5F5F5F5F5F5F5F5F5F5F5F5F5F5F5F5F5F5F5F5F5F5F5F5F5F5F5F5F5F5F5F5F5F5F5F5F5F5F5F5F5F5F5F5F5F5F5F5F5F5F5F5F5F5E2F5E2E2E2F5E2F5F5F5F5F5F5F5F5F5F5F5F5F5F5F5F5F5F5F5F5F5F5F5F5F5F5F5F5F5F5F5F5F5F5F5F5F5F5F5F5F5F5F5F5F5F5F5F5F5F5F5F5F5F5
310
F5F5F5F5F5F5F5F5F5F5F5F5F5F5F5F5F5F5F5F5F5F5F5F5F5F5F5F5F5F5F5F5F5F5F5F5F5F5F5F5F5F5F5F5F5F5F5F5F5F5F5F5F5F5F5F5F5F5F5F5F5F5F5F5F5F5F5F5F5F5F5F5F5F5F5F5F5F5F5F5F5F5F5F5F5F5F5F5F5F5F5F5F5F5F5F5F5F5F5F5F5F5F5F5F5F5F5F5F5F5F5F5F5F5F5F5F5F5F5E2F5E2E2E2F5E2F5
310
F5F5F5F5F5F5F5F5F5F5F5F5F5F5F5F5F5F5F5F5F5F5F5F5F5F5F5F5F5F5F5F5F5F5F5F5F5F5F5F5F5F5F5F5F5F5F5F5F5F5F5F5F5F5F5F5F5F5F5F5F5F5F5F5F5F5F5F5F5F5F5F5F5F5F5F5F5F5F5F5F5F5F5F5F5F5F5F5F5F5F5F5F5F5F5F5F5F5F5F5F5F5F5F5F5F5F5F5F5F5F5F5F5F5F5F5F5F5F5F5F5F5F5F5F5F5F5
310
F5F5F5F5F5F5F5F5F5F5F5F5F5F5F5F5F5F5F5F5F5F5F5F5F5F5F5F5F5F5F5F5F5F5F5F5F5F5F5F5F5F5F5F5F5E2F5E2E2E2F5E2F5F5F5F5F5F5F5F5F5F5F5F5F5F5F5F5F5F5F5F5F5F5F5F5F5F5F5F5F5F5F5F5F5F5F5F5F5F5F5F5F5F5F5F5F5F5F5F5F5F5F5F5F5F5F5F5F5F5F5F5F5F5F5F5F5F5F5F5F5F5F5F5F5F5F5
310
F5F5F5F5F5F5F5F5F5F5F5F5F5F5F5F5F5F5F5F5F5F5F5F5F5F5F5F5F5F5F5F5F5F5F5F5F5F5F5F5F5F5F5F5F5F5F5F5F5F5F5F5F5F5F5F5F5F5F5F5F5F5F5F5F5F5F5F5F5F5F5F5F5F5F5F5F5F5F5F5F5F5F5F5F5F5F5F5F5F5F5F5F5F5F5F5F5F5E2F5E2E2E2F5E2F5F5F5F5F5F5F5F5F5F5F5F5F5F5F5F5F5F5F5F5F5F5
310
F5F5F5F5F5F5F5F5F5F5F5F5F5F5F5F5F5F5F5F5F5F5F5F5F5F5F5F5F5F5F5F5F5F5F5F5F5F5F5F5F5F5F5F5F5F5F5F5F5F5F5F5F5F5F5F5F5F5F5F5F5F5F5F5F5F5F5F5F5F5F5F5F5F5F5F5F5F5F5F5F5F5F5F5F5F5F5F5F5F5F5F5F5F5F5F5F5F5F5F5F5F5F5F5F5F5F5F5F5F5F5F5F5F5F5F5F5F5F5F5F5F5F5F5F5F5F5
310
F5F5F5F5F5F5F5F5F5F5F5F5F5F5F5F5F5F5F5F5F5F5F5F5E2F5E2E2E2F5E2F5F5F5F5F5F5F5F5F5F5F5F5F5F5F5F5F5F5F5F5F5F5F5F5F5F5F5F5F5F5F5F5F5F5F5F5F5F5F5F5F5F5F5F5F5F5F5F5F5F5F5F5F5F5F5F5F5F5F5F5F5F5F5F5F5F5F5F5F5F5F5F5F5F5F5F5F5F5F5F5F5F5F5F5F5F5F5F5F5F5F5F5F5F5F5F5
310
F5F5F5F5F5F5F5F5F5F5F5F5F5F5F5F5F5F5F5F5F5F5F5F5F5F5F5F5F5F5F5F5F5F5F5F5F5F5F5F5F5F5F5F5F5F5F5F5F5F5F5F5F5F5F5F5F5F5F5F5F5F5F5F5F5F5F5F5F5F5F5F5F5F5F5F5F5E2F5E2E2E2F5E2F5F5F5F5F5F5F5F5F5F5F5F5F5F5F5F5F5F5F5F5F5F5F5F5F5F5F5F5F5F5F5F5F5F5F5F5F5F5F5F5F5F5F5
310
F5F5F5F5F5F5F5F5F5F5F5F5F5F5F5F5F5F5F5F5F5F5F5F5F5F5F5F5F5F5F5F5F5F5F5F5F5F5F5F5F5F5F5F5F5F5F5F5F5F5F5F5F5F5F5F5F5F5F5F5F5F5F5F5F5F5F5F5F5F5F5F5F5F5F5F5F5F5F5F5F5F5F5F5F5F5F5F5F5F5F5F5F5F5F5F5F5F5F5F5F5F5F5F5F5F5F5F5F5F5F5F5F5F5F5F5F5F5F5F5F5F5F5F5F5F5F5
310
F5F5F5E2F5E2E2E2F5E2F5F5F5F5F5F5F5F5F5F5F5F5F5F5F5F5F5F5F5F5F5F5F5F5F5F5F5F5F5F5F5F5F5F5F5F5F5F5F5F5F5F5F5F5F5F5F5F5F5F5F5F5F5F5F5F5F5F5F5F5F5F5F5F5F5F5F5F5F5F5F5F5F5F5F5F5F5F5F5F5F5F5F5F5F5F5F5F5F5F5F5F5F5F5F5F5F5F5F5F5F5F5F5F5F5F5F5F5F5F5F5F5F5F5F5F5F5
310
F5F5F5F5F5F5F5F5F5F5F5F5F5F5F5F5F5F5F5F5F5F5F5F5F5F5F5F5F5F5F5F5F5F5F5F5F5F5F5F5F5F5F5F5F5F5F5F5F5F5F5F5F5F5F5F5E2F5E2E2E2F5E2F5F5F5F5F5F5F5F5F5F5F5F5F5F5F5F5F5F5F5F5F5F5F5F5F5F5F5F5F5F5F5F5F5F5F5F5F5F5F5F5F5F5F5F5F5F5F5F5F5F5F5F5F5F5F5F5F5F5F5F5F5F5F5F5
310
F5F5F5F5F5F5F5F5F5F5F5F5F5F5F5F5F5F5F5F5F5F5F5F5F5F5F5F5F5F5F5F5F5F5F5F5F5F5F5F5F5F5F5F5F5F5F5F5F5F5F5F5F5F5F5F5F5F5F5F5F5F5F5F5F5F5F5F5F5F5F5F5F5F5F5F5F5F5F5F5F5F5F5F5F5F5F5F5F5F5F5F5F5F5F5F5F5F5F5F5F5F5F5F5F5F5F5F5F5E2F5E2E2E2F5E2F5F5F5F5F5F5F5F5F5F5F5
310
F5F5F5F5F5F5F5F5F5F5F5F5F5F5F5F5F5F5F5F5F5F5F5F5F5F5F5F5F5F5F5F5F5F5F5F5F5F5F5F5F5F5F5F5F5F5F5F5F5F5F5F5F5F5F5F5F5F5F5F5F5F5F5F5F5F5F5F5F5F5F5F5F5F5F5F5F5F5F5F5F5F5F5F5F5F5F5F5F5F5F5F5F5F5F5F5F5F5F5F5F5F5F5F5F5F5F5F5F5F5F5F5F5F5F5F5F5F5F5F5F5F5F5F5F5F5F5
310
F5F5F5F5F5F5F5F5F5F5F5F5F5F5F5F5F5F5F5F5F5F5F5F5F5F5F5F5F5F5F5F5F5F5F5E2F5E2E2E2F5E2F5F5F5F5F5F5F5F5F5F5F5F5F5F5F5F5F5F5F5F5F5F5F5F5F5F5F5F5F5F5F5F5F5F5F5F5F5F5F5F5F5F5F5F5F5F5F5F5F5F5F5F5F5F5F5F5F5F5F5F5F5F5F5F5F5F5F5F5F5F5F5F5F5F5F5F5F5F5F5F5F5F5F5F5F5
310
F5F5F5F5F5F5F5F5F5F5F5F5F5F5F5F5F5F5F5F5F5F5F5F5F5F5F5F5F5F5F5F5F5F5F5F5F5F5F5F5F5F5F5F5F5F5F5F5F5F5F5F5F5F5F5F5F5F5F5F5F5F5F5F5F5F5F5F5F5F5F5F5F5F5F5F5F5F5F5F5F5F5F5F5F5F5F5F5E2F5E2E2E2F5E2F5F5F5F5F5F5F5F5F5F5F5F5F5F5F5F5F5F5F5F5F5F5F5F5F5F5F5F5F5F5F5F5
310
F5F5F5F5F5F5F5F5F5F5F5F5F5F5F5F5F5F5F5F5F5F5F5F5F5F5F5F5F5F5F5F5F5F5F5F5F5F5F5F5F5F5F5F5F5F5F5F5F5F5F5F5F5F5F5F5F5F5F5F5F5F5F5F5F5F5F5F5F5F5F5F5F5F5F5F5F5F5F5F5F5F5F5F5F5F5F5F5F5F5F5F5F5F5F5F5F5F5F5F5F5F5F5F5F5F5F5F5F5F5F5F5F5F5F5F5F5F5F5F5F5F5F5F5F5F5F5
310
F5F5F5F5F5F5F5F5F5F5F5F5F5F5E2F5E2E2E2F5E2F5F5F5F5F5F5F5F5F5F5F5F5F5F5F5F5F5F5F5F5F5F5F5F5F5F5F5F5F5F5F5F5F5F5F5F5F5F5F5F5F5F5F5F5F5F5F5F5F5F5F5F5F5F5F5F5F5F5F5F5F5F5F5F5F5F5F5F5F5F5F5F5F5F5F5F5F5F5F5F5F5F5F5F5F5F5F5F5F5F5F5F5F5F5F5F5F5F5F5F5F5F5F5F5F5F5
310
F5F5F5F5F5F5F5F5F5F5F5F5F5F5F5F5F5F5F5F5F5F5F5F5F5F5F5F5F5F5F5F5F5F5F5F5F5F5F5F5F5F5F5F5F5F5F5F5F5F5F5F5F5F5F5F5F5F5F5F5F5F5F5F5F5F5F5E2F5E2E2E2F5E2F5F5F5F5F5F5F5F5F5F5F5F5F5F5F5F5F5F5F5F5F5F5F5F5F5F5F5F5F5F5F5F5F5F5F5F5F5F5F5F5F5F5F5F5F5F5F5F5F5F5F5F5F5
310
F5F5F5F5F5F5F5F5F5F5F5F5F5F5F5F5F5F5F5F5F5F5F5F5F5F5F5F5F5F5F5F5F5F5F5F5F5F5F5F5F5F5F5F5F5F5F5F5F5F5F5F5F5F5F5F5F5F5F5F5F5F5F5F5F5F5F5F5F5F5F5F5F5F5F5F5F5F5F5F5F5F5F5F5F5F5F5F5F5F5F5F5F5F5F5F5F5F5F5F5F5F5F5F5F5F5F5F5F5F5F5F5F5F5F5F5F5F5F5F5E2F5E2E2E2F5E2
310
F5F5F5F5F5F5F5F5F5F5F5F5F5F5F5F5F5F5F5F5F5F5F5F5F5F5F5F5F5F5F5F5F5F5F5F5F5F5F5F5F5F5F5F5F5F5F5F5F5F5F5F5F5F5F5F5F5F5F5F5F5F5F5F5F5F5F5F5F5F5F5F5F5F5F5F5F5F5F5F5F5F5F5F5F5F5F5F5F5F5F5F5F5F5F5F5F5F5F5F5F5F5F5F5F5F5F5F5F5F5F5F5F5F5F5F5F5F5F5F5F5F5F5F5F5F5F5
310
F5F5F5F5F5F5F5F5F5F5F5F5F5F5F5F5F5F5F5F5F5F5F5F5F5F5F5F5F5F5F5F5F5F5F5F5F5F5F5F5F5F5F5F5F5F5E2F5E2E2E2F5E2F5F5F5F5F5F5F5F5F5F5F5F5F5F5F5F5F5F5F5F5F5F5F5F5F5F5F5F5F5F5F5F5F5F5F5F5F5F5F5F5F5F5F5F5F5F5F5F5F5F5F5F5F5F5F5F5F5F5F5F5F5F5F5E2E2E2E2E2E2E2E2E2E2E2
310
E2E2E2E2E2E2E2E2E2E2E2E2E2E2E2E2E2E2E2E2E2E2E2E2E2E2E2E2E2E2E2E2E2E2F5F5F5F5F5F5F5F5F5F5F5F5F5F5F5F5F5F5F5F5F5F5F5F5F5F5F5F5F5F5F5F5F5F5F5F5F5F5F5F5F5F5F5F5F5F5F5F5F5F5F5F5F5F5F5F5F5F5F5F5F5F5F5F5F5E2F5E2E2E2F5E2F5F5F5F5F5F5F5F5F5F5F5F5F5F5F5F5F5F5F5F5F5
310
F5F5F5F5F5F5F5F5F5F5F5F5F5F5F5F5F5F5F5F5F5F5F5F5F5F5F5F5F5F5F5F5F5F5F5F5F5F5F5F5F5F5E2E2E2E2E2E2E2E2E2E2E2E2E2E2E2E2E2E2E2E2E2E2E2E2E2E2E2E2E2E2E2E2E2E2E2E2E2E2E2E2E2E2E2E2E2F5F5F5F5F5F5F5F5F5F5F5F5F5F5F5F5F5F5F5F5F5F5F5F5F5F5F5F5F5F5F5F5F5F5F5F5F5F5F5F5
310
F5F5F5F5F5F5F5F5F5F5F5F5F5F5F5F5F5F5F5F5F5F5F5F5F5E2F5E2E2E2F5E2F5F5F5F5F5F5F5F5F5F5F5F5F5F5F5F5F5F5F5F5F5F5F5F5F5F5F5F5F5F5F5F5F5F5F5F5F5F5F5F5F5F5F5F5F5F5F5F5F5F5F5F5F5F5F5F5F5F5F5F5F5F5F5E2E2E2E2E2E2E2E2E2E2E2E2E2E2E2E2E2E2E2E2E2E2E2E2E2E2E2E2E2E2E2E2
310
E2E2E2E2E2E2E2E2E2E2E2E2E2F5F5F5F5F5F5F5F5F5F5F5F5F5F5F5F5F5F5F5F5F5F5F5F5F5F5F5F5F5F5F5F5F5F5F5F5F5F5F5F5F5F5F5F5F5F5F5F5F5F5F5F5F5F5F5F5F5F5F5F5F5F5F5F5F5E2F5E2E2E2F5E2F5F5F5F5F5F5F5F5F5F5F5F5F5F5F5F5F5F5F5F5F5F5F5F5F5F5F5F5F5F5F5F5F5F5F5F5F5F5F5F5F5F5
310
F5F5F5F5F5F5F5F5F5F5F5F5F5F5F5F5F5F5F5F5F5E2E2E2E2E2E2E2E2E2E2E2E2E2E2E2E2E2E2E2E2E2E2E2E2E2E2E2E2E2E2E2E2E2E2E2E2E2E2E2E2E2E2E2E2E2F5F5F5F5F5F5F5F5F5F5F5F5F5F5F5F5F5F5F5F5F5F5F5F5F5F5F5F5F5F5F5F5F5F5F5F5F5F5F5F5F5F5F5F5F5F5F5F5F5F5F5F5F5F5F5F5F5F5F5F5F5
310
F5F5F5F5E2F5E2E2E2F5E2F5F5F5F5F5F5F5F5F5F5F5F5F5F5F5F5F5F5F5F5F5F5F5F5F5F5F5F5F5F5F5F5F5F5F5F5F5F5F5F5F5F5F5F5F5F5F5F5F5F5F5F5F5F5F5F5F5F5F5F5F5F5F5F5F5F5F5F5F5F5F5F5F5F5F5F5F5F5F5F5F5F5F5F5F5F5F5F5F5F5F5F5F5F5F5F5F5F5F5F5F5F5F5F5F5F5F5F5F5F5F5F5F5F5F5F5
310
F5F5F5F5F5F5F5F5F5F5F5F5F5F5F5F5F5F5F5F5F5F5F5F5F5F5F5F5F5F5F5F5F5F5F5F5F5F5F5F5F5F5F5F5F5F5F5F5F5F5F5F5F5F5F5F5F5E2F5E2E2E2F5E2F5F5F5F5F5F5F5F5F5F5F5F5F5F5F5F5F5F5F5F5F5F5F5F5F5F5F5F5F5F5F5F5F5F5F5F5F5F5F5F5F5F5F5F5F5F5F5F5F5F5F5F5F5F5F5F5F5F5F5F5F5F5F5
310
F5F5F5F5F5F5F5F5F5F5F5F5F5F5F5F5F5F5F5F5F5F5F5F5F5F5F5F5F5F5F5F5F5F5F5F5F5F5F5F5F5F5F5F5F5F5F5F5F5F5F5F5F5F5F5F5F5F5F5F5F5F5F5F5F5F5F5F5F5F5F5F5F5F5F5F5F5F5F5F5F5F5F5F5F5F5F5F5F5F5F5F5F5F5F5F5F5F5F5F5F5F5F5F5F5F5F5F5F5F5E2F5E2E2E2F5E2F5F5F5F5F5F5F5F5F5F5
310
F5F5F5F5F5F5F5F5F5F5F5F5F5F5F5F5F5F5F5F5F5F5F5F5F5F5F5F5F5F5F5F5F5F5F5F5F5F5F5F5F5F5F5F5F5F5E2BEF5F5F5F5F5F5F5F5F5F5F5F5F5F5F5F5F5F5F5F5F5F5F5F5F5F5F5F5F5F5F5F5F5F5F5F5F5F5F5F5F5F5F5F5F5F5F5F5F5F5F5F5F5F5F5F5F5F5F5F5F5F5F5F5F5F5F5F5F5F5F5F5F5F5F5F5F5F5F5
310
F5F5F5F5F5F5F5F5F5F5F5F5F5F5F5F5F5F5F5F5F5F5F5F5F5F5F5F5F5F5F5F5F5F5F5F5E2F5E2E2E2F5E2F5F5F5F5F5F5F5F5F5F5F5F5F5F5F5F5F5F5F5F5F5F5F5F5F5F5F5F5F5F5F5F5F5F5F5F5F5F5F5F5F5F5F5F5F5F5F5F5F5F5F5F5F5F5E2E2E2E2E2F5F5F5F5E2E2F5E2E2E2E2E2E2E2E2F5E2E2E2E2E2E2E2E2F5
310
E2E2E2E2E2E2E2E2F5E2E2E2E2E2E2E2E2F5E2E2E2E2E2E2E2E2F5E2E2E2E2E2E2E2E2F5E2E2E2E2E2E2E2E2F5E2E2E2E2E2E2E2F5F5F5F5F5F5F5F5F5F5F5F5F5F5F5F5F5F5F5F5F5F5F5F5F5F5F5F5F5F5F5F5F5F5F5F5F5E2F5E2E2E2F5E2F5F5F5F5F5F5F5F5F5F5F5F5F5F5F5F5F5F5F5F5F5F5F5F5F5F5F5F5F5F5F5
310
F5F5F5F5F5F5F5F5F5F5F5F5F5F5F5F5F5F5F5F5F5F5F5F5BEE2F5F5F5F5F5F5E2F5F5F5F5F5F5F5F5F5F5F5F5F5F5F5F5F5F5F5F5F5F5F5F5F5F5F5F5F5F5F5F5F5F5F5F5F5F5F5F5F5F5F5F5F5F5F5F5F5F5F5F5F5F5F5F5F5F5F5F5F5F5F5F5F5F5F5F5F5F5F5E2F5F5F5F5F5F5F5F5F5F5F5F5F5F5F5F5F5F5F5F5F5F5
310
F5F5F5F5F5F5F5F5F5F5F5F5F5F5F5E2F5E2E2E2F5E2F5F5F5F5F5F5F5F5F5F5F5F5F5F5F5F5F5F5F5F5F5F5F5F5F5F5F5F5F5F5F5F5F5F5F5F5F5F5F5F5F5F5F5F5F5F5F5F5F5F5F5F5F5F5F5F5E2F5F5F5F5F5F5E2F5F5F5F5F5F5F5F5F5F5F5F5F5F5F5F5F5F5F5F5F5F5F5F5F5F5F5F5F5F5F5F5F5F5F5F5F5F5F5F5F5
310
F5F5F5F5F5F5F5F5F5F5F5F5F5F5F5F5F5F5F5F5F5F5F5F5F5F5F5F5F5F5E2F5F5F5F5F5F5F5F5F5F5F5F5F5F5F5F5F5F5F5F5F5F5F5F5F5F5F5F5F5F5F5F5F5F5F5F5F5E2F5E2E2E2F5E2F5F5F5F5F5F5F5F5F5F5F5F5F5F5F5F5F5F5F5F5F5F5F5F5F5F5F5F5F5F5F5F5F5F5F5F5F5F5F5F5F5F5F5F5F5F5F5F5F5F5F5F5
310
F5F5F5F5E2F5F5F5F5F5F5E2F5F5F5F5F5F5F5F5F5F5F5F5F5F5F5F5F5F5F5F5F5F5F5F5F5F5F5F5F5F5F5F5F5F5F5F5F5F5F5F5F5F5F5F5F5F5F5F5F5F5F5F5F5F5F5F5F5F5F5F5F5F5F5F5F5F5F5F5F5F5F5E2F5F5F5F5F5F5F5F5F5F5F5F5F5F5F5F5F5F5F5F5F5F5F5F5F5F5F5F5F5F5F5F5F5F5F5F5F5E2F5E2E2E2F5
310
E2F5F5F5F5F5F5F5F5F5F5F5F5F5F5F5F5F5F5F5F5F5F5F5F5F5F5F5F5F5F5F5F5F5F5F5F5F5F5F5F5F5F5F5F5F5F5F5F5F5F5F5F5F5F5F5F5E2F5F5F5F5F5F5E2F5F5F5F5F5F5F5F5F5F5F5F5F5F5F5F5F5F5F5F5F5F5F5F5F5F5F5F5F5F5F5F5F5F5F5F5F5F5F5F5F5F5F5F5F5F5F5F5F5F5F5F5F5F5F5F5F5F5F5F5F5F5
310
F5F5F5F5F5F5F5F5F5E2F5F5F5F5F5F5F5F5F5F5F5F5F5F5F5F5F5F5F5F5F5F5F5F5F5F5F5F5F5F5F5F5F5F5F5F5F5E2F5E2E2E2F5E2F5F5F5F5F5F5F5F5F5F5F5F5F5F5F5F5F5F5F5F5F5F5F5F5F5F5F5F5F5F5F5F5F5F5F5F5F5F5F5F5F5F5F5F5F5F5F5F5F5F5F5F5F5F5F5F5E2F5F5F5F5F5F5E2F5F5F5F5F5F5F5F5F5
310
F5F5F5F5F5F5F5F5F5F5F5F5F5F5F5F5F5F5F5F5F5F5F5F5F5F5F5F5F5F5F5F5F5F5F5F5F5F5F5F5F5F5F5F5F5F5F5F5F5F5F5F5F5F5F5F5F5F5F5F5F5F5E2F5F5F5F5F5F5F5F5F5F5F5F5F5F5F5F5F5F5F5F5F5F5F5F5F5F5F5F5F5F5F5F5F5F5F5F5F5E2F5E2E2E2F5E2F5F5F5F5F5F5F5F5F5F5F5F5F5F5F5F5F5F5F5F5
310
F5F5F5F5F5F5F5F5F5F5F5F5F5F5F5F5F5F5F5F5F5F5F5F5F5F5F5F5F5F5F5F5F5F5F5F5E2F5F5F5F5F5F5E2F5F5F5F5F5F5F5F5F5F5F5F5F5F5F5F5F5F5F5F5F5F5F5F5F5F5F5F5F5F5F5F5F5F5F5F5F5F5F5F5F5F5F5F5F5F5F5F5F5F5F5F5F5F5F5F5F5F5F5F5F5F5F5F5F5F5F5F5F5F5F5E2F5F5F5F5F5F5F5F5F5F5F5
310
F5F5F5F5F5F5F5F5F5F5F5F5F5F5F5F5F5F5F5F5F5F5F5F5F5F5E2F5E2E2E2F5E2F5F5F5F5F5F5F5F5F5F5F5F5F5F5F5F5F5F5F5F5F5F5F5F5F5F5F5F5F5F5F5F5F5F5F5F5F5F5F5F5F5F5F5F5F5F5F5F5F5F5F5F5F5F5F5F5E2F5F5F5F5F5F5F5F5F5F5F5F5F5F5F5F5F5F5F5F5F5F5F5F5F5F5F5F5F5F5F5F5F5F5F5F5F5
310
F5F5F5F5F5F5F5F5F5F5F5F5F5F5F5F5F5F5F5F5F5F5F5F5F5F5F5F5F5F5F5F5F5F5F5F5F5F5F5F5F5F5F5F5F5F5F5F5F5F5F5F5F5F5F5F5F5F5F5F5F5F5F5F5F5F5F5F5F5F5F5F5F5F5F5F5F5F5F5E2F5E2E2E2F5E2F5F5F5F5F5F5F5F5F5F5F5F5F5F5F5F5F5F5F5F5F5F5F5F5F5F5F5F5F5F5F5F5F5F5F5F5F5F5F5F5F5
310
F5F5F5F5F5F5F5F5F5F5F5F5F5F5F5E2F5F5F5F5F5F5E2F5F5F5F5F5F5F5F5F5F5F5F5F5F5F5F5F5F5F5F5F5F5F5F5F5F5F5F5F5F5F5F5F5F5F5F5F5F5F5F5F5F5F5F5F5F5F5F5F5F5F5F5F5F5F5F5F5F5F5F5F5F5F5F5F5F5F5F5F5F5F5E2F5F5F5F5F5F5F5F5F5F5F5F5F5F5F5F5F5F5F5F5F5F5F5F5F5F5F5F5F5F5F5F5
310
F5F5F5F5F5E2F5E2E2E2F5E2F5F5F5F5F5F5F5F5F5F5F5F5F5F5F5F5F5F5F5F5F5F5F5F5F5F5F5F5F5F5F5F5F5F5F5F5F5F5F5F5F5F5F5F5F5F5F5F5F5F5F5F5F5F5F5F5E2F5F5F5F5F5F5E2F5F5F5F5F5F5F5F5F5F5F5F5F5F5F5F5F5F5F5F5F5F5F5F5F5F5F5F5F5F5F5F5F5F5F5F5F5F5F5F5F5F5F5F5F5F5F5F5F5F5F5
310
F5F5F5F5F5F5F5F5F5F5F5F5F5F5F5F5F5F5F5F5E2F5F5F5F5F5F5F5F5F5F5F5F5F5F5F5F5F5F5F5F5F5F5F5F5F5F5F5F5F5F5F5F5F5F5F5F5F5E2F5E2E2E2F5E2F5F5F5F5F5F5F5F5F5F5F5F5F5F5F5F5F5F5F5F5F5F5F5F5F5F5F5F5F5F5F5F5F5F5F5F5F5F5F5F5F5F5F5F5F5F5F5F5F5F5F5F5F5F5F5F5E2F5F5F5F5F5
310
F5E2F5F5F5F5F5F5F5F5F5F5F5F5F5F5F5F5F5F5F5F5F5F5F5F5F5F5F5F5F5F5F5F5F5F5F5F5F5F5F5F5F5F5F5F5F5F5F5F5F5F5F5F5F5F5F5F5F5F5F5F5F5F5F5F5F5F5F5F5F5F5F5E2F5F5F5F5F5F5F5F5F5F5F5F5F5F5F5F5F5F5F5F5F5F5F5F5F5F5F5F5F5F5F5F5F5F5F5F5F5E2F5E2E2E2F5E2F5F5F5F5F5F5F5F5F5
310
F5F5F5F5F5F5F5F5F5F5F5F5F5F5F5F5F5F5F5F5F5F5F5F5F5F5F5F5F5F5F5F5F5F5F5F5F5F5F5F5F5F5F5F5F5F5F5E2F5F5F5F5F5F5E2F5F5F5F5F5F5F5F5F5F5F5F5F5F5F5F5F5F5F5F5F5F5F5F5F5F5F5F5F5F5F5F5F5F5F5F5F5F5F5F5F5F5F5F5F5F5F5F5F5F5F5F5F5F5F5F5F5F5F5F5F5F5F5F5F5F5F5F5F5F5F5E2
310
F5F5F5F5F5F5F5F5F5F5F5F5F5F5F5F5F5F5F5F5F5F5F5F5F5F5F5F5F5F5F5F5F5F5F5F5F5E2F5E2E2E2F5E2F5F5F5F5F5F5F5F5F5F5F5F5F5F5F5F5F5F5F5F5F5F5F5F5F5F5F5F5F5F5F5F5F5F5F5F5F5F5F5F5F5F5F5F5F5F5F5F5F5F5F5F5F5F5F5F5E2F5F5F5F5F5F5E2F5F5F5F5F5F5F5F5F5F5F5F5F5F5F5F5F5F5F5
310
F5F5F5F5F5F5F5F5F5F5F5F5F5F5F5F5F5F5F5F5F5F5F5F5F5F5F5F5F5F5F5F5F5F5F5F5F5F5F5F5F5F5F5F5F5F5F5F5F5F5F5F5E2F5F5F5F5F5F5F5F5F5F5F5F5F5F5F5F5F5F5F5F5F5F5F5F5F5F5F5F5F5F5F5F5F5F5F5F5F5E2F5E2E2E2F5E2F5F5F5F5F5F5F5F5F5F5F5F5F5F5F5F5F5F5F5F5F5F5F5F5F5F5F5F5F5F5
310
F5F5F5F5F5F5F5F5F5F5F5F5F5F5F5F5F5F5F5F5F5F5F5F5F5F5E2F5F5F5F5F5F5E2F5F5F5F5F5F5F5F5F5F5F5F5F5F5F5F5F5F5F5F5F5F5F5F5F5F5F5F5F5F5F5F5F5F5F5F5F5F5F5F5F5F5F5F5F5F5F5F5F5F5F5F5F5F5F5F5F5F5F5F5F5F5F5F5F5F5F5F5F5F5F5E2F5F5F5F5F5F5F5F5F5F5F5F5F5F5F5F5F5F5F5F5F5
310
F5F5F5F5F5F5F5F5F5F5F5F5F5F5F5F5E2F5E2E2E2F5E2F5F5F5F5F5F5F5F5F5F5F5F5F5F5F5F5F5F5F5F5F5F5F5F5F5F5F5F5F5F5F5F5F5F5F5F5F5F5F5F5F5F5F5F5F5F5F5F5F5F5F5F5F5F5F5F5E2F5F5F5F5F5F5E2F5F5F5F5F5F5F5F5F5F5F5F5F5F5F5F5F5F5F5F5F5F5F5F5F5F5F5F5F5F5F5F5F5F5F5F5F5F5F5F5
310
F5F5F5F5F5F5F5F5F5F5F5F5F5F5F5F5F5F5F5F5F5F5F5F5F5F5F5F5F5F5F5E2F5F5F5F5F5F5F5F5F5F5F5F5F5F5F5F5F5F5F5F5F5F5F5F5F5F5F5F5F5F5F5F5F5F5F5F5F5E2F5E2E2E2F5E2F5F5F5F5F5F5F5F5F5F5F5F5F5F5F5F5F5F5F5F5F5F5F5F5F5F5F5F5F5F5F5F5F5F5F5F5F5F5F5F5F5F5F5F5F5F5F5F5F5F5F5
310
F5F5F5F5F5E2F5F5F5F5F5F5E2F5F5F5F5F5F5F5F5F5F5F5F5F5F5F5F5F5F5F5F5F5F5F5F5F5F5F5F5F5F5F5F5F5F5F5F5F5F5F5F5F5F5F5F5F5F5F5F5F5F5F5F5F5F5F5F5F5F5F5F5F5F5F5F5F5F5F5F5F5F5F5E2F5F5F5F5F5F5F5F5F5F5F5F5F5F5F5F5F5F5F5F5F5F5F5F5F5F5F5F5F5F5F5F5F5F5F5F5F5E2F5E2E2E2
310
F5E2F5F5F5F5F5F5F5F5F5F5F5F5F5F5F5F5F5F5F5F5F5F5F5F5F5F5F5F5F5F5F5F5F5F5F5F5F5F5F5F5F5F5F5F5F5F5F5F5F5F5F5F5F5F5F5F5E2F5F5F5F5F5F5F5F5F5F5F5F5F5F5F5F5F5F5F5F5F5F5F5F5F5F5F5F5F5F5F5F5F5F5F5F5F5F5F5F5F5F5F5F5F5F5F5F5F5F5F5F5F5F5F5F5F5F5F5F5F5F5F5F5F5F5F5F5
310
F5F5F5F5F5F5F5F5F5F5F5F5F5F5F5F5F5F5F5F5F5F5F5F5F5F5F5F5F5F5F5F5F5F5F5F5F5F5F5F5F5F5F5F5F5F5F5F5E2F5E2E2E2F5E2F5F5F5F5F5F5F5F5F5F5F5F5F5F5F5F5F5F5F5F5F5F5F5F5F5F5F5F5F5F5F5F5F5F5F5F5F5F5F5F5F5F5F5F5F5F5F5F5F5F5F5F5F5F5F5F5E2F5F5F5F5F5F5E2F5F5F5F5F5F5F5F5
310
F5F5F5F5F5F5F5F5F5E2E2E2E2E2E2E2E2E2E2E2E2E2E2E2E2E2E2E2E2E2E2E2E2E2E2E2E2E2E2E2E2E2E2E2E2E2E2F5F5F5F5F5F5F5F5F5F5F5F5F5F5F5F5E2F5F5F5F5F5F5F5F5F5F5F5F5F5F5F5F5F5F5F5F5F5F5F5F5F5F5F5F5F5F5F5F5F5F5F5F5F5E2F5E2E2E2F5E2F5F5F5F5F5F5F5F5F5F5F5F5F5F5F5F5F5F5F5
310
F5F5F5F5F5F5F5F5F5F5F5F5F5F5F5F5F5F5F5F5F5F5F5F5F5F5F5F5F5F5F5F5F5F5F5F5F5E2F5F5F5F5F5F5E2F5F5F5F5F5F5F5F5F5F5F5F5F5F5F5F5E2E2E2E2E2E2E2E2E2E2E2E2E2E2E2E2E2E2E2E2E2E2E2E2E2E2E2E2E2E2E2F5F5F5F5F5F5F5E2F5F5F5F5F5F5F5F5F5F5F5F5F5F5F5F5E2F5F5F5F5F5F5F5F5F5F5
310
F5F5F5F5F5F5F5F5F5F5F5F5F5F5F5F5F5F5F5F5F5F5F5F5F5F5F5E2F5E2E2E2F5E2F5F5F5F5F5F5F5F5F5F5F5F5F5F5F5F5F5F5F5F5F5F5F5F5F5F5F5F5F5F5F5F5F5F5F5F5F5F5F5F5F5F5F5F5F5F5F5F5F5F5F5F5F5F5F5F5E2F5F5F5F5F5F5E2F5F5F5F5F5F5F5F5F5F5F5F5F5F5F5F5E2E2E2F5F5F5F5F5F5F5F5F5F5
310
F5F5F5F5F5F5F5F5F5F5F5F5F5F5F5F5F5E2F5F5F5F5F5F5F5E2E2F5F5F5F5F5F5F5F5F5F5F5F5F5F5F5E2F5F5F5F5F5F5F5F5F5F5F5F5F5F5F5F5F5F5F5F5F5F5F5F5F5F5F5F5F5F5F5F5F5F5F5F5F5E2F5E2E2E2F5E2F5F5F5F5F5F5F5F5F5F5F5F5F5F5F5F5F5F5F5F5F5F5F5F5F5F5F5F5F5F5F5F5F5F5F5F5F5F5F5F5
310
F5F5F5F5F5F5F5F5F5F5F5F5F5F5F5F5E2F5F5F5F5F5F5E2F5F5F5F5F5F5F5F5F5F5F5F5F5F5F5F5E2E2E2F5F5F5F5F5F5F5F5F5F5F5F5F5F5F5F5F5F5F5F5F5F5F5F5F5F5F5E2E2E2E2F5F5F5F5F5E2F5F5F5F5F5F5F5F5F5F5F5F5F5F5F5E2F5F5F5F5F5F5F5F5F5F5F5F5F5F5F5F5F5F5F5F5F5F5F5F5F5F5F5F5F5F5F5
310
F5F5F5F5F5F5E2F5E2E2E2F5E2F5F5F5F5F5F5F5F5F5F5F5F5F5F5F5F5F5F5F5F5F5F5F5F5F5F5F5F5F5F5F5F5F5F5F5F5F5F5F5F5F5F5F5F5F5F5F5F5F5F5F5F5F5F5F5F5E2F5F5F5F5F5F5E2F5F5F5F5F5F5F5F5F5F5F5F5F5F5F5F5E2E2F5F5F5F5F5F5F5F5F5F5F5F5F5F5F5F5F5F5F5F5F5F5F5F5F5F5F5F5F5F5F5F5
310
E2F5F5F5F5E2F5F5F5F5F5F5F5F5F5F5F5F5F5F5F5E2F5F5F5F5F5F5F5F5F5F5F5F5F5F5F5F5F5F5F5F5F5F5F5F5F5F5F5F5F5F5F5F5F5F5F5F5F5E2F5E2E2E2F5E2F5F5F5F5F5F5F5F5F5F5F5F5F5F5F5F5F5F5F5F5F5F5F5F5F5F5F5F5F5F5F5F5F5F5F5F5F5F5F5F5F5F5F5F5F5F5F5F5F5F5F5F5F5F5F5F5E2F5F5F5F5
310
F5F5E2F5F5F5F5F5F5F5F5F5F5F5F5F5F5F5F5E2E2F5F5F5F5F5F5F5F5F5F5F5F5F5F5F5F5F5F5F5F5F5F5F5F5F5F5F5F5F5F5F5F5F5E2F5F5F5E2F5F5F5F5F5F5F5F5F5F5F5F5F5F5F5E2F5F5F5F5F5F5F5F5F5F5F5F5F5F5F5F5F5F5F5F5F5F5F5F5F5F5F5F5F5F5F5F5F5F5F5F5F5E2F5E2E2E2F5E2F5F5F5F5F5F5F5F5
310
F5F5F5F5F5F5F5F5F5F5F5F5F5F5F5F5F5F5F5F5F5F5F5F5F5F5F5F5F5F5F5F5F5F5F5F5F5F5F5F5F5F5F5F5F5F5F5F5E2F5F5F5F5F5F5E2F5F5F5F5F5F5F5F5F5F5F5F5F5F5F5F5E2E2F5F5F5F5F5F5F5F5F5F5F5F5F5F5F5F5F5F5F5F5F5F5F5F5F5F5F5F5F5F5F5F5F5E2F5F5F5E2F5F5F5F5F5F5F5F5F5F5F5F5F5F5F5
310
E2F5F5F5F5F5F5F5F5F5F5F5F5F5F5F5F5F5F5F5F5F5F5F5F5F5F5F5F5F5F5F5F5F5F5F5F5F5E2F5E2E2E2F5E2F5F5F5F5F5F5F5F5F5F5F5F5F5F5F5F5F5F5F5F5F5F5F5F5F5F5F5F5F5F5F5F5F5F5F5F5F5F5F5F5F5F5F5F5F5F5F5F5F5F5F5F5F5F5F5F5E2F5F5F5F5F5F5E2F5F5F5F5F5F5F5F5F5F5F5F5F5F5F5F5E2E2
310
F5F5F5F5F5F5F5F5F5F5F5F5F5F5F5F5F5F5F5F5F5F5F5F5F5F5F5F5F5F5F5F5F5E2F5F5F5E2F5F5F5F5F5F5F5F5F5F5F5F5F5F5F5E2F5F5F5F5F5F5F5F5F5F5F5F5F5F5F5F5F5F5F5F5F5F5F5F5F5F5F5F5F5F5F5F5F5F5F5F5F5E2F5E2E2E2F5E2F5F5F5F5F5F5F5F5F5F5F5F5F5F5F5F5F5F5F5F5F5F5F5F5F5F5F5F5F5
310
F5F5F5F5F5F5F5F5F5F5F5F5F5F5F5F5F5F5F5F5F5F5F5F5F5F5F5E2F5F5F5F5F5F5F5F5F5F5F5F5F5F5F5F5F5F5F5F5F5F5F5E2E2F5F5F5F5F5F5F5F5F5F5F5F5F5F5F5F5F5F5F5F5F5F5F5F5F5F5F5F5F5F5F5F5F5E2E2E2E2E2F5F5F5F5F5F5F5F5F5F5F5F5F5F5F5F5F5F5F5F5F5F5F5F5F5F5F5F5F5F5F5F5F5F5F5F5
310
F5F5F5F5F5F5F5F5F5F5F5F5F5F5F5F5F5E2F5E2E2E2F5E2F5F5F5F5F5F5F5F5F5F5F5F5F5F5F5F5F5F5F5F5F5F5F5F5F5F5F5F5F5F5F5F5F5F5F5F5F5F5F5F5F5F5F5F5F5F5F5F5F5F5F5F5F5F5F5F5E2F5F5F5F5F5F5E2F5F5F5F5F5F5F5F5F5F5F5F5F5F5F5F5E2E2F5F5F5F5F5F5F5F5F5F5F5F5F5F5F5F5F5F5F5F5F5
310
F5F5F5F5F5F5F5F5F5F5F5F5F5F5E2E2F5F5F5F5F5F5F5F5F5F5F5F5F5F5F5F5E2F5F5F5F5F5F5F5F5F5F5F5F5F5F5F5F5F5F5F5F5F5F5F5F5F5F5F5F5F5F5F5F5F5F5F5F5F5E2F5E2E2E2F5E2F5F5F5F5F5F5F5F5F5F5F5F5F5F5F5F5F5F5F5F5F5F5F5F5F5F5F5F5F5F5F5F5F5F5F5F5F5F5F5F5F5F5F5F5F5F5F5F5F5F5
310
F5F5F5F5F5F5E2F5F5F5F5F5F5E2F5F5F5F5F5F5F5F5F5F5F5F5F5F5F5F5E2E2F5F5F5F5F5F5F5F5F5F5F5F5F5F5F5F5F5F5F5F5F5F5F5F5F5F5F5F5F5F5F5F5F5F5F5E2E2F5F5F5F5F5F5F5F5F5F5F5F5F5F5F5F5E2F5F5F5F5F5F5F5F5F5F5F5F5F5F5F5F5F5F5F5F5F5F5F5F5F5F5F5F5F5F5F5F5F5F5F5F5F5E2F5E2E2
310
E2F5E2F5F5F5F5F5F5F5F5F5F5F5F5F5F5F5F5F5F5F5F5F5F5F5F5F5F5F5F5F5F5F5F5F5F5F5F5F5F5F5F5F5F5F5F5F5F5F5F5F5F5F5F5F5F5F5F5E2F5F5F5F5F5F5E2F5F5F5F5F5F5F5F5F5F5F5F5F5F5F5F5E2E2F5F5F5F5F5F5F5F5F5F5F5F5F5F5F5F5F5F5F5F5F5F5F5F5F5F5F5F5F5F5F5F5F5F5F5E2E2F5F5F5F5F5
310
F5F5F5F5F5F5F5F5F5F5F5E2F5F5F5F5F5F5F5F5F5F5F5F5F5F5F5F5F5F5F5F5F5F5F5F5F5F5F5F5F5F5F5F5F5F5F5F5F5E2F5E2E2E2F5E2F5F5F5F5F5F5F5F5F5F5F5F5F5F5F5F5F5F5F5F5F5F5F5F5F5F5F5F5F5F5F5F5F5F5F5F5F5F5F5F5F5F5F5F5F5F5F5F5F5F5F5F5F5F5F5F5E2F5F5F5F5F5F5E2F5F5F5F5F5F5F5
310
F5F5F5F5F5F5F5F5F5E2E2F5F5F5F5F5F5F5F5F5F5F5F5F5F5F5F5F5F5F5F5F5F5F5F5F5F5F5F5F5F5F5F5F5F5F5E2E2F5F5F5F5F5F5F5F5F5F5F5F5F5F5F5F5E2F5F5F5F5F5F5F5F5F5F5F5F5F5F5F5F5F5F5F5F5F5F5F5F5F5F5F5F5F5F5F5F5F5F5F5F5F5E2F5E2E2E2F5E2F5F5F5F5F5F5F5F5F5F5F5F5F5F5F5F5F5F5
310
F5F5F5F5F5F5F5F5F5F5F5F5F5F5F5F5F5F5F5F5F5F5F5F5F5F5F5F5F5F5F5F5F5F5F5F5F5F5E2F5F5F5F5F5F5E2F5F5F5F5F5F5F5F5F5F5F5F5F5F5F5F5E2E2F5F5F5F5F5F5F5F5F5F5F5F5F5F5F5F5F5F5F5F5F5F5F5F5F5F5F5F5F5F5F5F5F5F5F5E2E2F5F5F5F5F5F5F5F5F5F5F5F5F5F5F5F5E2F5F5F5F5F5F5F5F5F5
310
F5F5F5F5F5F5F5F5F5F5F5F5F5F5F5F5F5F5F5F5F5F5F5F5F5F5F5F5E2F5E2E2E2F5E2F5F5F5F5F5F5F5F5F5F5F5F5F5F5F5F5F5F5F5F5F5F5F5F5F5F5F5F5F5F5F5F5F5F5F5F5F5F5F5F5F5F5F5F5F5F5F5F5F5F5F5F5F5F5F5F5E2F5F5F5F5F5F5E2F5F5F5F5F5F5F5F5F5F5F5F5F5F5F5F5E2E2F5F5F5F5F5F5F5F5F5F5
310
F5F5F5F5F5F5F5F5F5F5F5F5F5F5F5F5F5F5F5F5F5F5F5F5F5E2E2F5F5F5F5F5F5F5F5F5F5F5F5F5F5F5F5E2F5F5F5F5F5F5F5F5F5F5F5F5F5F5F5F5F5F5F5F5F5F5F5F5F5F5F5F5F5F5F5F5F5F5F5F5F5E2F5E2E2E2F5E2F5F5F5F5F5F5F5F5F5F5F5F5F5F5F5F5F5F5F5F5F5F5F5F5F5F5F5F5F5F5F5F5F5F5F5F5F5F5F5
310
F5F5F5F5F5F5F5F5F5F5F5F5F5F5F5F5F5E2F5F5F5F5F5F5E2F5F5F5F5F5F5F5F5F5F5F5F5F5F5F5F5E2E2F5F5F5F5F5F5F5F5F5F5F5F5F5F5F5F5F5F5F5F5F5F5F5F5F5F5F5F5F5F5F5F5F5F5F5E2E2F5F5F5F5F5F5F5F5F5F5F5F5F5F5F5F5E2F5F5F5F5F5F5F5F5F5F5F5F5F5F5F5F5F5F5F5F5F5F5F5F5F5F5F5F5F5F5
310
F5F5F5F5F5F5F5E2F5E2E2E2F5E2F5F5F5F5F5F5F5F5F5F5F5F5F5F5F5F5F5F5F5F5F5F5F5F5F5F5F5F5F5F5F5F5F5F5F5F5F5F5F5F5F5F5F5F5F5F5F5F5F5F5F5F5F5F5F5F5E2F5F5F5F5F5F5E2F5F5F5F5F5F5F5F5F5F5F5F5F5F5F5F5E2E2F5F5F5F5F5F5F5F5F5F5F5F5F5F5F5F5F5F5F5F5F5F5F5F5F5F5F5F5F5F5F5
310
F5F5F5F5E2E2F5F5F5F5F5F5F5F5F5F5F5F5F5F5F5F5E2F5F5F5F5F5F5F5F5F5F5F5F5F5F5F5F5F5F5F5F5F5F5F5F5F5F5F5F5F5F5F5F5F5F5F5F5F5E2F5E2E2E2F5E2F5F5F5F5F5F5F5F5F5F5F5F5F5F5F5F5F5F5F5F5F5F5F5F5F5F5F5F5F5F5F5F5F5F5F5F5F5F5F5F5F5F5F5F5F5F5F5F5F5F5F5F5E2E2E2F5E2F5F5F5
310
F5F5F5F5F5F5F5F5F5F5F5F5F5F5F5F5F5F5F5F5E2E2F5F5F5F5F5F5F5F5F5F5F5F5F5F5F5F5F5F5F5F5F5F5F5F5F5F5F5F5F5F5F5F5F5F5F5E2E2F5F5F5F5F5F5F5F5F5F5F5F5F5F5F5F5F5F5F5F5F5F5F5F5F5F5F5F5F5F5F5F5F5F5F5F5F5F5F5F5F5F5F5F5F5F5F5F5F5F5F5F5F5F5E2F5E2E2E2F5E2F5F5F5F5F5F5F5
310
F5F5F5F5F5F5F5F5F5F5F5F5F5F5F5F5F5F5F5F5F5F5F5F5F5F5F5F5F5F5F5F5F5F5F5F5F5F5F5F5F5F5F5F5F5E2E2E2F5E2F5F5F5F5F5F5E2F5F5F5F5F5F5F5F5F5F5F5F5F5F5F5F5E2E2F5F5F5F5F5F5F5F5F5F5F5F5F5F5F5F5F5F5F5F5F5F5F5F5F5F5F5F5F5F5F5F5F5F5F5E2E2F5F5F5F5F5F5F5F5F5F5F5F5F5F5F5
310
F5E2F5F5F5F5F5F5F5F5F5F5F5F5F5F5F5F5F5F5F5F5F5F5F5F5F5F5F5F5F5F5F5F5F5F5F5F5F5E2F5E2E2E2F5E2F5F5F5F5F5F5F5F5F5F5F5F5F5F5F5F5F5F5F5F5F5F5F5F5F5F5F5F5F5F5F5F5F5F5F5F5F5F5F5F5F5F5F5F5F5F5F5F5F5F5F5F5E2E2E2F5E2F5F5F5F5F5F5E2F5F5F5F5F5F5F5F5F5F5F5F5F5F5F5F5E2
310
E2F5F5F5F5F5F5F5F5F5F5F5F5F5F5F5F5F5F5F5F5F5F5F5F5F5F5F5F5F5F5F5F5F5F5F5E2E2F5F5F5F5F5F5F5F5F5F5F5F5F5F5F5F5E2F5F5F5F5F5F5F5F5F5F5F5F5F5F5F5F5F5F5F5F5F5F5F5F5F5F5F5F5F5F5F5F5F5F5F5F5F5E2F5E2E2E2F5E2F5F5F5F5F5F5F5F5F5F5F5F5F5F5F5F5F5F5F5F5F5F5F5F5F5F5F5F5
310
F5F5F5F5F5F5F5F5F5F5F5F5F5F5F5F5F5F5F5F5F5F5F5F5E2E2E2F5E2F5F5F5F5F5F5E2F5F5F5F5F5F5F5F5F5F5F5F5F5F5F5F5E2E2F5F5F5F5F5F5F5F5F5F5F5F5F5F5F5F5F5F5F5F5F5F5F5F5F5F5F5F5F5F5F5F5F5F5F5E2E2F5F5F5F5F5F5F5F5F5F5F5F5F5F5F5F5E2F5F5F5F5F5F5F5F5F5F5F5F5F5F5F5F5F5F5F5
310
F5F5F5F5F5F5F5F5F5F5F5F5F5F5F5F5F5F5E2F5E2E2E2F5E2F5F5F5F5F5F5F5F5F5F5F5F5F5F5F5F5F5F5F5F5F5F5F5F5F5F5F5F5F5F5F5F5F5F5F5F5F5F5F5F5F5F5F5F5F5F5F5F5F5F5F5F5E2E2E2F5E2F5F5F5F5F5F5E2F5F5F5F5F5F5F5F5F5F5F5F5F5F5F5F5E2E2F5F5F5F5F5F5F5F5F5F5F5F5F5F5F5F5F5F5F5F5
310
F5F5F5F5F5F5F5F5F5F5F5F5F5F5F5E2E2F5F5F5F5F5F5F5F5F5F5F5F5F5F5F5F5E2F5F5F5F5F5F5F5F5F5F5F5F5F5F5F5F5F5F5F5F5F5F5F5F5F5F5F5F5F5F5F5F5F5F5F5F5F5E2F5E2E2E2F5E2F5F5F5F5F5F5F5F5F5F5F5F5F5F5F5F5F5F5F5F5F5F5F5F5F5F5F5F5F5F5F5F5F5F5F5F5F5F5F5F5F5F5F5F5F5F5F5F5F5
310
F5F5F5F5F5F5F5E2F5F5F5F5F5F5E2F5F5F5F5F5F5F5F5F5F5F5F5F5F5F5F5E2E2F5F5F5F5F5F5F5F5F5F5F5F5F5F5F5F5F5F5F5F5F5F5F5F5F5F5F5F5F5F5F5F5F5F5F5E2E2F5F5F5F5F5F5F5F5F5F5F5F5F5F5F5F5E2F5F5F5F5F5F5F5F5F5F5F5F5F5F5F5F5F5F5F5F5F5F5F5F5F5F5F5F5F5F5F5F5F5F5F5F5F5E2F5E2
310
E2E2F5E2F5F5F5F5F5F5F5F5F5F5F5F5F5F5F5F5F5F5F5F5F5F5F5F5F5F5F5F5F5F5F5F5F5F5F5F5F5F5F5F5F5F5F5F5F5F5F5F5F5F5F5F5F5F5F5F5E2F5F5F5F5F5F5E2F5F5F5F5F5F5F5F5F5F5F5F5F5F5F5F5E2E2F5F5F5F5F5F5F5F5F5F5F5F5F5F5F5F5F5F5F5F5F5F5F5F5F5F5F5F5F5F5F5F5F5F5F5E2E2F5F5F5F5
310
F5F5F5F5F5F5F5F5F5F5F5F5E2F5F5F5F5F5F5F5F5F5F5F5F5F5F5F5F5F5F5F5F5F5F5F5F5F5F5F5F5F5F5F5F5F5F5F5F5F5E2F5E2E2E2F5E2F5F5F5F5F5F5F5F5F5F5F5F5F5F5F5F5F5F5F5F5F5F5F5F5F5F5F5F5F5F5F5F5F5F5F5F5F5F5F5F5F5F5F5F5F5F5F5F5F5F5F5F5F5F5F5F5E2F5F5F5F5F5F5E2F5F5F5F5F5F5
310
F5F5F5F5F5F5F5F5F5F5E2E2F5F5F5F5F5F5F5F5F5F5F5F5F5F5F5F5F5F5F5F5F5F5F5F5F5F5F5F5F5F5F5F5F5F5F5E2E2F5F5F5F5F5F5F5F5F5F5F5F5F5F5F5F5E2F5F5F5F5F5F5F5F5F5F5F5F5F5F5F5F5F5F5F5F5F5F5F5F5F5F5F5F5F5F5F5F5F5F5F5F5F5E2F5E2E2E2F5E2F5F5F5F5F5F5F5F5F5F5F5F5F5F5F5F5F5
310
F5F5F5F5F5F5F5F5F5F5F5F5F5F5F5F5F5F5F5F5F5F5F5F5F5F5F5F5F5F5F5F5F5F5F5F5F5F5F5E2F5F5F5F5F5F5E2F5F5F5F5F5F5F5F5F5F5F5F5F5F5F5F5E2E2F5F5F5F5F5F5F5F5F5F5F5F5F5F5F5F5F5F5F5F5F5F5F5F5F5F5F5F5F5F5F5F5F5F5F5E2E2F5F5F5F5F5F5F5F5F5F5F5F5F5F5F5F5E2F5F5F5F5F5F5F5F5
310
F5F5F5F5F5F5F5F5F5F5F5F5F5F5F5F5F5F5F5F5F5F5F5F5F5F5F5F5F5E2F5E2E2E2F5E2F5F5F5F5F5F5F5F5F5F5F5F5F5F5F5F5F5F5F5F5F5F5F5F5F5F5F5F5F5F5F5F5F5F5F5F5F5F5F5F5F5F5F5F5F5F5F5F5F5F5F5F5F5F5F5F5E2F5F5F5F5F5F5F5F5F5F5F5F5F5F5F5F5F5F5F5F5F5F5F5E2E2F5F5F5F5F5F5F5F5F5
310
F5F5F5F5F5F5F5F5F5F5F5F5F5F5F5F5F5F5F5F5F5F5F5F5F5F5E2E2F5F5F5F5F5F5F5F5F5F5F5F5F5F5F5F5F5F5F5F5F5F5F5F5F5F5F5F5F5F5F5F5F5F5F5F5F5F5F5F5F5F5F5F5F5F5F5F5F5F5F5F5F5F5E2F5E2E2E2F5E2F5F5F5F5F5F5F5F5F5F5F5F5F5F5F5F5F5F5F5F5F5F5F5F5F5F5F5F5F5F5F5F5F5F5F5F5F5F5
310
F5F5F5F5F5F5F5F5F5F5F5F5F5F5F5F5F5F5E2F5F5F5F5F5F5E2F5F5F5F5F5F5F5F5F5F5F5F5F5F5F5F5E2E2F5F5F5F5F5F5F5F5F5F5F5F5F5F5F5F5F5F5F5F5F5F5F5F5F5F5F5F5F5F5F5F5F5F5F5E2E2F5F5F5F5F5F5F5F5F5F5F5F5F5F5F5F5E2F5F5F5F5F5F5F5F5F5F5F5F5F5F5F5F5F5F5F5F5F5F5F5F5F5F5F5F5F5
310
F5F5F5F5F5F5F5F5E2F5E2E2E2F5E2F5F5F5F5F5F5F5F5F5F5F5F5F5F5F5F5F5F5F5F5F5F5F5F5F5F5F5F5F5F5F5F5F5F5F5F5F5F5F5F5F5F5F5F5F5F5F5F5F5F5F5F5F5F5F5F5E2F5F5F5F5F5F5E2F5F5F5F5F5F5F5F5F5F5F5F5F5F5F5F5E2E2F5F5F5F5F5F5F5F5F5F5F5F5F5F5F5F5F5F5F5F5F5F5F5F5F5F5F5F5F5F5
310
F5F5F5F5F5E2E2F5F5F5F5F5F5F5F5F5F5F5F5F5F5F5F5E2F5F5F5F5F5F5F5F5F5F5F5F5F5F5F5F5F5F5F5F5F5F5F5F5F5F5F5F5F5F5F5F5F5F5F5F5F5E2F5E2E2E2F5E2F5F5F5F5F5F5F5F5F5F5F5F5F5F5F5F5F5F5F5F5F5F5F5F5F5F5F5F5F5F5F5F5F5F5F5F5F5F5F5F5F5F5F5F5F5F5F5F5F5F5F5F5F5F5F5F5E2F5F5
310
F5F5F5F5E2F5F5F5F5F5F5F5F5F5F5F5F5F5F5F5F5E2E2F5F5F5F5F5F5F5F5F5F5F5F5F5F5F5F5F5F5F5F5F5F5F5F5F5F5F5F5F5F5F5F5F5F5F5E2E2F5F5F5F5F5F5F5F5F5F5F5F5F5F5F5F5E2F5F5F5F5F5F5F5F5F5F5F5F5F5F5F5F5F5F5F5F5F5F5F5F5F5F5F5F5F5F5F5F5F5F5F5F5F5E2F5E2E2E2F5E2F5F5F5F5F5F5
310
F5F5F5F5F5F5F5F5F5F5F5F5F5F5F5F5F5F5F5F5F5F5F5F5F5F5F5F5F5F5F5F5F5F5F5F5F5F5F5F5F5F5F5F5F5F5F5F5F5F5E2F5F5F5F5F5F5E2F5F5F5F5F5F5F5F5F5F5F5F5F5F5F5F5E2E2F5F5F5F5F5F5F5F5F5F5F5F5F5F5F5F5F5F5F5F5F5F5F5F5F5F5F5F5F5F5F5F5F5F5F5E2E2F5F5F5F5F5F5F5F5F5F5F5F5F5F5
310
F5F5E2F5F5F5F5F5F5F5F5F5F5F5F5F5F5F5F5F5F5F5F5F5F5F5F5F5F5F5F5F5F5F5F5F5F5F5F5F5E2F5E2E2E2F5E2F5F5F5F5F5F5F5F5F5F5F5F5F5F5F5F5F5F5F5F5F5F5F5F5F5F5F5F5F5F5F5F5F5F5F5F5F5F5F5F5F5F5F5F5F5F5F5F5F5F5F5F5F5F5F5F5E2F5F5F5F5F5F5E2F5F5F5F5F5F5F5F5F5F5F5F5F5F5F5E2
310
E2E2E2F5F5F5F5F5F5F5F5F5F5F5F5F5F5F5F5F5F5F5F5F5F5F5F5F5F5F5F5F5F5F5F5F5F5E2E2F5F5F5F5F5F5F5F5F5F5F5F5F5F5F5F5E2F5F5F5F5F5F5F5F5F5F5F5F5F5F5F5F5F5F5F5F5F5F5F5F5F5F5F5F5F5F5F5F5F5F5F5F5F5E2F5E2E2E2F5E2F5F5F5F5F5F5F5F5F5F5F5F5F5F5F5F5F5F5F5F5F5F5F5F5F5F5F5
310
F5F5F5F5F5F5F5F5F5F5F5F5F5F5F5F5F5F5F5F5F5F5F5F5F5F5F5F5F5E2F5F5F5F5F5F5E2F5F5F5F5F5F5F5F5F5F5F5F5F5F5F5E2F5F5E2F5F5F5F5F5F5F5F5F5F5F5F5F5F5F5F5F5F5F5F5F5F5F5F5F5F5F5F5F5F5F5F5F5F5E2E2F5F5F5F5F5F5F5F5F5F5F5F5F5F5F5F5E2F5F5F5F5F5F5F5F5F5F5F5F5F5F5F5F5F5F5
310
F5F5F5F5F5F5F5F5F5F5F5F5F5F5F5F5F5F5F5E2F5E2E2E2F5E2F5F5F5F5F5F5F5F5F5F5F5F5F5F5F5F5F5F5F5F5F5F5F5F5F5F5F5F5F5F5F5F5F5F5F5F5F5F5F5F5F5F5F5F5F5F5F5F5F5F5F5F5F5F5F5F5E2F5F5F5F5F5F5E2F5F5F5F5F5F5F5F5F5F5F5F5F5F5F5E2F5F5F5E2F5F5F5F5F5F5F5F5F5F5F5F5F5F5F5F5F5
310
F5F5F5F5F5F5F5F5F5F5F5F5F5F5F5F5E2E2F5F5F5F5F5F5F5F5F5F5F5F5F5F5F5F5E2F5F5F5F5F5F5F5F5F5F5F5F5F5F5F5F5F5F5F5F5F5F5F5F5F5F5F5F5F5F5F5F5F5F5F5F5F5E2F5E2E2E2F5E2F5F5F5F5F5F5F5F5F5F5F5F5F5F5F5F5F5F5F5F5F5F5F5F5F5F5F5F5F5F5F5F5F5F5F5F5F5F5F5F5F5F5F5F5F5F5F5F5
310
F5F5F5F5F5F5F5F5E2F5F5F5F5F5F5E2F5F5F5F5F5F5F5F5F5F5F5F5F5F5F5E2F5F5F5E2E2F5F5F5F5F5F5F5F5F5F5F5F5F5F5F5F5F5F5F5F5F5F5F5F5F5F5F5F5F5F5F5F5E2E2F5F5F5F5F5F5F5F5F5F5F5F5F5F5F5F5E2F5F5F5F5F5F5F5F5F5F5F5F5F5F5F5F5F5F5F5F5F5F5F5F5F5F5F5F5F5F5F5F5F5F5F5F5F5E2F5
310
E2E2E2F5E2F5F5F5F5F5F5F5F5F5F5F5F5F5F5F5F5F5F5F5F5F5F5F5F5F5F5F5F5F5F5F5F5F5F5F5F5F5F5F5F5F5F5F5F5F5F5F5F5F5F5F5F5F5F5F5F5E2F5F5F5F5F5F5F5F5F5F5F5F5F5F5F5F5F5F5F5F5F5F5E2F5F5F5F5E2E2F5F5F5F5F5F5F5F5F5F5F5F5F5F5F5F5F5F5F5F5F5F5F5F5F5F5F5F5F5F5F5E2E2F5F5F5
310
F5F5F5F5F5F5F5F5F5F5F5F5F5F5F5F5F5F5F5F5F5F5F5F5F5F5F5F5F5F5F5F5F5F5F5F5F5F5F5F5F5F5F5F5F5F5F5F5F5F5F5E2F5E2E2E2F5E2F5F5F5F5F5F5F5F5F5F5F5F5F5F5F5F5F5F5F5F5F5F5F5F5F5F5F5F5F5F5F5F5F5F5F5F5F5F5F5F5F5F5F5F5F5F5F5F5F5F5F5F5F5F5F5F5E2F5F5F5F5F5F5E2F5F5F5F5F5
310
F5F5F5F5F5F5F5F5F5F5E2F5F5F5F5F5E2E2E2E2F5F5F5F5F5F5F5F5F5F5F5F5F5F5F5F5F5F5F5F5F5F5F5F5F5F5E2E2E2E2F5F5F5F5F5F5F5F5F5F5F5F5F5F5F5F5E2F5F5F5F5F5F5F5F5F5F5F5F5F5F5F5F5F5F5F5F5F5F5F5F5F5F5F5F5F5F5F5F5F5F5F5F5F5E2F5E2E2E2F5E2F5F5F5F5F5F5F5F5F5F5F5F5F5F5F5F5
310
F5F5F5F5F5F5F5F5F5F5F5F5F5F5F5F5F5F5F5F5F5F5F5F5F5F5F5F5F5F5F5F5F5F5F5F5F5F5F5F5E2F5F5F5F5F5F5E2F5F5F5F5F5F5F5F5F5F5F5F5F5F5F5E2F5F5F5F5F5F5F5F5E2E2E2E2E2E2E2E2E2E2E2E2E2E2E2E2E2E2E2E2E2E2E2E2E2E2E2E2E2E2E2F5F5F5F5F5F5F5F5F5F5F5F5F5F5F5F5E2F5F5F5F5F5F5F5
310
F5F5F5F5F5F5F5F5F5F5F5F5F5F5F5F5F5F5F5F5F5F5F5F5F5F5F5F5F5F5E2F5E2E2E2F5E2F5F5F5F5F5F5F5F5F5F5F5F5F5F5F5F5F5F5F5F5F5F5F5F5F5F5F5F5F5F5F5F5F5F5F5F5F5F5F5F5F5F5F5F5F5F5F5F5F5F5F5F5F5F5F5F5E2F5F5F5F5F5F5E2F5F5F5F5F5F5F5F5F5F5F5F5F5F5F5F5E2F5F5F5F5F5F5E2E2E2
310
E2E2E2E2E2E2E2E2E2E2E2E2E2E2E2E2E2E2E2E2E2E2E2E2E2E2E2E2F5F5F5F5F5F5F5F5F5F5F5F5F5F5F5F5F5E2F5F5F5F5F5F5F5F5F5F5F5F5F5F5F5F5F5F5F5F5F5F5F5F5F5F5F5F5F5F5F5F5F5F5F5F5F5E2F5E2E2E2F5E2F5F5F5F5F5F5F5F5F5F5F5F5F5F5F5F5F5F5F5F5F5F5F5F5F5F5F5F5F5F5F5F5F5F5F5F5F5
310
F5F5F5F5F5F5F5F5F5F5F5F5F5F5F5F5F5F5F5E2F5F5F5F5F5F5E2F5F5F5F5F5F5F5F5F5F5F5F5F5F5F5F5E2E2E2E2E2E2E2E2F5F5F5F5F5F5F5F5F5F5F5F5F5F5F5F5F5F5F5F5F5F5F5F5F5F5F5F5F5F5F5F5F5F5F5F5F5F5F5F5F5F5F5F5F5F5F5E2F5F5F5F5F5F5F5F5F5F5F5F5F5F5F5F5F5F5F5F5F5F5F5F5F5F5F5F5
310
F5F5F5F5F5F5F5F5F5E2F5E2E2E2F5E2F5F5F5F5F5F5F5F5F5F5F5F5F5F5F5F5F5F5F5F5F5F5F5F5F5F5F5F5F5F5F5F5F5F5F5F5F5F5F5F5F5F5F5F5F5F5F5F5F5F5F5F5F5F5F5F5E2F5F5F5F5F5F5E2F5F5F5F5F5F5F5F5F5F5F5F5F5F5F5F5F5F5F5F5F5F5F5F5F5F5F5F5F5F5F5F5F5F5F5F5F5F5F5F5F5F5F5F5F5F5F5
310
F5F5F5F5F5F5F5F5F5F5F5F5F5F5F5F5F5F5F5F5F5F5F5F5E2F5F5F5F5F5F5F5F5F5F5F5F5F5F5F5F5F5F5F5F5F5F5F5F5F5F5F5F5F5F5F5F5F5F5F5F5F5E2F5E2E2E2F5E2F5F5F5F5F5F5F5F5F5F5F5F5F5F5F5F5F5F5F5F5F5F5F5F5F5F5F5F5F5F5F5F5F5F5F5F5F5F5F5F5F5F5F5F5F5F5F5F5F5F5F5F5F5F5F5F5E2F5
310
F5F5F5F5F5E2F5F5F5F5F5F5F5F5F5F5F5F5F5F5F5F5F5F5F5F5F5F5F5F5F5F5F5F5F5F5F5F5F5F5F5F5F5F5F5F5F5F5F5F5F5F5F5F5F5F5F5F5F5F5F5F5F5F5F5F5F5F5F5F5F5F5F5F5F5F5F5E2F5F5F5F5F5F5F5F5F5F5F5F5F5F5F5F5F5F5F5F5F5F5F5F5F5F5F5F5F5F5F5F5F5F5F5F5F5E2F5E2E2E2F5E2F5F5F5F5F5
310
F5F5F5F5F5F5F5F5F5F5F5F5F5F5F5F5F5F5F5F5F5F5F5F5F5F5F5F5F5F5F5F5F5F5F5F5F5F5F5F5F5F5F5F5F5F5F5F5F5F5F5E2F5F5F5F5F5F5E2F5F5F5F5F5F5F5F5F5F5F5F5F5F5F5F5F5F5F5F5F5F5F5F5F5F5F5F5F5F5F5F5F5F5F5F5F5F5F5F5F5F5F5F5F5F5F5F5F5F5F5F5F5F5F5F5F5F5F5F5F5F5F5F5F5F5F5F5
310
F5F5F5E2F5F5F5F5F5F5F5F5F5F5F5F5F5F5F5F5F5F5F5F5F5F5F5F5F5F5F5F5F5F5F5F5F5F5F5F5F5E2F5E2E2E2F5E2F5F5F5F5F5F5F5F5F5F5F5F5F5F5F5F5F5F5F5F5F5F5F5F5F5F5F5F5F5F5F5F5F5F5F5F5F5F5F5F5F5F5F5F5F5F5F5F5F5F5F5F5F5F5F5F5E2F5F5F5F5F5F5E2F5F5F5F5F5F5F5F5F5F5F5F5F5F5F5
310
F5F5F5F5F5F5F5F5F5F5F5F5F5F5F5F5F5F5F5F5F5F5F5F5F5F5F5F5F5F5F5F5F5F5F5F5F5F5F5F5F5F5F5F5F5F5F5F5F5F5F5F5F5F5F5F5E2F5F5F5F5F5F5F5F5F5F5F5F5F5F5F5F5F5F5F5F5F5F5F5F5F5F5F5F5F5F5F5F5F5F5F5F5F5E2F5E2E2E2F5E2F5F5F5F5F5F5F5F5F5F5F5F5F5F5F5F5F5F5F5F5F5F5F5F5F5F5
310
F5F5F5F5F5F5F5F5F5F5F5F5F5F5F5F5F5F5F5F5F5F5F5F5F5F5F5F5F5F5E2F5F5F5F5F5F5F5F5F5F5F5F5F5F5F5F5F5F5F5F5F5F5F5F5F5F5F5F5F5F5F5F5F5F5F5F5F5F5F5F5F5F5F5F5F5F5F5F5F5F5F5F5F5F5F5F5F5F5F5F5F5F5F5F5F5F5F5F5F5F5F5F5F5F5F5F5F5F5F5F5F5F5F5F5F5F5F5F5F5F5F5F5F5F5F5F5
310
F5F5F5F5F5F5F5F5F5F5F5F5F5F5F5F5F5F5F5F5E2F5E2E2E2F5E2F5F5F5F5F5F5F5F5F5F5F5F5F5F5F5F5F5F5F5F5F5F5F5F5F5F5F5F5F5F5F5F5F5F5F5F5F5F5F5F5F5F5F5F5F5F5F5F5F5F5F5F5F5F5F5F5E2F5F5F5F5F5F5E2F5F5F5F5F5F5F5F5F5F5F5F5F5F5F5F5F5F5F5F5F5F5F5F5F5F5F5F5F5F5F5F5F5F5F5F5
310
F5F5F5F5F5F5F5F5F5F5F5F5F5F5F5F5F5F5F5F5F5F5F5F5F5F5F5F5F5F5F5F5F5F5F5E2F5F5F5F5F5F5F5F5F5F5F5F5F5F5F5F5F5F5F5F5F5F5F5F5F5F5F5F5F5F5F5F5F5F5F5F5F5E2F5E2E2E2F5E2F5F5F5F5F5F5F5F5F5F5F5F5F5F5F5F5F5F5F5F5F5F5F5F5F5F5F5F5F5F5F5F5F5F5F5F5F5F5F5F5F5F5F5F5F5F5F5
310
F5F5F5F5F5F5F5F5F5E2F5F5F5F5F5F5E2F5F5F5F5F5F5F5F5F5F5F5F5F5F5F5F5F5F5F5F5F5F5F5F5F5F5F5F5F5F5F5F5F5F5F5F5F5F5F5F5F5F5F5F5F5F5F5F5F5F5F5F5F5F5F5F5F5F5F5F5F5F5F5F5F5F5F5F5F5F5F5E2F5F5F5F5F5F5F5F5F5F5F5F5F5F5F5F5F5F5F5F5F5F5F5F5F5F5F5F5F5F5F5F5F5F5F5F5F5E2
310
F5E2E2E2F5E2F5F5F5F5F5F5F5F5F5F5F5F5F5F5F5F5F5F5F5F5F5F5F5F5F5F5F5F5F5F5F5F5F5F5F5F5F5F5F5F5F5F5F5F5F5F5F5F5F5F5F5F5F5F5F5F5E2F5F5F5F5F5F5E2F5F5F5F5F5F5F5F5F5F5F5F5F5F5F5F5F5F5F5F5F5F5F5F5F5F5F5F5F5F5F5F5F5F5F5F5F5F5F5F5F5F5F5F5F5F5F5F5F5F5F5F5F5F5F5F5F5
310
F5F5F5F5F5F5F5F5F5F5F5F5F5F5E2F5F5F5F5F5F5F5F5F5F5F5F5F5F5F5F5F5F5F5F5F5F5F5F5F5F5F5F5F5F5F5F5F5F5F5F5F5E2F5E2E2E2F5E2F5F5F5F5F5F5F5F5F5F5F5F5F5F5F5F5F5F5F5F5F5F5F5F5F5F5F5F5F5F5F5F5F5F5F5F5F5F5F5F5F5F5F5F5F5F5F5F5F5F5F5F5F5F5F5F5E2F5F5F5F5F5F5E2F5F5F5F5
310
F5F5F5F5F5F5F5F5F5F5F5F5F5F5F5F5F5F5F5F5F5F5F5F5F5F5F5F5F5F5F5F5F5F5F5F5F5F5F5F5F5F5F5F5F5F5F5F5F5F5F5F5F5F5F5F5F5F5F5F5F5F5F5F5F5F5F5E2F5F5F5F5F5F5F5F5F5F5F5F5F5F5F5F5F5F5F5F5F5F5F5F5F5F5F5F5F5F5F5F5F5F5F5F5F5E2F5E2E2E2F5E2F5F5F5F5F5F5F5F5F5F5F5F5F5F5F5
310
F5F5F5F5F5F5F5F5F5F5F5F5F5F5F5F5F5F5F5F5F5F5F5F5F5F5F5F5F5F5F5F5F5F5F5F5F5F5F5F5F5E2F5F5F5F5F5F5E2F5F5F5F5F5F5F5F5F5F5F5F5F5F5F5F5F5F5F5F5F5F5F5F5F5F5F5F5F5F5F5F5F5F5F5F5F5F5F5F5F5F5F5F5F5F5F5F5F5F5F5F5F5F5F5F5F5F5F5F5F5F5F5F5F5F5F5F5F5F5F5E2F5F5F5F5F5F5
310
F5F5F5F5F5F5F5F5F5F5F5F5F5F5F5F5F5F5F5F5F5F5F5F5F5F5F5F5F5F5F5E2F5E2E2E2F5E2F5F5F5F5F5F5F5F5F5F5F5F5F5F5F5F5F5F5F5F5F5F5F5F5F5F5F5F5F5F5F5F5F5F5F5F5F5F5F5F5F5F5F5F5F5F5F5F5F5F5F5F5F5F5F5F5E2F5F5F5F5F5F5E2F5F5F5F5F5F5F5F5F5F5F5F5F5F5F5F5F5F5F5F5F5F5F5F5F5
310
F5F5F5F5F5F5F5F5F5F5F5F5F5F5F5F5F5F5F5F5F5F5F5F5F5F5F5F5F5F5F5F5F5F5F5F5F5F5F5F5F5F5F5F5F5F5E2F5F5F5F5F5F5F5F5F5F5F5F5F5F5F5F5F5F5F5F5F5F5F5F5F5F5F5F5F5F5F5F5F5F5F5F5F5E2F5E2E2E2F5E2F5F5F5F5F5F5F5F5F5F5F5F5F5F5F5F5F5F5F5F5F5F5F5F5F5F5F5F5F5F5F5F5F5F5F5F5
310
F5F5F5F5F5F5F5F5F5F5F5F5F5F5F5F5F5F5F5F5E2F5F5F5F5F5F5E2F5F5F5F5F5F5F5F5F5F5F5F5F5F5F5F5F5F5F5F5F5F5F5F5F5F5F5F5F5F5F5F5F5F5F5F5F5F5F5F5F5F5F5F5F5F5F5F5F5F5F5F5F5F5F5F5F5F5F5F5F5F5F5F5F5F5F5F5F5F5F5E2F5F5F5F5F5F5F5F5F5F5F5F5F5F5F5F5F5F5F5F5F5F5F5F5F5F5F5
310
F5F5F5F5F5F5F5F5F5F5E2F5E2E2E2F5E2F5F5F5F5F5F5F5F5F5F5F5F5F5F5F5F5F5F5F5F5F5F5F5F5F5F5F5F5F5F5F5F5F5F5F5F5F5F5F5F5F5F5F5F5F5F5F5F5F5F5F5F5F5F5F5F5E2F5F5F5F5F5F5E2F5F5F5F5F5F5F5F5F5F5F5F5F5F5F5F5F5F5F5F5F5F5F5F5F5F5F5F5F5F5F5F5F5F5F5F5F5F5F5F5F5F5F5F5F5F5
310
F5F5F5F5F5F5F5F5F5F5F5F5F5F5F5F5F5F5F5F5F5F5F5F5F5E2F5F5F5F5F5F5F5F5F5F5F5F5F5F5F5F5F5F5F5F5F5F5F5F5F5F5F5F5F5F5F5F5F5F5F5F5F5E2F5E2E2E2F5E2F5F5F5F5F5F5F5F5F5F5F5F5F5F5F5F5F5F5F5F5F5F5F5F5F5F5F5F5F5F5F5F5F5F5F5F5F5F5F5F5F5F5F5F5F5F5F5F5F5F5F5F5F5F5F5F5E2
310
F5F5F5F5F5F5F5F5F5F5F5F5F5F5F5F5F5F5F5F5F5F5F5F5F5F5F5F5F5F5F5F5F5F5F5F5F5F5F5F5F5F5F5F5F5F5F5F5F5F5F5F5F5F5F5F5F5F5F5F5F5F5F5F5F5F5F5F5F5F5F5F5F5F5F5F5F5F5F5F5F5F5F5F5F5F5F5F5F5F5F5F5F5F5F5F5F5F5F5F5F5F5F5F5F5F5F5F5F5F5F5F5F5F5F5F5E2F5E2E2E2F5E2F5F5F5F5
310
F5F5F5F5F5F5F5F5F5F5F5F5F5F5F5F5F5F5F5F5F5F5F5F5F5F5F5F5F5F5F5F5F5F5F5F5F5F5F5F5F5F5F5F5F5F5F5F5F5F5F5F5E2BEF5F5F5F5F5E2F5F5F5F5F5F5F5F5F5F5F5F5F5F5F5F5F5F5F5F5F5F5F5F5F5F5F5F5F5F5F5F5F5F5F5F5F5F5F5F5F5F5F5F5F5F5F5F5F5F5F5F5F5F5F5F5F5F5F5F5F5F5F5F5F5F5F5
310
F5F5F5F5E2F5F5F5F5F5F5F5F5F5F5F5F5F5F5F5F5F5F5F5F5F5F5F5F5F5F5F5F5F5F5F5F5F5F5F5F5F5E2F5E2E2E2F5E2F5F5F5F5F5F5F5F5F5F5F5F5F5F5F5F5F5F5F5F5F5F5F5F5F5F5F5F5F5F5F5F5F5F5F5F5F5F5F5F5F5F5F5F5F5F5F5F5F5F5F5F5F5F5E2E2E2E2E2F5F5F5F5E2E2F5E2E2E2E2E2E2E2E2F5E2E2E2
310
E2E2E2E2E2F5E2E2E2E2E2E2E2E2F5E2E2E2E2E2E2E2E2F5E2E2E2E2E2E2E2E2F5E2E2E2E2E2E2E2E2F5E2E2E2E2E2E2E2E2F5E2E2E2E2E2E2E2F5F5F5F5F5F5F5F5F5F5F5F5F5F5F5F5F5F5F5F5F5F5F5F5F5F5F5F5F5F5F5F5F5F5F5F5F5E2F5E2E2E2F5E2F5F5F5F5F5F5F5F5F5F5F5F5F5F5F5F5F5F5F5F5F5F5F5F5F5
310
F5F5F5F5F5F5F5F5F5F5F5F5F5F5F5F5F5F5F5F5F5F5F5F5F5F5F5F5F5F5F5E2F5F5F5F5F5F5F5F5F5F5F5F5F5F5F5F5F5F5F5F5F5F5F5F5F5F5F5F5F5F5F5F5F5F5F5F5F5F5F5F5F5F5F5F5F5F5F5F5F5F5F5F5F5F5F5F5F5F5F5F5F5F5F5F5F5F5F5F5F5F5F5F5F5F5F5F5F5F5F5F5F5F5F5F5F5F5F5F5F5F5F5F5F5F5F5
310
F5F5F5F5F5F5F5F5F5F5F5F5F5F5F5F5F5F5F5F5F5E2F5E2E2E2F5E2F5F5F5F5F5F5F5F5F5F5F5F5F5F5F5F5F5F5F5F5F5F5F5F5F5F5F5F5F5F5F5F5F5F5F5F5F5F5F5F5F5F5F5F5F5F5F5F5F5F5F5F5F5F5F5BEF5F5F5F5F5F5F5F5F5F5F5F5F5F5F5F5F5F5F5F5F5F5F5F5F5F5F5F5F5F5F5F5F5F5F5F5F5F5F5F5F5F5F5
310
F5F5F5F5F5F5F5F5F5F5F5F5F5F5F5F5F5F5F5F5F5F5F5F5F5F5F5F5F5F5F5F5F5F5F5F5F5F5F5F5F5F5F5F5F5F5F5F5F5F5F5F5F5F5F5F5F5F5F5F5F5F5F5F5F5F5F5F5F5F5F5F5F5F5E2F5E2E2E2F5E2F5F5F5F5F5F5F5F5F5F5F5F5F5F5F5F5F5F5F5F5F5F5F5F5F5F5F5F5F5F5F5F5F5F5F5F5F5F5F5F5F5F5F5F5F5F5
310
F5F5F5F5F5F5F5F5F5F5F5F5F5F5F5F5F5F5F5F5F5F5F5F5F5F5F5F5F5F5F5F5F5F5F5F5F5F5F5F5F5F5F5F5F5F5F5F5F5F5F5F5F5F5F5F5F5F5F5F5F5F5F5F5F5F5F5F5F5F5F5F5F5F5F5F5F5F5F5F5F5F5F5F5F5F5F5F5F5F5F5F5F5F5F5F5F5F5F5F5F5F5F5F5F5F5F5F5F5F5F5F5F5F5F5F5F5F5F5F5F5F5F5F5F5F5F5
310
E2F5E2E2E2F5E2F5F5F5F5F5F5F5F5F5F5F5F5F5F5F5F5F5F5F5F5F5F5F5F5F5F5F5F5F5F5F5F5F5F5F5F5F5F5F5F5F5F5F5F5F5F5F5F5F5F5F5F5F5F5F5F5F5F5F5F5F5F5F5F5F5F5F5F5F5F5F5F5F5F5F5F5F5F5F5F5F5F5F5F5F5F5F5F5F5F5F5F5F5F5F5F5F5F5F5F5F5F5F5F5F5F5F5F5F5F5F5F5F5F5F5F5F5F5F5F5
310
F5F5F5F5F5F5F5F5F5F5F5F5F5F5F5F5F5F5F5F5F5F5F5F5F5F5F5F5F5F5F5F5F5F5F5F5F5F5F5F5F5F5F5F5F5F5F5F5F5F5F5F5F5E2F5E2E2E2F5E2F5F5F5F5F5F5F5F5F5F5F5F5F5F5F5F5F5F5F5F5F5F5F5F5F5F5F5F5F5F5F5F5F5F5F5F5F5F5F5F5F5F5F5F5F5F5F5F5F5F5F5F5F5F5F5F5F5F5F5F5F5F5BEE2F5F5F5
310
F5F5F5F5F5F5F5F5F5F5F5F5F5F5F5F5F5F5F5F5F5F5F5F5F5F5F5F5F5F5F5F5F5F5F5F5F5F5F5F5F5F5F5F5F5F5F5F5F5F5F5F5F5F5F5F5F5F5F5F5F5F5F5F5F5F5F5BEE2F5F5F5F5F5F5F5F5F5F5F5F5F5F5F5F5F5F5F5F5F5F5F5F5F5F5F5F5F5F5F5F5F5F5F5F5F5E2F5E2E2E2F5E2F5F5F5F5F5F5F5F5F5F5F5F5F5F5
310
F5F5F5F5F5F5F5F5F5F5F5F5F5F5F5F5F5F5F5F5F5F5F5F5F5F5F5F5F5F5F5F5F5F5F5F5F5F5F5F5F5F5F5F5F5F5F5F5E2E2E2E2E2E2E2E2E2E2E2E2E2E2E2E2E2E2E2E2E2E2E2E2E2E2E2E2E2E2E2E2E2E2E2E2E2E2E2E2E2E2E2E2E2E2E2E2E2E2E2E2E2E2E2E2E2E2E2E2E2E2E2E2E2E2E2E2E2E2E2E2E2E2E2F5F5F5F5
310
F5F5F5F5F5F5F5F5F5F5F5F5F5F5F5F5F5F5F5F5F5F5F5F5F5F5F5F5F5F5F5F5E2F5E2E2E2F5E2F5F5F5F5F5F5F5F5F5F5F5F5F5F5F5F5F5F5F5F5F5F5F5F5F5F5F5F5F5F5F5F5F5F5F5F5F5F5F5F5F5F5F5F5F5F5F5F5F5F5F5F5F5F5F5F5F5F5F5F5F5F5F5BEF5F5F5F5F5F5F5F5F5F5F5F5F5F5F5F5F5F5F5F5F5F5F5F5
310
F5F5F5F5F5F5F5F5E2E2E2E2E2F5F5F5F5F5F5F5F5F5F5F5F5F5F5F5F5F5F5F5F5F5F5F5F5F5F5F5F5F5F5F5F5F5F5BEF5F5F5F5F5F5F5F5F5F5F5F5F5F5F5F5F5F5F5F5F5F5F5F5F5F5F5F5F5F5F5F5F5F5F5F5F5E2F5E2E2E2F5E2F5F5F5F5F5F5F5F5F5F5F5F5F5F5F5F5F5F5F5F5F5F5F5F5F5F5F5F5F5F5F5F5F5F5F5
310
F5F5F5F5F5F5F5F5F5F5F5F5F5F5F5F5F5F5F5F5F5F5F5F5F5F5F5F5E2BEF5F5F5F5F5F5F5F5F5F5F5F5F5F5F5F5F5F5F5F5F5F5F5F5F5F5F5F5F5F5F5E2E2E2E2E2F5F5F5F5F5F5F5F5F5F5F5F5F5F5F5F5F5F5F5F5F5F5F5F5F5F5F5F5F5F5F5F5F5F5E2BEF5F5F5F5F5F5F5F5F5F5F5F5F5F5F5F5F5F5F5F5F5F5F5F5F5
310
F5F5F5F5F5F5F5F5F5F5F5E2F5E2E2E2F5E2F5F5F5F5F5F5F5F5F5F5F5F5F5F5F5F5F5F5F5F5F5F5F5F5F5F5F5F5F5F5F5F5F5F5F5F5F5F5F5F5F5F5F5F5F5F5F5F5F5F5F5F5F5F5F5F5F5F5F5F5F5F5F5F5F5F5F5F5F5F5F5F5F5F5F5F5F5F5F5F5F5F5F5F5F5F5F5F5F5F5F5F5F5F5F5F5E2E2E2E2E2F5F5F5F5F5F5F5F5
310
F5F5F5F5F5F5F5F5F5F5F5F5F5F5F5F5F5F5F5F5F5F5F5F5F5F5F5F5F5F5F5F5F5F5F5F5F5F5F5F5F5F5F5F5F5F5F5F5F5F5F5F5F5F5F5F5F5F5F5F5F5F5F5F5E2F5E2E2E2F5E2F5F5F5F5F5F5F5F5F5F5F5F5F5F5F5F5F5F5F5F5F5F5F5F5F5F5F5F5F5F5F5F5F5F5F5F5F5F5F5F5F5F5F5F5F5F5F5F5F5F5F5F5F5F5F5F5
310
F5F5F5F5F5F5F5F5F5F5F5F5F5F5F5F5F5F5F5F5F5F5F5F5F5F5F5F5F5F5F5F5F5F5F5F5F5F5F5F5E2E2E2E2E2F5F5F5F5F5F5F5F5F5F5F5F5F5F5F5F5F5F5F5F5F5F5F5F5F5F5F5F5F5F5F5F5F5F5F5F5F5F5F5F5F5F5F5F5F5F5F5F5F5F5F5F5F5F5F5F5F5F5F5F5F5F5F5F5F5F5F5F5F5F5F5F5E2F5E2E2E2F5E2F5F5F5
310
F5F5F5F5F5F5F5F5F5F5F5F5F5F5F5F5F5F5F5F5F5F5F5F5F5F5F5F5F5F5F5F5F5F5F5F5F5F5F5F5F5F5F5F5F5F5F5F5F5F5F5F5F5F5F5F5F5F5F5F5F5F5F5F5F5F5F5F5F5F5F5F5F5F5F5F5F5F5F5F5F5F5F5F5F5F5F5F5F5F5F5F5F5F5F5F5F5F5F5F5F5F5F5F5F5F5F5F5F5F5F5F5F5F5F5F5F5F5F5F5F5F5F5F5F5F5F5
310
F5F5F5F5F5F5F5F5F5F5F5F5F5F5F5F5F5F5F5F5F5F5F5F5F5F5F5F5F5F5F5F5F5F5F5F5F5F5F5F5F5F5F5E2F5E2E2E2F5E2F5F5F5F5F5F5F5F5F5F5F5F5F5F5F5F5F5F5F5F5F5F5F5F5F5F5F5F5F5F5F5F5F5F5F5F5F5F5F5F5F5F5F5F5F5F5F5F5F5F5F5F5F5F5F5F5F5F5F5F5F5F5F5F5F5F5F5F5F5F5F5F5F5F5F5F5F5
310
F5F5F5F5F5F5F5F5F5F5F5F5F5F5F5F5F5F5F5F5F5F5F5F5F5F5F5F5F5F5F5F5F5F5F5F5F5F5F5F5F5F5F5F5F5F5F5F5F5F5F5F5F5F5F5F5F5F5F5F5F5F5F5F5F5F5F5F5F5F5F5F5F5F5F5F5F5F5F5F5F5F5F5F5F5F5F5F5F5F5F5F5F5F5F5F5E2F5E2E2E2F5E2F5F5F5F5F5F5F5F5F5F5F5F5F5F5F5F5F5F5F5F5F5F5F5F5
310
F5F5F5F5F5F5F5F5F5F5F5F5F5F5F5F5F5F5F5F5F5F5F5F5F5F5F5F5F5F5F5F5F5F5F5F5F5F5F5F5F5F5F5F5F5F5F5F5F5F5F5F5F5F5F5F5F5F5F5F5F5F5F5F5F5F5F5F5F5F5F5F5F5F5F5F5F5F5F5F5F5F5F5F5F5F5F5F5F5F5F5F5F5F5F5F5F5F5F5F5F5F5F5F5F5F5F5F5F5F5F5F5F5F5F5F5F5F5F5F5F5F5F5F5F5F5F5
310
F5F5F5F5F5F5F5F5F5F5F5F5F5F5F5F5F5F5F5F5F5F5E2F5E2E2E2F5E2F5F5F5F5F5F5F5F5F5F5F5F5F5F5F5F5F5F5F5F5F5F5F5F5F5F5F5F5F5F5F5F5F5F5F5F5F5F5F5F5F5F5F5F5F5F5F5F5F5F5F5F5F5F5F5F5F5F5F5F5F5F5F5F5F5F5F5F5F5F5F5F5F5F5F5F5F5F5F5F5F5F5F5F5F5F5F5F5F5F5F5F5F5F5F5F5F5F5
310
F5F5F5F5F5F5F5F5F5F5F5F5F5F5F5F5F5F5F5F5F5F5F5F5F5F5F5F5F5F5F5F5F5F5F5F5F5F5F5F5F5F5F5F5F5F5F5F5F5F5F5F5F5F5F5F5F5F5F5F5F5F5F5F5F5F5F5F5F5F5F5F5F5F5F5E2F5E2E2E2F5E2F5F5F5F5F5F5F5F5F5F5F5F5F5F5F5F5F5F5F5F5F5F5F5F5F5F5F5F5F5F5F5F5F5F5F5F5F5F5F5F5F5F5F5F5F5
310
F5F5F5F5F5F5F5F5F5F5F5F5F5F5F5F5F5F5F5F5F5F5F5F5F5F5F5F5F5F5F5F5F5F5F5F5F5F5F5F5F5F5F5F5F5F5F5F5F5F5F5F5F5F5F5F5F5F5F5F5F5F5F5F5F5F5F5F5F5F5F5F5F5F5F5F5F5F5F5F5F5F5F5F5F5F5F5F5F5F5F5F5F5F5F5F5F5F5F5F5F5F5F5F5F5F5F5F5F5F5F5F5F5F5F5F5F5F5F5F5F5F5F5F5F5F5F5
310
F5E2F5E2E2E2F5E2F5F5F5F5F5F5F5F5F5F5F5F5F5F5F5F5F5F5F5F5F5F5F5F5F5F5F5F5F5F5F5F5F5F5F5F5F5F5F5F5F5F5F5F5F5F5F5F5F5F5F5F5F5F5F5F5F5F5F5F5F5F5F5F5F5F5F5F5F5F5F5F5F5F5F5F5F5F5F5F5F5F5F5F5F5F5F5F5F5F5F5F5F5F5F5F5F5F5F5F5F5F5F5F5F5F5F5F5F5F5F5F5F5F5F5F5F5F5F5
310
F5F5F5F5F5F5F5F5F5F5F5F5F5F5F5F5F5F5F5F5F5F5F5F5F5F5F5F5F5F5F5F5F5F5F5F5F5F5F5F5F5F5F5F5F5F5F5F5F5F5F5F5F5F5E2F5E2E2E2F5E2F5F5F5F5F5F5F5F5F5F5F5F5F5F5F5F5F5F5F5F5F5F5F5F5F5F5F5F5F5F5F5F5F5F5F5F5F5F5F5F5F5F5F5F5F5F5F5F5F5F5F5F5F5F5F5F5F5F5F5F5F5F5F5F5F5F5
310
F5F5F5F5F5F5F5F5F5F5F5F5F5F5F5F5F5F5F5F5F5F5F5F5F5F5F5F5F5F5F5F5F5F5F5F5F5F5F5F5F5F5F5F5F5F5F5F5F5F5F5F5F5F5F5F5F5F5F5F5F5F5F5F5F5F5F5F5F5F5F5F5F5F5F5F5F5F5F5F5F5F5F5F5F5F5F5F5F5F5F5F5F5F5F5F5F5F5F5F5F5F5F5F5F5F5F5E2F5E2E2E2F5E2F5F5F5F5F5F5F5F5F5F5F5F5F5
310
F5F5F5F5F5F5F5F5F5F5F5F5F5F5F5F5F5F5F5F5F5F5F5F5F5F5F5F5F5F5F5F5F5F5F5F5F5F5F5F5F5F5F5F5F5F5F5F5F5F5F5F5F5F5F5F5F5F5F5F5F5F5F5F5F5F5F5F5F5F5F5F5F5F5F5F5F5F5F5F5F5F5F5F5F5F5F5F5F5F5F5F5F5F5F5F5F5F5F5F5F5F5F5F5F5F5F5F5F5F5F5F5F5F5F5F5F5F5F5F5F5F5F5F5F5F5F5
310
F5F5F5F5F5F5F5F5F5F5F5F5F5F5F5F5F5F5F5F5F5F5F5F5F5F5F5F5F5F5F5F5F5E2F5E2E2E2F5E2F5F5F5F5F5F5F5F5F5F5F5F5F5F5F5F5F5F5F5F5F5F5F5F5F5F5F5F5F5F5F5F5F5F5F5F5F5F5F5F5F5F5F5F5F5F5F5F5F5F5F5F5F5F5F5F5F5F5F5F5F5F5F5F5F5F5F5F5F5F5F5F5F5F5F5F5F5F5F5F5F5F5F5F5F5F5F5
310
F5F5F5F5F5F5F5F5F5F5F5F5F5F5F5F5F5F5F5F5F5F5F5F5F5F5F5F5F5F5F5F5F5F5F5F5F5F5F5F5F5F5F5F5F5F5F5F5F5F5F5F5F5F5F5F5F5F5F5F5F5F5F5F5F5F5F5F5F5F5F5F5F5F5F5F5F5F5F5F5F5F5F5F5F5F5E2F5E2E2E2F5E2F5F5F5F5F5F5F5F5F5F5F5F5F5F5F5F5F5F5F5F5F5F5F5F5F5F5F5F5F5F5F5F5F5F5
310
F5F5F5F5F5F5F5F5F5F5F5F5F5F5F5F5F5F5F5F5F5F5F5F5F5F5F5F5F5F5F5F5F5F5F5F5F5F5F5F5F5F5F5F5F5F5F5F5F5F5F5F5F5F5F5F5F5F5F5F5F5F5F5F5F5F5F5F5F5F5F5F5F5F5F5F5F5F5F5F5F5F5F5F5F5F5F5F5F5F5F5F5F5F5F5F5F5F5F5F5F5F5F5F5F5F5F5F5F5F5F5F5F5F5F5F5F5F5F5F5F5F5F5F5F5F5F5
310
F5F5F5F5F5F5F5F5F5F5F5F5E2F5E2E2E2F5E2E2E2E2E2E2E2E2E2E2E2E2E2E2E2E2E2E2E2E2E2E2E2E2E2E2E2E2E2E2E2E2E2E2E2E2E2E2E2E2E2E2E2E2E2E2E2E2E2E2E2E2E2E2E2E2E2E2E2E2E2E2E2E2E2E2E2E2E2E2E2E2E2E2E2E2E2E2E2E2E2E2E2E2E2E2E2E2E2E2E2E2E2E2E2E2E2E2E2E2E2E2E2E2E2E2E2E2E2
310
E2E2E2E2E2E2E2E2E2E2E2E2E2E2E2E2E2E2E2E2E2E2E2E2E2E2E2E2E2E2E2E2E2E2E2E2E2E2E2E2E2E2E2E2E2E2E2E2E2E2E2E2E2E2E2E2E2E2E2E2E2E2E2E2E2E2F5E2E2E2F5F5F5F5F5F5F5F5F5F5F5F5F5F5F5F5F5F5F5F5F5F5F5F5F5F5F5F5F5F5F5F5F5F5F5F5F5F5F5F5F5F5F5F5F5F5F5F5F5F5F5F5F5F5F5F5F5
310
F5F5F5F5F5F5F5F5F5F5F5F5F5F5F5F5F5F5F5F5F5F5F5F5F5F5F5F5F5F5F5F5F5F5F5F5F5F5F5F5F5F5F5F5F5F5F5F5F5F5F5F5F5F5F5F5F5F5F5F5F5F5F5F5F5F5F5F5F5F5F5F5F5F5F5F5F5F5F5F5F5F5F5F5F5F5F5F5F5F5F5F5F5F5F5F5F5F5F5F5F5F5F5F5F5F5F5F5F5F5F5F5F5F5F5F5F5F5F5F5E2EFE2E2E2E2E2
310
E2E2E2E2E2E2E2E2E2E2E2E2E2E2E2E2E2E2E2E2E2E2E2E2E2E2E2E2E2E2E2E2E2E2E2E2E2E2E2E2E2E2E2E2E2E2E2E2E2E2E2E2E2E2E2E2E2E2E2E2E2E2E2E2E2E2E2E2E2E2E2E2E2E2E2E2E2E2E2E2E2E2E2E2E2E2E2E2E2E2E2E2E2E2E2E2E2E2E2E2E2E2E2E2E2E2E2E2E2E2E2E2E2E2E2E2E2E2E2E2E2E2E2E2E2E2E2
310
E2E2E2E2E2E2E2E2E2E2E2E2E2E2E2E2E2E2E2E2E2E2E2E2E2E2E2E2E2E2E2E2E2E2E2E2E2E2E2E2E2E2E2E2E2E2E2EF
  0
XRECORD
  5
4811
102
{ACAD_REACTORS
330
4810
102
}
330
4810
100
AcDbXrecord
280
     1
102
MATERIAL
148
0.0
149
0.0
149
0.0
 93
        0
 94
      127
282
     0
 72
     1
 77
     1
171
     1
175
     1
179
     1
273
     0
  0
XRECORD
  5
480F
102
{ACAD_REACTORS
330
480E
102
}
330
480E
100
AcDbXrecord
280
     1
102
MATERIAL
148
0.0
149
0.0
149
0.0
 93
        0
 94
      127
282
     0
 72
     1
 77
     1
171
     1
175
     1
179
     1
273
     0
  0
XRECORD
  5
4813
102
{ACAD_REACTORS
330
4812
102
}
330
4812
100
AcDbXrecord
280
     1
102
MATERIAL
148
0.0
149
0.0
149
0.0
 93
        0
 94
      127
282
     0
 72
     1
 77
     1
171
     1
175
     1
179
     1
273
     0
  0
CELLSTYLEMAP
  5
480D
102
{ACAD_REACTORS
330
4242
102
}
330
4242
100
AcDbCellStyleMap
 90
        3
300
CELLSTYLE
  1
TABLEFORMAT_BEGIN
 90
        5
170
     1
 91
        0
 92
    32768
 62
   257
 93
        1
300
CONTENTFORMAT
  1
CONTENTFORMAT_BEGIN
 90
        0
 91
        0
 92
      512
 93
        0
300

 40
0.0
140
1.0
 94
        5
 62
     0
340
11
144
0.25
309
CONTENTFORMAT_END
171
     0
 94
        6
 95
        1
302
GRIDFORMAT
  1
GRIDFORMAT_BEGIN
 90
        0
 91
        1
 62
     0
 92
       -2
340
0
 93
        0
 40
0.045
309
GRIDFORMAT_END
 95
        2
302
GRIDFORMAT
  1
GRIDFORMAT_BEGIN
 90
        0
 91
        1
 62
     0
 92
       -2
340
0
 93
        0
 40
0.045
309
GRIDFORMAT_END
 95
        4
302
GRIDFORMAT
  1
GRIDFORMAT_BEGIN
 90
        0
 91
        1
 62
     0
 92
       -2
340
0
 93
        0
 40
0.045
309
GRIDFORMAT_END
 95
        8
302
GRIDFORMAT
  1
GRIDFORMAT_BEGIN
 90
        0
 91
        1
 62
     0
 92
       -2
340
0
 93
        0
 40
0.045
309
GRIDFORMAT_END
 95
       16
302
GRIDFORMAT
  1
GRIDFORMAT_BEGIN
 90
        0
 91
        1
 62
     0
 92
       -2
340
0
 93
        0
 40
0.045
309
GRIDFORMAT_END
 95
       32
302
GRIDFORMAT
  1
GRIDFORMAT_BEGIN
 90
        0
 91
        1
 62
     0
 92
       -2
340
0
 93
        0
 40
0.045
309
GRIDFORMAT_END
309
TABLEFORMAT_END
  1
CELLSTYLE_BEGIN
 90
        1
 91
        1
300
_TITLE
309
CELLSTYLE_END
300
CELLSTYLE
  1
TABLEFORMAT_BEGIN
 90
        5
170
     1
 91
        0
 92
        0
 62
   257
 93
        1
300
CONTENTFORMAT
  1
CONTENTFORMAT_BEGIN
 90
        0
 91
        0
 92
      512
 93
        0
300

 40
0.0
140
1.0
 94
        5
 62
     0
340
11
144
0.18
309
CONTENTFORMAT_END
171
     0
 94
        6
 95
        1
302
GRIDFORMAT
  1
GRIDFORMAT_BEGIN
 90
        0
 91
        1
 62
     0
 92
       -2
340
0
 93
        0
 40
0.045
309
GRIDFORMAT_END
 95
        2
302
GRIDFORMAT
  1
GRIDFORMAT_BEGIN
 90
        0
 91
        1
 62
     0
 92
       -2
340
0
 93
        0
 40
0.045
309
GRIDFORMAT_END
 95
        4
302
GRIDFORMAT
  1
GRIDFORMAT_BEGIN
 90
        0
 91
        1
 62
     0
 92
       -2
340
0
 93
        0
 40
0.045
309
GRIDFORMAT_END
 95
        8
302
GRIDFORMAT
  1
GRIDFORMAT_BEGIN
 90
        0
 91
        1
 62
     0
 92
       -2
340
0
 93
        0
 40
0.045
309
GRIDFORMAT_END
 95
       16
302
GRIDFORMAT
  1
GRIDFORMAT_BEGIN
 90
        0
 91
        1
 62
     0
 92
       -2
340
0
 93
        0
 40
0.045
309
GRIDFORMAT_END
 95
       32
302
GRIDFORMAT
  1
GRIDFORMAT_BEGIN
 90
        0
 91
        1
 62
     0
 92
       -2
340
0
 93
        0
 40
0.045
309
GRIDFORMAT_END
309
TABLEFORMAT_END
  1
CELLSTYLE_BEGIN
 90
        2
 91
        1
300
_HEADER
309
CELLSTYLE_END
300
CELLSTYLE
  1
TABLEFORMAT_BEGIN
 90
        5
170
     1
 91
        0
 92
        0
 62
   257
 93
        1
300
CONTENTFORMAT
  1
CONTENTFORMAT_BEGIN
 90
        0
 91
        0
 92
      512
 93
        0
300

 40
0.0
140
1.0
 94
        2
 62
     0
340
11
144
0.18
309
CONTENTFORMAT_END
171
     0
 94
        6
 95
        1
302
GRIDFORMAT
  1
GRIDFORMAT_BEGIN
 90
        0
 91
        1
 62
     0
 92
       -2
340
0
 93
        0
 40
0.045
309
GRIDFORMAT_END
 95
        2
302
GRIDFORMAT
  1
GRIDFORMAT_BEGIN
 90
        0
 91
        1
 62
     0
 92
       -2
340
0
 93
        0
 40
0.045
309
GRIDFORMAT_END
 95
        4
302
GRIDFORMAT
  1
GRIDFORMAT_BEGIN
 90
        0
 91
        1
 62
     0
 92
       -2
340
0
 93
        0
 40
0.045
309
GRIDFORMAT_END
 95
        8
302
GRIDFORMAT
  1
GRIDFORMAT_BEGIN
 90
        0
 91
        1
 62
     0
 92
       -2
340
0
 93
        0
 40
0.045
309
GRIDFORMAT_END
 95
       16
302
GRIDFORMAT
  1
GRIDFORMAT_BEGIN
 90
        0
 91
        1
 62
     0
 92
       -2
340
0
 93
        0
 40
0.045
309
GRIDFORMAT_END
 95
       32
302
GRIDFORMAT
  1
GRIDFORMAT_BEGIN
 90
        0
 91
        1
 62
     0
 92
       -2
340
0
 93
        0
 40
0.045
309
GRIDFORMAT_END
309
TABLEFORMAT_END
  1
CELLSTYLE_BEGIN
 90
        3
 91
        2
300
_DATA
309
CELLSTYLE_END
  0
XRECORD
  5
4814
102
{ACAD_REACTORS
330
4242
102
}
330
4242
100
AcDbXrecord
280
     1
102
ACAD_ROUNDTRIP_PRE2007_TABLESTYLE
 90
      512
 91
        0
  1

 92
      512
 93
        0
  2

 94
      512
 95
        0
  3

  0
XRECORD
  5
49B
102
{ACAD_REACTORS
330
49A
102
}
330
49A
100
AcDbXrecord
280
     1
102
RTVSPropertyOp0
 70
     1
102
RTVSPropertyOp1
 70
     1
102
RTVSPropertyOp2
 70
     1
102
RTVSPropertyOp3
 70
     1
102
RTVSPropertyOp4
 70
     1
102
RTVSPropertyOp5
 70
     1
102
RTVSPropertyOp6
 70
     1
102
RTVSPropertyOp7
 70
     1
102
RTVSPropertyOp8
 70
     1
102
RTVSPropertyOp9
 70
     1
102
RTVSPropertyOp10
 70
     1
102
RTVSPropertyOp11
 70
     1
102
RTVSPropertyOp12
 70
     1
102
RTVSPropertyOp13
 70
     1
102
RTVSPropertyOp14
 70
     1
102
RTVSPropertyOp15
 70
     1
102
RTVSPropertyOp16
 70
     1
102
RTVSPropertyOp17
 70
     1
102
RTVSPropertyOp18
 70
     1
102
RTVSPropertyOp19
 70
     1
102
RTVSPropertyOp20
 70
     1
102
RTVSPropertyOp21
 70
     1
102
RTVSPropertyOp22
 70
     1
102
RTVSPropertyOp23
 70
     1
102
RTVSPropertyOp24
 70
     1
102
RTVSPropertyOp25
 70
     1
102
RTVSPropertyOp26
 70
     1
102
RTVSPropertyOp27
 70
     1
  0
XRECORD
  5
A4A
102
{ACAD_REACTORS
330
A49
102
}
330
A49
100
AcDbXrecord
280
     1
102
RTVSPropertyOp0
 70
     1
102
RTVSPropertyOp1
 70
     1
102
RTVSPropertyOp2
 70
     1
102
RTVSPropertyOp3
 70
     1
102
RTVSPropertyOp4
 70
     1
102
RTVSPropertyOp5
 70
     1
102
RTVSPropertyOp6
 70
     1
102
RTVSPropertyOp7
 70
     1
102
RTVSPropertyOp8
 70
     1
102
RTVSPropertyOp9
 70
     1
102
RTVSPropertyOp10
 70
     1
102
RTVSPropertyOp11
 70
     1
102
RTVSPropertyOp12
 70
     1
102
RTVSPropertyOp13
 70
     1
102
RTVSPropertyOp14
 70
     1
102
RTVSPropertyOp15
 70
     1
102
RTVSPropertyOp16
 70
     1
102
RTVSPropertyOp17
 70
     1
102
RTVSPropertyOp18
 70
     1
102
RTVSPropertyOp19
 70
     1
102
RTVSPropertyOp20
 70
     1
102
RTVSPropertyOp21
 70
     1
102
RTVSPropertyOp22
 70
     1
102
RTVSPropertyOp23
 70
     1
102
RTVSPropertyOp24
 70
     1
102
RTVSPropertyOp25
 70
     1
102
RTVSPropertyOp26
 70
     1
102
RTVSPropertyOp27
 70
     1
  0
XRECORD
  5
4A1
102
{ACAD_REACTORS
330
4A0
102
}
330
4A0
100
AcDbXrecord
280
     1
102
RTVSPropertyOp0
 70
     1
102
RTVSPropertyOp1
 70
     1
102
RTVSPropertyOp2
 70
     1
102
RTVSPropertyOp3
 70
     1
102
RTVSPropertyOp4
 70
     1
102
RTVSPropertyOp5
 70
     1
102
RTVSPropertyOp6
 70
     1
102
RTVSPropertyOp7
 70
     1
102
RTVSPropertyOp8
 70
     1
102
RTVSPropertyOp9
 70
     1
102
RTVSPropertyOp10
 70
     1
102
RTVSPropertyOp11
 70
     1
102
RTVSPropertyOp12
 70
     1
102
RTVSPropertyOp13
 70
     1
102
RTVSPropertyOp14
 70
     1
102
RTVSPropertyOp15
 70
     1
102
RTVSPropertyOp16
 70
     1
102
RTVSPropertyOp17
 70
     1
102
RTVSPropertyOp18
 70
     1
102
RTVSPropertyOp19
 70
     1
102
RTVSPropertyOp20
 70
     1
102
RTVSPropertyOp21
 70
     1
102
RTVSPropertyOp22
 70
     1
102
RTVSPropertyOp23
 70
     1
102
RTVSPropertyOp24
 70
     1
102
RTVSPropertyOp25
 70
     1
102
RTVSPropertyOp26
 70
     1
102
RTVSPropertyOp27
 70
     1
  0
XRECORD
  5
4A9
102
{ACAD_REACTORS
330
4A8
102
}
330
4A8
100
AcDbXrecord
280
     1
102
RTVSPropertyOp0
 70
     1
102
RTVSPropertyOp1
 70
     1
102
RTVSPropertyOp2
 70
     1
102
RTVSPropertyOp3
 70
     1
102
RTVSPropertyOp4
 70
     1
102
RTVSPropertyOp5
 70
     1
102
RTVSPropertyOp6
 70
     1
102
RTVSPropertyOp7
 70
     1
102
RTVSPropertyOp8
 70
     1
102
RTVSPropertyOp9
 70
     1
102
RTVSPropertyOp10
 70
     1
102
RTVSPropertyOp11
 70
     1
102
RTVSPropertyOp12
 70
     1
102
RTVSPropertyOp13
 70
     1
102
RTVSPropertyOp14
 70
     1
102
RTVSPropertyOp15
 70
     1
102
RTVSPropertyOp16
 70
     1
102
RTVSPropertyOp17
 70
     1
102
RTVSPropertyOp18
 70
     1
102
RTVSPropertyOp19
 70
     1
102
RTVSPropertyOp20
 70
     1
102
RTVSPropertyOp21
 70
     1
102
RTVSPropertyOp22
 70
     1
102
RTVSPropertyOp23
 70
     1
102
RTVSPropertyOp24
 70
     1
102
RTVSPropertyOp25
 70
     1
102
RTVSPropertyOp26
 70
     1
102
RTVSPropertyOp27
 70
     1
  0
XRECORD
  5
4B1
102
{ACAD_REACTORS
330
4B0
102
}
330
4B0
100
AcDbXrecord
280
     1
102
RTVSPropertyOp0
 70
     1
102
RTVSPropertyOp1
 70
     1
102
RTVSPropertyOp2
 70
     1
102
RTVSPropertyOp3
 70
     1
102
RTVSPropertyOp4
 70
     1
102
RTVSPropertyOp5
 70
     1
102
RTVSPropertyOp6
 70
     1
102
RTVSPropertyOp7
 70
     1
102
RTVSPropertyOp8
 70
     1
102
RTVSPropertyOp9
 70
     1
102
RTVSPropertyOp10
 70
     1
102
RTVSPropertyOp11
 70
     1
102
RTVSPropertyOp12
 70
     1
102
RTVSPropertyOp13
 70
     1
102
RTVSPropertyOp14
 70
     1
102
RTVSPropertyOp15
 70
     1
102
RTVSPropertyOp16
 70
     1
102
RTVSPropertyOp17
 70
     1
102
RTVSPropertyOp18
 70
     1
102
RTVSPropertyOp19
 70
     1
102
RTVSPropertyOp20
 70
     1
102
RTVSPropertyOp21
 70
     1
102
RTVSPropertyOp22
 70
     1
102
RTVSPropertyOp23
 70
     1
102
RTVSPropertyOp24
 70
     1
102
RTVSPropertyOp25
 70
     1
102
RTVSPropertyOp26
 70
     1
102
RTVSPropertyOp27
 70
     1
  0
XRECORD
  5
4A7
102
{ACAD_REACTORS
330
4A6
102
}
330
4A6
100
AcDbXrecord
280
     1
102
RTVSPropertyOp0
 70
     1
102
RTVSPropertyOp1
 70
     1
102
RTVSPropertyOp2
 70
     1
102
RTVSPropertyOp3
 70
     1
102
RTVSPropertyOp4
 70
     1
102
RTVSPropertyOp5
 70
     1
102
RTVSPropertyOp6
 70
     1
102
RTVSPropertyOp7
 70
     1
102
RTVSPropertyOp8
 70
     1
102
RTVSPropertyOp9
 70
     1
102
RTVSPropertyOp10
 70
     1
102
RTVSPropertyOp11
 70
     1
102
RTVSPropertyOp12
 70
     1
102
RTVSPropertyOp13
 70
     1
102
RTVSPropertyOp14
 70
     1
102
RTVSPropertyOp15
 70
     1
102
RTVSPropertyOp16
 70
     1
102
RTVSPropertyOp17
 70
     1
102
RTVSPropertyOp18
 70
     1
102
RTVSPropertyOp19
 70
     1
102
RTVSPropertyOp20
 70
     1
102
RTVSPropertyOp21
 70
     1
102
RTVSPropertyOp22
 70
     1
102
RTVSPropertyOp23
 70
     1
102
RTVSPropertyOp24
 70
     1
102
RTVSPropertyOp25
 70
     1
102
RTVSPropertyOp26
 70
     1
102
RTVSPropertyOp27
 70
     1
  0
XRECORD
  5
4AF
102
{ACAD_REACTORS
330
4AE
102
}
330
4AE
100
AcDbXrecord
280
     1
102
RTVSPropertyOp0
 70
     1
102
RTVSPropertyOp1
 70
     1
102
RTVSPropertyOp2
 70
     1
102
RTVSPropertyOp3
 70
     1
102
RTVSPropertyOp4
 70
     1
102
RTVSPropertyOp5
 70
     1
102
RTVSPropertyOp6
 70
     1
102
RTVSPropertyOp7
 70
     1
102
RTVSPropertyOp8
 70
     1
102
RTVSPropertyOp9
 70
     1
102
RTVSPropertyOp10
 70
     1
102
RTVSPropertyOp11
 70
     1
102
RTVSPropertyOp12
 70
     1
102
RTVSPropertyOp13
 70
     1
102
RTVSPropertyOp14
 70
     1
102
RTVSPropertyOp15
 70
     1
102
RTVSPropertyOp16
 70
     1
102
RTVSPropertyOp17
 70
     1
102
RTVSPropertyOp18
 70
     1
102
RTVSPropertyOp19
 70
     1
102
RTVSPropertyOp20
 70
     1
102
RTVSPropertyOp21
 70
     1
102
RTVSPropertyOp22
 70
     1
102
RTVSPropertyOp23
 70
     1
102
RTVSPropertyOp24
 70
     1
102
RTVSPropertyOp25
 70
     1
102
RTVSPropertyOp26
 70
     1
102
RTVSPropertyOp27
 70
     1
  0
XRECORD
  5
493
102
{ACAD_REACTORS
330
492
102
}
330
492
100
AcDbXrecord
280
     1
102
RTVSPropertyOp0
 70
     1
102
RTVSPropertyOp1
 70
     1
102
RTVSPropertyOp2
 70
     1
102
RTVSPropertyOp3
 70
     1
102
RTVSPropertyOp4
 70
     1
102
RTVSPropertyOp5
 70
     1
102
RTVSPropertyOp6
 70
     1
102
RTVSPropertyOp7
 70
     1
102
RTVSPropertyOp8
 70
     1
102
RTVSPropertyOp9
 70
     1
102
RTVSPropertyOp10
 70
     1
102
RTVSPropertyOp11
 70
     1
102
RTVSPropertyOp12
 70
     1
102
RTVSPropertyOp13
 70
     1
102
RTVSPropertyOp14
 70
     1
102
RTVSPropertyOp15
 70
     1
102
RTVSPropertyOp16
 70
     1
102
RTVSPropertyOp17
 70
     1
102
RTVSPropertyOp18
 70
     1
102
RTVSPropertyOp19
 70
     1
102
RTVSPropertyOp20
 70
     1
102
RTVSPropertyOp21
 70
     1
102
RTVSPropertyOp22
 70
     1
102
RTVSPropertyOp23
 70
     1
102
RTVSPropertyOp24
 70
     1
102
RTVSPropertyOp25
 70
     1
102
RTVSPropertyOp26
 70
     1
102
RTVSPropertyOp27
 70
     1
  0
XRECORD
  5
495
102
{ACAD_REACTORS
330
494
102
}
330
494
100
AcDbXrecord
280
     1
102
RTVSPropertyOp0
 70
     1
102
RTVSPropertyOp1
 70
     1
102
RTVSPropertyOp2
 70
     1
102
RTVSPropertyOp3
 70
     1
102
RTVSPropertyOp4
 70
     1
102
RTVSPropertyOp5
 70
     1
102
RTVSPropertyOp6
 70
     1
102
RTVSPropertyOp7
 70
     1
102
RTVSPropertyOp8
 70
     1
102
RTVSPropertyOp9
 70
     1
102
RTVSPropertyOp10
 70
     1
102
RTVSPropertyOp11
 70
     1
102
RTVSPropertyOp12
 70
     1
102
RTVSPropertyOp13
 70
     1
102
RTVSPropertyOp14
 70
     1
102
RTVSPropertyOp15
 70
     1
102
RTVSPropertyOp16
 70
     1
102
RTVSPropertyOp17
 70
     1
102
RTVSPropertyOp18
 70
     1
102
RTVSPropertyOp19
 70
     1
102
RTVSPropertyOp20
 70
     1
102
RTVSPropertyOp21
 70
     1
102
RTVSPropertyOp22
 70
     1
102
RTVSPropertyOp23
 70
     1
102
RTVSPropertyOp24
 70
     1
102
RTVSPropertyOp25
 70
     1
102
RTVSPropertyOp26
 70
     1
102
RTVSPropertyOp27
 70
     1
  0
XRECORD
  5
497
102
{ACAD_REACTORS
330
496
102
}
330
496
100
AcDbXrecord
280
     1
102
RTVSPropertyOp0
 70
     1
102
RTVSPropertyOp1
 70
     1
102
RTVSPropertyOp2
 70
     1
102
RTVSPropertyOp3
 70
     1
102
RTVSPropertyOp4
 70
     1
102
RTVSPropertyOp5
 70
     1
102
RTVSPropertyOp6
 70
     1
102
RTVSPropertyOp7
 70
     1
102
RTVSPropertyOp8
 70
     1
102
RTVSPropertyOp9
 70
     1
102
RTVSPropertyOp10
 70
     1
102
RTVSPropertyOp11
 70
     1
102
RTVSPropertyOp12
 70
     1
102
RTVSPropertyOp13
 70
     1
102
RTVSPropertyOp14
 70
     1
102
RTVSPropertyOp15
 70
     1
102
RTVSPropertyOp16
 70
     1
102
RTVSPropertyOp17
 70
     1
102
RTVSPropertyOp18
 70
     1
102
RTVSPropertyOp19
 70
     1
102
RTVSPropertyOp20
 70
     1
102
RTVSPropertyOp21
 70
     1
102
RTVSPropertyOp22
 70
     1
102
RTVSPropertyOp23
 70
     1
102
RTVSPropertyOp24
 70
     1
102
RTVSPropertyOp25
 70
     1
102
RTVSPropertyOp26
 70
     1
102
RTVSPropertyOp27
 70
     1
  0
XRECORD
  5
499
102
{ACAD_REACTORS
330
498
102
}
330
498
100
AcDbXrecord
280
     1
102
RTVSPropertyOp0
 70
     1
102
RTVSPropertyOp1
 70
     1
102
RTVSPropertyOp2
 70
     1
102
RTVSPropertyOp3
 70
     1
102
RTVSPropertyOp4
 70
     1
102
RTVSPropertyOp5
 70
     1
102
RTVSPropertyOp6
 70
     1
102
RTVSPropertyOp7
 70
     1
102
RTVSPropertyOp8
 70
     1
102
RTVSPropertyOp9
 70
     1
102
RTVSPropertyOp10
 70
     1
102
RTVSPropertyOp11
 70
     1
102
RTVSPropertyOp12
 70
     1
102
RTVSPropertyOp13
 70
     1
102
RTVSPropertyOp14
 70
     1
102
RTVSPropertyOp15
 70
     1
102
RTVSPropertyOp16
 70
     1
102
RTVSPropertyOp17
 70
     1
102
RTVSPropertyOp18
 70
     1
102
RTVSPropertyOp19
 70
     1
102
RTVSPropertyOp20
 70
     1
102
RTVSPropertyOp21
 70
     1
102
RTVSPropertyOp22
 70
     1
102
RTVSPropertyOp23
 70
     1
102
RTVSPropertyOp24
 70
     1
102
RTVSPropertyOp25
 70
     1
102
RTVSPropertyOp26
 70
     1
102
RTVSPropertyOp27
 70
     1
  0
XRECORD
  5
4AD
102
{ACAD_REACTORS
330
4AC
102
}
330
4AC
100
AcDbXrecord
280
     1
102
RTVSPropertyOp0
 70
     1
102
RTVSPropertyOp1
 70
     1
102
RTVSPropertyOp2
 70
     1
102
RTVSPropertyOp3
 70
     1
102
RTVSPropertyOp4
 70
     1
102
RTVSPropertyOp5
 70
     1
102
RTVSPropertyOp6
 70
     1
102
RTVSPropertyOp7
 70
     1
102
RTVSPropertyOp8
 70
     1
102
RTVSPropertyOp9
 70
     1
102
RTVSPropertyOp10
 70
     1
102
RTVSPropertyOp11
 70
     1
102
RTVSPropertyOp12
 70
     1
102
RTVSPropertyOp13
 70
     1
102
RTVSPropertyOp14
 70
     1
102
RTVSPropertyOp15
 70
     1
102
RTVSPropertyOp16
 70
     1
102
RTVSPropertyOp17
 70
     1
102
RTVSPropertyOp18
 70
     1
102
RTVSPropertyOp19
 70
     1
102
RTVSPropertyOp20
 70
     1
102
RTVSPropertyOp21
 70
     1
102
RTVSPropertyOp22
 70
     1
102
RTVSPropertyOp23
 70
     1
102
RTVSPropertyOp24
 70
     1
102
RTVSPropertyOp25
 70
     1
102
RTVSPropertyOp26
 70
     1
102
RTVSPropertyOp27
 70
     1
  0
XRECORD
  5
A4E
102
{ACAD_REACTORS
330
A4D
102
}
330
A4D
100
AcDbXrecord
280
     1
102
RTVSPropertyOp0
 70
     1
102
RTVSPropertyOp1
 70
     1
102
RTVSPropertyOp2
 70
     1
102
RTVSPropertyOp3
 70
     1
102
RTVSPropertyOp4
 70
     1
102
RTVSPropertyOp5
 70
     1
102
RTVSPropertyOp6
 70
     1
102
RTVSPropertyOp7
 70
     1
102
RTVSPropertyOp8
 70
     1
102
RTVSPropertyOp9
 70
     1
102
RTVSPropertyOp10
 70
     1
102
RTVSPropertyOp11
 70
     1
102
RTVSPropertyOp12
 70
     1
102
RTVSPropertyOp13
 70
     1
102
RTVSPropertyOp14
 70
     1
102
RTVSPropertyOp15
 70
     1
102
RTVSPropertyOp16
 70
     1
102
RTVSPropertyOp17
 70
     1
102
RTVSPropertyOp18
 70
     1
102
RTVSPropertyOp19
 70
     1
102
RTVSPropertyOp20
 70
     1
102
RTVSPropertyOp21
 70
     1
102
RTVSPropertyOp22
 70
     1
102
RTVSPropertyOp23
 70
     1
102
RTVSPropertyOp24
 70
     1
102
RTVSPropertyOp25
 70
     1
102
RTVSPropertyOp26
 70
     1
102
RTVSPropertyOp27
 70
     1
  0
XRECORD
  5
4AB
102
{ACAD_REACTORS
330
4AA
102
}
330
4AA
100
AcDbXrecord
280
     1
102
RTVSPropertyOp0
 70
     1
102
RTVSPropertyOp1
 70
     1
102
RTVSPropertyOp2
 70
     1
102
RTVSPropertyOp3
 70
     1
102
RTVSPropertyOp4
 70
     1
102
RTVSPropertyOp5
 70
     1
102
RTVSPropertyOp6
 70
     1
102
RTVSPropertyOp7
 70
     1
102
RTVSPropertyOp8
 70
     1
102
RTVSPropertyOp9
 70
     1
102
RTVSPropertyOp10
 70
     1
102
RTVSPropertyOp11
 70
     1
102
RTVSPropertyOp12
 70
     1
102
RTVSPropertyOp13
 70
     1
102
RTVSPropertyOp14
 70
     1
102
RTVSPropertyOp15
 70
     1
102
RTVSPropertyOp16
 70
     1
102
RTVSPropertyOp17
 70
     1
102
RTVSPropertyOp18
 70
     1
102
RTVSPropertyOp19
 70
     1
102
RTVSPropertyOp20
 70
     1
102
RTVSPropertyOp21
 70
     1
102
RTVSPropertyOp22
 70
     1
102
RTVSPropertyOp23
 70
     1
102
RTVSPropertyOp24
 70
     1
102
RTVSPropertyOp25
 70
     1
102
RTVSPropertyOp26
 70
     1
102
RTVSPropertyOp27
 70
     1
  0
ENDSEC
  0
EOF
