  0
SECTION
  2
HEADER
  9
$ACADVER
  1
AC1018
  9
$ACADMAINTVER
 70
   104
  9
$DWGCODEPAGE
  3
ANSI_1250
  9
$LASTSAVEDBY
  1
bonzo
  9
$INSBASE
 10
0.0
 20
0.0
 30
0.0
  9
$EXTMIN
 10
5.417093002249949
 20
-0.1749619946611948
 30
0.0
  9
$EXTMAX
 10
13.78328376826816
 20
9.589845449795454
 30
0.0
  9
$LIMMIN
 10
0.0
 20
0.0
  9
$LIMMAX
 10
12.0
 20
9.0
  9
$ORTHOMODE
 70
     1
  9
$REGENMODE
 70
     1
  9
$FILLMODE
 70
     1
  9
$QTEXTMODE
 70
     0
  9
$MIRRTEXT
 70
     1
  9
$LTSCALE
 40
1.0
  9
$ATTMODE
 70
     1
  9
$TEXTSIZE
 40
0.2
  9
$TRACEWID
 40
0.05
  9
$TEXTSTYLE
  7
Standard
  9
$CLAYER
  8
STREFA BEZPIECZEŃSTWA
  9
$CELTYPE
  6
ByLayer
  9
$CECOLOR
 62
   256
  9
$CELTSCALE
 40
1.0
  9
$DISPSILH
 70
     0
  9
$DIMSCALE
 40
0.02
  9
$DIMASZ
 40
3.0
  9
$DIMEXO
 40
20.0
  9
$DIMDLI
 40
0.0
  9
$DIMRND
 40
0.05
  9
$DIMDLE
 40
0.0
  9
$DIMEXE
 40
5.0
  9
$DIMTP
 40
0.0
  9
$DIMTM
 40
0.0
  9
$DIMTXT
 40
9.0
  9
$DIMCEN
 40
12.0
  9
$DIMTSZ
 40
0.0
  9
$DIMTOL
 70
     0
  9
$DIMLIM
 70
     0
  9
$DIMTIH
 70
     0
  9
$DIMTOH
 70
     0
  9
$DIMSE1
 70
     1
  9
$DIMSE2
 70
     1
  9
$DIMTAD
 70
     1
  9
$DIMZIN
 70
     1
  9
$DIMBLK
  1

  9
$DIMASO
 70
     1
  9
$DIMSHO
 70
     1
  9
$DIMPOST
  1

  9
$DIMAPOST
  1

  9
$DIMALT
 70
     0
  9
$DIMALTD
 70
     4
  9
$DIMALTF
 40
1.0
  9
$DIMLFAC
 40
1.0
  9
$DIMTOFL
 70
     1
  9
$DIMTVP
 40
0.0
  9
$DIMTIX
 70
     1
  9
$DIMSOXD
 70
     0
  9
$DIMSAH
 70
     1
  9
$DIMBLK1
  1
MAR-STRZ
  9
$DIMBLK2
  1
MAR-STRZ
  9
$DIMSTYLE
  2
AR SKALA 1-50
  9
$DIMCLRD
 70
   256
  9
$DIMCLRE
 70
   256
  9
$DIMCLRT
 70
   256
  9
$DIMTFAC
 40
0.01
  9
$DIMGAP
 40
6.0
  9
$DIMJUST
 70
     0
  9
$DIMSD1
 70
     0
  9
$DIMSD2
 70
     0
  9
$DIMTOLJ
 70
     1
  9
$DIMTZIN
 70
     0
  9
$DIMALTZ
 70
     0
  9
$DIMALTTZ
 70
     0
  9
$DIMUPT
 70
     0
  9
$DIMDEC
 70
     2
  9
$DIMTDEC
 70
     2
  9
$DIMALTU
 70
     2
  9
$DIMALTTD
 70
     4
  9
$DIMTXSTY
  7
AR 01 SWIS
  9
$DIMAUNIT
 70
     0
  9
$DIMADEC
 70
     1
  9
$DIMALTRND
 40
0.0
  9
$DIMAZIN
 70
     0
  9
$DIMDSEP
 70
    46
  9
$DIMATFIT
 70
     3
  9
$DIMFRAC
 70
     0
  9
$DIMLDRBLK
  1
MAR-STRZ
  9
$DIMLUNIT
 70
     2
  9
$DIMLWD
 70
    -2
  9
$DIMLWE
 70
    -2
  9
$DIMTMOVE
 70
     2
  9
$LUNITS
 70
     2
  9
$LUPREC
 70
     4
  9
$SKETCHINC
 40
0.1
  9
$FILLETRAD
 40
0.5
  9
$AUNITS
 70
     0
  9
$AUPREC
 70
     0
  9
$MENU
  1
.
  9
$ELEVATION
 40
0.0
  9
$PELEVATION
 40
0.0
  9
$THICKNESS
 40
0.0
  9
$LIMCHECK
 70
     0
  9
$CHAMFERA
 40
0.5
  9
$CHAMFERB
 40
0.5
  9
$CHAMFERC
 40
1.0
  9
$CHAMFERD
 40
0.0
  9
$SKPOLY
 70
     0
  9
$TDCREATE
 40
2455956.499359827
  9
$TDUCREATE
 40
2455956.416026493
  9
$TDUPDATE
 40
2459311.313999606
  9
$TDUUPDATE
 40
2459311.230666274
  9
$TDINDWG
 40
0.1710696759
  9
$TDUSRTIMER
 40
0.1710696759
  9
$USRTIMER
 70
     1
  9
$ANGBASE
 50
0.0
  9
$ANGDIR
 70
     0
  9
$PDMODE
 70
     0
  9
$PDSIZE
 40
0.0
  9
$PLINEWID
 40
0.0
  9
$SPLFRAME
 70
     0
  9
$SPLINETYPE
 70
     6
  9
$SPLINESEGS
 70
     8
  9
$HANDSEED
  5
930B
  9
$SURFTAB1
 70
     6
  9
$SURFTAB2
 70
     6
  9
$SURFTYPE
 70
     6
  9
$SURFU
 70
     6
  9
$SURFV
 70
     6
  9
$UCSBASE
  2

  9
$UCSNAME
  2

  9
$UCSORG
 10
0.0
 20
0.0
 30
0.0
  9
$UCSXDIR
 10
1.0
 20
0.0
 30
0.0
  9
$UCSYDIR
 10
0.0
 20
1.0
 30
0.0
  9
$UCSORTHOREF
  2

  9
$UCSORTHOVIEW
 70
     0
  9
$UCSORGTOP
 10
0.0
 20
0.0
 30
0.0
  9
$UCSORGBOTTOM
 10
0.0
 20
0.0
 30
0.0
  9
$UCSORGLEFT
 10
0.0
 20
0.0
 30
0.0
  9
$UCSORGRIGHT
 10
0.0
 20
0.0
 30
0.0
  9
$UCSORGFRONT
 10
0.0
 20
0.0
 30
0.0
  9
$UCSORGBACK
 10
0.0
 20
0.0
 30
0.0
  9
$PUCSBASE
  2

  9
$PUCSNAME
  2

  9
$PUCSORG
 10
0.0
 20
0.0
 30
0.0
  9
$PUCSXDIR
 10
1.0
 20
0.0
 30
0.0
  9
$PUCSYDIR
 10
0.0
 20
1.0
 30
0.0
  9
$PUCSORTHOREF
  2

  9
$PUCSORTHOVIEW
 70
     0
  9
$PUCSORGTOP
 10
0.0
 20
0.0
 30
0.0
  9
$PUCSORGBOTTOM
 10
0.0
 20
0.0
 30
0.0
  9
$PUCSORGLEFT
 10
0.0
 20
0.0
 30
0.0
  9
$PUCSORGRIGHT
 10
0.0
 20
0.0
 30
0.0
  9
$PUCSORGFRONT
 10
0.0
 20
0.0
 30
0.0
  9
$PUCSORGBACK
 10
0.0
 20
0.0
 30
0.0
  9
$USERI1
 70
     0
  9
$USERI2
 70
     0
  9
$USERI3
 70
     0
  9
$USERI4
 70
     0
  9
$USERI5
 70
     0
  9
$USERR1
 40
0.0
  9
$USERR2
 40
0.0
  9
$USERR3
 40
0.0
  9
$USERR4
 40
0.0
  9
$USERR5
 40
0.0
  9
$WORLDVIEW
 70
     1
  9
$SHADEDGE
 70
     3
  9
$SHADEDIF
 70
    70
  9
$TILEMODE
 70
     1
  9
$MAXACTVP
 70
    64
  9
$PINSBASE
 10
0.0
 20
0.0
 30
0.0
  9
$PLIMCHECK
 70
     0
  9
$PEXTMIN
 10
6.561544945354853
 20
3.282189374834842
 30
0.0
  9
$PEXTMAX
 10
416.7133315898103
 20
290.5875349075164
 30
0.0
  9
$PLIMMIN
 10
3.386557152386103
 20
0.1071894225185588
  9
$PLIMMAX
 10
423.5448823476986
 20
297.1601984557217
  9
$UNITMODE
 70
     0
  9
$VISRETAIN
 70
     1
  9
$PLINEGEN
 70
     0
  9
$PSLTSCALE
 70
     0
  9
$TREEDEPTH
 70
  3020
  9
$CMLSTYLE
  2
Standard
  9
$CMLJUST
 70
     0
  9
$CMLSCALE
 40
1.0
  9
$PROXYGRAPHICS
 70
     1
  9
$MEASUREMENT
 70
     0
  9
$CELWEIGHT
370
    -1
  9
$ENDCAPS
280
     0
  9
$JOINSTYLE
280
     0
  9
$LWDISPLAY
290
     0
  9
$INSUNITS
 70
     1
  9
$HYPERLINKBASE
  1

  9
$STYLESHEET
  1

  9
$XEDIT
290
     1
  9
$CEPSNTYPE
380
     0
  9
$PSTYLEMODE
290
     1
  9
$FINGERPRINTGUID
  2
{1B330B5B-CE04-4EC8-B886-8C8BFC3A02BF}
  9
$VERSIONGUID
  2
{FCC0A145-EFD1-4F87-A22E-CFCFCBDEFEE3}
  9
$EXTNAMES
290
     1
  9
$PSVPSCALE
 40
0.0
  9
$OLESTARTUP
290
     0
  9
$SORTENTS
280
   127
  9
$INDEXCTL
280
     0
  9
$HIDETEXT
280
     1
  9
$XCLIPFRAME
290
     0
  9
$HALOGAP
280
     0
  9
$OBSCOLOR
 70
   257
  9
$OBSLTYPE
280
     0
  9
$INTERSECTIONDISPLAY
280
     0
  9
$INTERSECTIONCOLOR
 70
   257
  9
$DIMASSOC
280
     2
  9
$PROJECTNAME
  1

  0
ENDSEC
  0
SECTION
  2
CLASSES
  0
CLASS
  1
ACDBDICTIONARYWDFLT
  2
AcDbDictionaryWithDefault
  3
ObjectDBX Classes
 90
        0
 91
        1
280
     0
281
     0
  0
CLASS
  1
VISUALSTYLE
  2
AcDbVisualStyle
  3
ObjectDBX Classes
 90
     4095
 91
       16
280
     0
281
     0
  0
CLASS
  1
MATERIAL
  2
AcDbMaterial
  3
ObjectDBX Classes
 90
     1153
 91
        3
280
     0
281
     0
  0
CLASS
  1
DICTIONARYVAR
  2
AcDbDictionaryVar
  3
ObjectDBX Classes
 90
        0
 91
        9
280
     0
281
     0
  0
CLASS
  1
TABLESTYLE
  2
AcDbTableStyle
  3
ObjectDBX Classes
 90
     4095
 91
        1
280
     0
281
     0
  0
CLASS
  1
SORTENTSTABLE
  2
AcDbSortentsTable
  3
ObjectDBX Classes
 90
        0
 91
        3
280
     0
281
     0
  0
CLASS
  1
DIMASSOC
  2
AcDbDimAssoc
  3
"AcDbDimAssoc|Product Desc:     AcDim ARX App For Dimension|Company:          Autodesk, Inc.|WEB Address:      www.autodesk.com"
 90
        0
 91
        2
280
     0
281
     0
  0
CLASS
  1
SCALE
  2
AcDbScale
  3
ObjectDBX Classes
 90
     1153
 91
       33
280
     0
281
     0
  0
CLASS
  1
MLEADERSTYLE
  2
AcDbMLeaderStyle
  3
ACDB_MLEADERSTYLE_CLASS
 90
     4095
 91
        1
280
     0
281
     0
  0
CLASS
  1
CELLSTYLEMAP
  2
AcDbCellStyleMap
  3
ObjectDBX Classes
 90
     1152
 91
        2
280
     0
281
     0
  0
ENDSEC
  0
SECTION
  2
TABLES
  0
TABLE
  2
VPORT
  5
8
102
{ACAD_XDICTIONARY
360
84C
102
}
330
0
100
AcDbSymbolTable
 70
     1
  0
VPORT
  5
29
330
8
100
AcDbSymbolTableRecord
100
AcDbViewportTableRecord
  2
*Active
 70
     0
 10
0.0
 20
0.0
 11
1.0
 21
1.0
 12
12.63599558215118
 22
4.193280895094352
 13
0.0
 23
0.0
 14
0.5
 24
0.5
 15
0.5
 25
0.5
 16
0.0
 26
0.0
 36
1.0
 17
0.0
 27
0.0
 37
-1000.0
 40
12.52933071980882
 41
2.060556464811783
 42
50.0
 43
4.148984367261674
 44
9.217858496371269
 50
0.0
 51
0.0
 71
     0
 72
   100
 73
     1
 74
     3
 75
     0
 76
     0
 77
     0
 78
     0
281
     0
 65
     1
110
0.0
120
0.0
130
0.0
111
1.0
121
0.0
131
0.0
112
0.0
122
1.0
132
0.0
 79
     0
146
0.0
  0
ENDTAB
  0
TABLE
  2
LTYPE
  5
5
330
0
100
AcDbSymbolTable
 70
     2
  0
LTYPE
  5
14
330
5
100
AcDbSymbolTableRecord
100
AcDbLinetypeTableRecord
  2
ByBlock
 70
     0
  3

 72
    65
 73
     0
 40
0.0
  0
LTYPE
  5
15
330
5
100
AcDbSymbolTableRecord
100
AcDbLinetypeTableRecord
  2
ByLayer
 70
     0
  3

 72
    65
 73
     0
 40
0.0
  0
LTYPE
  5
16
330
5
100
AcDbSymbolTableRecord
100
AcDbLinetypeTableRecord
  2
Continuous
 70
     0
  3
Solid line
 72
    65
 73
     0
 40
0.0
  0
LTYPE
  5
886
330
5
100
AcDbSymbolTableRecord
100
AcDbLinetypeTableRecord
  2
DASHED
 70
     0
  3
Dashed __ __ __ __ __ __ __ __ __ __ __ __ __ _
 72
    65
 73
     2
 40
0.75
 49
0.5
 74
     0
 49
-0.25
 74
     0
  0
ENDTAB
  0
TABLE
  2
LAYER
  5
2
102
{ACAD_XDICTIONARY
360
7D1
102
}
330
0
100
AcDbSymbolTable
 70
     4
  0
LAYER
  5
10
102
{ACAD_XDICTIONARY
360
8C9A
102
}
330
2
100
AcDbSymbolTableRecord
100
AcDbLayerTableRecord
  2
0
 70
     0
 62
     7
  6
Continuous
370
    80
390
F
  0
LAYER
  5
87B
102
{ACAD_XDICTIONARY
360
8C9C
102
}
330
2
100
AcDbSymbolTableRecord
100
AcDbLayerTableRecord
  2
STREFA BEZPIECZEŃSTWA
 70
     0
 62
     7
  6
DASHED
370
    70
390
F
1001
AcAecLayerStandard
1000

1000

  0
LAYER
  5
87D
102
{ACAD_XDICTIONARY
360
8C9E
102
}
330
2
100
AcDbSymbolTableRecord
100
AcDbLayerTableRecord
  2
WYMIAR
 70
     0
 62
     7
  6
Continuous
370
    80
390
F
1001
AcAecLayerStandard
1000

1000

  0
LAYER
  5
8CC
330
2
100
AcDbSymbolTableRecord
100
AcDbLayerTableRecord
  2
Defpoints
 70
     0
 62
     7
  6
Continuous
290
     0
370
     5
390
F
1001
RAK
1000
{ACET-LAYISO
1070
     0
1070
     7
1000
Continuous
1071
        5
1071
        0
1005
F
1000
ACET-LAYISO}
  0
ENDTAB
  0
TABLE
  2
STYLE
  5
3
330
0
100
AcDbSymbolTable
 70
     2
  0
STYLE
  5
11
330
3
100
AcDbSymbolTableRecord
100
AcDbTextStyleTableRecord
  2
Standard
 70
     0
 40
0.0
 41
1.0
 50
0.0
 71
     0
 42
0.2
  3
txt
  4

  0
STYLE
  5
8CE
330
3
100
AcDbSymbolTableRecord
100
AcDbTextStyleTableRecord
  2
AR 01 SWIS
 70
     0
 40
0.0
 41
1.0
 50
0.0
 71
     0
 42
55.0
  3

  4

1001
ACAD
1000
Swis721 Cn BT
1071
       34
  0
ENDTAB
  0
TABLE
  2
VIEW
  5
6
330
0
100
AcDbSymbolTable
 70
     0
  0
ENDTAB
  0
TABLE
  2
UCS
  5
7
330
0
100
AcDbSymbolTable
 70
     0
  0
ENDTAB
  0
TABLE
  2
APPID
  5
9
330
0
100
AcDbSymbolTable
 70
     9
  0
APPID
  5
12
330
9
100
AcDbSymbolTableRecord
100
AcDbRegAppTableRecord
  2
ACAD
 70
     0
  0
APPID
  5
7CB
330
9
100
AcDbSymbolTableRecord
100
AcDbRegAppTableRecord
  2
ACAD_PSEXT
 70
     0
  0
APPID
  5
875
330
9
100
AcDbSymbolTableRecord
100
AcDbRegAppTableRecord
  2
ACAD_EXEMPT_FROM_CAD_STANDARDS
 70
     0
  0
APPID
  5
87C
330
9
100
AcDbSymbolTableRecord
100
AcDbRegAppTableRecord
  2
AcAecLayerStandard
 70
     0
  0
APPID
  5
8D4
330
9
100
AcDbSymbolTableRecord
100
AcDbRegAppTableRecord
  2
RAK
 70
     0
  0
APPID
  5
8D5
330
9
100
AcDbSymbolTableRecord
100
AcDbRegAppTableRecord
  2
ACAD_DSTYLE_DIMJOGGED_JOGANGLE_SYMBOL
 70
     0
  0
APPID
  5
8D6
330
9
100
AcDbSymbolTableRecord
100
AcDbRegAppTableRecord
  2
ACAD_DSTYLE_DIMJAG
 70
     0
  0
APPID
  5
8D7
330
9
100
AcDbSymbolTableRecord
100
AcDbRegAppTableRecord
  2
ACAD_DSTYLE_DIMTALN
 70
     0
  0
APPID
  5
8C8C
330
9
100
AcDbSymbolTableRecord
100
AcDbRegAppTableRecord
  2
ACAD_MLEADERVER
 70
     0
  0
ENDTAB
  0
TABLE
  2
DIMSTYLE
  5
A
330
0
100
AcDbSymbolTable
 70
     2
100
AcDbDimStyleTable
 71
     1
340
8CF
  0
DIMSTYLE
105
8CF
102
{ACAD_REACTORS
330
9270
330
9284
102
}
330
A
100
AcDbSymbolTableRecord
100
AcDbDimStyleTableRecord
  2
AR SKALA 1-50
 70
     0
 40
0.02
 41
3.0
 42
20.0
 43
0.0
 44
5.0
 45
0.05
 73
     0
 74
     0
 75
     1
 76
     1
 77
     1
 78
     1
140
9.0
141
12.0
143
1.0
146
0.01
147
6.0
171
     4
172
     1
173
     1
174
     1
176
   256
177
   256
178
   256
179
     1
271
     2
272
     2
274
     4
279
     2
340
8CE
341
8BC
343
8BC
344
8BC
  0
DIMSTYLE
105
A46
330
A
100
AcDbSymbolTableRecord
100
AcDbDimStyleTableRecord
  2
Standard
 70
     0
340
11
  0
ENDTAB
  0
TABLE
  2
BLOCK_RECORD
  5
1
330
0
100
AcDbSymbolTable
 70
     5
  0
BLOCK_RECORD
  5
1F
102
{ACAD_XDICTIONARY
360
5F8
102
}
330
1
100
AcDbSymbolTableRecord
100
AcDbBlockTableRecord
  2
*Model_Space
340
22
  0
BLOCK_RECORD
  5
1B
330
1
100
AcDbSymbolTableRecord
100
AcDbBlockTableRecord
  2
*Paper_Space
340
1E
  0
BLOCK_RECORD
  5
8BC
330
1
100
AcDbSymbolTableRecord
100
AcDbBlockTableRecord
  2
MAR-STRZ
340
0
310
2800000020000000200000000100080000000000000400000000000000000000000000000000000000000000000080000080000000808000800000008000800080800000C0C0C000C0DCC000F0CAA6000020400000206000002080000020A0000020C0000020E00000400000004020000040400000406000004080000040A0
310
000040C0000040E00000600000006020000060400000606000006080000060A0000060C0000060E00000800000008020000080400000806000008080000080A0000080C0000080E00000A0000000A0200000A0400000A0600000A0800000A0A00000A0C00000A0E00000C0000000C0200000C0400000C0600000C0800000C0
310
A00000C0C00000C0E00000E0000000E0200000E0400000E0600000E0800000E0A00000E0C00000E0E00040000000400020004000400040006000400080004000A0004000C0004000E00040200000402020004020400040206000402080004020A0004020C0004020E000404000004040200040404000404060004040800040
310
40A0004040C0004040E00040600000406020004060400040606000406080004060A0004060C0004060E00040800000408020004080400040806000408080004080A0004080C0004080E00040A0000040A0200040A0400040A0600040A0800040A0A00040A0C00040A0E00040C0000040C0200040C0400040C0600040C08000
310
40C0A00040C0C00040C0E00040E0000040E0200040E0400040E0600040E0800040E0A00040E0C00040E0E00080000000800020008000400080006000800080008000A0008000C0008000E00080200000802020008020400080206000802080008020A0008020C0008020E00080400000804020008040400080406000804080
310
008040A0008040C0008040E00080600000806020008060400080606000806080008060A0008060C0008060E00080800000808020008080400080806000808080008080A0008080C0008080E00080A0000080A0200080A0400080A0600080A0800080A0A00080A0C00080A0E00080C0000080C0200080C0400080C0600080C0
310
800080C0A00080C0C00080C0E00080E0000080E0200080E0400080E0600080E0800080E0A00080E0C00080E0E000C0000000C0002000C0004000C0006000C0008000C000A000C000C000C000E000C0200000C0202000C0204000C0206000C0208000C020A000C020C000C020E000C0400000C0402000C0404000C0406000C0
310
408000C040A000C040C000C040E000C0600000C0602000C0604000C0606000C0608000C060A000C060C000C060E000C0800000C0802000C0804000C0806000C0808000C080A000C080C000C080E000C0A00000C0A02000C0A04000C0A06000C0A08000C0A0A000C0A0C000C0A0E000C0C00000C0C02000C0C04000C0C06000
310
C0C08000C0C0A000F0FBFF00A4A0A000808080000000FF0000FF000000FFFF00FF000000FF00FF00FFFF0000FFFFFF00000000000000000000000000000000000000000000000000000000000000000000000000000000000000000000000000FF000000000000000000000000000000000000000000000000000000000000
310
00FF00000000000000000000000000000000000000000000000000000000000000FF00000000000000000000000000000000000000000000000000000000000000FF00000000000000000000000000000000000000000000000000000000000000FF000000000000000000000000000000000000000000F900000000000000
310
0000FF00000000000000000000000000000000000000000000F90000000000000000FF0000000000000000000000000000000000000000000000F900000000000000FF000000000000000000000000000000000000000000000000F9000000000000FF00000000000000000000000000000000000000000000000000F90000
310
000000FF0000000000000000000000000000000000000000000000000000F900000000FF000000000000000000000000000000000000000000000000000000F9000000FF00000000000000000000000000000000000000000000000000000000F90000FF000000000000000000000000000000000000000000000000000000
310
0000F900FF000000000000000000000000000000000000000000000000000000000000F9FF00000000000000000000000000000000000000000000FFFFFFFFFFFFFFFFFFFFFFFFFFFFFFFFFFFF0000000000000000000000000000000000000000000000FFF900000000000000000000000000000000000000000000000000
310
0000000000FF00F90000000000000000000000000000000000000000000000000000000000FF0000F900000000000000000000000000000000000000000000000000000000FF000000F9000000000000000000000000000000000000000000000000000000FF00000000F90000000000000000000000000000000000000000
310
000000000000FF0000000000F900000000000000000000000000000000000000000000000000FF000000000000F9000000000000000000000000000000000000000000000000FF00000000000000F90000000000000000000000000000000000000000000000FF0000000000000000F9000000000000000000000000000000
310
00000000000000FF00000000000000000000000000000000000000000000000000000000000000FF00000000000000000000000000000000000000000000000000000000000000FF00000000000000000000000000000000000000000000000000000000000000FF0000000000000000000000000000000000000000000000
310
0000000000000000FF0000000000000000000000000000000000000000000000000000000000000000000000000000000000000000000000
102
{BLKREFS
331
92A0
331
92A1
331
92B5
331
92B6
102
}
  0
BLOCK_RECORD
  5
8D3F
102
{ACAD_XDICTIONARY
360
8D7B
102
}
330
1
100
AcDbSymbolTableRecord
100
AcDbBlockTableRecord
  2
A$C7986418B
340
0
1001
ACAD
1000
DesignCenter Data
1002
{
1070
     1
1070
     1
1002
}
  0
BLOCK_RECORD
  5
91D8
102
{ACAD_XDICTIONARY
360
91DA
102
}
330
1
100
AcDbSymbolTableRecord
100
AcDbBlockTableRecord
  2
A$C48B517A9
340
0
1001
ACAD
1000
DesignCenter Data
1002
{
1070
     1
1070
     1
1002
}
  0
BLOCK_RECORD
  5
9271
330
1
100
AcDbSymbolTableRecord
100
AcDbBlockTableRecord
  2
*D3
340
0
  0
BLOCK_RECORD
  5
9285
330
1
100
AcDbSymbolTableRecord
100
AcDbBlockTableRecord
  2
*D4
340
0
  0
ENDTAB
  0
ENDSEC
  0
SECTION
  2
BLOCKS
  0
BLOCK
  5
20
330
1F
100
AcDbEntity
  8
0
100
AcDbBlockBegin
  2
*Model_Space
 70
     0
 10
0.0
 20
0.0
 30
0.0
  3
*Model_Space
  1

  0
ENDBLK
  5
21
330
1F
100
AcDbEntity
  8
0
100
AcDbBlockEnd
  0
BLOCK
  5
1C
330
1B
100
AcDbEntity
 67
     1
  8
0
100
AcDbBlockBegin
  2
*Paper_Space
 70
     0
 10
0.0
 20
0.0
 30
0.0
  3
*Paper_Space
  1

  0
ENDBLK
  5
1D
330
1B
100
AcDbEntity
 67
     1
  8
0
100
AcDbBlockEnd
  0
BLOCK
  5
8BD
330
8BC
100
AcDbEntity
  8
0
100
AcDbBlockBegin
  2
MAR-STRZ
 70
     0
 10
0.0
 20
0.0
 30
0.0
  3
MAR-STRZ
  1

  0
LINE
  5
8BE
330
8BC
100
AcDbEntity
  8
0
100
AcDbLine
 10
0.0
 20
2.299999999999272
 30
0.0
 11
0.0
 21
-2.299999999999272
 31
0.0
  0
LINE
  5
8BF
330
8BC
100
AcDbEntity
  8
0
 62
    10
100
AcDbLine
 10
1.5
 20
1.5
 30
0.0
 11
-1.5
 21
-1.5
 31
0.0
  0
LINE
  5
8C0
330
8BC
100
AcDbEntity
  8
0
100
AcDbLine
 10
1.399999999999636
 20
0.0
 30
0.0
 11
-1.399999999999636
 21
0.0
 31
0.0
  0
ENDBLK
  5
8C1
330
8BC
100
AcDbEntity
  8
0
100
AcDbBlockEnd
  0
BLOCK
  5
8D7D
330
8D3F
100
AcDbEntity
  8
0
100
AcDbBlockBegin
  2
A$C7986418B
 70
     0
 10
0.0
 20
0.0
 30
0.0
  3
A$C7986418B
  1

  0
LINE
  5
8D40
330
8D3F
100
AcDbEntity
  8
0
100
AcDbLine
 10
1.200000007221493
 20
0.5994216238885475
 30
0.0
 11
1.200000007221493
 21
0.0740391323206158
 31
0.0
  0
LINE
  5
8D41
330
8D3F
100
AcDbEntity
  8
0
100
AcDbLine
 10
0.1000000072214355
 20
0.5994216238890254
 30
0.0
 11
0.1000000072214355
 21
0.6025801467617385
 31
0.0
  0
LINE
  5
8D42
330
8D3F
100
AcDbEntity
  8
0
100
AcDbLine
 10
1.200000007221493
 20
0.6025801467612677
 30
0.0
 11
1.200000007221493
 21
0.5994216238885475
 31
0.0
  0
LINE
  5
8D43
330
8D3F
100
AcDbEntity
  8
0
100
AcDbLine
 10
0.1000000072214391
 20
0.0740391323210794
 30
0.0
 11
0.1000000072214355
 21
0.5994216238890254
 31
0.0
  0
LINE
  5
8D44
330
8D3F
100
AcDbEntity
  8
0
100
AcDbLine
 10
1.200000007221493
 20
0.0508825003517952
 30
0.0
 11
1.200000007221493
 21
0.0740391323206158
 31
0.0
  0
LINE
  5
8D45
330
8D3F
100
AcDbEntity
  8
0
100
AcDbLine
 10
0.1000000072214391
 20
0.0508825003522659
 30
0.0
 11
0.1000000072214391
 21
0.0740391323210794
 31
0.0
  0
LINE
  5
8D46
330
8D3F
100
AcDbEntity
  8
0
100
AcDbLine
 10
1.100000007221495
 20
0.6311617741716109
 30
0.0
 11
1.100000007221485
 21
0.0508825003517934
 31
0.0
  0
LINE
  5
8D47
330
8D3F
100
AcDbEntity
  8
0
100
AcDbLine
 10
1.000000007221487
 20
0.0508825003517934
 30
0.0
 11
1.000000007221487
 21
0.6311617741716109
 31
0.0
  0
LINE
  5
8D48
330
8D3F
100
AcDbEntity
  8
0
100
AcDbLine
 10
0.9000000072214859
 20
0.6311617741716109
 30
0.0
 11
0.9000000072214859
 21
0.0508825003517934
 31
0.0
  0
ARC
  5
8D49
330
8D3F
100
AcDbEntity
  8
0
100
AcDbCircle
 10
1.150000007221489
 20
0.0500076644303569
 30
0.0
 40
0.0500076527932462
100
AcDbArc
 50
178.9976141588701
 51
1.002385841130862
  0
ARC
  5
8D4A
330
8D3F
100
AcDbEntity
  8
0
100
AcDbCircle
 10
1.050000007221481
 20
0.0500076644303249
 30
0.0
 40
0.0500076527932462
100
AcDbArc
 50
178.9976141588701
 51
1.002385841130964
  0
ARC
  5
8D4B
330
8D3F
100
AcDbEntity
  8
0
100
AcDbCircle
 10
0.9500000072214724
 20
0.0500076644303249
 30
0.0
 40
0.0500076527932462
100
AcDbArc
 50
178.9976141588701
 51
1.002385841130964
  0
LINE
  5
8D4C
330
8D3F
100
AcDbEntity
  8
0
100
AcDbLine
 10
0.8000000072214845
 20
0.6311617741716092
 30
0.0
 11
0.8000000072214774
 21
0.0508825003517934
 31
0.0
  0
LINE
  5
8D4D
330
8D3F
100
AcDbEntity
  8
0
100
AcDbLine
 10
0.7000000072214761
 20
0.0508825003517934
 30
0.0
 11
0.7000000072214761
 21
0.6311617741716092
 31
0.0
  0
LINE
  5
8D4E
330
8D3F
100
AcDbEntity
  8
0
100
AcDbLine
 10
0.6000000072214747
 20
0.6311617741716092
 30
0.0
 11
0.6000000072214747
 21
0.0508825003517934
 31
0.0
  0
ARC
  5
8D4F
330
8D3F
100
AcDbEntity
  8
0
100
AcDbCircle
 10
0.8500000072214817
 20
0.0500076644303569
 30
0.0
 40
0.0500076527932462
100
AcDbArc
 50
178.9976141588701
 51
1.002385841130964
  0
ARC
  5
8D50
330
8D3F
100
AcDbEntity
  8
0
100
AcDbCircle
 10
0.7500000072214697
 20
0.0500076644303249
 30
0.0
 40
0.0500076527932462
100
AcDbArc
 50
178.9976141588701
 51
1.002385841130964
  0
ARC
  5
8D51
330
8D3F
100
AcDbEntity
  8
0
100
AcDbCircle
 10
0.6500000072214612
 20
0.0500076644303249
 30
0.0
 40
0.0500076527932462
100
AcDbArc
 50
178.9976141588701
 51
1.002385841130964
  0
LINE
  5
8D52
330
8D3F
100
AcDbEntity
  8
0
100
AcDbLine
 10
0.500000007221459
 20
0.6311617741715772
 30
0.0
 11
0.5000000072214484
 21
0.0508825003517615
 31
0.0
  0
LINE
  5
8D53
330
8D3F
100
AcDbEntity
  8
0
100
AcDbLine
 10
0.4000000072214505
 20
0.0508825003517615
 30
0.0
 11
0.4000000072214505
 21
0.6311617741715772
 31
0.0
  0
LINE
  5
8D54
330
8D3F
100
AcDbEntity
  8
0
100
AcDbLine
 10
0.300000007221449
 20
0.6311617741715772
 30
0.0
 11
0.300000007221449
 21
0.0508825003517615
 31
0.0
  0
ARC
  5
8D55
330
8D3F
100
AcDbEntity
  8
0
100
AcDbCircle
 10
0.5500000072214526
 20
0.0500076644303231
 30
0.0
 40
0.0500076527932462
100
AcDbArc
 50
178.9976141588701
 51
1.002385841130964
  0
ARC
  5
8D56
330
8D3F
100
AcDbEntity
  8
0
100
AcDbCircle
 10
0.4500000072214441
 20
0.0500076644302929
 30
0.0
 40
0.0500076527932462
100
AcDbArc
 50
178.9976141588701
 51
1.002385841130964
  0
ARC
  5
8D57
330
8D3F
100
AcDbEntity
  8
0
100
AcDbCircle
 10
0.3500000072214355
 20
0.0500076644302912
 30
0.0
 40
0.0500076527932462
100
AcDbArc
 50
178.9976141588701
 51
1.002385841130964
  0
LINE
  5
8D58
330
8D3F
100
AcDbEntity
  8
0
100
AcDbLine
 10
0.2000000072214476
 20
0.6311617741715772
 30
0.0
 11
0.2000000072214405
 21
0.0508825003517597
 31
0.0
  0
LINE
  5
8D59
330
8D3F
100
AcDbEntity
  8
0
100
AcDbLine
 10
0.1000000072214391
 20
0.0508825003517597
 30
0.0
 11
0.1000000072214391
 21
0.6311617741715772
 31
0.0
  0
ARC
  5
8D5A
330
8D3F
100
AcDbEntity
  8
0
100
AcDbCircle
 10
0.2500000072214448
 20
0.0500076644303214
 30
0.0
 40
0.0500076527932462
100
AcDbArc
 50
178.9976141588701
 51
1.002385841130964
  0
ARC
  5
8D5B
330
8D3F
100
AcDbEntity
  8
0
100
AcDbCircle
 10
0.1500000072214327
 20
0.0500076644302912
 30
0.0
 40
0.0500076527932462
100
AcDbArc
 50
178.9976141588701
 51
1.002385841130964
  0
LINE
  5
8D5C
330
8D3F
100
AcDbEntity
  8
0
100
AcDbLine
 10
1.300000007221502
 20
0.5994216238885564
 30
0.0
 11
1.300000007221502
 21
0.0740391323206247
 31
0.0
  0
ARC
  5
8D5D
330
8D3F
100
AcDbEntity
  8
0
100
AcDbCircle
 10
1.250000007221498
 20
0.0500076644303658
 30
0.0
 40
0.0500076527932462
100
AcDbArc
 50
178.9976141588701
 51
1.002385841130862
  0
LINE
  5
8D5E
330
8D3F
100
AcDbEntity
  8
0
100
AcDbLine
 10
0.0000000072214412
 20
0.074039132321623
 30
0.0
 11
0.0000000072214377
 21
0.5994216238895689
 31
0.0
  0
LINE
  5
8D5F
330
8D3F
100
AcDbEntity
  8
0
100
AcDbLine
 10
0.0000000072214412
 20
0.0508825003523033
 30
0.0
 11
0.0000000072214412
 21
0.6311617741721208
 31
0.0
  0
ARC
  5
8D60
330
8D3F
100
AcDbEntity
  8
0
100
AcDbCircle
 10
0.0500000072214348
 20
0.0500076644308347
 30
0.0
 40
0.0500076527932462
100
AcDbArc
 50
178.9976141588701
 51
1.002385841130964
  0
CIRCLE
  5
8D61
330
8D3F
100
AcDbEntity
  8
0
100
AcDbCircle
 10
1.241737978032126
 20
0.5172195259370334
 30
0.0
 40
0.01089627287962
  0
CIRCLE
  5
8D62
330
8D3F
100
AcDbEntity
  8
0
100
AcDbCircle
 10
1.143762261992975
 20
0.5172195259370334
 30
0.0
 40
0.01089627287962
  0
CIRCLE
  5
8D63
330
8D3F
100
AcDbEntity
  8
0
100
AcDbCircle
 10
1.045786545953827
 20
0.5172195259370334
 30
0.0
 40
0.01089627287962
  0
CIRCLE
  5
8D64
330
8D3F
100
AcDbEntity
  8
0
100
AcDbCircle
 10
0.9450893041072312
 20
0.5172195259370334
 30
0.0
 40
0.01089627287962
  0
CIRCLE
  5
8D65
330
8D3F
100
AcDbEntity
  8
0
100
AcDbCircle
 10
0.8471135880680797
 20
0.5172195259370334
 30
0.0
 40
0.01089627287962
  0
CIRCLE
  5
8D66
330
8D3F
100
AcDbEntity
  8
0
100
AcDbCircle
 10
0.7491378720289284
 20
0.5172195259370334
 30
0.0
 40
0.01089627287962
  0
CIRCLE
  5
8D67
330
8D3F
100
AcDbEntity
  8
0
100
AcDbCircle
 10
0.648440630182332
 20
0.5172195259370334
 30
0.0
 40
0.01089627287962
  0
CIRCLE
  5
8D68
330
8D3F
100
AcDbEntity
  8
0
100
AcDbCircle
 10
0.5477433658508489
 20
0.5172195259370334
 30
0.0
 40
0.01089627287962
  0
CIRCLE
  5
8D69
330
8D3F
100
AcDbEntity
  8
0
100
AcDbCircle
 10
0.4470461015193657
 20
0.5172195259370334
 30
0.0
 40
0.01089627287962
  0
CIRCLE
  5
8D6A
330
8D3F
100
AcDbEntity
  8
0
100
AcDbCircle
 10
0.349070407965101
 20
0.5172195259370334
 30
0.0
 40
0.01089627287962
  0
CIRCLE
  5
8D6B
330
8D3F
100
AcDbEntity
  8
0
100
AcDbCircle
 10
0.2490461163150641
 20
0.5170410508585981
 30
0.0
 40
0.01089627287962
  0
CIRCLE
  5
8D6C
330
8D3F
100
AcDbEntity
  8
0
100
AcDbCircle
 10
0.1505589590259255
 20
0.5213270738704488
 30
0.0
 40
0.01089627287962
  0
CIRCLE
  5
8D6D
330
8D3F
100
AcDbEntity
  8
0
100
AcDbCircle
 10
0.0499307907535815
 20
0.523470061547922
 30
0.0
 40
0.01089627287962
  0
CIRCLE
  5
8D6E
330
8D3F
100
AcDbEntity
  8
0
100
AcDbCircle
 10
1.243548730988432
 20
0.1564139261105417
 30
0.0
 40
0.01089627287962
  0
CIRCLE
  5
8D6F
330
8D3F
100
AcDbEntity
  8
0
100
AcDbCircle
 10
1.145573014949281
 20
0.1564139261105417
 30
0.0
 40
0.01089627287962
  0
CIRCLE
  5
8D70
330
8D3F
100
AcDbEntity
  8
0
100
AcDbCircle
 10
1.047597298910133
 20
0.1564139261105417
 30
0.0
 40
0.01089627287962
  0
CIRCLE
  5
8D71
330
8D3F
100
AcDbEntity
  8
0
100
AcDbCircle
 10
0.9469000570635373
 20
0.1564139261105417
 30
0.0
 40
0.01089627287962
  0
CIRCLE
  5
8D72
330
8D3F
100
AcDbEntity
  8
0
100
AcDbCircle
 10
0.8489243410243858
 20
0.1564139261105417
 30
0.0
 40
0.01089627287962
  0
CIRCLE
  5
8D73
330
8D3F
100
AcDbEntity
  8
0
100
AcDbCircle
 10
0.7509486249852344
 20
0.1564139261105417
 30
0.0
 40
0.01089627287962
  0
CIRCLE
  5
8D74
330
8D3F
100
AcDbEntity
  8
0
100
AcDbCircle
 10
0.6502513831386381
 20
0.1564139261105417
 30
0.0
 40
0.01089627287962
  0
CIRCLE
  5
8D75
330
8D3F
100
AcDbEntity
  8
0
100
AcDbCircle
 10
0.5495541188071549
 20
0.1564139261105417
 30
0.0
 40
0.01089627287962
  0
CIRCLE
  5
8D76
330
8D3F
100
AcDbEntity
  8
0
100
AcDbCircle
 10
0.4488568544756717
 20
0.1564139261105417
 30
0.0
 40
0.01089627287962
  0
CIRCLE
  5
8D77
330
8D3F
100
AcDbEntity
  8
0
100
AcDbCircle
 10
0.3508811609214071
 20
0.1564139261105417
 30
0.0
 40
0.01089627287962
  0
CIRCLE
  5
8D78
330
8D3F
100
AcDbEntity
  8
0
100
AcDbCircle
 10
0.2508568692713702
 20
0.1562354510321064
 30
0.0
 40
0.01089627287962
  0
CIRCLE
  5
8D79
330
8D3F
100
AcDbEntity
  8
0
100
AcDbCircle
 10
0.1523697119822316
 20
0.1605214740439571
 30
0.0
 40
0.01089627287962
  0
CIRCLE
  5
8D7A
330
8D3F
100
AcDbEntity
  8
0
100
AcDbCircle
 10
0.0517415437098876
 20
0.1626644617214303
 30
0.0
 40
0.01089627287962
  0
ENDBLK
  5
8D7E
330
8D3F
100
AcDbEntity
  8
0
100
AcDbBlockEnd
  0
BLOCK
  5
91DC
330
91D8
100
AcDbEntity
  8
0
100
AcDbBlockBegin
  2
A$C48B517A9
 70
     0
 10
0.0
 20
0.0
 30
0.0
  3
A$C48B517A9
  1

  0
ARC
  5
91D9
330
91D8
100
AcDbEntity
  8
0
100
AcDbCircle
 10
0.049376789266443
 20
0.049470213183481
 30
0.0
 40
0.0494882445605987
100
AcDbArc
 50
176.1542009092439
 51
268.4536732191058
  0
ENDBLK
  5
91DD
330
91D8
100
AcDbEntity
  8
0
100
AcDbBlockEnd
  0
BLOCK
  5
9272
330
9271
100
AcDbEntity
  8
0
100
AcDbBlockBegin
  2
*D3
 70
     1
 10
0.0
 20
0.0
 30
0.0
  3
*D3
  1

  0
LINE
  5
929F
330
9271
100
AcDbEntity
  8
WYMIAR
370
    -2
100
AcDbLine
 10
6.631056835901028
 20
9.235144151094157
 30
0.0
 11
13.63328376826816
 21
9.235144151094157
 31
0.0
  0
INSERT
  5
92A0
330
9271
100
AcDbEntity
  8
WYMIAR
370
    -2
100
AcDbBlockReference
  2
MAR-STRZ
 10
6.571056835901028
 20
9.235144151094157
 30
0.0
 41
0.06
 42
0.06
 43
0.06
 50
180.0
  0
INSERT
  5
92A1
330
9271
100
AcDbEntity
  8
WYMIAR
370
    -2
100
AcDbBlockReference
  2
MAR-STRZ
 10
13.69328376826816
 20
9.235144151094157
 30
0.0
 41
0.06
 42
0.06
 43
0.06
  0
MTEXT
  5
92A2
330
9271
100
AcDbEntity
  8
WYMIAR
100
AcDbMText
 10
10.13217030208459
 20
9.447540254990261
 30
0.0
 40
0.18
 41
0.0
 71
     5
 72
     1
  1
\A1;7.10
  7
AR 01 SWIS
 73
     1
 44
1.0
  0
POINT
  5
92A3
330
9271
100
AcDbEntity
  8
Defpoints
 62
     0
100
AcDbPoint
 10
6.571056835901028
 20
8.617108076013616
 30
0.0
  0
POINT
  5
92A4
330
9271
100
AcDbEntity
  8
Defpoints
 62
     0
100
AcDbPoint
 10
13.69328376826816
 20
8.617108076013616
 30
0.0
  0
POINT
  5
92A5
330
9271
100
AcDbEntity
  8
Defpoints
 62
     0
100
AcDbPoint
 10
13.69328376826816
 20
9.235144151094157
 30
0.0
  0
ENDBLK
  5
9273
330
9271
100
AcDbEntity
  8
0
100
AcDbBlockEnd
  0
BLOCK
  5
9286
330
9285
100
AcDbEntity
  8
0
100
AcDbBlockBegin
  2
*D4
 70
     1
 10
0.0
 20
0.0
 30
0.0
  3
*D4
  1

  0
LINE
  5
92B4
330
9285
100
AcDbEntity
  8
WYMIAR
370
    -2
100
AcDbLine
 10
5.771794300951251
 20
8.557108076013616
 30
0.0
 11
5.771794300951249
 21
0.6961048671181328
 31
0.0
  0
INSERT
  5
92B5
330
9285
100
AcDbEntity
  8
WYMIAR
370
    -2
100
AcDbBlockReference
  2
MAR-STRZ
 10
5.771794300951251
 20
8.617108076013616
 30
0.0
 41
0.06
 42
0.06
 43
0.06
 50
90.0
  0
INSERT
  5
92B6
330
9285
100
AcDbEntity
  8
WYMIAR
370
    -2
100
AcDbBlockReference
  2
MAR-STRZ
 10
5.771794300951249
 20
0.6361048671181328
 30
0.0
 41
0.06
 42
0.06
 43
0.06
 50
270.0
  0
MTEXT
  5
92B7
330
9285
100
AcDbEntity
  8
WYMIAR
100
AcDbMText
 10
5.559398197055145
 20
4.626606471565875
 30
0.0
 40
0.18
 41
0.0
 71
     5
 72
     1
  1
\A1;8.00
  7
AR 01 SWIS
 11
0.0000000000000001
 21
1.0
 31
0.0
 73
     1
 44
1.0
  0
POINT
  5
92B8
330
9285
100
AcDbEntity
  8
Defpoints
 62
     0
100
AcDbPoint
 10
6.571056835901028
 20
8.617108076013616
 30
0.0
  0
POINT
  5
92B9
330
9285
100
AcDbEntity
  8
Defpoints
 62
     0
100
AcDbPoint
 10
10.09186408301935
 20
0.6361048671181317
 30
0.0
  0
POINT
  5
92BA
330
9285
100
AcDbEntity
  8
Defpoints
 62
     0
100
AcDbPoint
 10
5.771794300951249
 20
0.6361048671181328
 30
0.0
  0
ENDBLK
  5
9287
330
9285
100
AcDbEntity
  8
0
100
AcDbBlockEnd
  0
ENDSEC
  0
SECTION
  2
ENTITIES
  0
LINE
  5
83E7
330
1F
100
AcDbEntity
  8
0
100
AcDbLine
 10
8.333541257514834
 20
6.771118111588846
 30
0.0
 11
8.333541257514834
 21
6.755248968981527
 31
0.0
  0
LINE
  5
83EB
330
1F
100
AcDbEntity
  8
0
100
AcDbLine
 10
9.653095991361794
 20
6.771118111588846
 30
0.0
 11
9.653095991361794
 21
6.779836975468997
 31
0.0
  0
LINE
  5
83EC
330
1F
100
AcDbEntity
  8
0
100
AcDbLine
 10
8.333541257514834
 20
6.771118111588846
 30
0.0
 11
8.333541257514834
 21
6.779836975468997
 31
0.0
  0
LINE
  5
851D
330
1F
100
AcDbEntity
  8
0
100
AcDbLine
 10
10.52935810609024
 20
5.845377893214388
 30
0.0
 11
9.653095991361794
 21
5.84537789321436
 31
0.0
  0
LINE
  5
851E
330
1F
100
AcDbEntity
  8
0
100
AcDbLine
 10
10.52935810609022
 20
6.429577893214387
 30
0.0
 11
9.653095991361794
 21
6.429577893214359
 31
0.0
  0
LINE
  5
8582
330
1F
100
AcDbEntity
  8
0
100
AcDbLine
 10
8.994788157750747
 20
7.112367143336593
 30
0.0
 11
8.995787161975794
 21
7.109955333787619
 31
0.0
  0
LINE
  5
8583
330
1F
100
AcDbEntity
  8
0
100
AcDbLine
 10
8.993198971524769
 20
6.945326225240377
 30
0.0
 11
8.994788157750747
 21
6.945029250731609
 31
0.0
  0
LINE
  5
8584
330
1F
100
AcDbEntity
  8
0
100
AcDbLine
 10
8.988716094163926
 20
6.945697350986902
 30
0.0
 11
8.991127903712904
 21
6.945554101795694
 31
0.0
  0
LINE
  5
8585
330
1F
100
AcDbEntity
  8
0
100
AcDbLine
 10
8.993198971524769
 20
7.114438211148458
 30
0.0
 11
8.994788157750747
 21
7.112367143336593
 31
0.0
  0
LINE
  5
8586
330
1F
100
AcDbEntity
  8
0
100
AcDbLine
 10
8.991127903712904
 20
6.945554101795694
 30
0.0
 11
8.993198971524769
 21
6.945326225240377
 31
0.0
  0
LINE
  5
8587
330
1F
100
AcDbEntity
  8
0
100
AcDbLine
 10
8.995787161975794
 20
7.109955333787619
 30
0.0
 11
8.996127903712903
 21
7.107367143336594
 31
0.0
  0
LINE
  5
8588
330
1F
100
AcDbEntity
  8
0
100
AcDbLine
 10
8.994788157750747
 20
6.945029250731609
 30
0.0
 11
8.995787161975794
 21
6.944683416591397
 31
0.0
  0
LINE
  5
8589
330
1F
100
AcDbEntity
  8
0
100
AcDbLine
 10
8.976468645450012
 20
7.109955333787619
 30
0.0
 11
8.977467649675059
 21
7.112367143336593
 31
0.0
  0
LINE
  5
858A
330
1F
100
AcDbEntity
  8
0
100
AcDbLine
 10
8.977467649675059
 20
7.112367143336593
 30
0.0
 11
8.979056835901037
 21
7.114438211148458
 31
0.0
  0
LINE
  5
858B
330
1F
100
AcDbEntity
  8
0
100
AcDbLine
 10
8.976468645450012
 20
6.944683416591397
 30
0.0
 11
8.977467649675059
 21
6.945029250731609
 31
0.0
  0
LINE
  5
858C
330
1F
100
AcDbEntity
  8
0
100
AcDbLine
 10
8.986127903712901
 20
7.117367143336592
 30
0.0
 11
8.988716094163926
 21
7.117026401599483
 31
0.0
  0
LINE
  5
858D
330
1F
100
AcDbEntity
  8
0
100
AcDbLine
 10
8.979056835901037
 20
7.114438211148458
 30
0.0
 11
8.981127903712902
 21
7.116027397374436
 31
0.0
  0
LINE
  5
858E
330
1F
100
AcDbEntity
  8
0
100
AcDbLine
 10
8.991127903712904
 20
7.116027397374436
 30
0.0
 11
8.993198971524769
 21
7.114438211148458
 31
0.0
  0
LINE
  5
858F
330
1F
100
AcDbEntity
  8
0
100
AcDbLine
 10
8.979056835901037
 20
6.945326225240377
 30
0.0
 11
8.981127903712902
 21
6.945554101795694
 31
0.0
  0
LINE
  5
8590
330
1F
100
AcDbEntity
  8
0
100
AcDbLine
 10
8.976127903712903
 20
6.944312290844871
 30
0.0
 11
8.976468645450012
 21
6.944683416591397
 31
0.0
  0
LINE
  5
8591
330
1F
100
AcDbEntity
  8
0
100
AcDbLine
 10
8.995787161975794
 20
6.944683416591397
 30
0.0
 11
8.996127903712903
 21
6.944312290844871
 31
0.0
  0
LINE
  5
8592
330
1F
100
AcDbEntity
  8
0
100
AcDbLine
 10
8.976127903712903
 20
7.107367143336594
 30
0.0
 11
8.976468645450012
 21
7.109955333787619
 31
0.0
  0
LINE
  5
8593
330
1F
100
AcDbEntity
  8
0
100
AcDbLine
 10
8.983539713261876
 20
6.945697350986902
 30
0.0
 11
8.986127903712901
 21
6.94574621061835
 31
0.0
  0
LINE
  5
8594
330
1F
100
AcDbEntity
  8
0
100
AcDbLine
 10
8.981127903712902
 20
7.116027397374436
 30
0.0
 11
8.983539713261876
 21
7.117026401599483
 31
0.0
  0
LINE
  5
8595
330
1F
100
AcDbEntity
  8
0
100
AcDbLine
 10
8.981127903712902
 20
6.945554101795694
 30
0.0
 11
8.983539713261876
 21
6.945697350986902
 31
0.0
  0
LINE
  5
8596
330
1F
100
AcDbEntity
  8
0
100
AcDbLine
 10
8.977467649675059
 20
6.945029250731609
 30
0.0
 11
8.979056835901037
 21
6.945326225240377
 31
0.0
  0
LINE
  5
8597
330
1F
100
AcDbEntity
  8
0
100
AcDbLine
 10
8.986127903712901
 20
6.94574621061835
 30
0.0
 11
8.988716094163926
 21
6.945697350986902
 31
0.0
  0
LINE
  5
8598
330
1F
100
AcDbEntity
  8
0
100
AcDbLine
 10
8.996127903712903
 20
6.779836975468997
 30
0.0
 11
8.996127903712903
 21
6.944312290844871
 31
0.0
  0
LINE
  5
8599
330
1F
100
AcDbEntity
  8
0
100
AcDbLine
 10
8.976127903712903
 20
6.779836975468997
 30
0.0
 11
8.976127903712903
 21
6.944312290844871
 31
0.0
  0
LINE
  5
859A
330
1F
100
AcDbEntity
  8
0
100
AcDbLine
 10
8.988716094163926
 20
7.117026401599483
 30
0.0
 11
8.991127903712904
 21
7.116027397374436
 31
0.0
  0
LINE
  5
859B
330
1F
100
AcDbEntity
  8
0
100
AcDbLine
 10
8.632604980257667
 20
7.117108076013616
 30
0.0
 11
8.635193170706152
 21
7.117448817750725
 31
0.0
  0
LINE
  5
859C
330
1F
100
AcDbEntity
  8
0
100
AcDbLine
 10
8.630193170711056
 20
7.116109071788569
 30
0.0
 11
8.632604980257667
 21
7.117108076013616
 31
0.0
  0
LINE
  5
859D
330
1F
100
AcDbEntity
  8
0
100
AcDbLine
 10
8.628122102901222
 20
7.114519885562591
 30
0.0
 11
8.630193170711056
 21
7.116109071788569
 31
0.0
  0
LINE
  5
859E
330
1F
100
AcDbEntity
  8
0
100
AcDbLine
 10
8.626532916676801
 20
7.112448817750726
 30
0.0
 11
8.628122102901222
 21
7.114519885562591
 31
0.0
  0
LINE
  5
859F
330
1F
100
AcDbEntity
  8
0
100
AcDbLine
 10
8.625533912452738
 20
7.110037008201752
 30
0.0
 11
8.626532916676801
 21
7.112448817750726
 31
0.0
  0
LINE
  5
85A0
330
1F
100
AcDbEntity
  8
0
100
AcDbLine
 10
8.625193170715963
 20
7.107448817750723
 30
0.0
 11
8.625533912452738
 21
7.110037008201752
 31
0.0
  0
LINE
  5
85A1
330
1F
100
AcDbEntity
  8
0
100
AcDbLine
 10
8.625533912452738
 20
7.104860627299702
 30
0.0
 11
8.625193170715963
 21
7.107448817750723
 31
0.0
  0
LINE
  5
85A2
330
1F
100
AcDbEntity
  8
0
100
AcDbLine
 10
8.626532916676801
 20
7.102448817750724
 30
0.0
 11
8.625533912452738
 21
7.104860627299702
 31
0.0
  0
LINE
  5
85A3
330
1F
100
AcDbEntity
  8
0
100
AcDbLine
 10
8.628122102901222
 20
7.100377749938859
 30
0.0
 11
8.626532916676801
 21
7.102448817750724
 31
0.0
  0
LINE
  5
85A4
330
1F
100
AcDbEntity
  8
0
100
AcDbLine
 10
8.630193170711056
 20
7.098788563712881
 30
0.0
 11
8.628122102901222
 21
7.100377749938859
 31
0.0
  0
LINE
  5
85A5
330
1F
100
AcDbEntity
  8
0
100
AcDbLine
 10
8.632604980257667
 20
7.097789559487834
 30
0.0
 11
8.630193170711056
 21
7.098788563712881
 31
0.0
  0
LINE
  5
85A6
330
1F
100
AcDbEntity
  8
0
100
AcDbLine
 10
8.635193170706152
 20
7.097448817750725
 30
0.0
 11
8.632604980257667
 21
7.097789559487834
 31
0.0
  0
LINE
  5
85A7
330
1F
100
AcDbEntity
  8
0
100
AcDbLine
 10
9.294852428960361
 20
7.110037008201752
 30
0.0
 11
9.29519317069716
 21
7.107448817750723
 31
0.0
  0
LINE
  5
85A8
330
1F
100
AcDbEntity
  8
0
100
AcDbLine
 10
9.293853424736209
 20
7.112448817750726
 30
0.0
 11
9.294852428960361
 21
7.110037008201752
 31
0.0
  0
LINE
  5
85A9
330
1F
100
AcDbEntity
  8
0
100
AcDbLine
 10
9.292264238511659
 20
7.114519885562591
 30
0.0
 11
9.293853424736209
 21
7.112448817750726
 31
0.0
  0
LINE
  5
85AA
330
1F
100
AcDbEntity
  8
0
100
AcDbLine
 10
9.290193170701655
 20
7.116109071788569
 30
0.0
 11
9.292264238511659
 21
7.114519885562591
 31
0.0
  0
LINE
  5
85AB
330
1F
100
AcDbEntity
  8
0
100
AcDbLine
 10
9.287781361154848
 20
7.117108076013616
 30
0.0
 11
9.290193170701655
 21
7.116109071788569
 31
0.0
  0
LINE
  5
85AC
330
1F
100
AcDbEntity
  8
0
100
AcDbLine
 10
9.285193170706151
 20
7.117448817750725
 30
0.0
 11
9.287781361154848
 21
7.117108076013616
 31
0.0
  0
LINE
  5
85AD
330
1F
100
AcDbEntity
  8
0
100
AcDbLine
 10
9.287781361154848
 20
7.097789559487834
 30
0.0
 11
9.285193170706151
 21
7.097448817750725
 31
0.0
  0
LINE
  5
85AE
330
1F
100
AcDbEntity
  8
0
100
AcDbLine
 10
9.290193170701659
 20
7.098788563712881
 30
0.0
 11
9.287781361154848
 21
7.097789559487834
 31
0.0
  0
LINE
  5
85AF
330
1F
100
AcDbEntity
  8
0
100
AcDbLine
 10
9.292264238511659
 20
7.100377749938859
 30
0.0
 11
9.290193170701659
 21
7.098788563712881
 31
0.0
  0
LINE
  5
85B0
330
1F
100
AcDbEntity
  8
0
100
AcDbLine
 10
9.293853424736209
 20
7.102448817750724
 30
0.0
 11
9.292264238511659
 21
7.100377749938859
 31
0.0
  0
LINE
  5
85B1
330
1F
100
AcDbEntity
  8
0
100
AcDbLine
 10
9.294852428960361
 20
7.104860627299702
 30
0.0
 11
9.293853424736209
 21
7.102448817750724
 31
0.0
  0
LINE
  5
85B2
330
1F
100
AcDbEntity
  8
0
100
AcDbLine
 10
9.29519317069716
 20
7.107448817750723
 30
0.0
 11
9.294852428960361
 21
7.104860627299702
 31
0.0
  0
LINE
  5
85B3
330
1F
100
AcDbEntity
  8
0
100
AcDbLine
 10
8.732604980257452
 20
7.117108076013616
 30
0.0
 11
8.735193170706153
 21
7.117448817750725
 31
0.0
  0
LINE
  5
85B4
330
1F
100
AcDbEntity
  8
0
100
AcDbLine
 10
8.730193170710649
 20
7.116109071788569
 30
0.0
 11
8.732604980257452
 21
7.117108076013616
 31
0.0
  0
LINE
  5
85B5
330
1F
100
AcDbEntity
  8
0
100
AcDbLine
 10
8.728122102900645
 20
7.114519885562591
 30
0.0
 11
8.730193170710649
 21
7.116109071788569
 31
0.0
  0
LINE
  5
85B6
330
1F
100
AcDbEntity
  8
0
100
AcDbLine
 10
8.726532916676095
 20
7.112448817750726
 30
0.0
 11
8.728122102900645
 21
7.114519885562591
 31
0.0
  0
LINE
  5
85B7
330
1F
100
AcDbEntity
  8
0
100
AcDbLine
 10
8.725533912451947
 20
7.110037008201752
 30
0.0
 11
8.726532916676095
 21
7.112448817750726
 31
0.0
  0
LINE
  5
85B8
330
1F
100
AcDbEntity
  8
0
100
AcDbLine
 10
8.725193170715144
 20
7.107448817750723
 30
0.0
 11
8.725533912451947
 21
7.110037008201752
 31
0.0
  0
LINE
  5
85B9
330
1F
100
AcDbEntity
  8
0
100
AcDbLine
 10
8.725533912451947
 20
7.104860627299702
 30
0.0
 11
8.725193170715144
 21
7.107448817750723
 31
0.0
  0
LINE
  5
85BA
330
1F
100
AcDbEntity
  8
0
100
AcDbLine
 10
8.726532916676095
 20
7.102448817750724
 30
0.0
 11
8.725533912451947
 21
7.104860627299702
 31
0.0
  0
LINE
  5
85BB
330
1F
100
AcDbEntity
  8
0
100
AcDbLine
 10
8.728122102900645
 20
7.100377749938859
 30
0.0
 11
8.726532916676095
 21
7.102448817750724
 31
0.0
  0
LINE
  5
85BC
330
1F
100
AcDbEntity
  8
0
100
AcDbLine
 10
8.730193170710649
 20
7.098788563712881
 30
0.0
 11
8.728122102900645
 21
7.100377749938859
 31
0.0
  0
LINE
  5
85BD
330
1F
100
AcDbEntity
  8
0
100
AcDbLine
 10
8.732604980257452
 20
7.097789559487834
 30
0.0
 11
8.730193170710649
 21
7.098788563712881
 31
0.0
  0
LINE
  5
85BE
330
1F
100
AcDbEntity
  8
0
100
AcDbLine
 10
8.735193170706153
 20
7.097448817750725
 30
0.0
 11
8.732604980257452
 21
7.097789559487834
 31
0.0
  0
LINE
  5
85BF
330
1F
100
AcDbEntity
  8
0
100
AcDbLine
 10
8.985193170706153
 20
7.117448817750725
 30
0.0
 11
8.985371357863233
 21
7.117267542185944
 31
0.0
  0
LINE
  5
85C0
330
1F
100
AcDbEntity
  8
0
100
AcDbLine
 10
8.984962010043169
 20
7.11721365052305
 30
0.0
 11
8.985193170706153
 21
7.117448817750725
 31
0.0
  0
LINE
  5
85C1
330
1F
100
AcDbEntity
  8
0
100
AcDbLine
 10
8.061397577638146
 20
6.116510274735274
 30
0.0
 11
8.061056835901037
 21
6.119098465186299
 31
0.0
  0
LINE
  5
85C2
330
1F
100
AcDbEntity
  8
0
100
AcDbLine
 10
8.06846864545001
 20
6.10943920692341
 30
0.0
 11
8.066056835901036
 21
6.110438211148457
 31
0.0
  0
LINE
  5
85C3
330
1F
100
AcDbEntity
  8
0
100
AcDbLine
 10
8.066056835901036
 20
6.110438211148457
 30
0.0
 11
8.063985768089171
 21
6.112027397374435
 31
0.0
  0
LINE
  5
85C4
330
1F
100
AcDbEntity
  8
0
100
AcDbLine
 10
8.066056835901036
 20
6.127758719224145
 30
0.0
 11
8.06846864545001
 21
6.128757723449192
 31
0.0
  0
LINE
  5
85C5
330
1F
100
AcDbEntity
  8
0
100
AcDbLine
 10
8.062396581863193
 20
6.124098465186301
 30
0.0
 11
8.063985768089171
 21
6.126169532998163
 31
0.0
  0
LINE
  5
85C6
330
1F
100
AcDbEntity
  8
0
100
AcDbLine
 10
8.063985768089171
 20
6.112027397374435
 30
0.0
 11
8.062396581863193
 21
6.1140984651863
 31
0.0
  0
LINE
  5
85C7
330
1F
100
AcDbEntity
  8
0
100
AcDbLine
 10
8.232726628250727
 20
6.116510274735274
 30
0.0
 11
8.232677768619275
 21
6.119098465186302
 31
0.0
  0
LINE
  5
85C8
330
1F
100
AcDbEntity
  8
0
100
AcDbLine
 10
8.232869877441935
 20
6.1140984651863
 30
0.0
 11
8.232726628250727
 21
6.116510274735274
 31
0.0
  0
LINE
  5
85C9
330
1F
100
AcDbEntity
  8
0
100
AcDbLine
 10
8.071056835901035
 20
6.109098465186301
 30
0.0
 11
8.06846864545001
 21
6.10943920692341
 31
0.0
  0
LINE
  5
85CA
330
1F
100
AcDbEntity
  8
0
100
AcDbLine
 10
8.233097753997249
 20
6.112027397374435
 30
0.0
 11
8.232869877441935
 21
6.1140984651863
 31
0.0
  0
LINE
  5
85CB
330
1F
100
AcDbEntity
  8
0
100
AcDbLine
 10
8.063985768089171
 20
6.126169532998163
 30
0.0
 11
8.066056835901036
 21
6.127758719224145
 31
0.0
  0
LINE
  5
85CC
330
1F
100
AcDbEntity
  8
0
100
AcDbLine
 10
8.232726628250727
 20
6.121686655637327
 30
0.0
 11
8.232869877441935
 21
6.124098465186301
 31
0.0
  0
LINE
  5
85CD
330
1F
100
AcDbEntity
  8
0
100
AcDbLine
 10
8.233097753997249
 20
6.126169532998163
 30
0.0
 11
8.233394728506016
 21
6.127758719224145
 31
0.0
  0
LINE
  5
85CE
330
1F
100
AcDbEntity
  8
0
100
AcDbLine
 10
8.233394728506016
 20
6.127758719224145
 30
0.0
 11
8.233740562646232
 21
6.128757723449192
 31
0.0
  0
LINE
  5
85CF
330
1F
100
AcDbEntity
  8
0
100
AcDbLine
 10
8.232869877441935
 20
6.124098465186301
 30
0.0
 11
8.233097753997249
 21
6.126169532998163
 31
0.0
  0
LINE
  5
85D0
330
1F
100
AcDbEntity
  8
0
100
AcDbLine
 10
8.233740562646232
 20
6.10943920692341
 30
0.0
 11
8.233394728506016
 21
6.110438211148457
 31
0.0
  0
LINE
  5
85D1
330
1F
100
AcDbEntity
  8
0
100
AcDbLine
 10
8.234111688392758
 20
6.109098465186301
 30
0.0
 11
8.233740562646232
 21
6.10943920692341
 31
0.0
  0
LINE
  5
85D2
330
1F
100
AcDbEntity
  8
0
100
AcDbLine
 10
8.233740562646232
 20
6.128757723449192
 30
0.0
 11
8.234111688392758
 21
6.1290984651863
 31
0.0
  0
LINE
  5
85D3
330
1F
100
AcDbEntity
  8
0
100
AcDbLine
 10
8.233394728506016
 20
6.110438211148457
 30
0.0
 11
8.233097753997249
 21
6.112027397374435
 31
0.0
  0
LINE
  5
85D4
330
1F
100
AcDbEntity
  8
0
100
AcDbLine
 10
8.06846864545001
 20
6.128757723449192
 30
0.0
 11
8.071056835901035
 21
6.1290984651863
 31
0.0
  0
LINE
  5
85D5
330
1F
100
AcDbEntity
  8
0
100
AcDbLine
 10
8.061397577638146
 20
6.121686655637327
 30
0.0
 11
8.062396581863193
 21
6.124098465186301
 31
0.0
  0
LINE
  5
85D6
330
1F
100
AcDbEntity
  8
0
100
AcDbLine
 10
8.061056835901037
 20
6.119098465186299
 30
0.0
 11
8.061397577638146
 21
6.121686655637327
 31
0.0
  0
LINE
  5
85D7
330
1F
100
AcDbEntity
  8
0
100
AcDbLine
 10
8.062396581863193
 20
6.1140984651863
 30
0.0
 11
8.061397577638146
 21
6.116510274735274
 31
0.0
  0
LINE
  5
85D8
330
1F
100
AcDbEntity
  8
0
100
AcDbLine
 10
8.232677768619275
 20
6.119098465186302
 30
0.0
 11
8.232726628250727
 21
6.121686655637327
 31
0.0
  0
LINE
  5
85D9
330
1F
100
AcDbEntity
  8
0
100
AcDbLine
 10
8.333541257514831
 20
6.1290984651863
 30
0.0
 11
8.234111688392758
 21
6.1290984651863
 31
0.0
  0
LINE
  5
85DA
330
1F
100
AcDbEntity
  8
0
100
AcDbLine
 10
8.333541257514831
 20
6.109098465186301
 30
0.0
 11
8.234111688392758
 21
6.109098465186301
 31
0.0
  0
LINE
  5
8765
330
1F
100
AcDbEntity
  8
0
100
AcDbLine
 10
9.653095991361794
 20
6.429577893214359
 30
0.0
 11
9.653095991361794
 21
6.771118111588846
 31
0.0
  0
LINE
  5
8766
330
1F
100
AcDbEntity
  8
0
100
AcDbLine
 10
8.333541257514834
 20
6.755248968981527
 30
0.0
 11
8.333541257514831
 21
6.1290984651863
 31
0.0
  0
LINE
  5
8767
330
1F
100
AcDbEntity
  8
0
100
AcDbLine
 10
8.976127903712903
 20
6.779836975468997
 30
0.0
 11
8.333541257514834
 21
6.779836975468997
 31
0.0
  0
LINE
  5
877B
330
1F
100
AcDbEntity
  8
0
100
AcDbLine
 10
8.985371357863233
 20
7.117267542185944
 30
0.0
 11
8.986127903712901
 21
7.117367143336592
 31
0.0
  0
LINE
  5
87C6
330
1F
100
AcDbEntity
  8
0
100
AcDbLine
 10
9.653095991361794
 20
5.517118111588844
 30
0.0
 11
9.653095991361794
 21
5.84537789321436
 31
0.0
  0
LINE
  5
87C7
330
1F
100
AcDbEntity
  8
0
100
AcDbLine
 10
9.653095991361794
 20
5.84537789321436
 30
0.0
 11
9.653095991361794
 21
6.429577893214359
 31
0.0
  0
LINE
  5
87C8
330
1F
100
AcDbEntity
  8
0
100
AcDbLine
 10
8.333541257514831
 20
6.1290984651863
 30
0.0
 11
8.333541257514831
 21
6.109098465186301
 31
0.0
  0
LINE
  5
87C9
330
1F
100
AcDbEntity
  8
0
100
AcDbLine
 10
8.333541257514831
 20
6.109098465186301
 30
0.0
 11
8.333541257514831
 21
5.517118111588844
 31
0.0
  0
LINE
  5
87CA
330
1F
100
AcDbEntity
  8
0
100
AcDbLine
 10
9.653095991361794
 20
6.779836975468997
 30
0.0
 11
8.996127903712903
 21
6.779836975468997
 31
0.0
  0
LINE
  5
87CB
330
1F
100
AcDbEntity
  8
0
100
AcDbLine
 10
8.996127903712903
 20
6.779836975468997
 30
0.0
 11
8.976127903712903
 21
6.779836975468997
 31
0.0
  0
LINE
  5
87D8
330
1F
100
AcDbEntity
  8
0
100
AcDbLine
 10
8.983539713261876
 20
7.117026401599483
 30
0.0
 11
8.984962010043169
 21
7.11721365052305
 31
0.0
  0
LINE
  5
87D9
330
1F
100
AcDbEntity
  8
0
100
AcDbLine
 10
8.984962010043169
 20
7.11721365052305
 30
0.0
 11
8.985371357863233
 21
7.117267542185944
 31
0.0
  0
LINE
  5
8830
330
1F
100
AcDbEntity
  8
0
100
AcDbLine
 10
8.976127903712903
 20
7.107367143336594
 30
0.0
 11
8.976127903712903
 21
7.097448817750725
 31
0.0
  0
LINE
  5
8831
330
1F
100
AcDbEntity
  8
0
100
AcDbLine
 10
8.996127903712903
 20
7.107367143336594
 30
0.0
 11
8.996127903712903
 21
7.097448817750725
 31
0.0
  0
LINE
  5
8832
330
1F
100
AcDbEntity
  8
0
100
AcDbLine
 10
8.976127903712903
 20
6.944312290844871
 30
0.0
 11
8.976127903712903
 21
7.097448817750725
 31
0.0
  0
LINE
  5
8833
330
1F
100
AcDbEntity
  8
0
100
AcDbLine
 10
8.996127903712903
 20
6.944312290844871
 30
0.0
 11
8.996127903712903
 21
7.097448817750725
 31
0.0
  0
LINE
  5
8834
330
1F
100
AcDbEntity
  8
0
100
AcDbLine
 10
8.635193170706152
 20
7.117448817750725
 30
0.0
 11
8.735193170706153
 21
7.117448817750725
 31
0.0
  0
LINE
  5
8835
330
1F
100
AcDbEntity
  8
0
100
AcDbLine
 10
8.635193170706152
 20
7.097448817750725
 30
0.0
 11
8.735193170706153
 21
7.097448817750725
 31
0.0
  0
LINE
  5
8836
330
1F
100
AcDbEntity
  8
0
100
AcDbLine
 10
9.285193170706151
 20
7.117448817750725
 30
0.0
 11
8.985193170706153
 21
7.117448817750725
 31
0.0
  0
LINE
  5
8837
330
1F
100
AcDbEntity
  8
0
100
AcDbLine
 10
9.285193170706151
 20
7.097448817750725
 30
0.0
 11
8.996127903712903
 21
7.097448817750725
 31
0.0
  0
LINE
  5
8838
330
1F
100
AcDbEntity
  8
0
100
AcDbLine
 10
8.735193170706153
 20
7.117448817750725
 30
0.0
 11
8.985193170706153
 21
7.117448817750725
 31
0.0
  0
LINE
  5
8839
330
1F
100
AcDbEntity
  8
0
100
AcDbLine
 10
8.735193170706153
 20
7.097448817750725
 30
0.0
 11
8.976127903712903
 21
7.097448817750725
 31
0.0
  0
LINE
  5
883A
330
1F
100
AcDbEntity
  8
0
100
AcDbLine
 10
8.071056835901035
 20
6.1290984651863
 30
0.0
 11
8.234111688392758
 21
6.1290984651863
 31
0.0
  0
LINE
  5
883B
330
1F
100
AcDbEntity
  8
0
100
AcDbLine
 10
8.071056835901035
 20
6.109098465186301
 30
0.0
 11
8.234111688392758
 21
6.109098465186301
 31
0.0
  0
LINE
  5
88A7
330
1F
100
AcDbEntity
  8
0
100
AcDbLine
 10
8.976138656353512
 20
7.107448817750723
 30
0.0
 11
8.894606505340078
 21
7.107448817750723
 31
0.0
  0
LINE
  5
88A8
330
1F
100
AcDbEntity
  8
0
100
AcDbLine
 10
8.894606505340078
 20
7.107448817750723
 30
0.0
 11
8.810193171458934
 21
7.107448817750723
 31
0.0
  0
LINE
  5
88A9
330
1F
100
AcDbEntity
  8
0
100
AcDbLine
 10
8.810193171458934
 20
7.107448817750723
 30
0.0
 11
8.737705798212825
 21
7.107448817750723
 31
0.0
  0
LINE
  5
88AA
330
1F
100
AcDbEntity
  8
0
100
AcDbLine
 10
8.737705798212825
 20
7.107448817750723
 30
0.0
 11
8.682084280250833
 21
7.107448817750723
 31
0.0
  0
LINE
  5
88AB
330
1F
100
AcDbEntity
  8
0
100
AcDbLine
 10
8.682084280250833
 20
7.107448817750723
 30
0.0
 11
8.647119132067416
 21
7.107448817750723
 31
0.0
  0
LINE
  5
88AC
330
1F
100
AcDbEntity
  8
0
100
AcDbLine
 10
8.647119132067416
 20
7.107448817750723
 30
0.0
 11
8.635193170706152
 21
7.107448817750723
 31
0.0
  0
LINE
  5
88AD
330
1F
100
AcDbEntity
  8
0
100
AcDbLine
 10
8.635193170706152
 20
7.107448817750723
 30
0.0
 11
8.64711913071757
 21
7.107448817750723
 31
0.0
  0
LINE
  5
88AE
330
1F
100
AcDbEntity
  8
0
100
AcDbLine
 10
8.64711913071757
 20
7.107448817750723
 30
0.0
 11
8.682084277643131
 21
7.107448817750723
 31
0.0
  0
LINE
  5
88AF
330
1F
100
AcDbEntity
  8
0
100
AcDbLine
 10
8.682084277643131
 20
7.107448817750723
 30
0.0
 11
8.737705794524973
 21
7.107448817750723
 31
0.0
  0
LINE
  5
88B0
330
1F
100
AcDbEntity
  8
0
100
AcDbLine
 10
8.737705794524973
 20
7.107448817750723
 30
0.0
 11
8.810193166942259
 21
7.107448817750723
 31
0.0
  0
LINE
  5
88B1
330
1F
100
AcDbEntity
  8
0
100
AcDbLine
 10
8.810193166942259
 20
7.107448817750723
 30
0.0
 11
8.894606500302383
 21
7.107448817750723
 31
0.0
  0
LINE
  5
88B2
330
1F
100
AcDbEntity
  8
0
100
AcDbLine
 10
8.894606500302383
 20
7.107448817750723
 30
0.0
 11
8.976138656353512
 21
7.107448817750723
 31
0.0
  0
LINE
  5
88B3
330
1F
100
AcDbEntity
  8
0
100
AcDbLine
 10
8.996117151072294
 20
7.107448817750723
 30
0.0
 11
9.06283888423691
 21
7.107448817750723
 31
0.0
  0
LINE
  5
88B4
330
1F
100
AcDbEntity
  8
0
100
AcDbLine
 10
9.06283888423691
 20
7.107448817750723
 30
0.0
 11
9.135193170706152
 21
7.107448817750723
 31
0.0
  0
LINE
  5
88B5
330
1F
100
AcDbEntity
  8
0
100
AcDbLine
 10
9.135193170706152
 20
7.107448817750723
 30
0.0
 11
9.197325205062117
 21
7.107448817750723
 31
0.0
  0
LINE
  5
88B6
330
1F
100
AcDbEntity
  8
0
100
AcDbLine
 10
9.197325205062117
 20
7.107448817750723
 30
0.0
 11
9.245000791841484
 21
7.107448817750723
 31
0.0
  0
LINE
  5
88B7
330
1F
100
AcDbEntity
  8
0
100
AcDbLine
 10
9.245000791841484
 20
7.107448817750723
 30
0.0
 11
9.274970918592874
 21
7.107448817750723
 31
0.0
  0
LINE
  5
88B8
330
1F
100
AcDbEntity
  8
0
100
AcDbLine
 10
9.274970918592874
 20
7.107448817750723
 30
0.0
 11
9.285193170706151
 21
7.107448817750723
 31
0.0
  0
LINE
  5
88B9
330
1F
100
AcDbEntity
  8
0
100
AcDbLine
 10
9.285193170706151
 20
7.107448817750723
 30
0.0
 11
9.274970918592874
 21
7.107448817750723
 31
0.0
  0
LINE
  5
88BA
330
1F
100
AcDbEntity
  8
0
100
AcDbLine
 10
9.274970918592874
 20
7.107448817750723
 30
0.0
 11
9.245000791841484
 21
7.107448817750723
 31
0.0
  0
LINE
  5
88BB
330
1F
100
AcDbEntity
  8
0
100
AcDbLine
 10
9.245000791841484
 20
7.107448817750723
 30
0.0
 11
9.197325205062117
 21
7.107448817750723
 31
0.0
  0
LINE
  5
88BC
330
1F
100
AcDbEntity
  8
0
100
AcDbLine
 10
9.197325205062117
 20
7.107448817750723
 30
0.0
 11
9.135193170706152
 21
7.107448817750723
 31
0.0
  0
LINE
  5
88BD
330
1F
100
AcDbEntity
  8
0
100
AcDbLine
 10
9.135193170706152
 20
7.107448817750723
 30
0.0
 11
9.06283888423691
 21
7.107448817750723
 31
0.0
  0
LINE
  5
88BE
330
1F
100
AcDbEntity
  8
0
100
AcDbLine
 10
9.06283888423691
 20
7.107448817750723
 30
0.0
 11
8.996117151072294
 21
7.107448817750723
 31
0.0
  0
LINE
  5
88BF
330
1F
100
AcDbEntity
  8
0
100
AcDbLine
 10
8.976138656353512
 20
7.107448817750723
 30
0.0
 11
8.920488409430522
 21
7.107448817750723
 31
0.0
  0
LINE
  5
88C0
330
1F
100
AcDbEntity
  8
0
100
AcDbLine
 10
8.920488409430522
 20
7.107448817750723
 30
0.0
 11
8.860193170706153
 21
7.107448817750723
 31
0.0
  0
LINE
  5
88C1
330
1F
100
AcDbEntity
  8
0
100
AcDbLine
 10
8.860193170706153
 20
7.107448817750723
 30
0.0
 11
8.808416475409515
 21
7.107448817750723
 31
0.0
  0
LINE
  5
88C2
330
1F
100
AcDbEntity
  8
0
100
AcDbLine
 10
8.808416475409515
 20
7.107448817750723
 30
0.0
 11
8.768686819760045
 21
7.107448817750723
 31
0.0
  0
LINE
  5
88C3
330
1F
100
AcDbEntity
  8
0
100
AcDbLine
 10
8.768686819760045
 20
7.107448817750723
 30
0.0
 11
8.743711714133887
 21
7.107448817750723
 31
0.0
  0
LINE
  5
88C4
330
1F
100
AcDbEntity
  8
0
100
AcDbLine
 10
8.743711714133887
 20
7.107448817750723
 30
0.0
 11
8.735193170706153
 21
7.107448817750723
 31
0.0
  0
LINE
  5
88C5
330
1F
100
AcDbEntity
  8
0
100
AcDbLine
 10
8.735193170706153
 20
7.107448817750723
 30
0.0
 11
8.743711714133887
 21
7.107448817750723
 31
0.0
  0
LINE
  5
88C6
330
1F
100
AcDbEntity
  8
0
100
AcDbLine
 10
8.743711714133887
 20
7.107448817750723
 30
0.0
 11
8.768686819760045
 21
7.107448817750723
 31
0.0
  0
LINE
  5
88C7
330
1F
100
AcDbEntity
  8
0
100
AcDbLine
 10
8.768686819760045
 20
7.107448817750723
 30
0.0
 11
8.808416475409515
 21
7.107448817750723
 31
0.0
  0
LINE
  5
88C8
330
1F
100
AcDbEntity
  8
0
100
AcDbLine
 10
8.808416475409515
 20
7.107448817750723
 30
0.0
 11
8.860193170706153
 21
7.107448817750723
 31
0.0
  0
LINE
  5
88C9
330
1F
100
AcDbEntity
  8
0
100
AcDbLine
 10
8.860193170706153
 20
7.107448817750723
 30
0.0
 11
8.920488409430525
 21
7.107448817750723
 31
0.0
  0
LINE
  5
88CA
330
1F
100
AcDbEntity
  8
0
100
AcDbLine
 10
8.920488409430525
 20
7.107448817750723
 30
0.0
 11
8.976138656353512
 21
7.107448817750723
 31
0.0
  0
LINE
  5
8987
330
1F
100
AcDbEntity
  8
0
100
AcDbLine
 10
9.653095991361794
 20
5.517118111588844
 30
0.0
 11
8.333541257514831
 21
5.517118111588844
 31
0.0
  0
LINE
  5
8B04
330
1F
100
AcDbEntity
  8
0
100
AcDbLine
 10
9.579376889307699
 20
4.442145491333507
 30
0.0
 11
9.573550511421682
 21
4.60761917830152
 31
0.0
  0
LINE
  5
8B05
330
1F
100
AcDbEntity
  8
0
100
AcDbLine
 10
9.522897506346762
 20
4.438362064271709
 30
0.0
 11
9.517071150921491
 21
4.603835759834561
 31
0.0
  0
LINE
  5
8B06
330
1F
100
AcDbEntity
  8
0
100
AcDbLine
 10
9.517580083114868
 20
4.4411020175179
 30
0.0
 11
9.511753727689598
 21
4.606575713080752
 31
0.0
  0
LINE
  5
8B09
330
1F
100
AcDbEntity
  8
0
100
AcDbLine
 10
9.473307691434786
 20
4.148400261122953
 30
0.0
 11
9.477848961454352
 21
4.153209724204971
 31
0.0
  0
LINE
  5
8B0A
330
1F
100
AcDbEntity
  8
0
100
AcDbLine
 10
9.473307691434786
 20
4.148400261122953
 30
0.0
 11
9.505470652454025
 21
4.201414700468761
 31
0.0
  0
LINE
  5
8B0B
330
1F
100
AcDbEntity
  8
0
100
AcDbLine
 10
9.505470652454025
 20
4.201414700468761
 30
0.0
 11
9.509525574599489
 21
4.206640726419069
 31
0.0
  0
LINE
  5
8B0C
330
1F
100
AcDbEntity
  8
0
100
AcDbLine
 10
9.505470652454025
 20
4.201414700468761
 30
0.0
 11
9.532346803587184
 21
4.257601705689205
 31
0.0
  0
LINE
  5
8B0D
330
1F
100
AcDbEntity
  8
0
100
AcDbLine
 10
9.532346803587184
 20
4.257601705689205
 30
0.0
 11
9.53587429745961
 21
4.263195690768023
 31
0.0
  0
LINE
  5
8B0E
330
1F
100
AcDbEntity
  8
0
100
AcDbLine
 10
9.532346803587184
 20
4.257601705689205
 30
0.0
 11
9.553748456165433
 21
4.316655956758959
 31
0.0
  0
LINE
  5
8B0F
330
1F
100
AcDbEntity
  8
0
100
AcDbLine
 10
9.553748456165433
 20
4.316655956758959
 30
0.0
 11
9.556709990724709
 21
4.322567093824327
 31
0.0
  0
LINE
  5
8B10
330
1F
100
AcDbEntity
  8
0
100
AcDbLine
 10
9.579376889307699
 20
4.442145491333507
 30
0.0
 11
9.571847719220304
 21
4.384447039543468
 31
0.0
  0
LINE
  5
8B11
330
1F
100
AcDbEntity
  8
0
100
AcDbLine
 10
9.579376889307699
 20
4.442145491333507
 30
0.0
 11
9.581102551126175
 21
4.448528007057072
 31
0.0
  0
LINE
  5
8B13
330
1F
100
AcDbEntity
  8
0
100
AcDbLine
 10
9.400251213975199
 20
4.16245386119599
 30
0.0
 11
9.448023832052317
 21
4.2242890516537
 31
0.0
  0
LINE
  5
8B14
330
1F
100
AcDbEntity
  8
0
100
AcDbLine
 10
9.451875445094177
 20
4.219708574928853
 30
0.0
 11
9.477239304382553
 21
4.270600402206627
 31
0.0
  0
LINE
  5
8B15
330
1F
100
AcDbEntity
  8
0
100
AcDbLine
 10
9.448023832052317
 20
4.2242890516537
 30
0.0
 11
9.47296186560634
 21
4.274784177778018
 31
0.0
  0
LINE
  5
8B16
330
1F
100
AcDbEntity
  8
0
100
AcDbLine
 10
9.477239304382553
 20
4.270600402206627
 30
0.0
 11
9.497648275781717
 21
4.324190480651376
 31
0.0
  0
LINE
  5
8B17
330
1F
100
AcDbEntity
  8
0
100
AcDbLine
 10
9.47296186560634
 20
4.274784177778018
 30
0.0
 11
9.492982742754474
 21
4.32793399398704
 31
0.0
  0
LINE
  5
8B18
330
1F
100
AcDbEntity
  8
0
100
AcDbLine
 10
9.497648275781717
 20
4.324190480651376
 30
0.0
 11
9.512926278972567
 21
4.380203005665253
 31
0.0
  0
LINE
  5
8B19
330
1F
100
AcDbEntity
  8
0
100
AcDbLine
 10
9.492982742754474
 20
4.32793399398704
 30
0.0
 11
9.507913233671555
 21
4.38346455064285
 31
0.0
  0
LINE
  5
8B1A
330
1F
100
AcDbEntity
  8
0
100
AcDbLine
 10
9.512926278972567
 20
4.380203005665253
 30
0.0
 11
9.522897506346762
 21
4.438362064271709
 31
0.0
  0
LINE
  5
8B1B
330
1F
100
AcDbEntity
  8
0
100
AcDbLine
 10
9.507913233671555
 20
4.38346455064285
 30
0.0
 11
9.517580083114868
 21
4.4411020175179
 31
0.0
  0
LINE
  5
8B1C
330
1F
100
AcDbEntity
  8
0
100
AcDbLine
 10
9.592795686918034
 20
4.116434621167678
 30
0.0
 11
9.591069989532361
 21
4.110052077069868
 31
0.0
  0
LINE
  5
8B1D
330
1F
100
AcDbEntity
  8
0
100
AcDbLine
 10
9.591069989532361
 20
4.110052077069868
 30
0.0
 11
9.583884604718658
 21
4.107102269616442
 31
0.0
  0
LINE
  5
8B1E
330
1F
100
AcDbEntity
  8
0
100
AcDbLine
 10
9.583884604718658
 20
4.107102269616442
 30
0.0
 11
9.572242039332333
 21
4.104956610830756
 31
0.0
  0
LINE
  5
8B1F
330
1F
100
AcDbEntity
  8
0
100
AcDbLine
 10
9.572242039332333
 20
4.104956610830756
 30
0.0
 11
9.558382859212574
 21
4.104028158323417
 31
0.0
  0
LINE
  5
8B20
330
1F
100
AcDbEntity
  8
0
100
AcDbLine
 10
9.558382859212574
 20
4.104028158323417
 30
0.0
 11
9.54497273963236
 21
4.104495549682804
 31
0.0
  0
LINE
  5
8B21
330
1F
100
AcDbEntity
  8
0
100
AcDbLine
 10
9.54497273963236
 20
4.104495549682804
 30
0.0
 11
9.534590646374883
 21
4.106268658480589
 31
0.0
  0
LINE
  5
8B22
330
1F
100
AcDbEntity
  8
0
100
AcDbLine
 10
9.534590646374883
 20
4.106268658480589
 30
0.0
 11
9.529273179103274
 21
4.109008623155988
 31
0.0
  0
LINE
  5
8B23
330
1F
100
AcDbEntity
  8
0
100
AcDbLine
 10
9.529273179103274
 20
4.109008623155988
 30
0.0
 11
9.527307341023433
 21
4.115287786195773
 31
0.0
  0
LINE
  5
8B24
330
1F
100
AcDbEntity
  8
0
100
AcDbLine
 10
9.523625388993746
 20
4.121471833672488
 30
0.0
 11
9.527307341023433
 21
4.115287786195773
 31
0.0
  0
LINE
  5
8B25
330
1F
100
AcDbEntity
  8
0
100
AcDbLine
 10
9.517853716264351
 20
4.127506121021683
 30
0.0
 11
9.523625388993746
 21
4.121471833672488
 31
0.0
  0
LINE
  5
8B26
330
1F
100
AcDbEntity
  8
0
100
AcDbLine
 10
9.510029871974023
 20
4.133357179628641
 30
0.0
 11
9.517853716264351
 21
4.127506121021683
 31
0.0
  0
LINE
  5
8B27
330
1F
100
AcDbEntity
  8
0
100
AcDbLine
 10
9.500199822499457
 20
4.138992458817044
 30
0.0
 11
9.510029871974023
 21
4.133357179628641
 31
0.0
  0
LINE
  5
8B28
330
1F
100
AcDbEntity
  8
0
100
AcDbLine
 10
9.488418913732349
 20
4.144380447464294
 30
0.0
 11
9.500199822499457
 21
4.138992458817044
 31
0.0
  0
LINE
  5
8B29
330
1F
100
AcDbEntity
  8
0
100
AcDbLine
 10
9.475033254380409
 20
4.149386118223121
 30
0.0
 11
9.488418913732349
 21
4.144380447464294
 31
0.0
  0
LINE
  5
8B2A
330
1F
100
AcDbEntity
  8
0
100
AcDbLine
 10
9.581102551126175
 20
4.448528007057072
 30
0.0
 11
9.592795686918034
 21
4.116434621167678
 31
0.0
  0
LINE
  5
8B2B
330
1F
100
AcDbEntity
  8
0
100
AcDbLine
 10
9.524689500776712
 20
4.239188615320395
 30
0.0
 11
9.529273179103274
 21
4.109008623155988
 31
0.0
  0
LINE
  5
8B2C
330
1F
100
AcDbEntity
  8
0
100
AcDbLine
 10
9.511753727689598
 20
4.606575713080752
 30
0.0
 11
9.502363315138058
 21
4.873270764951564
 31
0.0
  0
LINE
  5
8B2D
330
1F
100
AcDbEntity
  8
0
100
AcDbLine
 10
9.575276173240158
 20
4.614001694025086
 30
0.0
 11
9.566147231698945
 21
4.873270764952325
 31
0.0
  0
LINE
  5
8B2E
330
1F
100
AcDbEntity
  8
0
100
AcDbLine
 10
9.573550511421682
 20
4.60761917830152
 30
0.0
 11
9.564196839592664
 21
4.873270764952296
 31
0.0
  0
LINE
  5
8B2F
330
1F
100
AcDbEntity
  8
0
100
AcDbLine
 10
9.517071150921491
 20
4.603835759834561
 30
0.0
 11
9.507584263796562
 21
4.873270764951628
 31
0.0
  0
LINE
  5
8B30
330
1F
100
AcDbEntity
  8
0
100
AcDbLine
 10
9.566147231698945
 20
4.873270764952325
 30
0.0
 11
9.566147231697296
 21
5.011863465262765
 31
0.0
  0
LINE
  5
8B31
330
1F
100
AcDbEntity
  8
0
100
AcDbLine
 10
9.564196839592664
 20
4.873270764952296
 30
0.0
 11
9.564196839591023
 21
5.011863465262765
 31
0.0
  0
LINE
  5
8B32
330
1F
100
AcDbEntity
  8
0
100
AcDbLine
 10
9.507584263796562
 20
4.873270764951628
 30
0.0
 11
9.507584263794914
 21
5.011863465262765
 31
0.0
  0
LINE
  5
8B33
330
1F
100
AcDbEntity
  8
0
100
AcDbLine
 10
9.502363315138058
 20
4.873270764951564
 30
0.0
 11
9.50236331513641
 21
5.011863465262765
 31
0.0
  0
LINE
  5
8B34
330
1F
100
AcDbEntity
  8
0
100
AcDbLine
 10
9.575630044483194
 20
4.603951474069818
 30
0.0
 11
9.575276173240158
 21
4.614001694025086
 31
0.0
  0
LINE
  5
8B35
330
1F
100
AcDbEntity
  8
0
100
AcDbLine
 10
9.429714161732466
 20
4.09779397738912
 30
0.0
 11
9.475033254380409
 21
4.149386118223121
 31
0.0
  0
LINE
  5
8B36
330
1F
100
AcDbEntity
  8
0
100
AcDbLine
 10
9.475033254380409
 20
4.149386118223121
 30
0.0
 11
9.477848961454352
 21
4.153209724204971
 31
0.0
  0
LINE
  5
8B37
330
1F
100
AcDbEntity
  8
0
100
AcDbLine
 10
9.477848961454352
 20
4.153209724204971
 30
0.0
 11
9.487532888918966
 21
4.169544234066622
 31
0.0
  0
LINE
  5
8B38
330
1F
100
AcDbEntity
  8
0
100
AcDbLine
 10
9.53587429745961
 20
4.263195690768023
 30
0.0
 11
9.539064753273716
 21
4.272286909172068
 31
0.0
  0
LINE
  5
8B39
330
1F
100
AcDbEntity
  8
0
100
AcDbLine
 10
9.556709990724709
 20
4.322567093824327
 30
0.0
 11
9.563589692770538
 21
4.350689912203828
 31
0.0
  0
LINE
  5
8B3A
330
1F
100
AcDbEntity
  8
0
100
AcDbLine
 10
9.563589692770538
 20
4.350689912203828
 30
0.0
 11
9.571847719220304
 21
4.384447039543468
 31
0.0
  0
LINE
  5
8B3B
330
1F
100
AcDbEntity
  8
0
100
AcDbLine
 10
9.571847719220304
 20
4.384447039543468
 30
0.0
 11
9.573673971502575
 21
4.397092111259732
 31
0.0
  0
LINE
  5
8B3C
330
1F
100
AcDbEntity
  8
0
100
AcDbLine
 10
9.487532888918966
 20
4.169544234066622
 30
0.0
 11
9.49847426020025
 21
4.187999756141445
 31
0.0
  0
LINE
  5
8B3D
330
1F
100
AcDbEntity
  8
0
100
AcDbLine
 10
9.509525574599489
 20
4.206640726419069
 30
0.0
 11
9.514677967325841
 21
4.217699834995125
 31
0.0
  0
LINE
  5
8B3E
330
1F
100
AcDbEntity
  8
0
100
AcDbLine
 10
9.514677967325841
 20
4.217699834995125
 30
0.0
 11
9.519846552476469
 21
4.228793699030982
 31
0.0
  0
LINE
  5
8B3F
330
1F
100
AcDbEntity
  8
0
100
AcDbLine
 10
9.519846552476469
 20
4.228793699030982
 30
0.0
 11
9.523067348938962
 21
4.235706824577073
 31
0.0
  0
LINE
  5
8B40
330
1F
100
AcDbEntity
  8
0
100
AcDbLine
 10
9.539064753273716
 20
4.272286909172068
 30
0.0
 11
9.551237136887795
 21
4.306972171837083
 31
0.0
  0
LINE
  5
8B41
330
1F
100
AcDbEntity
  8
0
100
AcDbLine
 10
9.551237136887795
 20
4.306972171837083
 30
0.0
 11
9.556709990724709
 21
4.322567093824327
 31
0.0
  0
LINE
  5
8B42
330
1F
100
AcDbEntity
  8
0
100
AcDbLine
 10
9.573673971502575
 20
4.397092111259732
 30
0.0
 11
9.579534446873569
 21
4.43767036656275
 31
0.0
  0
LINE
  5
8B43
330
1F
100
AcDbEntity
  8
0
100
AcDbLine
 10
9.579534446873569
 20
4.43767036656275
 30
0.0
 11
9.581102551126175
 21
4.448528007057072
 31
0.0
  0
LINE
  5
8B44
330
1F
100
AcDbEntity
  8
0
100
AcDbLine
 10
9.576878583198674
 20
4.568491998454854
 30
0.0
 11
9.575979570860841
 21
4.594024651688409
 31
0.0
  0
LINE
  5
8B45
330
1F
100
AcDbEntity
  8
0
100
AcDbLine
 10
9.575979570860841
 20
4.594024651688409
 30
0.0
 11
9.575630044483194
 21
4.603951474069818
 31
0.0
  0
LINE
  5
8B46
330
1F
100
AcDbEntity
  8
0
100
AcDbLine
 10
9.49847426020025
 20
4.187999756141445
 30
0.0
 11
9.507565922072583
 21
4.203335253134278
 31
0.0
  0
LINE
  5
8B47
330
1F
100
AcDbEntity
  8
0
100
AcDbLine
 10
9.507565922072583
 20
4.203335253134278
 30
0.0
 11
9.509525574599489
 21
4.206640726419069
 31
0.0
  0
LINE
  5
8B48
330
1F
100
AcDbEntity
  8
0
100
AcDbLine
 10
9.523067348938962
 20
4.235706824577073
 30
0.0
 11
9.524689500776712
 21
4.239188615320395
 31
0.0
  0
LINE
  5
8B49
330
1F
100
AcDbEntity
  8
0
100
AcDbLine
 10
9.581102551126175
 20
4.448528007057072
 30
0.0
 11
9.580507861712536
 21
4.46541765132669
 31
0.0
  0
LINE
  5
8B4A
330
1F
100
AcDbEntity
  8
0
100
AcDbLine
 10
9.580507861712536
 20
4.46541765132669
 30
0.0
 11
9.579701791165337
 21
4.48831068504535
 31
0.0
  0
LINE
  5
8B4B
330
1F
100
AcDbEntity
  8
0
100
AcDbLine
 10
9.579701791165337
 20
4.48831068504535
 30
0.0
 11
9.579118046607664
 21
4.504889486848982
 31
0.0
  0
LINE
  5
8B4C
330
1F
100
AcDbEntity
  8
0
100
AcDbLine
 10
9.579118046607664
 20
4.504889486848982
 30
0.0
 11
9.576878583198674
 21
4.568491998454854
 31
0.0
  0
LINE
  5
8B4D
330
1F
100
AcDbEntity
  8
0
100
AcDbLine
 10
9.524689500776712
 20
4.239188615320395
 30
0.0
 11
9.529543639082366
 21
4.249607549865283
 31
0.0
  0
LINE
  5
8B4E
330
1F
100
AcDbEntity
  8
0
100
AcDbLine
 10
9.529543639082366
 20
4.249607549865283
 30
0.0
 11
9.53587429745961
 21
4.263195690768023
 31
0.0
  0
LINE
  5
8B4F
330
1F
100
AcDbEntity
  8
0
100
AcDbLine
 10
9.581122219893888
 20
4.445346685915405
 30
0.0
 11
9.581102575264072
 21
4.448527991391694
 31
0.0
  0
LINE
  5
8B50
330
1F
100
AcDbEntity
  8
0
100
AcDbLine
 10
9.580470436429489
 20
4.444151209968234
 30
0.0
 11
9.581122219893888
 21
4.445346685915405
 31
0.0
  0
ARC
  5
8B51
330
1F
100
AcDbEntity
  8
0
100
AcDbCircle
 10
8.934860658632967
 20
4.478498221376691
 30
0.0
 40
0.6243522330543821
100
AcDbArc
 50
121.3208435390806
 51
322.4279381494712
  0
ARC
  5
8B52
330
1F
100
AcDbEntity
  8
0
100
AcDbCircle
 10
8.934860658632967
 20
4.478498221376691
 30
0.0
 40
0.5683591944850834
100
AcDbArc
 50
110.210476739702
 51
325.7733038512591
  0
ARC
  5
8B53
330
1F
100
AcDbEntity
  8
0
100
AcDbCircle
 10
8.934860658632967
 20
4.478498221376691
 30
0.0
 40
0.5625588027964544
100
AcDbArc
 50
108.5393042632414
 51
325.8197733248934
  0
CIRCLE
  5
8B54
330
1F
100
AcDbEntity
  8
0
100
AcDbCircle
 10
8.934860658632967
 20
4.478498221376691
 30
0.0
 40
0.0584579658053404
  0
LINE
  5
8B55
330
1F
100
AcDbEntity
  8
0
100
AcDbLine
 10
8.993318624438312
 20
4.478498221376691
 30
0.0
 11
8.993318624438312
 21
5.011863465262765
 31
0.0
  0
LINE
  5
8B56
330
1F
100
AcDbEntity
  8
0
100
AcDbLine
 10
8.934860658632967
 20
4.536956187182036
 30
0.0
 11
8.934860658632967
 21
5.011863465262765
 31
0.0
  0
LINE
  5
8B57
330
1F
100
AcDbEntity
  8
0
100
AcDbLine
 10
8.94020448555123
 20
4.536956187182036
 30
0.0
 11
8.94020448555123
 21
5.011863465262765
 31
0.0
  0
LINE
  5
8BE5
330
1F
100
AcDbEntity
  8
0
100
AcDbLine
 10
9.404790606315742
 20
4.158813973678128
 30
0.0
 11
9.451875445094177
 21
4.219708574928853
 31
0.0
  0
LINE
  5
90B0
330
1F
100
AcDbEntity
  8
0
100
AcDbLine
 10
11.26369495097732
 20
3.036636560316671
 30
0.0
 11
11.26291124498196
 21
3.04233023325889
 31
0.0
  0
LINE
  5
90B1
330
1F
100
AcDbEntity
  8
0
100
AcDbLine
 10
11.26599266069492
 20
3.031330901776218
 30
0.0
 11
11.26369495097732
 21
3.036636560316671
 31
0.0
  0
LINE
  5
90B2
330
1F
100
AcDbEntity
  8
0
100
AcDbLine
 10
11.26964778901467
 20
3.026774829499062
 30
0.0
 11
11.26599266069492
 21
3.031330901776218
 31
0.0
  0
LINE
  5
90B3
330
1F
100
AcDbEntity
  8
0
100
AcDbLine
 10
11.27441124498196
 20
3.023278832281615
 30
0.0
 11
11.26964778901467
 21
3.026774829499062
 31
0.0
  0
LINE
  5
90B4
330
1F
100
AcDbEntity
  8
0
100
AcDbLine
 10
11.2799584069446
 20
3.021081156556839
 30
0.0
 11
11.27441124498196
 21
3.023278832281615
 31
0.0
  0
LINE
  5
90B5
330
1F
100
AcDbEntity
  8
0
100
AcDbLine
 10
11.28591124498196
 20
3.020331570293553
 30
0.0
 11
11.2799584069446
 21
3.021081156556839
 31
0.0
  0
LINE
  5
90B6
330
1F
100
AcDbEntity
  8
0
100
AcDbLine
 10
11.29186408301932
 20
3.021081156556839
 30
0.0
 11
11.28591124498196
 21
3.020331570293553
 31
0.0
  0
LINE
  5
90B7
330
1F
100
AcDbEntity
  8
0
100
AcDbLine
 10
11.29741124498196
 20
3.023278832281615
 30
0.0
 11
11.29186408301932
 21
3.021081156556839
 31
0.0
  0
LINE
  5
90B8
330
1F
100
AcDbEntity
  8
0
100
AcDbLine
 10
11.30217470094925
 20
3.026774829499062
 30
0.0
 11
11.29741124498196
 21
3.023278832281615
 31
0.0
  0
LINE
  5
90B9
330
1F
100
AcDbEntity
  8
0
100
AcDbLine
 10
11.30582982926901
 20
3.031330901776218
 30
0.0
 11
11.30217470094925
 21
3.026774829499062
 31
0.0
  0
LINE
  5
90BA
330
1F
100
AcDbEntity
  8
0
100
AcDbLine
 10
11.30812753898661
 20
3.036636560316671
 30
0.0
 11
11.30582982926901
 21
3.031330901776218
 31
0.0
  0
LINE
  5
90BB
330
1F
100
AcDbEntity
  8
0
100
AcDbLine
 10
11.30891124498196
 20
3.04233023325889
 30
0.0
 11
11.30812753898661
 21
3.036636560316671
 31
0.0
  0
LINE
  5
90BC
330
1F
100
AcDbEntity
  8
0
100
AcDbLine
 10
11.78292033149984
 20
3.06107193062309
 30
0.0
 11
11.30891124498196
 21
3.061374298448536
 31
0.0
  0
LINE
  5
90BD
330
1F
100
AcDbEntity
  8
0
100
AcDbLine
 10
11.26369495097732
 20
3.341579261108629
 30
0.0
 11
11.26291124498196
 21
3.342170607192033
 31
0.0
  0
LINE
  5
90BE
330
1F
100
AcDbEntity
  8
0
100
AcDbLine
 10
11.26599266069492
 20
3.341028214283562
 30
0.0
 11
11.26369495097732
 21
3.341579261108629
 31
0.0
  0
LINE
  5
90BF
330
1F
100
AcDbEntity
  8
0
100
AcDbLine
 10
11.26925106642387
 20
3.340606379541034
 30
0.0
 11
11.26599266069492
 21
3.341028214283562
 31
0.0
  0
LINE
  5
90C0
330
1F
100
AcDbEntity
  8
0
100
AcDbLine
 10
11.30582982926901
 20
3.341028214283562
 30
0.0
 11
11.30257142354005
 21
3.340606379541034
 31
0.0
  0
LINE
  5
90C1
330
1F
100
AcDbEntity
  8
0
100
AcDbLine
 10
11.30812753898661
 20
3.341579261108629
 30
0.0
 11
11.30582982926901
 21
3.341028214283562
 31
0.0
  0
LINE
  5
90C2
330
1F
100
AcDbEntity
  8
0
100
AcDbLine
 10
11.30891124498196
 20
3.342170607192033
 30
0.0
 11
11.30812753898661
 21
3.341579261108629
 31
0.0
  0
LINE
  5
90C3
330
1F
100
AcDbEntity
  8
0
100
AcDbLine
 10
11.78292033149983
 20
3.344117123868558
 30
0.0
 11
11.30891124498196
 21
3.344148527855256
 31
0.0
  0
LINE
  5
90C4
330
1F
100
AcDbEntity
  8
0
100
AcDbLine
 10
11.26369495097732
 20
4.077393558335598
 30
0.0
 11
11.26291124498196
 21
4.079389128373812
 31
0.0
  0
LINE
  5
90C5
330
1F
100
AcDbEntity
  8
0
100
AcDbLine
 10
11.26599266069493
 20
5.460413175500963
 30
0.0
 11
11.26369495097732
 21
5.462272750738906
 31
0.0
  0
LINE
  5
90C6
330
1F
100
AcDbEntity
  8
0
100
AcDbLine
 10
11.26925106642388
 20
5.458989642316444
 30
0.0
 11
11.26599266069493
 21
5.460413175500963
 31
0.0
  0
LINE
  5
90C7
330
1F
100
AcDbEntity
  8
0
100
AcDbLine
 10
11.30582982926901
 20
5.460413175500963
 30
0.0
 11
11.30257142354006
 21
5.458989642316444
 31
0.0
  0
LINE
  5
90C8
330
1F
100
AcDbEntity
  8
0
100
AcDbLine
 10
11.30812753898662
 20
5.462272750738906
 30
0.0
 11
11.30582982926901
 21
5.460413175500963
 31
0.0
  0
LINE
  5
90C9
330
1F
100
AcDbEntity
  8
0
100
AcDbLine
 10
11.30891124498196
 20
5.46426832077712
 30
0.0
 11
11.30812753898662
 21
5.462272750738906
 31
0.0
  0
LINE
  5
90CA
330
1F
100
AcDbEntity
  8
0
100
AcDbLine
 10
11.78291124498197
 20
5.47083708257142
 30
0.0
 11
11.30891124498196
 21
5.470943057152731
 31
0.0
  0
LINE
  5
90CB
330
1F
100
AcDbEntity
  8
0
100
AcDbLine
 10
11.26291124498197
 20
5.46426832077712
 30
0.0
 11
11.26291124498197
 21
5.484796530898069
 31
0.0
  0
LINE
  5
90CC
330
1F
100
AcDbEntity
  8
0
100
AcDbLine
 10
11.2995134627263
 20
5.458847535819826
 30
0.0
 11
11.29764697600967
 21
5.455511731580243
 31
0.0
  0
LINE
  5
90CD
330
1F
100
AcDbEntity
  8
0
100
AcDbLine
 10
11.27142098638891
 20
5.462161749386427
 30
0.0
 11
11.27136950918155
 21
5.46598388395827
 31
0.0
  0
LINE
  5
90CE
330
1F
100
AcDbEntity
  8
0
100
AcDbLine
 10
11.27245995077311
 20
5.458483174173587
 30
0.0
 11
11.27142098638891
 21
5.462161749386427
 31
0.0
  0
LINE
  5
90CF
330
1F
100
AcDbEntity
  8
0
100
AcDbLine
 10
11.29498071861772
 20
5.452772674423483
 30
0.0
 11
11.2916963915855
 21
5.450817026568267
 31
0.0
  0
LINE
  5
90D0
330
1F
100
AcDbEntity
  8
0
100
AcDbLine
 10
11.29764697600967
 20
5.455511731580243
 30
0.0
 11
11.29498071861772
 21
5.452772674423483
 31
0.0
  0
LINE
  5
90D1
330
1F
100
AcDbEntity
  8
0
100
AcDbLine
 10
11.27715465578509
 20
5.452532589749417
 30
0.0
 11
11.27441559862833
 21
5.45519884714137
 31
0.0
  0
LINE
  5
90D2
330
1F
100
AcDbEntity
  8
0
100
AcDbLine
 10
11.28049046002467
 20
5.450666103032785
 30
0.0
 11
11.27715465578509
 21
5.452532589749417
 31
0.0
  0
LINE
  5
90D3
330
1F
100
AcDbEntity
  8
0
100
AcDbLine
 10
11.28419568180082
 20
5.44972658497671
 30
0.0
 11
11.28049046002467
 21
5.450666103032785
 31
0.0
  0
LINE
  5
90D4
330
1F
100
AcDbEntity
  8
0
100
AcDbLine
 10
11.28801781637266
 20
5.449778062184069
 30
0.0
 11
11.28419568180082
 21
5.44972658497671
 31
0.0
  0
LINE
  5
90D5
330
1F
100
AcDbEntity
  8
0
100
AcDbLine
 10
11.2916963915855
 20
5.450817026568267
 30
0.0
 11
11.28801781637266
 21
5.449778062184069
 31
0.0
  0
LINE
  5
90D6
330
1F
100
AcDbEntity
  8
0
100
AcDbLine
 10
11.27236302719685
 20
5.457801714464675
 30
0.0
 11
11.2730352296804
 21
5.457517047239616
 31
0.0
  0
LINE
  5
90D7
330
1F
100
AcDbEntity
  8
0
100
AcDbLine
 10
11.27027422839071
 20
5.459517974867609
 30
0.0
 11
11.27236302719685
 21
5.457801714464675
 31
0.0
  0
LINE
  5
90D8
330
1F
100
AcDbEntity
  8
0
100
AcDbLine
 10
11.26925106642388
 20
5.461557963493959
 30
0.0
 11
11.27027422839071
 21
5.459517974867609
 31
0.0
  0
LINE
  5
90D9
330
1F
100
AcDbEntity
  8
0
100
AcDbLine
 10
11.26936326809353
 20
5.463782658490079
 30
0.0
 11
11.26925106642388
 21
5.461557963493959
 31
0.0
  0
LINE
  5
90DA
330
1F
100
AcDbEntity
  8
0
100
AcDbLine
 10
11.2706031870413
 20
5.466040450568464
 30
0.0
 11
11.26936326809353
 21
5.463782658490079
 31
0.0
  0
LINE
  5
90DB
330
1F
100
AcDbEntity
  8
0
100
AcDbLine
 10
11.27136950918155
 20
5.466757730569514
 30
0.0
 11
11.2706031870413
 21
5.466040450568464
 31
0.0
  0
LINE
  5
90DC
330
1F
100
AcDbEntity
  8
0
100
AcDbLine
 10
11.30257142354006
 20
5.466978678060287
 30
0.0
 11
11.30154826157322
 21
5.469018666686637
 31
0.0
  0
LINE
  5
90DD
330
1F
100
AcDbEntity
  8
0
100
AcDbLine
 10
11.30245922187041
 20
5.464753983064166
 30
0.0
 11
11.30257142354006
 21
5.466978678060287
 31
0.0
  0
LINE
  5
90DE
330
1F
100
AcDbEntity
  8
0
100
AcDbLine
 10
11.30154826157322
 20
5.469018666686637
 30
0.0
 11
11.30045298078238
 21
5.469918603552692
 31
0.0
  0
LINE
  5
90DF
330
1F
100
AcDbEntity
  8
0
100
AcDbLine
 10
11.30121930292263
 20
5.462496190985778
 30
0.0
 11
11.30245922187041
 21
5.464753983064166
 31
0.0
  0
LINE
  5
90E0
330
1F
100
AcDbEntity
  8
0
100
AcDbLine
 10
11.30019569605343
 20
5.461538091646547
 30
0.0
 11
11.30121930292263
 21
5.462496190985778
 31
0.0
  0
LINE
  5
90E1
330
1F
100
AcDbEntity
  8
0
100
AcDbLine
 10
11.30891124498196
 20
3.342170607192033
 30
0.0
 11
11.30891124498196
 21
3.344148527855256
 31
0.0
  0
LINE
  5
90E2
330
1F
100
AcDbEntity
  8
0
100
AcDbLine
 10
11.30891124498196
 20
5.46426832077712
 30
0.0
 11
11.30891124498196
 21
5.470943057152731
 31
0.0
  0
LINE
  5
90E3
330
1F
100
AcDbEntity
  8
0
100
AcDbLine
 10
11.30891124498196
 20
5.470943057152731
 30
0.0
 11
11.30891124498196
 21
5.494469294249089
 31
0.0
  0
LINE
  5
90E4
330
1F
100
AcDbEntity
  8
0
100
AcDbLine
 10
11.27136950918155
 20
5.46598388395827
 30
0.0
 11
11.27136950918155
 21
5.466757730569514
 31
0.0
  0
LINE
  5
90E5
330
1F
100
AcDbEntity
  8
0
100
AcDbLine
 10
11.30045298078238
 20
5.462552757595975
 30
0.0
 11
11.30019569605343
 21
5.461538091646547
 31
0.0
  0
LINE
  5
90E6
330
1F
100
AcDbEntity
  8
0
100
AcDbLine
 10
11.30019569605343
 20
5.461538091646547
 30
0.0
 11
11.2995134627263
 21
5.458847535819826
 31
0.0
  0
LINE
  5
90E7
330
1F
100
AcDbEntity
  8
0
100
AcDbLine
 10
11.27441559862833
 20
5.45519884714137
 30
0.0
 11
11.2730352296804
 21
5.457517047239616
 31
0.0
  0
LINE
  5
90E8
330
1F
100
AcDbEntity
  8
0
100
AcDbLine
 10
11.2730352296804
 20
5.457517047239616
 30
0.0
 11
11.27245995077311
 21
5.458483174173587
 31
0.0
  0
LINE
  5
90E9
330
1F
100
AcDbEntity
  8
0
100
AcDbLine
 10
11.30045298078238
 20
5.462552757595975
 30
0.0
 11
11.30045298078238
 21
5.469918603552692
 31
0.0
  0
LINE
  5
90EA
330
1F
100
AcDbEntity
  8
0
100
AcDbLine
 10
11.26925106642387
 20
3.340606379541034
 30
0.0
 11
11.26925106642387
 21
3.04233023325889
 31
0.0
  0
LINE
  5
90EB
330
1F
100
AcDbEntity
  8
0
100
AcDbLine
 10
11.30257142354006
 20
5.458989642316444
 30
0.0
 11
11.30257142354006
 21
5.466978678060287
 31
0.0
  0
LINE
  5
90EC
330
1F
100
AcDbEntity
  8
0
100
AcDbLine
 10
11.26925106642388
 20
5.461557963493959
 30
0.0
 11
11.26925106642388
 21
5.458989642316444
 31
0.0
  0
LINE
  5
90ED
330
1F
100
AcDbEntity
  8
0
100
AcDbLine
 10
11.26925106642387
 20
4.898146322741174
 30
0.0
 11
11.26925106642387
 21
3.741040975704175
 31
0.0
  0
LINE
  5
90EE
330
1F
100
AcDbEntity
  8
0
100
AcDbLine
 10
11.30257142354005
 20
3.041277773246458
 30
0.0
 11
11.30257142354005
 21
3.340606379541034
 31
0.0
  0
LINE
  5
90EF
330
1F
100
AcDbEntity
  8
0
100
AcDbLine
 10
11.30257142354005
 20
3.741040975704175
 30
0.0
 11
11.30257142354006
 21
4.898146322741174
 31
0.0
  0
LINE
  5
90F0
330
1F
100
AcDbEntity
  8
0
100
AcDbLine
 10
11.30891124498196
 20
3.061374298448536
 30
0.0
 11
11.30891124498196
 21
3.04233023325889
 31
0.0
  0
LINE
  5
90F1
330
1F
100
AcDbEntity
  8
0
100
AcDbLine
 10
11.26291124498196
 20
3.342170607192033
 30
0.0
 11
11.26291124498196
 21
3.04233023325889
 31
0.0
  0
LINE
  5
90F2
330
1F
100
AcDbEntity
  8
0
100
AcDbLine
 10
11.30891124498196
 20
3.342170607192033
 30
0.0
 11
11.30891124498196
 21
3.061374298448536
 31
0.0
  0
LINE
  5
90F3
330
1F
100
AcDbEntity
  8
0
100
AcDbLine
 10
11.30891124498196
 20
4.90342500120185
 30
0.0
 11
11.30891124498196
 21
3.744583124018396
 31
0.0
  0
LINE
  5
90F4
330
1F
100
AcDbEntity
  8
0
100
AcDbLine
 10
11.27136950918155
 20
5.489415598688182
 30
0.0
 11
11.27136950918155
 21
5.466757730569514
 31
0.0
  0
LINE
  5
90F5
330
1F
100
AcDbEntity
  8
0
100
AcDbLine
 10
11.30045298078238
 20
5.504978820603667
 30
0.0
 11
11.30045298078238
 21
5.469918603552692
 31
0.0
  0
ARC
  5
90F6
330
1F
100
AcDbEntity
  8
0
100
AcDbCircle
 10
11.28599438299494
 20
3.044436111123512
 30
0.0
 40
0.0168752295208051
100
AcDbArc
 50
187.1686902151657
 51
349.2130127358568
  0
LINE
  5
90F7
330
1F
100
AcDbEntity
  8
0
100
AcDbLine
 10
11.78370403749519
 20
3.036636560316672
 30
0.0
 11
11.78292033149983
 21
3.04233023325889
 31
0.0
  0
LINE
  5
90F8
330
1F
100
AcDbEntity
  8
0
100
AcDbLine
 10
11.7860017472128
 20
3.031330901776218
 30
0.0
 11
11.78370403749519
 21
3.036636560316672
 31
0.0
  0
LINE
  5
90F9
330
1F
100
AcDbEntity
  8
0
100
AcDbLine
 10
11.78965687553255
 20
3.026774829499063
 30
0.0
 11
11.7860017472128
 21
3.031330901776218
 31
0.0
  0
LINE
  5
90FA
330
1F
100
AcDbEntity
  8
0
100
AcDbLine
 10
11.79442033149984
 20
3.023278832281615
 30
0.0
 11
11.78965687553255
 21
3.026774829499063
 31
0.0
  0
LINE
  5
90FB
330
1F
100
AcDbEntity
  8
0
100
AcDbLine
 10
11.79996749346248
 20
3.021081156556839
 30
0.0
 11
11.79442033149984
 21
3.023278832281615
 31
0.0
  0
LINE
  5
90FC
330
1F
100
AcDbEntity
  8
0
100
AcDbLine
 10
11.80592033149983
 20
3.020331570293553
 30
0.0
 11
11.79996749346248
 21
3.021081156556839
 31
0.0
  0
LINE
  5
90FD
330
1F
100
AcDbEntity
  8
0
100
AcDbLine
 10
11.81187316953719
 20
3.021081156556839
 30
0.0
 11
11.80592033149983
 21
3.020331570293553
 31
0.0
  0
LINE
  5
90FE
330
1F
100
AcDbEntity
  8
0
100
AcDbLine
 10
11.81742033149984
 20
3.023278832281615
 30
0.0
 11
11.81187316953719
 21
3.021081156556839
 31
0.0
  0
LINE
  5
90FF
330
1F
100
AcDbEntity
  8
0
100
AcDbLine
 10
11.82218378746713
 20
3.026774829499063
 30
0.0
 11
11.81742033149984
 21
3.023278832281615
 31
0.0
  0
LINE
  5
9100
330
1F
100
AcDbEntity
  8
0
100
AcDbLine
 10
11.82583891578688
 20
3.031330901776218
 30
0.0
 11
11.82218378746713
 21
3.026774829499063
 31
0.0
  0
LINE
  5
9101
330
1F
100
AcDbEntity
  8
0
100
AcDbLine
 10
11.82813662550449
 20
3.036636560316672
 30
0.0
 11
11.82583891578688
 21
3.031330901776218
 31
0.0
  0
LINE
  5
9102
330
1F
100
AcDbEntity
  8
0
100
AcDbLine
 10
11.82892033149984
 20
3.04233023325889
 30
0.0
 11
11.82813662550449
 21
3.036636560316672
 31
0.0
  0
LINE
  5
9103
330
1F
100
AcDbEntity
  8
0
100
AcDbLine
 10
11.78370403749519
 20
3.341579261108629
 30
0.0
 11
11.78292033149983
 21
3.342170607192034
 31
0.0
  0
LINE
  5
9104
330
1F
100
AcDbEntity
  8
0
100
AcDbLine
 10
11.7860017472128
 20
3.341028214283562
 30
0.0
 11
11.78370403749519
 21
3.341579261108629
 31
0.0
  0
LINE
  5
9105
330
1F
100
AcDbEntity
  8
0
100
AcDbLine
 10
11.78926015294175
 20
3.340606379541034
 30
0.0
 11
11.7860017472128
 21
3.341028214283562
 31
0.0
  0
LINE
  5
9106
330
1F
100
AcDbEntity
  8
0
100
AcDbLine
 10
11.82583891578688
 20
3.341028214283562
 30
0.0
 11
11.82258051005793
 21
3.340606379541035
 31
0.0
  0
LINE
  5
9107
330
1F
100
AcDbEntity
  8
0
100
AcDbLine
 10
11.82813662550449
 20
3.341579261108629
 30
0.0
 11
11.82583891578688
 21
3.341028214283562
 31
0.0
  0
LINE
  5
9108
330
1F
100
AcDbEntity
  8
0
100
AcDbLine
 10
11.82892033149984
 20
3.342170607192034
 30
0.0
 11
11.82813662550449
 21
3.341579261108629
 31
0.0
  0
LINE
  5
9109
330
1F
100
AcDbEntity
  8
0
100
AcDbLine
 10
11.78370403749519
 20
5.462272750738907
 30
0.0
 11
11.78292033149984
 21
5.46426832077712
 31
0.0
  0
LINE
  5
910A
330
1F
100
AcDbEntity
  8
0
100
AcDbLine
 10
11.7860017472128
 20
5.460413175500963
 30
0.0
 11
11.78370403749519
 21
5.462272750738907
 31
0.0
  0
LINE
  5
910B
330
1F
100
AcDbEntity
  8
0
100
AcDbLine
 10
11.78926015294175
 20
5.458989642316444
 30
0.0
 11
11.7860017472128
 21
5.460413175500963
 31
0.0
  0
LINE
  5
910C
330
1F
100
AcDbEntity
  8
0
100
AcDbLine
 10
11.82583891578689
 20
5.460413175500963
 30
0.0
 11
11.82258051005793
 21
5.458989642316444
 31
0.0
  0
LINE
  5
910D
330
1F
100
AcDbEntity
  8
0
100
AcDbLine
 10
11.82813662550449
 20
5.462272750738907
 30
0.0
 11
11.82583891578689
 21
5.460413175500963
 31
0.0
  0
LINE
  5
910E
330
1F
100
AcDbEntity
  8
0
100
AcDbLine
 10
11.82892033149984
 20
5.46426832077712
 30
0.0
 11
11.82813662550449
 21
5.462272750738907
 31
0.0
  0
LINE
  5
910F
330
1F
100
AcDbEntity
  8
0
100
AcDbLine
 10
11.78292033149984
 20
5.46426832077712
 30
0.0
 11
11.78292033149984
 21
5.500300278069986
 31
0.0
  0
LINE
  5
9110
330
1F
100
AcDbEntity
  8
0
100
AcDbLine
 10
11.81952254924417
 20
5.458847535819826
 30
0.0
 11
11.81765606252755
 21
5.455511731580243
 31
0.0
  0
LINE
  5
9111
330
1F
100
AcDbEntity
  8
0
100
AcDbLine
 10
11.79143007290679
 20
5.462161749386428
 30
0.0
 11
11.79137859569943
 21
5.465983883958271
 31
0.0
  0
LINE
  5
9112
330
1F
100
AcDbEntity
  8
0
100
AcDbLine
 10
11.79246903729099
 20
5.458483174173587
 30
0.0
 11
11.79143007290679
 21
5.462161749386428
 31
0.0
  0
LINE
  5
9113
330
1F
100
AcDbEntity
  8
0
100
AcDbLine
 10
11.8149898051356
 20
5.452772674423484
 30
0.0
 11
11.81170547810338
 21
5.450817026568268
 31
0.0
  0
LINE
  5
9114
330
1F
100
AcDbEntity
  8
0
100
AcDbLine
 10
11.81765606252755
 20
5.455511731580243
 30
0.0
 11
11.8149898051356
 21
5.452772674423484
 31
0.0
  0
LINE
  5
9115
330
1F
100
AcDbEntity
  8
0
100
AcDbLine
 10
11.79716374230296
 20
5.452532589749418
 30
0.0
 11
11.7944246851462
 21
5.45519884714137
 31
0.0
  0
LINE
  5
9116
330
1F
100
AcDbEntity
  8
0
100
AcDbLine
 10
11.80049954654254
 20
5.450666103032785
 30
0.0
 11
11.79716374230296
 21
5.452532589749418
 31
0.0
  0
LINE
  5
9117
330
1F
100
AcDbEntity
  8
0
100
AcDbLine
 10
11.80420476831869
 20
5.44972658497671
 30
0.0
 11
11.80049954654254
 21
5.450666103032785
 31
0.0
  0
LINE
  5
9118
330
1F
100
AcDbEntity
  8
0
100
AcDbLine
 10
11.80802690289054
 20
5.44977806218407
 30
0.0
 11
11.80420476831869
 21
5.44972658497671
 31
0.0
  0
LINE
  5
9119
330
1F
100
AcDbEntity
  8
0
100
AcDbLine
 10
11.81170547810338
 20
5.450817026568268
 30
0.0
 11
11.80802690289054
 21
5.44977806218407
 31
0.0
  0
LINE
  5
911A
330
1F
100
AcDbEntity
  8
0
100
AcDbLine
 10
11.79237211371472
 20
5.457801714464675
 30
0.0
 11
11.79304431619828
 21
5.457517047239616
 31
0.0
  0
LINE
  5
911B
330
1F
100
AcDbEntity
  8
0
100
AcDbLine
 10
11.79028331490859
 20
5.459517974867609
 30
0.0
 11
11.79237211371472
 21
5.457801714464675
 31
0.0
  0
LINE
  5
911C
330
1F
100
AcDbEntity
  8
0
100
AcDbLine
 10
11.78926015294175
 20
5.461557963493959
 30
0.0
 11
11.79028331490859
 21
5.459517974867609
 31
0.0
  0
LINE
  5
911D
330
1F
100
AcDbEntity
  8
0
100
AcDbLine
 10
11.7893723546114
 20
5.463782658490079
 30
0.0
 11
11.78926015294175
 21
5.461557963493959
 31
0.0
  0
LINE
  5
911E
330
1F
100
AcDbEntity
  8
0
100
AcDbLine
 10
11.79061227355918
 20
5.466040450568465
 30
0.0
 11
11.7893723546114
 21
5.463782658490079
 31
0.0
  0
LINE
  5
911F
330
1F
100
AcDbEntity
  8
0
100
AcDbLine
 10
11.79137859569943
 20
5.466757730569515
 30
0.0
 11
11.79061227355918
 21
5.466040450568465
 31
0.0
  0
LINE
  5
9120
330
1F
100
AcDbEntity
  8
0
100
AcDbLine
 10
11.82258051005793
 20
5.466978678060288
 30
0.0
 11
11.8215573480911
 21
5.469018666686637
 31
0.0
  0
LINE
  5
9121
330
1F
100
AcDbEntity
  8
0
100
AcDbLine
 10
11.82246830838828
 20
5.464753983064167
 30
0.0
 11
11.82258051005793
 21
5.466978678060288
 31
0.0
  0
LINE
  5
9122
330
1F
100
AcDbEntity
  8
0
100
AcDbLine
 10
11.8215573480911
 20
5.469018666686637
 30
0.0
 11
11.82046206730026
 21
5.469918603552692
 31
0.0
  0
LINE
  5
9123
330
1F
100
AcDbEntity
  8
0
100
AcDbLine
 10
11.82122838944051
 20
5.462496190985778
 30
0.0
 11
11.82246830838828
 21
5.464753983064167
 31
0.0
  0
LINE
  5
9124
330
1F
100
AcDbEntity
  8
0
100
AcDbLine
 10
11.82020478257131
 20
5.461538091646548
 30
0.0
 11
11.82122838944051
 21
5.462496190985778
 31
0.0
  0
LINE
  5
9125
330
1F
100
AcDbEntity
  8
0
100
AcDbLine
 10
11.82892033149984
 20
3.342170607192034
 30
0.0
 11
11.82892033149984
 21
3.344148527855256
 31
0.0
  0
LINE
  5
9126
330
1F
100
AcDbEntity
  8
0
100
AcDbLine
 10
11.82892033149984
 20
5.46426832077712
 30
0.0
 11
11.82892033149984
 21
5.470943057152731
 31
0.0
  0
LINE
  5
9127
330
1F
100
AcDbEntity
  8
0
100
AcDbLine
 10
11.82892033149984
 20
5.470943057152731
 30
0.0
 11
11.82892033149984
 21
5.482890903861923
 31
0.0
  0
LINE
  5
9128
330
1F
100
AcDbEntity
  8
0
100
AcDbLine
 10
11.79137859569943
 20
5.465983883958271
 30
0.0
 11
11.79137859569943
 21
5.466757730569515
 31
0.0
  0
LINE
  5
9129
330
1F
100
AcDbEntity
  8
0
100
AcDbLine
 10
11.82046206730026
 20
5.462552757595975
 30
0.0
 11
11.82020478257131
 21
5.461538091646548
 31
0.0
  0
LINE
  5
912A
330
1F
100
AcDbEntity
  8
0
100
AcDbLine
 10
11.82020478257131
 20
5.461538091646548
 30
0.0
 11
11.81952254924417
 21
5.458847535819826
 31
0.0
  0
LINE
  5
912B
330
1F
100
AcDbEntity
  8
0
100
AcDbLine
 10
11.7944246851462
 20
5.45519884714137
 30
0.0
 11
11.79304431619828
 21
5.457517047239616
 31
0.0
  0
LINE
  5
912C
330
1F
100
AcDbEntity
  8
0
100
AcDbLine
 10
11.79304431619828
 20
5.457517047239616
 30
0.0
 11
11.79246903729099
 21
5.458483174173587
 31
0.0
  0
LINE
  5
912D
330
1F
100
AcDbEntity
  8
0
100
AcDbLine
 10
11.82046206730026
 20
5.462552757595975
 30
0.0
 11
11.82046206730026
 21
5.469918603552692
 31
0.0
  0
LINE
  5
912E
330
1F
100
AcDbEntity
  8
0
100
AcDbLine
 10
11.78926015294175
 20
3.340606379541034
 30
0.0
 11
11.78926015294175
 21
3.04233023325889
 31
0.0
  0
LINE
  5
912F
330
1F
100
AcDbEntity
  8
0
100
AcDbLine
 10
11.82258051005793
 20
5.458989642316444
 30
0.0
 11
11.82258051005793
 21
5.466978678060288
 31
0.0
  0
LINE
  5
9130
330
1F
100
AcDbEntity
  8
0
100
AcDbLine
 10
11.78926015294175
 20
5.461557963493959
 30
0.0
 11
11.78926015294175
 21
5.458989642316444
 31
0.0
  0
LINE
  5
9131
330
1F
100
AcDbEntity
  8
0
100
AcDbLine
 10
11.78926015294175
 20
4.898146322741174
 30
0.0
 11
11.78926015294175
 21
3.741040975704175
 31
0.0
  0
LINE
  5
9132
330
1F
100
AcDbEntity
  8
0
100
AcDbLine
 10
11.82258051005793
 20
3.041277773246458
 30
0.0
 11
11.82258051005793
 21
3.340606379541035
 31
0.0
  0
LINE
  5
9133
330
1F
100
AcDbEntity
  8
0
100
AcDbLine
 10
11.82258051005793
 20
3.741040975704176
 30
0.0
 11
11.82258051005793
 21
4.898146322741174
 31
0.0
  0
LINE
  5
9134
330
1F
100
AcDbEntity
  8
0
100
AcDbLine
 10
11.82892033149984
 20
3.061374298448536
 30
0.0
 11
11.82892033149984
 21
3.04233023325889
 31
0.0
  0
LINE
  5
9135
330
1F
100
AcDbEntity
  8
0
100
AcDbLine
 10
11.78292033149983
 20
3.342170607192034
 30
0.0
 11
11.78292033149983
 21
3.04233023325889
 31
0.0
  0
LINE
  5
9136
330
1F
100
AcDbEntity
  8
0
100
AcDbLine
 10
11.82892033149984
 20
3.342170607192034
 30
0.0
 11
11.82892033149984
 21
3.061374298448536
 31
0.0
  0
LINE
  5
9137
330
1F
100
AcDbEntity
  8
0
100
AcDbLine
 10
11.82892033149984
 20
4.903425001201851
 30
0.0
 11
11.82892033149984
 21
3.744583124018396
 31
0.0
  0
LINE
  5
9138
330
1F
100
AcDbEntity
  8
0
100
AcDbLine
 10
11.78292033149984
 20
4.903425001201851
 30
0.0
 11
11.78292033149983
 21
3.742605203355175
 31
0.0
  0
LINE
  5
9139
330
1F
100
AcDbEntity
  8
0
100
AcDbLine
 10
11.79137859569943
 20
5.520662301418266
 30
0.0
 11
11.79137859569943
 21
5.466757730569515
 31
0.0
  0
LINE
  5
913A
330
1F
100
AcDbEntity
  8
0
100
AcDbLine
 10
11.82046206730026
 20
5.486294930759286
 30
0.0
 11
11.82046206730026
 21
5.469918603552692
 31
0.0
  0
ARC
  5
913B
330
1F
100
AcDbEntity
  8
0
100
AcDbCircle
 10
11.80600346951282
 20
3.044436111123512
 30
0.0
 40
0.0168752295208051
100
AcDbArc
 50
187.1686902151657
 51
349.2130127358568
  0
LINE
  5
913C
330
1F
100
AcDbEntity
  8
0
100
AcDbLine
 10
11.26964778901467
 20
3.424576465913863
 30
0.0
 11
11.26964778901467
 21
3.024576465913864
 31
0.0
  0
LINE
  5
913D
330
1F
100
AcDbEntity
  8
0
100
AcDbLine
 10
11.78926013804187
 20
4.501222467817438
 30
0.0
 11
11.78926013804187
 21
3.344117120780438
 31
0.0
  0
LINE
  5
913E
330
1F
100
AcDbEntity
  8
0
100
AcDbLine
 10
11.82258049515805
 20
3.344117120780439
 30
0.0
 11
11.82258049515805
 21
4.501222467817438
 31
0.0
  0
LINE
  5
913F
330
1F
100
AcDbEntity
  8
0
100
AcDbLine
 10
11.82892031659996
 20
4.506501146278115
 30
0.0
 11
11.82892031659996
 21
3.34765926909466
 31
0.0
  0
LINE
  5
9140
330
1F
100
AcDbEntity
  8
0
100
AcDbLine
 10
11.78292031659996
 20
4.506501146278115
 30
0.0
 11
11.78292031659996
 21
3.345681348431439
 31
0.0
  0
LINE
  5
9141
330
1F
100
AcDbEntity
  8
0
100
AcDbLine
 10
11.26925105152399
 20
4.499275951140913
 30
0.0
 11
11.26925105152399
 21
3.342170604103913
 31
0.0
  0
LINE
  5
9142
330
1F
100
AcDbEntity
  8
0
100
AcDbLine
 10
11.30257140864018
 20
3.342170604103914
 30
0.0
 11
11.30257140864018
 21
4.499275951140913
 31
0.0
  0
LINE
  5
9143
330
1F
100
AcDbEntity
  8
0
100
AcDbLine
 10
11.30891123008208
 20
4.50455462960159
 30
0.0
 11
11.30891123008208
 21
3.345712752418135
 31
0.0
  0
LINE
  5
9144
330
1F
100
AcDbEntity
  8
0
100
AcDbLine
 10
11.26369495097732
 20
3.341579261108629
 30
0.0
 11
11.26291124498196
 21
4.90342500120185
 31
0.0
  0
LINE
  5
9145
330
1F
100
AcDbEntity
  8
0
100
AcDbLine
 10
11.78926013804187
 20
3.344117120780438
 30
0.0
 11
11.78926015294175
 21
3.340606379541034
 31
0.0
  0
LINE
  5
9146
330
1F
100
AcDbEntity
  8
0
100
AcDbLine
 10
11.82258051005793
 20
3.340606379541035
 30
0.0
 11
11.82258049515805
 21
3.344117120780439
 31
0.0
  0
LINE
  5
9147
330
1F
100
AcDbEntity
  8
0
100
AcDbLine
 10
11.82892031659996
 20
3.34765926909466
 30
0.0
 11
11.82892033149984
 21
3.342170607192034
 31
0.0
  0
LINE
  5
9148
330
1F
100
AcDbEntity
  8
0
100
AcDbLine
 10
11.39189965469903
 20
5.519075553947712
 30
0.0
 11
11.39466788183721
 21
5.519075553947714
 31
0.0
  0
LINE
  5
9149
330
1F
100
AcDbEntity
  8
0
100
AcDbLine
 10
11.49189965469903
 20
5.519075553947715
 30
0.0
 11
11.49466788183721
 21
5.519075553947713
 31
0.0
  0
LINE
  5
914A
330
1F
100
AcDbEntity
  8
0
100
AcDbLine
 10
11.59189965469904
 20
5.519075553947713
 30
0.0
 11
11.59466788183722
 21
5.519075553947713
 31
0.0
  0
LINE
  5
914B
330
1F
100
AcDbEntity
  8
0
100
AcDbLine
 10
11.69189965469905
 20
5.519075553947712
 30
0.0
 11
11.69466788183724
 21
5.519075553947711
 31
0.0
  0
LINE
  5
914C
330
1F
100
AcDbEntity
  8
0
100
AcDbLine
 10
10.9932837682681
 20
6.09065447835939
 30
0.0
 11
10.9932837682681
 21
6.111945504437215
 31
0.0
  0
LINE
  5
914D
330
1F
100
AcDbEntity
  8
0
100
AcDbLine
 10
10.9932837682681
 20
6.707393547958368
 30
0.0
 11
10.9932837682681
 21
6.137719261964743
 31
0.0
  0
LINE
  5
914E
330
1F
100
AcDbEntity
  8
0
100
AcDbLine
 10
10.9932837682681
 20
6.137719261964743
 30
0.0
 11
10.9932837682681
 21
6.133158707872809
 31
0.0
  0
LINE
  5
914F
330
1F
100
AcDbEntity
  8
0
100
AcDbLine
 10
12.09328376826816
 20
6.133158707872333
 30
0.0
 11
12.09328376826816
 21
6.137719261964271
 31
0.0
  0
LINE
  5
9150
330
1F
100
AcDbEntity
  8
0
100
AcDbLine
 10
12.09328376826816
 20
6.137719261964271
 30
0.0
 11
12.09328376826816
 21
6.707393547957885
 31
0.0
  0
LINE
  5
9151
330
1F
100
AcDbEntity
  8
0
100
AcDbLine
 10
12.09328376826816
 20
6.080205354153672
 30
0.0
 11
12.09328376826816
 21
5.554822862585741
 31
0.0
  0
LINE
  5
9152
330
1F
100
AcDbEntity
  8
0
100
AcDbLine
 10
10.9932837682681
 20
6.083363877026865
 30
0.0
 11
10.9932837682681
 21
6.09065447835939
 31
0.0
  0
LINE
  5
9153
330
1F
100
AcDbEntity
  8
0
100
AcDbLine
 10
12.09328376826816
 20
6.111945504436736
 30
0.0
 11
12.09328376826816
 21
6.091957792658384
 31
0.0
  0
LINE
  5
9154
330
1F
100
AcDbEntity
  8
0
100
AcDbLine
 10
10.9932837682681
 20
6.080205354154152
 30
0.0
 11
10.9932837682681
 21
6.083363877026865
 31
0.0
  0
LINE
  5
9155
330
1F
100
AcDbEntity
  8
0
100
AcDbLine
 10
12.09328376826816
 20
6.091957792658384
 30
0.0
 11
12.09328376826816
 21
6.083363877026393
 31
0.0
  0
LINE
  5
9156
330
1F
100
AcDbEntity
  8
0
100
AcDbLine
 10
12.09328376826816
 20
6.083363877026393
 30
0.0
 11
12.09328376826816
 21
6.080205354153672
 31
0.0
  0
LINE
  5
9157
330
1F
100
AcDbEntity
  8
0
100
AcDbLine
 10
10.9932837682681
 20
5.554822862586206
 30
0.0
 11
10.9932837682681
 21
6.080205354154152
 31
0.0
  0
LINE
  5
9158
330
1F
100
AcDbEntity
  8
0
100
AcDbLine
 10
10.9932837682681
 20
6.731261443205546
 30
0.0
 11
10.9932837682681
 21
6.707393547958368
 31
0.0
  0
LINE
  5
9159
330
1F
100
AcDbEntity
  8
0
100
AcDbLine
 10
12.09328376826816
 20
6.731261443205067
 30
0.0
 11
12.09328376826816
 21
6.707393547957885
 31
0.0
  0
LINE
  5
915A
330
1F
100
AcDbEntity
  8
0
100
AcDbLine
 10
12.09328376826816
 20
5.53166623061692
 30
0.0
 11
12.09328376826816
 21
5.554822862585741
 31
0.0
  0
LINE
  5
915B
330
1F
100
AcDbEntity
  8
0
100
AcDbLine
 10
10.9932837682681
 20
5.531666230617393
 30
0.0
 11
10.9932837682681
 21
5.554822862586206
 31
0.0
  0
LINE
  5
915C
330
1F
100
AcDbEntity
  8
0
100
AcDbLine
 10
11.99328376826816
 20
6.111945504436736
 30
0.0
 11
11.99328376826815
 21
5.53166623061692
 31
0.0
  0
LINE
  5
915D
330
1F
100
AcDbEntity
  8
0
100
AcDbLine
 10
11.89328376826815
 20
5.53166623061692
 30
0.0
 11
11.89328376826815
 21
6.111945504436736
 31
0.0
  0
LINE
  5
915E
330
1F
100
AcDbEntity
  8
0
100
AcDbLine
 10
11.79328376826815
 20
6.111945504436736
 30
0.0
 11
11.79328376826815
 21
5.53166623061692
 31
0.0
  0
ARC
  5
915F
330
1F
100
AcDbEntity
  8
0
100
AcDbCircle
 10
12.04328376826816
 20
5.530791394695484
 30
0.0
 40
0.0500076527932462
100
AcDbArc
 50
178.99761415887
 51
1.00238584113086
  0
ARC
  5
9160
330
1F
100
AcDbEntity
  8
0
100
AcDbCircle
 10
11.94328376826815
 20
5.530791394695452
 30
0.0
 40
0.0500076527932462
100
AcDbArc
 50
178.99761415887
 51
1.002385841130962
  0
ARC
  5
9161
330
1F
100
AcDbEntity
  8
0
100
AcDbCircle
 10
11.84328376826814
 20
5.530791394695452
 30
0.0
 40
0.0500076527932462
100
AcDbArc
 50
178.99761415887
 51
1.002385841130962
  0
LINE
  5
9162
330
1F
100
AcDbEntity
  8
0
100
AcDbLine
 10
11.69328376826815
 20
6.111945504436736
 30
0.0
 11
11.69328376826814
 21
5.53166623061692
 31
0.0
  0
LINE
  5
9163
330
1F
100
AcDbEntity
  8
0
100
AcDbLine
 10
11.59328376826814
 20
5.53166623061692
 30
0.0
 11
11.59328376826814
 21
6.111945504436736
 31
0.0
  0
LINE
  5
9164
330
1F
100
AcDbEntity
  8
0
100
AcDbLine
 10
11.49328376826814
 20
6.111945504436736
 30
0.0
 11
11.49328376826814
 21
5.53166623061692
 31
0.0
  0
ARC
  5
9165
330
1F
100
AcDbEntity
  8
0
100
AcDbCircle
 10
11.74328376826815
 20
5.530791394695484
 30
0.0
 40
0.0500076527932462
100
AcDbArc
 50
178.99761415887
 51
1.002385841130962
  0
ARC
  5
9166
330
1F
100
AcDbEntity
  8
0
100
AcDbCircle
 10
11.64328376826814
 20
5.530791394695452
 30
0.0
 40
0.0500076527932462
100
AcDbArc
 50
178.99761415887
 51
1.002385841130962
  0
ARC
  5
9167
330
1F
100
AcDbEntity
  8
0
100
AcDbCircle
 10
11.54328376826813
 20
5.530791394695452
 30
0.0
 40
0.0500076527932462
100
AcDbArc
 50
178.99761415887
 51
1.002385841130962
  0
LINE
  5
9168
330
1F
100
AcDbEntity
  8
0
100
AcDbLine
 10
11.39328376826812
 20
6.111945504436704
 30
0.0
 11
11.39328376826812
 21
5.531666230616888
 31
0.0
  0
LINE
  5
9169
330
1F
100
AcDbEntity
  8
0
100
AcDbLine
 10
11.29328376826812
 20
5.531666230616888
 30
0.0
 11
11.29328376826812
 21
6.111945504436704
 31
0.0
  0
LINE
  5
916A
330
1F
100
AcDbEntity
  8
0
100
AcDbLine
 10
11.19328376826812
 20
6.111945504436704
 30
0.0
 11
11.19328376826811
 21
5.531666230616888
 31
0.0
  0
ARC
  5
916B
330
1F
100
AcDbEntity
  8
0
100
AcDbCircle
 10
11.44328376826812
 20
5.530791394695448
 30
0.0
 40
0.0500076527932462
100
AcDbArc
 50
178.99761415887
 51
1.002385841130962
  0
ARC
  5
916C
330
1F
100
AcDbEntity
  8
0
100
AcDbCircle
 10
11.34328376826811
 20
5.53079139469542
 30
0.0
 40
0.0500076527932462
100
AcDbArc
 50
178.99761415887
 51
1.002385841130962
  0
ARC
  5
916D
330
1F
100
AcDbEntity
  8
0
100
AcDbCircle
 10
11.2432837682681
 20
5.530791394695416
 30
0.0
 40
0.0500076527932462
100
AcDbArc
 50
178.99761415887
 51
1.002385841130962
  0
LINE
  5
916E
330
1F
100
AcDbEntity
  8
0
100
AcDbLine
 10
11.09328376826811
 20
6.111945504436704
 30
0.0
 11
11.09328376826811
 21
5.531666230616885
 31
0.0
  0
LINE
  5
916F
330
1F
100
AcDbEntity
  8
0
100
AcDbLine
 10
10.9932837682681
 20
5.531666230616885
 30
0.0
 11
10.9932837682681
 21
6.111945504436704
 31
0.0
  0
ARC
  5
9170
330
1F
100
AcDbEntity
  8
0
100
AcDbCircle
 10
11.14328376826811
 20
5.530791394695448
 30
0.0
 40
0.0500076527932462
100
AcDbArc
 50
178.99761415887
 51
1.002385841130962
  0
ARC
  5
9171
330
1F
100
AcDbEntity
  8
0
100
AcDbCircle
 10
11.0432837682681
 20
5.530791394695416
 30
0.0
 40
0.0500076527932462
100
AcDbArc
 50
178.99761415887
 51
1.002385841130962
  0
LINE
  5
9172
330
1F
100
AcDbEntity
  8
0
100
AcDbLine
 10
11.0932837682681
 20
6.150982169385187
 30
0.0
 11
11.0932837682681
 21
6.731261443205003
 31
0.0
  0
LINE
  5
9173
330
1F
100
AcDbEntity
  8
0
100
AcDbLine
 10
11.1932837682681
 20
6.731261443205003
 30
0.0
 11
11.1932837682681
 21
6.150982169385187
 31
0.0
  0
LINE
  5
9174
330
1F
100
AcDbEntity
  8
0
100
AcDbLine
 10
11.2932837682681
 20
6.150982169385187
 30
0.0
 11
11.2932837682681
 21
6.731261443205003
 31
0.0
  0
LINE
  5
9175
330
1F
100
AcDbEntity
  8
0
100
AcDbLine
 10
11.39328376826811
 20
6.150982169385187
 30
0.0
 11
11.39328376826811
 21
6.731261443205003
 31
0.0
  0
LINE
  5
9176
330
1F
100
AcDbEntity
  8
0
100
AcDbLine
 10
11.49328376826812
 20
6.731261443205003
 30
0.0
 11
11.49328376826812
 21
6.150982169385187
 31
0.0
  0
LINE
  5
9177
330
1F
100
AcDbEntity
  8
0
100
AcDbLine
 10
11.59328376826811
 20
6.150982169385187
 30
0.0
 11
11.59328376826812
 21
6.731261443205003
 31
0.0
  0
LINE
  5
9178
330
1F
100
AcDbEntity
  8
0
100
AcDbLine
 10
11.69328376826813
 20
6.150982169385219
 30
0.0
 11
11.69328376826814
 21
6.731261443205035
 31
0.0
  0
LINE
  5
9179
330
1F
100
AcDbEntity
  8
0
100
AcDbLine
 10
11.79328376826814
 20
6.731261443205035
 30
0.0
 11
11.79328376826814
 21
6.150982169385219
 31
0.0
  0
LINE
  5
917A
330
1F
100
AcDbEntity
  8
0
100
AcDbLine
 10
11.89328376826814
 20
6.150982169385219
 30
0.0
 11
11.89328376826814
 21
6.731261443205035
 31
0.0
  0
LINE
  5
917B
330
1F
100
AcDbEntity
  8
0
100
AcDbLine
 10
11.99328376826814
 20
6.150982169385219
 30
0.0
 11
11.99328376826815
 21
6.731261443205038
 31
0.0
  0
LINE
  5
917C
330
1F
100
AcDbEntity
  8
0
100
AcDbLine
 10
12.19328376826817
 20
6.137719261964281
 30
0.0
 11
12.19328376826817
 21
6.707393547957895
 31
0.0
  0
LINE
  5
917D
330
1F
100
AcDbEntity
  8
0
100
AcDbLine
 10
12.19328376826817
 20
6.080205354153683
 30
0.0
 11
12.19328376826817
 21
5.554822862585751
 31
0.0
  0
LINE
  5
917E
330
1F
100
AcDbEntity
  8
0
100
AcDbLine
 10
12.19328376826817
 20
6.111945504436747
 30
0.0
 11
12.19328376826817
 21
6.091957792658394
 31
0.0
  0
LINE
  5
917F
330
1F
100
AcDbEntity
  8
0
100
AcDbLine
 10
12.19328376826817
 20
6.091957792658394
 30
0.0
 11
12.19328376826817
 21
6.083363877026403
 31
0.0
  0
LINE
  5
9180
330
1F
100
AcDbEntity
  8
0
100
AcDbLine
 10
12.19328376826817
 20
6.083363877026403
 30
0.0
 11
12.19328376826817
 21
6.080205354153683
 31
0.0
  0
LINE
  5
9181
330
1F
100
AcDbEntity
  8
0
100
AcDbLine
 10
12.19328376826817
 20
6.731261443205077
 30
0.0
 11
12.19328376826817
 21
6.707393547957895
 31
0.0
  0
LINE
  5
9182
330
1F
100
AcDbEntity
  8
0
100
AcDbLine
 10
12.19328376826817
 20
5.531666230616931
 30
0.0
 11
12.19328376826817
 21
5.554822862585751
 31
0.0
  0
ARC
  5
9183
330
1F
100
AcDbEntity
  8
0
100
AcDbCircle
 10
12.14328376826817
 20
5.530791394695491
 30
0.0
 40
0.0500076527932462
100
AcDbArc
 50
178.99761415887
 51
1.00238584113086
  0
LINE
  5
9184
330
1F
100
AcDbEntity
  8
0
100
AcDbLine
 10
12.19328376826817
 20
6.137719261964281
 30
0.0
 11
12.19328376826817
 21
6.111945504436747
 31
0.0
  0
LINE
  5
9185
330
1F
100
AcDbEntity
  8
0
100
AcDbLine
 10
10.89328376826811
 20
6.707393547958911
 30
0.0
 11
10.89328376826811
 21
6.137719261965287
 31
0.0
  0
LINE
  5
9186
330
1F
100
AcDbEntity
  8
0
100
AcDbLine
 10
10.89328376826811
 20
6.73126144320609
 30
0.0
 11
10.89328376826811
 21
6.707393547958911
 31
0.0
  0
LINE
  5
9187
330
1F
100
AcDbEntity
  8
0
100
AcDbLine
 10
10.89328376826811
 20
5.531666230617428
 30
0.0
 11
10.89328376826811
 21
6.111945504437247
 31
0.0
  0
ARC
  5
9188
330
1F
100
AcDbEntity
  8
0
100
AcDbCircle
 10
10.9432837682681
 20
5.53079139469596
 30
0.0
 40
0.0500076527932462
100
AcDbArc
 50
178.99761415887
 51
1.002385841130962
  0
CIRCLE
  5
9189
330
1F
100
AcDbEntity
  8
0
100
AcDbCircle
 10
12.1368324920351
 20
5.637197656375668
 30
0.0
 40
0.01089627287962
  0
CIRCLE
  5
918A
330
1F
100
AcDbEntity
  8
0
100
AcDbCircle
 10
12.03885677599595
 20
5.637197656375668
 30
0.0
 40
0.01089627287962
  0
CIRCLE
  5
918B
330
1F
100
AcDbEntity
  8
0
100
AcDbCircle
 10
11.9408810599568
 20
5.637197656375668
 30
0.0
 40
0.01089627287962
  0
CIRCLE
  5
918C
330
1F
100
AcDbEntity
  8
0
100
AcDbCircle
 10
11.8401838181102
 20
5.637197656375668
 30
0.0
 40
0.01089627287962
  0
CIRCLE
  5
918D
330
1F
100
AcDbEntity
  8
0
100
AcDbCircle
 10
11.74220810207105
 20
5.637197656375668
 30
0.0
 40
0.01089627287962
  0
CIRCLE
  5
918E
330
1F
100
AcDbEntity
  8
0
100
AcDbCircle
 10
11.6442323860319
 20
5.637197656375668
 30
0.0
 40
0.01089627287962
  0
CIRCLE
  5
918F
330
1F
100
AcDbEntity
  8
0
100
AcDbCircle
 10
11.5435351441853
 20
5.637197656375668
 30
0.0
 40
0.01089627287962
  0
CIRCLE
  5
9190
330
1F
100
AcDbEntity
  8
0
100
AcDbCircle
 10
11.44283787985382
 20
5.637197656375668
 30
0.0
 40
0.01089627287962
  0
CIRCLE
  5
9191
330
1F
100
AcDbEntity
  8
0
100
AcDbCircle
 10
11.34214061552234
 20
5.637197656375668
 30
0.0
 40
0.01089627287962
  0
CIRCLE
  5
9192
330
1F
100
AcDbEntity
  8
0
100
AcDbCircle
 10
11.24416492196807
 20
5.637197656375668
 30
0.0
 40
0.01089627287962
  0
CIRCLE
  5
9193
330
1F
100
AcDbEntity
  8
0
100
AcDbCircle
 10
11.14414063031804
 20
5.637019181297233
 30
0.0
 40
0.01089627287962
  0
CIRCLE
  5
9194
330
1F
100
AcDbEntity
  8
0
100
AcDbCircle
 10
11.0456534730289
 20
5.641305204309084
 30
0.0
 40
0.01089627287962
  0
CIRCLE
  5
9195
330
1F
100
AcDbEntity
  8
0
100
AcDbCircle
 10
10.94502530475655
 20
5.643448191986557
 30
0.0
 40
0.01089627287962
  0
CIRCLE
  5
9196
330
1F
100
AcDbEntity
  8
0
100
AcDbCircle
 10
12.13722570774686
 20
6.61294516755953
 30
0.0
 40
0.01089627287962
  0
CIRCLE
  5
9197
330
1F
100
AcDbEntity
  8
0
100
AcDbCircle
 10
12.03924999170771
 20
6.61294516755953
 30
0.0
 40
0.01089627287962
  0
CIRCLE
  5
9198
330
1F
100
AcDbEntity
  8
0
100
AcDbCircle
 10
11.94127427566856
 20
6.61294516755953
 30
0.0
 40
0.01089627287962
  0
CIRCLE
  5
9199
330
1F
100
AcDbEntity
  8
0
100
AcDbCircle
 10
11.84057703382197
 20
6.61294516755953
 30
0.0
 40
0.01089627287962
  0
CIRCLE
  5
919A
330
1F
100
AcDbEntity
  8
0
100
AcDbCircle
 10
11.74260131778281
 20
6.61294516755953
 30
0.0
 40
0.01089627287962
  0
CIRCLE
  5
919B
330
1F
100
AcDbEntity
  8
0
100
AcDbCircle
 10
11.64462560174366
 20
6.61294516755953
 30
0.0
 40
0.01089627287962
  0
CIRCLE
  5
919C
330
1F
100
AcDbEntity
  8
0
100
AcDbCircle
 10
11.54392835989707
 20
6.61294516755953
 30
0.0
 40
0.01089627287962
  0
CIRCLE
  5
919D
330
1F
100
AcDbEntity
  8
0
100
AcDbCircle
 10
11.44323109556558
 20
6.61294516755953
 30
0.0
 40
0.01089627287962
  0
CIRCLE
  5
919E
330
1F
100
AcDbEntity
  8
0
100
AcDbCircle
 10
11.3425338312341
 20
6.61294516755953
 30
0.0
 40
0.01089627287962
  0
CIRCLE
  5
919F
330
1F
100
AcDbEntity
  8
0
100
AcDbCircle
 10
11.24455813767984
 20
6.61294516755953
 30
0.0
 40
0.01089627287962
  0
CIRCLE
  5
91A0
330
1F
100
AcDbEntity
  8
0
100
AcDbCircle
 10
11.1445338460298
 20
6.612766692481095
 30
0.0
 40
0.01089627287962
  0
CIRCLE
  5
91A1
330
1F
100
AcDbEntity
  8
0
100
AcDbCircle
 10
11.04604668874066
 20
6.617052715492945
 30
0.0
 40
0.01089627287962
  0
CIRCLE
  5
91A2
330
1F
100
AcDbEntity
  8
0
100
AcDbCircle
 10
10.94541852046832
 20
6.619195703170419
 30
0.0
 40
0.01089627287962
  0
LINE
  5
91A3
330
1F
100
AcDbEntity
  8
0
100
AcDbLine
 10
12.19328376826817
 20
6.731261443205085
 30
0.0
 11
10.89328376826811
 21
6.731261443204916
 31
0.0
  0
LINE
  5
91A4
330
1F
100
AcDbEntity
  8
0
100
AcDbLine
 10
10.89328376826811
 20
6.137719261965287
 30
0.0
 11
10.89328376826811
 21
6.111945504437247
 31
0.0
  0
LINE
  5
91A5
330
1F
100
AcDbEntity
  8
0
100
AcDbLine
 10
10.9932837682681
 20
6.111945504437215
 30
0.0
 11
10.9932837682681
 21
6.133158707872809
 31
0.0
  0
LINE
  5
91A6
330
1F
100
AcDbEntity
  8
0
100
AcDbLine
 10
11.0932837682681
 20
6.150982169385187
 30
0.0
 11
11.09328376826811
 21
6.111945504436704
 31
0.0
  0
LINE
  5
91A7
330
1F
100
AcDbEntity
  8
0
100
AcDbLine
 10
11.19328376826812
 20
6.111945504436704
 30
0.0
 11
11.1932837682681
 21
6.150982169385187
 31
0.0
  0
LINE
  5
91A8
330
1F
100
AcDbEntity
  8
0
100
AcDbLine
 10
11.2932837682681
 20
6.150982169385187
 30
0.0
 11
11.29328376826812
 21
6.111945504436704
 31
0.0
  0
LINE
  5
91A9
330
1F
100
AcDbEntity
  8
0
100
AcDbLine
 10
11.39328376826812
 20
6.111945504436704
 30
0.0
 11
11.39328376826811
 21
6.150982169385187
 31
0.0
  0
LINE
  5
91AA
330
1F
100
AcDbEntity
  8
0
100
AcDbLine
 10
11.49328376826812
 20
6.150982169385187
 30
0.0
 11
11.49328376826814
 21
6.111945504436736
 31
0.0
  0
LINE
  5
91AB
330
1F
100
AcDbEntity
  8
0
100
AcDbLine
 10
11.59328376826814
 20
6.111945504436736
 30
0.0
 11
11.59328376826811
 21
6.150982169385187
 31
0.0
  0
LINE
  5
91AC
330
1F
100
AcDbEntity
  8
0
100
AcDbLine
 10
11.69328376826813
 20
6.150982169385219
 30
0.0
 11
11.69328376826815
 21
6.111945504436736
 31
0.0
  0
LINE
  5
91AD
330
1F
100
AcDbEntity
  8
0
100
AcDbLine
 10
11.79328376826815
 20
6.111945504436736
 30
0.0
 11
11.79328376826814
 21
6.150982169385219
 31
0.0
  0
LINE
  5
91AE
330
1F
100
AcDbEntity
  8
0
100
AcDbLine
 10
11.89328376826814
 20
6.150982169385219
 30
0.0
 11
11.89328376826815
 21
6.111945504436736
 31
0.0
  0
LINE
  5
91AF
330
1F
100
AcDbEntity
  8
0
100
AcDbLine
 10
11.99328376826816
 20
6.111945504436736
 30
0.0
 11
11.99328376826814
 21
6.150982169385219
 31
0.0
  0
LINE
  5
91B0
330
1F
100
AcDbEntity
  8
0
100
AcDbLine
 10
12.09328376826816
 20
6.137719261964271
 30
0.0
 11
12.09328376826816
 21
6.111945504436736
 31
0.0
  0
LINE
  5
91B1
330
1F
100
AcDbEntity
  8
0
100
AcDbLine
 10
11.2515628611371
 20
6.862405537506063
 30
0.0
 11
11.25908356670138
 21
6.862405537506063
 31
0.0
  0
ARC
  5
91B2
330
1F
100
AcDbEntity
  8
0
100
AcDbCircle
 10
11.29356475173552
 20
6.65062670069939
 30
0.0
 40
0.2159037622021181
100
AcDbArc
 50
101.2178455459636
 51
158.0698885819904
  0
ARC
  5
91B3
330
1F
100
AcDbEntity
  8
0
100
AcDbCircle
 10
11.2892229103543
 20
6.652106349277804
 30
0.0
 40
0.172945637548428
100
AcDbArc
 50
100.0362155609729
 51
152.7620031105482
  0
LINE
  5
91B4
330
1F
100
AcDbEntity
  8
0
100
AcDbLine
 10
11.25908356670138
 20
6.822405537506062
 30
0.0
 11
11.53416915059565
 21
6.822405537506064
 31
0.0
  0
LINE
  5
91B5
330
1F
100
AcDbEntity
  8
0
100
AcDbLine
 10
11.53416915059565
 20
6.862405537506095
 30
0.0
 11
11.2515628611371
 21
6.862405537506063
 31
0.0
  0
LINE
  5
91B6
330
1F
100
AcDbEntity
  8
0
100
AcDbLine
 10
11.81677544005419
 20
6.862405537506063
 30
0.0
 11
11.80925473448992
 21
6.862405537506063
 31
0.0
  0
ARC
  5
91B7
330
1F
100
AcDbEntity
  8
0
100
AcDbCircle
 10
11.77477354945578
 20
6.65062670069939
 30
0.0
 40
0.2159037622021181
100
AcDbArc
 50
21.93011141800989
 51
78.78215445403634
  0
ARC
  5
91B8
330
1F
100
AcDbEntity
  8
0
100
AcDbCircle
 10
11.77911539083699
 20
6.652106349277804
 30
0.0
 40
0.172945637548428
100
AcDbArc
 50
27.23799688945179
 51
79.96378443902695
  0
LINE
  5
91B9
330
1F
100
AcDbEntity
  8
0
100
AcDbLine
 10
11.80925473448992
 20
6.822405537506062
 30
0.0
 11
11.53416915059565
 21
6.822405537506064
 31
0.0
  0
LINE
  5
91BA
330
1F
100
AcDbEntity
  8
0
100
AcDbLine
 10
11.53416915059565
 20
6.862405537506095
 30
0.0
 11
11.81677544005419
 21
6.862405537506063
 31
0.0
  0
LINE
  5
91BD
330
1F
100
AcDbEntity
  8
0
100
AcDbLine
 10
11.30891124498196
 20
4.479823724536953
 30
0.0
 11
11.30812753898662
 21
5.462272750738906
 31
0.0
  0
LINE
  5
91BE
330
1F
100
AcDbEntity
  8
0
100
AcDbLine
 10
11.26291124498197
 20
5.46426832077712
 30
0.0
 11
11.26291124498196
 21
4.479823724536953
 31
0.0
  0
LINE
  5
91BF
330
1F
100
AcDbEntity
  8
0
100
AcDbLine
 10
11.26925106642387
 20
4.474545046076277
 30
0.0
 11
11.26925106642388
 21
5.458989642316444
 31
0.0
  0
LINE
  5
91C0
330
1F
100
AcDbEntity
  8
0
100
AcDbLine
 10
11.30257142354006
 20
4.474545046076277
 30
0.0
 11
11.30257142354006
 21
5.458989642316444
 31
0.0
  0
LINE
  5
91C1
330
1F
100
AcDbEntity
  8
0
100
AcDbLine
 10
11.82892033149984
 20
4.479823724536954
 30
0.0
 11
11.82892033149984
 21
5.46426832077712
 31
0.0
  0
LINE
  5
91C2
330
1F
100
AcDbEntity
  8
0
100
AcDbLine
 10
11.78292033149984
 20
5.46426832077712
 30
0.0
 11
11.78292033149984
 21
4.479823724536954
 31
0.0
  0
LINE
  5
91C4
330
1F
100
AcDbEntity
  8
0
100
AcDbLine
 10
11.82258051005793
 20
4.474545046076277
 30
0.0
 11
11.82258051005793
 21
5.458989642316444
 31
0.0
  0
LINE
  5
91C5
330
1F
100
AcDbEntity
  8
0
100
AcDbLine
 10
11.78926015294175
 20
5.458989642316444
 30
0.0
 11
11.78926015294175
 21
4.474545046076277
 31
0.0
  0
LINE
  5
91C6
330
1F
100
AcDbEntity
  8
0
100
AcDbLine
 10
8.333541257514831
 20
5.517118111588844
 30
0.0
 11
8.333541257514831
 21
5.017118111588844
 31
0.0
  0
LINE
  5
91C7
330
1F
100
AcDbEntity
  8
0
100
AcDbLine
 10
8.333541257514831
 20
5.017118111588844
 30
0.0
 11
9.653095991361794
 21
5.01711811158884
 31
0.0
  0
LINE
  5
91C8
330
1F
100
AcDbEntity
  8
0
100
AcDbLine
 10
9.653095991361794
 20
5.01711811158884
 30
0.0
 11
9.653095991361794
 21
5.517118111588844
 31
0.0
  0
LINE
  5
91CB
330
1F
100
AcDbEntity
  8
0
100
AcDbLine
 10
8.37985779899445
 20
5.517118111588844
 30
0.0
 11
8.409857798994449
 21
5.517118111588844
 31
0.0
  0
LINE
  5
91CD
330
1F
100
AcDbEntity
  8
0
100
AcDbLine
 10
9.653095991361794
 20
5.01711811158884
 30
0.0
 11
9.653095991361794
 21
5.06711811158884
 31
0.0
  0
LINE
  5
91D2
330
1F
100
AcDbEntity
  8
0
100
AcDbLine
 10
8.37985779899445
 20
5.517118111588844
 30
0.0
 11
8.409857798994449
 21
5.517118111588844
 31
0.0
  0
LINE
  5
91D3
330
1F
100
AcDbEntity
  8
0
100
AcDbLine
 10
8.409857798994449
 20
5.517118111588844
 30
0.0
 11
8.409857798994449
 21
5.149907583295913
 31
0.0
  0
LINE
  5
91D4
330
1F
100
AcDbEntity
  8
0
100
AcDbLine
 10
8.413991563507325
 20
5.06711811158884
 30
0.0
 11
8.413991563507323
 21
5.06711811158884
 31
0.0
  0
LINE
  5
91D6
330
1F
100
AcDbEntity
  8
0
100
AcDbLine
 10
8.507621572996349
 20
5.09711811158884
 30
0.0
 11
8.457899153589551
 21
5.09711811158884
 31
0.0
  0
ARC
  5
91D7
330
1F
100
AcDbEntity
  8
0
100
AcDbCircle
 10
8.459234604630236
 20
5.146588334149564
 30
0.0
 40
0.0494882445605987
100
AcDbArc
 50
176.1542009092439
 51
268.4536732191059
  0
ARC
  5
91DE
330
1F
100
AcDbEntity
  8
0
100
AcDbCircle
 10
8.438477592689352
 20
5.125650459118464
 30
0.0
 40
0.0586221849369457
100
AcDbArc
 50
179.4824886550401
 51
273.172420243545
  0
LINE
  5
91DF
330
1F
100
AcDbEntity
  8
0
100
AcDbLine
 10
8.37985779899445
 20
5.126179943725002
 30
0.0
 11
8.37985779899445
 21
5.517118111588844
 31
0.0
  0
LINE
  5
91E0
330
1F
100
AcDbEntity
  8
0
100
AcDbLine
 10
8.333541257514831
 20
5.017118111588844
 30
0.0
 11
8.983541257514831
 21
5.017118111588844
 31
0.0
  0
LINE
  5
91E5
330
1F
100
AcDbEntity
  8
0
100
AcDbLine
 10
8.983541257514831
 20
5.06711811158884
 30
0.0
 11
8.441721796667643
 21
5.06711811158884
 31
0.0
  0
LINE
  5
91E8
330
1F
100
AcDbEntity
  8
0
100
AcDbLine
 10
8.983541257514831
 20
5.097118111588839
 30
0.0
 11
8.460570055670887
 21
5.097118111588839
 31
0.0
  0
LINE
  5
91E9
330
1F
100
AcDbEntity
  8
0
100
AcDbLine
 10
9.557224716035213
 20
5.517118111588844
 30
0.0
 11
9.557224716035213
 21
5.149907583295913
 31
0.0
  0
LINE
  5
91EA
330
1F
100
AcDbEntity
  8
0
100
AcDbLine
 10
9.553090951522337
 20
5.06711811158884
 30
0.0
 11
9.553090951522339
 21
5.06711811158884
 31
0.0
  0
LINE
  5
91EB
330
1F
100
AcDbEntity
  8
0
100
AcDbLine
 10
9.459460942033313
 20
5.09711811158884
 30
0.0
 11
9.509183361440111
 21
5.09711811158884
 31
0.0
  0
ARC
  5
91EC
330
1F
100
AcDbEntity
  8
0
100
AcDbCircle
 10
9.507847910399426
 20
5.146588334149564
 30
0.0
 40
0.0494882445605987
100
AcDbArc
 50
271.546326780894
 51
3.845799090756058
  0
ARC
  5
91ED
330
1F
100
AcDbEntity
  8
0
100
AcDbCircle
 10
9.52860492234031
 20
5.125650459118464
 30
0.0
 40
0.0586221849369457
100
AcDbArc
 50
266.8275797564549
 51
0.5175113449598359
  0
LINE
  5
91EE
330
1F
100
AcDbEntity
  8
0
100
AcDbLine
 10
9.587224716035212
 20
5.126179943725002
 30
0.0
 11
9.587224716035212
 21
5.517118111588844
 31
0.0
  0
LINE
  5
91EF
330
1F
100
AcDbEntity
  8
0
100
AcDbLine
 10
8.983541257514831
 20
5.06711811158884
 30
0.0
 11
9.525360718362019
 21
5.06711811158884
 31
0.0
  0
LINE
  5
91F0
330
1F
100
AcDbEntity
  8
0
100
AcDbLine
 10
8.983541257514831
 20
5.097118111588839
 30
0.0
 11
9.506512459358775
 21
5.097118111588839
 31
0.0
  0
LINE
  5
91F1
330
1F
100
AcDbEntity
  8
0
100
AcDbLine
 10
9.653095991361794
 20
5.517118111588844
 30
0.0
 11
9.653095991361794
 21
5.397118111588844
 31
0.0
  0
LINE
  5
91F3
330
1F
100
AcDbEntity
  8
0
100
AcDbLine
 10
9.653095991361794
 20
5.397118111588844
 30
0.0
 11
9.58722471603521
 21
5.397118111588844
 31
0.0
  0
LINE
  5
91F4
330
1F
100
AcDbEntity
  8
0
100
AcDbLine
 10
8.333541257514829
 20
5.397118111588839
 30
0.0
 11
8.333541257514829
 21
5.277118111588839
 31
0.0
  0
LINE
  5
91F5
330
1F
100
AcDbEntity
  8
0
100
AcDbLine
 10
8.333541257514829
 20
5.277118111588839
 30
0.0
 11
8.37985779899445
 21
5.27711811158884
 31
0.0
  0
LINE
  5
91F6
330
1F
100
AcDbEntity
  8
0
100
AcDbLine
 10
9.653095991361794
 20
5.277118111588842
 30
0.0
 11
9.653095991361794
 21
5.157118111588842
 31
0.0
  0
LINE
  5
91F7
330
1F
100
AcDbEntity
  8
0
100
AcDbLine
 10
9.653095991361794
 20
5.157118111588842
 30
0.0
 11
9.587224716035212
 21
5.157118111588841
 31
0.0
  0
LINE
  5
91F8
330
1F
100
AcDbEntity
  8
0
100
AcDbLine
 10
8.333541257514831
 20
5.157118111588838
 30
0.0
 11
8.333541257514831
 21
5.037118111588838
 31
0.0
  0
LINE
  5
91F9
330
1F
100
AcDbEntity
  8
0
100
AcDbLine
 10
8.333541257514831
 20
5.037118111588838
 30
0.0
 11
9.653095991361793
 21
5.037118111588836
 31
0.0
  0
LINE
  5
91FA
330
1F
100
AcDbEntity
  8
0
100
AcDbLine
 10
9.557224716035214
 20
5.157118111588842
 30
0.0
 11
8.409857798994449
 21
5.157118111588838
 31
0.0
  0
LINE
  5
91FB
330
1F
100
AcDbEntity
  8
0
100
AcDbLine
 10
9.58722471603521
 20
5.277118111588842
 30
0.0
 11
9.653095991361794
 21
5.277118111588842
 31
0.0
  0
LINE
  5
91FC
330
1F
100
AcDbEntity
  8
0
100
AcDbLine
 10
9.557224716035214
 20
5.397118111588844
 30
0.0
 11
8.409857798994449
 21
5.397118111588839
 31
0.0
  0
LINE
  5
91FD
330
1F
100
AcDbEntity
  8
0
100
AcDbLine
 10
8.37985779899445
 20
5.157118111588838
 30
0.0
 11
8.333541257514831
 21
5.157118111588838
 31
0.0
  0
LINE
  5
91FE
330
1F
100
AcDbEntity
  8
0
100
AcDbLine
 10
8.409857798994449
 20
5.27711811158884
 30
0.0
 11
9.557224716035214
 21
5.277118111588841
 31
0.0
  0
LINE
  5
91FF
330
1F
100
AcDbEntity
  8
0
100
AcDbLine
 10
8.37985779899445
 20
5.397118111588839
 30
0.0
 11
8.333541257514829
 21
5.397118111588839
 31
0.0
  0
LINE
  5
9245
330
1F
100
AcDbEntity
  8
0
100
AcDbLine
 10
9.653095991361794
 20
6.429577893214359
 30
0.0
 11
10.89328376826811
 21
6.42957789321436
 31
0.0
  0
LINE
  5
9246
330
1F
100
AcDbEntity
  8
0
100
AcDbLine
 10
10.89328376826811
 20
6.42957789321436
 30
0.0
 11
10.89328376826811
 21
5.845377893214388
 31
0.0
  0
LINE
  5
9247
330
1F
100
AcDbEntity
  8
0
100
AcDbLine
 10
10.89328376826811
 20
5.845377893214388
 30
0.0
 11
9.653095991361794
 21
5.845377893214364
 31
0.0
  0
LINE
  5
9262
330
1F
100
AcDbEntity
  8
STREFA BEZPIECZEŃSTWA
100
AcDbLine
 10
6.571056835901028
 20
8.617108076013616
 30
0.0
 11
13.69328376826816
 21
8.617108076013616
 31
0.0
  0
LINE
  5
9263
102
{ACAD_REACTORS
330
9283
102
}
330
1F
100
AcDbEntity
  8
STREFA BEZPIECZEŃSTWA
100
AcDbLine
 10
13.69328376826816
 20
8.617108076013616
 30
0.0
 11
13.69328376826816
 21
5.531666230616926
 31
0.0
  0
LINE
  5
9264
330
1F
100
AcDbEntity
  8
STREFA BEZPIECZEŃSTWA
100
AcDbLine
 10
13.69328376826816
 20
5.531666230616926
 30
0.0
 11
13.69328376826816
 21
4.031666230616926
 31
0.0
  0
LINE
  5
9268
330
1F
100
AcDbEntity
  8
STREFA BEZPIECZEŃSTWA
100
AcDbLine
 10
12.98292033149985
 20
4.031666230616926
 30
0.0
 11
13.69328376826816
 21
4.031666230616926
 31
0.0
  0
LINE
  5
926E
102
{ACAD_REACTORS
330
9283
330
9297
102
}
330
1F
100
AcDbEntity
  8
STREFA BEZPIECZEŃSTWA
100
AcDbLine
 10
6.571056835901028
 20
8.617108076013616
 30
0.0
 11
6.571056835901026
 21
1.655143698807003
 31
0.0
  0
LINE
  5
926F
330
1F
100
AcDbEntity
  8
STREFA BEZPIECZEŃSTWA
100
AcDbLine
 10
6.571056835901026
 20
1.655143698807003
 30
0.0
 11
10.09186408301932
 21
1.655143698807008
 31
0.0
  0
DIMENSION
  5
9270
102
{ACAD_XDICTIONARY
360
927B
102
}
102
{ACAD_REACTORS
330
9283
102
}
330
1F
100
AcDbEntity
  8
WYMIAR
100
AcDbDimension
  2
*D3
 10
13.69328376826816
 20
9.235144151094157
 30
0.0
 11
10.13217030208459
 21
9.447540254990261
 31
0.0
 70
    32
 71
     5
 42
7.122226932367134
  3
AR SKALA 1-50
100
AcDbAlignedDimension
 13
6.571056835901028
 23
8.617108076013616
 33
0.0
 14
13.69328376826816
 24
8.617108076013616
 34
0.0
100
AcDbRotatedDimension
  0
DIMENSION
  5
9284
102
{ACAD_XDICTIONARY
360
928F
102
}
102
{ACAD_REACTORS
330
9297
102
}
330
1F
100
AcDbEntity
  8
WYMIAR
100
AcDbDimension
  2
*D4
 10
5.771794300951249
 20
0.6361048671181328
 30
0.0
 11
5.559398197055145
 21
4.626606471565875
 31
0.0
 70
    32
 71
     5
 42
7.981003208895484
  3
AR SKALA 1-50
100
AcDbAlignedDimension
 13
6.571056835901028
 23
8.617108076013616
 33
0.0
 14
10.09186408301935
 24
0.6361048671181317
 34
0.0
 50
90.0
100
AcDbRotatedDimension
  0
LINE
  5
92BB
330
1F
100
AcDbEntity
  8
STREFA BEZPIECZEŃSTWA
100
AcDbLine
 10
12.98292033149985
 20
4.031666230616926
 30
0.0
 11
12.98292033149984
 21
0.6361048671181316
 31
0.0
  0
LINE
  5
92BC
330
1F
100
AcDbEntity
  8
STREFA BEZPIECZEŃSTWA
100
AcDbLine
 10
12.98292033149984
 20
0.6361048671181316
 30
0.0
 11
10.09186408301932
 21
0.6361048671181316
 31
0.0
  0
LINE
  5
92BD
330
1F
100
AcDbEntity
  8
STREFA BEZPIECZEŃSTWA
100
AcDbLine
 10
10.09186408301932
 20
0.6361048671181316
 30
0.0
 11
10.09186408301932
 21
1.655143698807008
 31
0.0
  0
LINE
  5
92E8
330
1F
100
AcDbEntity
  8
0
100
AcDbLine
 10
8.996127903712903
 20
6.779836975468997
 30
0.0
 11
8.996127903712897
 21
5.517118111588845
 31
0.0
  0
LINE
  5
92E9
330
1F
100
AcDbEntity
  8
0
100
AcDbLine
 10
8.976127903712903
 20
6.779836975468997
 30
0.0
 11
8.976127903712908
 21
5.517118111588845
 31
0.0
  0
VIEWPORT
  5
7CA
330
1B
100
AcDbEntity
 67
     1
  8
0
100
AcDbViewport
 10
271.5643544412355
 20
208.0679002034346
 30
0.0
 40
1260.527471931776
 41
638.1125994274806
 68
     1
 69
     1
 12
271.5643544412355
 22
208.0679002034346
 13
0.0
 23
0.0
 14
10.0
 24
10.0
 15
10.0
 25
10.0
 16
0.0
 26
0.0
 36
1.0
 17
0.0
 27
0.0
 37
0.0
 42
50.0
 43
0.0
 44
0.0
 45
638.1125994274806
 50
0.0
 51
0.0
 72
   100
 90
   819232
  1

281
     0
 71
     1
 74
     0
110
0.0
120
0.0
130
0.0
111
1.0
121
0.0
131
0.0
112
0.0
122
1.0
132
0.0
 79
     0
146
0.0
170
     0
  0
VIEWPORT
  5
99A
330
1B
100
AcDbEntity
 67
     1
  8
Defpoints
100
AcDbViewport
 10
211.6374382675827
 20
146.9348621411756
 30
0.0
 40
410.1517866444555
 41
287.3053455326816
 68
     2
 69
     2
 12
9.764560152715796
 22
5.225995229961426
 13
0.0
 23
0.0
 14
0.5
 24
0.5
 15
0.5
 25
0.5
 16
0.0
 26
0.0
 36
1.0
 17
0.0
 27
0.0
 37
-1000.0
 42
50.0
 43
4.148984367261674
 44
9.217858496371269
 45
14.36526866548175
 50
0.0
 51
0.0
 72
   100
 90
   819296
  1

281
     0
 71
     1
 74
     0
110
0.0
120
0.0
130
0.0
111
1.0
121
0.0
131
0.0
112
0.0
122
1.0
132
0.0
 79
     0
146
0.0
170
     0
  0
ENDSEC
  0
SECTION
  2
OBJECTS
  0
DICTIONARY
  5
C
330
0
100
AcDbDictionary
281
     1
  3
ACAD_COLOR
350
4B9
  3
ACAD_GROUP
350
D
  3
ACAD_LAYOUT
350
1A
  3
ACAD_MATERIAL
350
3B
  3
ACAD_MLEADERSTYLE
350
489
  3
ACAD_MLINESTYLE
350
17
  3
ACAD_PLOTSETTINGS
350
19
  3
ACAD_PLOTSTYLENAME
350
E
  3
ACAD_SCALELIST
350
8C69
  3
ACAD_TABLESTYLE
350
4BA
  3
ACAD_VISUALSTYLE
350
2A
  3
ACDB_RECOMPOSE_DATA
350
8CA2
  3
AcDbVariableDictionary
350
487
  0
DICTIONARY
  5
84C
330
8
100
AcDbDictionary
280
     1
281
     1
  0
DICTIONARY
  5
7D1
330
2
100
AcDbDictionary
280
     1
281
     1
  3
ACAD_LAYERFILTERS
360
92EF
  3
ACAD_LAYERSTATES
360
7D2
  3
ACLYDICTIONARY
360
92EE
  0
DICTIONARY
  5
8C9A
330
10
100
AcDbDictionary
280
     1
281
     1
  3
ADSK_XREC_LAYER_RECONCILED
360
8C9B
  0
DICTIONARY
  5
8C9C
330
87B
100
AcDbDictionary
280
     1
281
     1
  3
ADSK_XREC_LAYER_RECONCILED
360
8C9D
  0
DICTIONARY
  5
8C9E
330
87D
100
AcDbDictionary
280
     1
281
     1
  3
ADSK_XREC_LAYER_RECONCILED
360
8C9F
  0
DICTIONARY
  5
5F8
330
1F
100
AcDbDictionary
280
     1
281
     1
  3
ACAD_SORTENTS
360
5F9
  0
DICTIONARY
  5
8D7B
330
8D3F
100
AcDbDictionary
280
     1
281
     1
  3
ACAD_SORTENTS
360
8D7C
  0
DICTIONARY
  5
91DA
330
91D8
100
AcDbDictionary
280
     1
281
     1
  3
ACAD_SORTENTS
360
91DB
  0
DICTIONARY
  5
927B
330
9270
100
AcDbDictionary
280
     1
281
     1
  3
ACAD_DIMASSOC
360
9283
  0
DICTIONARY
  5
928F
330
9284
100
AcDbDictionary
280
     1
281
     1
  3
ACAD_DIMASSOC
360
9297
  0
DICTIONARY
  5
4B9
102
{ACAD_REACTORS
330
C
102
}
330
C
100
AcDbDictionary
281
     1
  0
DICTIONARY
  5
D
102
{ACAD_REACTORS
330
C
102
}
330
C
100
AcDbDictionary
281
     1
  0
DICTIONARY
  5
1A
102
{ACAD_REACTORS
330
C
102
}
330
C
100
AcDbDictionary
281
     1
  3
Layout1
350
1E
  3
Model
350
22
  0
DICTIONARY
  5
3B
102
{ACAD_REACTORS
330
C
102
}
330
C
100
AcDbDictionary
281
     1
  3
ByBlock
350
3D
  3
ByLayer
350
3C
  3
Global
350
3E
  0
DICTIONARY
  5
489
102
{ACAD_REACTORS
330
C
102
}
330
C
100
AcDbDictionary
281
     1
  3
Standard
350
8C8B
  0
DICTIONARY
  5
17
102
{ACAD_REACTORS
330
C
102
}
330
C
100
AcDbDictionary
281
     1
  3
Standard
350
18
  0
DICTIONARY
  5
19
102
{ACAD_REACTORS
330
C
102
}
330
C
100
AcDbDictionary
281
     1
  0
ACDBDICTIONARYWDFLT
  5
E
102
{ACAD_REACTORS
330
C
102
}
330
C
100
AcDbDictionary
281
     1
  3
Normal
350
F
100
AcDbDictionaryWithDefault
340
F
  0
DICTIONARY
  5
8C69
102
{ACAD_REACTORS
330
C
102
}
330
C
100
AcDbDictionary
281
     1
  3
A0
350
8C6A
  3
A1
350
8C6B
  3
A2
350
8C6C
  3
A3
350
8C6D
  3
A4
350
8C6E
  3
A5
350
8C6F
  3
A6
350
8C70
  3
A7
350
8C71
  3
A8
350
8C72
  3
A9
350
8C73
  3
B0
350
8C74
  3
B1
350
8C75
  3
B2
350
8C76
  3
B3
350
8C77
  3
B4
350
8C78
  3
B5
350
8C79
  3
B6
350
8C7A
  3
B7
350
8C7B
  3
B8
350
8C7C
  3
B9
350
8C7D
  3
C0
350
8C7E
  3
C1
350
8C7F
  3
C2
350
8C80
  3
C3
350
8C81
  3
C4
350
8C82
  3
C5
350
8C83
  3
C6
350
8C84
  3
C7
350
8C85
  3
C8
350
8C86
  3
C9
350
8C87
  3
D0
350
8C88
  3
D1
350
8C89
  3
D2
350
8C8A
  0
DICTIONARY
  5
4BA
102
{ACAD_REACTORS
330
C
102
}
330
C
100
AcDbDictionary
281
     1
  3
Standard
350
4BB
  0
DICTIONARY
  5
2A
102
{ACAD_REACTORS
330
C
102
}
330
C
100
AcDbDictionary
281
     1
  3
2dWireframe
350
2F
  3
3D Hidden
350
A47
  3
3dWireframe
350
A48
  3
Basic
350
32
  3
Brighten
350
36
  3
ColorChange
350
3A
  3
Conceptual
350
A4B
  3
Dim
350
35
  3
Facepattern
350
39
  3
Flat
350
2B
  3
FlatWithEdges
350
2C
  3
Gouraud
350
2D
  3
GouraudWithEdges
350
2E
  3
Linepattern
350
38
  3
Realistic
350
A4C
  3
Thicken
350
37
  0
XRECORD
  5
8CA2
102
{ACAD_REACTORS
330
C
102
}
330
C
100
AcDbXrecord
280
     1
 90
        1
330
4BB
  0
DICTIONARY
  5
487
102
{ACAD_REACTORS
330
C
102
}
330
C
100
AcDbDictionary
281
     1
  3
CANNOSCALE
350
8CA5
  3
CMLEADERSTYLE
350
8CA3
  3
CTABLESTYLE
350
5FE
  3
DIMASSOC
350
48A
  3
HIDETEXT
350
48B
  3
INDEXCTL
350
86B
  3
LIGHTINGUNITS
350
8CA6
  3
MSLTSCALE
350
8CA4
  3
SORTENTS
350
86A
  0
DICTIONARY
  5
92EF
102
{ACAD_REACTORS
330
7D1
102
}
330
7D1
100
AcDbDictionary
281
     1
  0
DICTIONARY
  5
7D2
102
{ACAD_REACTORS
330
7D1
102
}
330
7D1
100
AcDbDictionary
281
     1
  0
DICTIONARY
  5
92EE
102
{ACAD_REACTORS
330
7D1
102
}
330
7D1
100
AcDbDictionary
281
     1
1001
ACAD
1000
<All
  0
XRECORD
  5
8C9B
102
{ACAD_REACTORS
330
8C9A
102
}
330
8C9A
100
AcDbXrecord
280
     1
290
     1
  0
XRECORD
  5
8C9D
102
{ACAD_REACTORS
330
8C9C
102
}
330
8C9C
100
AcDbXrecord
280
     1
290
     1
  0
XRECORD
  5
8C9F
102
{ACAD_REACTORS
330
8C9E
102
}
330
8C9E
100
AcDbXrecord
280
     1
290
     1
  0
SORTENTSTABLE
  5
5F9
102
{ACAD_REACTORS
330
5F8
102
}
330
5F8
100
AcDbSortentsTable
330
1F
331
9178
  5
9178
331
9102
  5
9102
331
90C3
  5
90C3
331
9139
  5
9139
331
91F6
  5
91FA
331
9180
  5
9180
331
910A
  5
910A
331
90CB
  5
90CB
331
9141
  5
9141
331
91B7
  5
91B7
331
91FE
  5
91F8
331
9149
  5
9149
331
90D3
  5
90D3
331
9112
  5
9112
331
9188
  5
9188
331
91BF
  5
91BF
331
91C7
  5
91C7
331
9151
  5
9151
331
90DB
  5
90DB
331
911A
  5
911A
331
9190
  5
9190
331
85A4
  5
85A4
331
8B40
  5
8B40
331
8B48
  5
8B48
331
85AC
  5
85AC
331
88AA
  5
88AA
331
8B09
  5
8B09
331
8B50
  5
8B50
331
88B2
  5
88B2
331
85B4
  5
85B4
331
877B
  5
877B
331
8B11
  5
8B11
331
85BC
  5
85BC
331
88BA
  5
88BA
331
851D
  5
851D
331
8B19
  5
8B19
331
9159
  5
9159
331
90E3
  5
90E3
331
9122
  5
9122
331
9198
  5
9198
331
91D7
  5
91D7
331
9161
  5
9161
331
90EB
  5
90EB
331
90B4
  5
90B4
331
912A
  5
912A
331
91A0
  5
91A0
331
9169
  5
9169
331
90F3
  5
90F3
331
90BC
  5
90BC
331
9132
  5
9132
331
91A8
  5
91A8
331
91DF
  5
91DF
331
9171
  5
9171
331
90FB
  5
90FB
331
91EF
  5
91EF
331
8B21
  5
8B21
331
87CB
  5
87CB
331
8585
  5
8585
331
85C4
  5
85C4
331
88C2
  5
88C2
331
8B29
  5
8B29
331
88CA
  5
88CA
331
85CC
  5
85CC
331
858D
  5
858D
331
8B31
  5
8B31
331
85D4
  5
85D4
331
8595
  5
8595
331
8833
  5
8833
331
8B39
  5
8B39
331
883B
  5
883B
331
859D
  5
859D
331
9179
  5
9179
331
9103
  5
9103
331
90C4
  5
90C4
331
913A
  5
913A
331
91B0
  5
91B0
331
91F7
  5
91FB
331
9181
  5
9181
331
910B
  5
910B
331
90CC
  5
90CC
331
9142
  5
9142
331
91B8
  5
91B8
331
91C0
  5
91C0
331
914A
  5
914A
331
90D4
  5
90D4
331
9113
  5
9113
331
9189
  5
9189
331
91FF
  5
91F5
331
91C8
  5
91C8
331
9152
  5
9152
331
90DC
  5
90DC
331
911B
  5
911B
331
9191
  5
9191
331
8B41
  5
8B41
331
85A5
  5
85A5
331
8B49
  5
8B49
331
8B0A
  5
8B0A
331
88AB
  5
88AB
331
85AD
  5
85AD
331
8B51
  5
8B51
331
88B3
  5
88B3
331
85B5
  5
85B5
331
8B1A
  5
8B1A
331
85BD
  5
85BD
331
88BB
  5
88BB
331
851E
  5
851E
331
915A
  5
915A
331
90E4
  5
90E4
331
9123
  5
9123
331
9199
  5
9199
331
9162
  5
9162
331
90EC
  5
90EC
331
90B5
  5
90B5
331
912B
  5
912B
331
91A1
  5
91A1
331
91E0
  5
91E0
331
916A
  5
916A
331
90F4
  5
90F4
331
90BD
  5
90BD
331
9133
  5
9133
331
91A9
  5
91A9
331
91E8
  5
91E8
331
9172
  5
9172
331
90FC
  5
90FC
331
8B22
  5
8B22
331
85C5
  5
85C5
331
88C3
  5
88C3
331
8586
  5
8586
331
8B2A
  5
8B2A
331
85CD
  5
85CD
331
858E
  5
858E
331
8B32
  5
8B32
331
85D5
  5
85D5
331
8834
  5
8834
331
8596
  5
8596
331
8B3A
  5
8B3A
331
859E
  5
859E
331
91F0
  5
91F0
331
917A
  5
917A
331
9104
  5
9104
331
90C5
  5
90C5
331
913B
  5
913B
331
91B1
  5
91B1
331
91F8
  5
91FE
331
9182
  5
9182
331
910C
  5
910C
331
90CD
  5
90CD
331
9143
  5
9143
331
91B9
  5
91B9
331
91C1
  5
91C1
331
914B
  5
914B
331
90D5
  5
90D5
331
9114
  5
9114
331
918A
  5
918A
331
9153
  5
9153
331
90DD
  5
90DD
331
911C
  5
911C
331
9192
  5
9192
331
8B42
  5
8B42
331
85A6
  5
85A6
331
8B4A
  5
8B4A
331
8B0B
  5
8B0B
331
88AC
  5
88AC
331
83E7
  5
83E7
331
85AE
  5
85AE
331
8765
  5
8765
331
8B52
  5
8B52
331
8B13
  5
8B13
331
88B4
  5
88B4
331
85B6
  5
85B6
331
8B1B
  5
8B1B
331
85BE
  5
85BE
331
88BC
  5
88BC
331
915B
  5
915B
331
90E5
  5
90E5
331
9124
  5
9124
331
919A
  5
919A
331
9163
  5
9163
331
90ED
  5
90ED
331
90B6
  5
90B6
331
912C
  5
912C
331
91A2
  5
91A2
331
916B
  5
916B
331
90F5
  5
90F5
331
90BE
  5
90BE
331
9134
  5
9134
331
91AA
  5
91AA
331
91E9
  5
91E9
331
9173
  5
9173
331
90FD
  5
90FD
331
8B23
  5
8B23
331
85C6
  5
85C6
331
88C4
  5
88C4
331
8587
  5
8587
331
8B2B
  5
8B2B
331
85CE
  5
85CE
331
858F
  5
858F
331
8B33
  5
8B33
331
85D6
  5
85D6
331
8835
  5
8835
331
8597
  5
8597
331
8B3B
  5
8B3B
331
859F
  5
859F
331
91F1
  5
91F1
331
917B
  5
917B
331
9105
  5
9105
331
90C6
  5
90C6
331
913C
  5
913C
331
91B2
  5
91B2
331
91F9
  5
91FF
331
9183
  5
9183
331
910D
  5
910D
331
90CE
  5
90CE
331
9144
  5
9144
331
91BA
  5
91BA
331
91C2
  5
91C2
331
914C
  5
914C
331
90D6
  5
90D6
331
9115
  5
9115
331
918B
  5
918B
331
9154
  5
9154
331
90DE
  5
90DE
331
911D
  5
911D
331
9193
  5
9193
331
8B43
  5
8B43
331
8B04
  5
8B04
331
85A7
  5
85A7
331
8B4B
  5
8B4B
331
8B0C
  5
8B0C
331
88AD
  5
88AD
331
85AF
  5
85AF
331
8766
  5
8766
331
8B53
  5
8B53
331
8B14
  5
8B14
331
88B5
  5
88B5
331
85B7
  5
85B7
331
8B1C
  5
8B1C
331
88BD
  5
88BD
331
85BF
  5
85BF
331
87C6
  5
87C6
331
91D2
  5
91D2
331
915C
  5
915C
331
90E6
  5
90E6
331
9125
  5
9125
331
919B
  5
919B
331
9164
  5
9164
331
90EE
  5
90EE
331
90B7
  5
90B7
331
912D
  5
912D
331
91A3
  5
91A3
331
916C
  5
916C
331
90F6
  5
90F6
331
90BF
  5
90BF
331
9135
  5
9135
331
91AB
  5
91AB
331
91EA
  5
91EA
331
9174
  5
9174
331
90FE
  5
90FE
331
8B24
  5
8B24
331
85C7
  5
85C7
331
88C5
  5
88C5
331
8588
  5
8588
331
8B2C
  5
8B2C
331
85CF
  5
85CF
331
8590
  5
8590
331
8B34
  5
8B34
331
85D7
  5
85D7
331
8836
  5
8836
331
8598
  5
8598
331
8B3C
  5
8B3C
331
917C
  5
917C
331
9106
  5
9106
331
90C7
  5
90C7
331
913D
  5
913D
331
91B3
  5
91B3
331
91FA
  5
91FC
331
9184
  5
9184
331
910E
  5
910E
331
90CF
  5
90CF
331
9145
  5
9145
331
914D
  5
914D
331
90D7
  5
90D7
331
9116
  5
9116
331
918C
  5
918C
331
91CB
  5
91CB
331
9155
  5
9155
331
90DF
  5
90DF
331
911E
  5
911E
331
9194
  5
9194
331
85A0
  5
85A0
331
8B44
  5
8B44
331
8B05
  5
8B05
331
85A8
  5
85A8
331
8B4C
  5
8B4C
331
8B0D
  5
8B0D
331
88AE
  5
88AE
331
85B0
  5
85B0
331
8767
  5
8767
331
8B54
  5
8B54
331
8B15
  5
8B15
331
88B6
  5
88B6
331
85B8
  5
85B8
331
8B1D
  5
8B1D
331
88BE
  5
88BE
331
87C7
  5
87C7
331
91D3
  5
91D3
331
915D
  5
915D
331
90E7
  5
90E7
331
90B0
  5
90B0
331
9126
  5
9126
331
919C
  5
919C
331
9165
  5
9165
331
90B8
  5
90B8
331
90EF
  5
90EF
331
912E
  5
912E
331
91A4
  5
91A4
331
916D
  5
916D
331
90F7
  5
90F7
331
9136
  5
9136
331
91AC
  5
91AC
331
91EB
  5
91EB
331
9175
  5
9175
331
90FF
  5
90FF
331
85C0
  5
85C0
331
8B25
  5
8B25
331
85C8
  5
85C8
331
88C6
  5
88C6
331
8589
  5
8589
331
8B2D
  5
8B2D
331
85D0
  5
85D0
331
8591
  5
8591
331
8B35
  5
8B35
331
8837
  5
8837
331
8599
  5
8599
331
8B3D
  5
8B3D
331
90C0
  5
90C0
331
91F3
  5
91F3
331
917D
  5
917D
331
9107
  5
9107
331
90C8
  5
90C8
331
913E
  5
913E
331
91B4
  5
91B4
331
91FB
  5
91F9
331
9185
  5
9185
331
90D0
  5
90D0
331
910F
  5
910F
331
9146
  5
9146
331
91C4
  5
91C4
331
914E
  5
914E
331
90D8
  5
90D8
331
9117
  5
9117
331
918D
  5
918D
331
9156
  5
9156
331
911F
  5
911F
331
9195
  5
9195
331
85A1
  5
85A1
331
85D8
  5
85D8
331
8B45
  5
8B45
331
8B06
  5
8B06
331
85A9
  5
85A9
331
88A7
  5
88A7
331
8B4D
  5
8B4D
331
8B0E
  5
8B0E
331
88AF
  5
88AF
331
85B1
  5
85B1
331
8B55
  5
8B55
331
8B16
  5
8B16
331
88B7
  5
88B7
331
85B9
  5
85B9
331
8BE5
  5
8BE5
331
8B1E
  5
8B1E
331
88BF
  5
88BF
331
90E0
  5
90E0
331
91D4
  5
91D4
331
915E
  5
915E
331
90E8
  5
90E8
331
90B1
  5
90B1
331
9127
  5
9127
331
919D
  5
919D
331
9166
  5
9166
331
90F0
  5
90F0
331
90B9
  5
90B9
331
912F
  5
912F
331
91A5
  5
91A5
331
916E
  5
916E
331
90F8
  5
90F8
331
9137
  5
9137
331
91AD
  5
91AD
331
91EC
  5
91EC
331
9176
  5
9176
331
85C1
  5
85C1
331
87C8
  5
87C8
331
8582
  5
8582
331
8B26
  5
8B26
331
88C7
  5
88C7
331
85C9
  5
85C9
331
858A
  5
858A
331
87D8
  5
87D8
331
8B2E
  5
8B2E
331
85D1
  5
85D1
331
8830
  5
8830
331
8592
  5
8592
331
8B36
  5
8B36
331
8987
  5
8987
331
859A
  5
859A
331
8838
  5
8838
331
8B3E
  5
8B3E
331
9100
  5
9100
331
90C1
  5
90C1
331
91F4
  5
91F6
331
917E
  5
917E
331
9108
  5
9108
331
90C9
  5
90C9
331
913F
  5
913F
331
91B5
  5
91B5
331
91FC
  5
91F4
331
9186
  5
9186
331
90D1
  5
90D1
331
9110
  5
9110
331
9147
  5
9147
331
91BD
  5
91BD
331
91C5
  5
91C5
331
914F
  5
914F
331
90D9
  5
90D9
331
9118
  5
9118
331
918E
  5
918E
331
91CD
  5
91CD
331
9157
  5
9157
331
9196
  5
9196
331
85A2
  5
85A2
331
85D9
  5
85D9
331
88A8
  5
88A8
331
85AA
  5
85AA
331
8B46
  5
8B46
331
8B4E
  5
8B4E
331
88B0
  5
88B0
331
85B2
  5
85B2
331
83EB
  5
83EB
331
8B0F
  5
8B0F
331
8B56
  5
8B56
331
88B8
  5
88B8
331
85BA
  5
85BA
331
8B17
  5
8B17
331
8B1F
  5
8B1F
331
90E1
  5
90E1
331
9120
  5
9120
331
915F
  5
915F
331
90E9
  5
90E9
331
90B2
  5
90B2
331
9128
  5
9128
331
919E
  5
919E
331
90F1
  5
90F1
331
90BA
  5
90BA
331
9130
  5
9130
331
9167
  5
9167
331
91A6
  5
91A6
331
91E5
  5
91E5
331
916F
  5
916F
331
90F9
  5
90F9
331
91AE
  5
91AE
331
91ED
  5
91ED
331
9177
  5
9177
331
88C0
  5
88C0
331
85C2
  5
85C2
331
8583
  5
8583
331
87C9
  5
87C9
331
88C8
  5
88C8
331
85CA
  5
85CA
331
858B
  5
858B
331
87D9
  5
87D9
331
8B27
  5
8B27
331
85D2
  5
85D2
331
8831
  5
8831
331
8593
  5
8593
331
8B2F
  5
8B2F
331
859B
  5
859B
331
8839
  5
8839
331
8B37
  5
8B37
331
8B3F
  5
8B3F
331
9101
  5
9101
331
90C2
  5
90C2
331
9138
  5
9138
331
91F5
  5
91F7
331
917F
  5
917F
331
9109
  5
9109
331
90CA
  5
90CA
331
9140
  5
9140
331
91B6
  5
91B6
331
9148
  5
9148
331
90D2
  5
90D2
331
9111
  5
9111
331
9187
  5
9187
331
91BE
  5
91BE
331
91C6
  5
91C6
331
9150
  5
9150
331
90DA
  5
90DA
331
9119
  5
9119
331
918F
  5
918F
331
9197
  5
9197
331
85A3
  5
85A3
331
85DA
  5
85DA
331
88A9
  5
88A9
331
85AB
  5
85AB
331
8B47
  5
8B47
331
8B4F
  5
8B4F
331
88B1
  5
88B1
331
85B3
  5
85B3
331
83EC
  5
83EC
331
8B10
  5
8B10
331
8B57
  5
8B57
331
85BB
  5
85BB
331
88B9
  5
88B9
331
8B18
  5
8B18
331
9158
  5
9158
331
90E2
  5
90E2
331
9121
  5
9121
331
91D6
  5
91D6
331
9160
  5
9160
331
90EA
  5
90EA
331
90B3
  5
90B3
331
9129
  5
9129
331
919F
  5
919F
331
91DE
  5
91DE
331
91A7
  5
91A7
331
9168
  5
9168
331
90F2
  5
90F2
331
90BB
  5
90BB
331
9131
  5
9131
331
9170
  5
9170
331
90FA
  5
90FA
331
91AF
  5
91AF
331
91EE
  5
91EE
331
88C1
  5
88C1
331
85C3
  5
85C3
331
8584
  5
8584
331
87CA
  5
87CA
331
8B20
  5
8B20
331
88C9
  5
88C9
331
85CB
  5
85CB
331
858C
  5
858C
331
8B28
  5
8B28
331
85D3
  5
85D3
331
8594
  5
8594
331
8832
  5
8832
331
8B30
  5
8B30
331
859C
  5
859C
331
883A
  5
883A
331
8B38
  5
8B38
  0
SORTENTSTABLE
  5
8D7C
102
{ACAD_REACTORS
330
8D7B
102
}
330
8D7B
100
AcDbSortentsTable
330
8D3F
  0
SORTENTSTABLE
  5
91DB
102
{ACAD_REACTORS
330
91DA
102
}
330
91DA
100
AcDbSortentsTable
330
91D8
  0
DIMASSOC
  5
9283
102
{ACAD_REACTORS
330
927B
102
}
330
927B
100
AcDbDimAssoc
330
9270
 90
        3
 70
     0
 71
     0
  1
AcDbOsnapPointRef
 72
    13
331
926E
 73
     2
 91
        0
 40
0.0
 10
0.0
 20
0.0
 30
2.000000000000000E+50
 75
     0
  1
AcDbOsnapPointRef
 72
    13
331
9263
 73
     2
 91
        0
 40
0.0
 10
0.0
 20
0.0
 30
2.000000000000000E+50
 75
     0
  0
DIMASSOC
  5
9297
102
{ACAD_REACTORS
330
928F
102
}
330
928F
100
AcDbDimAssoc
330
9284
 90
        1
 70
     0
 71
     0
  1
AcDbOsnapPointRef
 72
    13
331
926E
 73
     2
 91
        0
 40
0.0
 10
0.0
 20
0.0
 30
2.000000000000000E+50
 75
     0
  0
LAYOUT
  5
1E
102
{ACAD_XDICTIONARY
360
7D4
102
}
102
{ACAD_REACTORS
330
1A
102
}
330
1A
100
AcDbPlotSettings
  1

  2
Bullzip PDF Printer
  4
A3
  6

 40
3.174999952316284
 41
3.174999952316284
 42
3.17498779296875
 43
3.17498779296875
 44
297.0530090332031
 45
420.1583251953125
 46
0.0
 47
0.0
 48
6.561544945354853
 49
3.282189374834842
140
416.7133315898103
141
290.5875349075164
142
1.0
143
1.0
 70
   672
 72
     1
 73
     1
 74
     4
  7
RINTAL 1.10.ctb
 75
    16
147
25.4
 76
     0
 77
     2
 78
   300
148
-6.561544945354853
149
-3.282189374834842
100
AcDbLayout
  1
Layout1
 70
     0
 71
     1
 10
3.386557152386103
 20
0.1071894225185588
 11
423.5448823476986
 21
297.1601984557217
 12
0.0
 22
0.0
 32
0.0
 14
6.561544945354853
 24
3.282189374834842
 34
0.0
 15
416.7133315898103
 25
290.5875349075164
 35
0.0
146
0.0
 13
0.0
 23
0.0
 33
0.0
 16
1.0
 26
0.0
 36
0.0
 17
0.0
 27
1.0
 37
0.0
 76
     0
330
1B
331
7CA
1001
ACAD_PSEXT
1000
Bullzip PDF Printer
1000
Bullzip PDF Printer
1000
BULLZIP
1000
Bullzip PDF Printer 7.2.0.1338
1070
     0
  0
LAYOUT
  5
22
102
{ACAD_REACTORS
330
1A
102
}
330
1A
100
AcDbPlotSettings
  1

  2
none_device
  4
Letter_(8.50_x_11.00_Inches)
  6

 40
6.349999904632568
 41
6.349999904632568
 42
6.350006103515625
 43
6.350006103515625
 44
215.8999938964844
 45
279.3999938964844
 46
0.0
 47
0.0
 48
0.0
 49
0.0
140
0.0
141
0.0
142
1.0
143
2.235225962523674
 70
 11952
 72
     0
 73
     1
 74
     0
  7

 75
     0
147
0.4473820619329929
 76
     0
 77
     2
 78
   300
148
129.1604552902913
149
23.34575558701931
100
AcDbLayout
  1
Model
 70
     1
 71
     0
 10
0.0
 20
0.0
 11
12.0
 21
9.0
 12
0.0
 22
0.0
 32
0.0
 14
1.000000000000000E+20
 24
1.000000000000000E+20
 34
1.000000000000000E+20
 15
-1.000000000000000E+20
 25
-1.000000000000000E+20
 35
-1.000000000000000E+20
146
0.0
 13
0.0
 23
0.0
 33
0.0
 16
1.0
 26
0.0
 36
0.0
 17
0.0
 27
1.0
 37
0.0
 76
     0
330
1F
331
29
1001
ACAD_PSEXT
1000
Brak
1000
Brak
1000
Nie można zastosować.
1000
Arkusz nie zostanie wydrukowany dopóki nie wybrano konfiguracji plotera.
1070
     0
  0
MATERIAL
  5
3D
102
{ACAD_XDICTIONARY
360
9306
102
}
102
{ACAD_REACTORS
330
3B
102
}
330
3B
100
AcDbMaterial
  1
ByBlock
 73
     1
 78
     1
172
     1
176
     1
270
     1
274
     1
  0
MATERIAL
  5
3C
102
{ACAD_XDICTIONARY
360
9304
102
}
102
{ACAD_REACTORS
330
3B
102
}
330
3B
100
AcDbMaterial
  1
ByLayer
 73
     1
 78
     1
172
     1
176
     1
270
     1
274
     1
  0
MATERIAL
  5
3E
102
{ACAD_XDICTIONARY
360
9308
102
}
102
{ACAD_REACTORS
330
3B
102
}
330
3B
100
AcDbMaterial
  1
Global
 73
     1
 78
     1
172
     1
176
     1
270
     1
274
     1
  0
MLEADERSTYLE
  5
8C8B
102
{ACAD_REACTORS
330
489
102
}
330
489
100
AcDbMLeaderStyle
170
     2
171
     1
172
     0
 90
        2
 40
0.0
 41
0.0
173
     1
 91
-1056964608
340
14
 92
       -2
290
     1
 42
0.09
291
     1
 43
0.36
  3
Standard
 44
0.18
300

342
11
174
     1
178
     6
175
     1
176
     0
 93
-1056964608
 45
0.18
292
     0
297
     0
 46
0.18
 94
-1056964608
 47
1.0
 49
1.0
140
1.0
293
     1
141
0.0
294
     1
177
     0
142
1.0
295
     0
296
     0
143
0.125
1001
ACAD_MLEADERVER
1070
     2
  0
MLINESTYLE
  5
18
102
{ACAD_REACTORS
330
17
102
}
330
17
100
AcDbMlineStyle
  2
STANDARD
 70
     0
  3

 62
   256
 51
90.0
 52
90.0
 71
     2
 49
0.5
 62
   256
  6
BYLAYER
 49
-0.5
 62
   256
  6
BYLAYER
  0
ACDBPLACEHOLDER
  5
F
102
{ACAD_REACTORS
330
E
102
}
330
E
  0
SCALE
  5
8C6A
102
{ACAD_REACTORS
330
8C69
102
}
330
8C69
100
AcDbScale
 70
     0
300
1:1
140
1.0
141
1.0
290
     1
  0
SCALE
  5
8C6B
102
{ACAD_REACTORS
330
8C69
102
}
330
8C69
100
AcDbScale
 70
     0
300
1:2
140
1.0
141
2.0
290
     0
  0
SCALE
  5
8C6C
102
{ACAD_REACTORS
330
8C69
102
}
330
8C69
100
AcDbScale
 70
     0
300
1:4
140
1.0
141
4.0
290
     0
  0
SCALE
  5
8C6D
102
{ACAD_REACTORS
330
8C69
102
}
330
8C69
100
AcDbScale
 70
     0
300
1:5
140
1.0
141
5.0
290
     0
  0
SCALE
  5
8C6E
102
{ACAD_REACTORS
330
8C69
102
}
330
8C69
100
AcDbScale
 70
     0
300
1:8
140
1.0
141
8.0
290
     0
  0
SCALE
  5
8C6F
102
{ACAD_REACTORS
330
8C69
102
}
330
8C69
100
AcDbScale
 70
     0
300
1:10
140
1.0
141
10.0
290
     0
  0
SCALE
  5
8C70
102
{ACAD_REACTORS
330
8C69
102
}
330
8C69
100
AcDbScale
 70
     0
300
1:16
140
1.0
141
16.0
290
     0
  0
SCALE
  5
8C71
102
{ACAD_REACTORS
330
8C69
102
}
330
8C69
100
AcDbScale
 70
     0
300
1:20
140
1.0
141
20.0
290
     0
  0
SCALE
  5
8C72
102
{ACAD_REACTORS
330
8C69
102
}
330
8C69
100
AcDbScale
 70
     0
300
1:30
140
1.0
141
30.0
290
     0
  0
SCALE
  5
8C73
102
{ACAD_REACTORS
330
8C69
102
}
330
8C69
100
AcDbScale
 70
     0
300
1:40
140
1.0
141
40.0
290
     0
  0
SCALE
  5
8C74
102
{ACAD_REACTORS
330
8C69
102
}
330
8C69
100
AcDbScale
 70
     0
300
1:50
140
1.0
141
50.0
290
     0
  0
SCALE
  5
8C75
102
{ACAD_REACTORS
330
8C69
102
}
330
8C69
100
AcDbScale
 70
     0
300
1:100
140
1.0
141
100.0
290
     0
  0
SCALE
  5
8C76
102
{ACAD_REACTORS
330
8C69
102
}
330
8C69
100
AcDbScale
 70
     0
300
2:1
140
2.0
141
1.0
290
     0
  0
SCALE
  5
8C77
102
{ACAD_REACTORS
330
8C69
102
}
330
8C69
100
AcDbScale
 70
     0
300
4:1
140
4.0
141
1.0
290
     0
  0
SCALE
  5
8C78
102
{ACAD_REACTORS
330
8C69
102
}
330
8C69
100
AcDbScale
 70
     0
300
8:1
140
8.0
141
1.0
290
     0
  0
SCALE
  5
8C79
102
{ACAD_REACTORS
330
8C69
102
}
330
8C69
100
AcDbScale
 70
     0
300
10:1
140
10.0
141
1.0
290
     0
  0
SCALE
  5
8C7A
102
{ACAD_REACTORS
330
8C69
102
}
330
8C69
100
AcDbScale
 70
     0
300
100:1
140
100.0
141
1.0
290
     0
  0
SCALE
  5
8C7B
102
{ACAD_REACTORS
330
8C69
102
}
330
8C69
100
AcDbScale
 70
     0
300
1/128" = 1'-0"
140
0.0078125
141
12.0
290
     0
  0
SCALE
  5
8C7C
102
{ACAD_REACTORS
330
8C69
102
}
330
8C69
100
AcDbScale
 70
     0
300
1/64" = 1'-0"
140
0.015625
141
12.0
290
     0
  0
SCALE
  5
8C7D
102
{ACAD_REACTORS
330
8C69
102
}
330
8C69
100
AcDbScale
 70
     0
300
1/32" = 1'-0"
140
0.03125
141
12.0
290
     0
  0
SCALE
  5
8C7E
102
{ACAD_REACTORS
330
8C69
102
}
330
8C69
100
AcDbScale
 70
     0
300
1/16" = 1'-0"
140
0.0625
141
12.0
290
     0
  0
SCALE
  5
8C7F
102
{ACAD_REACTORS
330
8C69
102
}
330
8C69
100
AcDbScale
 70
     0
300
3/32" = 1'-0"
140
0.09375
141
12.0
290
     0
  0
SCALE
  5
8C80
102
{ACAD_REACTORS
330
8C69
102
}
330
8C69
100
AcDbScale
 70
     0
300
1/8" = 1'-0"
140
0.125
141
12.0
290
     0
  0
SCALE
  5
8C81
102
{ACAD_REACTORS
330
8C69
102
}
330
8C69
100
AcDbScale
 70
     0
300
3/16" = 1'-0"
140
0.1875
141
12.0
290
     0
  0
SCALE
  5
8C82
102
{ACAD_REACTORS
330
8C69
102
}
330
8C69
100
AcDbScale
 70
     0
300
1/4" = 1'-0"
140
0.25
141
12.0
290
     0
  0
SCALE
  5
8C83
102
{ACAD_REACTORS
330
8C69
102
}
330
8C69
100
AcDbScale
 70
     0
300
3/8" = 1'-0"
140
0.375
141
12.0
290
     0
  0
SCALE
  5
8C84
102
{ACAD_REACTORS
330
8C69
102
}
330
8C69
100
AcDbScale
 70
     0
300
1/2" = 1'-0"
140
0.5
141
12.0
290
     0
  0
SCALE
  5
8C85
102
{ACAD_REACTORS
330
8C69
102
}
330
8C69
100
AcDbScale
 70
     0
300
3/4" = 1'-0"
140
0.75
141
12.0
290
     0
  0
SCALE
  5
8C86
102
{ACAD_REACTORS
330
8C69
102
}
330
8C69
100
AcDbScale
 70
     0
300
1" = 1'-0"
140
1.0
141
12.0
290
     0
  0
SCALE
  5
8C87
102
{ACAD_REACTORS
330
8C69
102
}
330
8C69
100
AcDbScale
 70
     0
300
1-1/2" = 1'-0"
140
1.5
141
12.0
290
     0
  0
SCALE
  5
8C88
102
{ACAD_REACTORS
330
8C69
102
}
330
8C69
100
AcDbScale
 70
     0
300
3" = 1'-0"
140
3.0
141
12.0
290
     0
  0
SCALE
  5
8C89
102
{ACAD_REACTORS
330
8C69
102
}
330
8C69
100
AcDbScale
 70
     0
300
6" = 1'-0"
140
6.0
141
12.0
290
     0
  0
SCALE
  5
8C8A
102
{ACAD_REACTORS
330
8C69
102
}
330
8C69
100
AcDbScale
 70
     0
300
1'-0" = 1'-0"
140
12.0
141
12.0
290
     0
  0
TABLESTYLE
  5
4BB
102
{ACAD_XDICTIONARY
360
8CA0
102
}
102
{ACAD_REACTORS
330
4BA
102
}
330
4BA
100
AcDbTableStyle
  3
Standard
 70
     0
 71
     0
 40
0.06
 41
0.06
280
     0
281
     0
  7
Standard
140
0.18
170
     2
 62
     0
 63
     7
283
     0
274
    -2
284
     1
 64
     0
275
    -2
285
     1
 65
     0
276
    -2
286
     1
 66
     0
277
    -2
287
     1
 67
     0
278
    -2
288
     1
 68
     0
279
    -2
289
     1
 69
     0
  7
Standard
140
0.25
170
     5
 62
     0
 63
     7
283
     0
274
    -2
284
     1
 64
     0
275
    -2
285
     1
 65
     0
276
    -2
286
     1
 66
     0
277
    -2
287
     1
 67
     0
278
    -2
288
     1
 68
     0
279
    -2
289
     1
 69
     0
  7
Standard
140
0.18
170
     5
 62
     0
 63
     7
283
     0
274
    -2
284
     1
 64
     0
275
    -2
285
     1
 65
     0
276
    -2
286
     1
 66
     0
277
    -2
287
     1
 67
     0
278
    -2
288
     1
 68
     0
279
    -2
289
     1
 69
     0
  0
VISUALSTYLE
  5
2F
102
{ACAD_XDICTIONARY
360
49A
102
}
102
{ACAD_REACTORS
330
2A
102
}
330
2A
100
AcDbVisualStyle
  2
2dWireframe
 70
     4
 71
     0
 72
     2
 73
     0
 90
        0
 40
-0.6
 41
-30.0
 62
     5
 63
     7
 74
     1
 91
        4
 64
     7
 65
   257
 75
     1
175
     1
 42
1.0
 92
        0
 66
   257
 43
1.0
 76
     1
 77
     6
 78
     2
 67
     7
 79
     5
170
     0
171
     0
290
     0
174
     0
 93
        1
 44
0.0
173
     0
291
     0
 45
0.0
1001
ACAD
1000
AcDbSavedByObjectVersion
1070
     0
  0
VISUALSTYLE
  5
A47
102
{ACAD_REACTORS
330
2A
102
}
330
2A
100
AcDbVisualStyle
  2
3D Hidden
 70
     6
 71
     1
 72
     2
 73
     2
 90
        0
 40
-0.6
 41
-30.0
 62
     5
 63
     7
 74
     2
 91
        2
 64
     7
 65
   257
 75
     2
175
     1
 42
40.0
 92
        0
 66
   257
 43
1.0
 76
     1
 77
     6
 78
     2
 67
     7
 79
     3
170
     0
171
     0
290
     0
174
     0
 93
        1
 44
0.0
173
     0
291
     0
 45
0.0
1001
ACAD
1000
AcDbSavedByObjectVersion
1070
     0
  0
VISUALSTYLE
  5
A48
102
{ACAD_XDICTIONARY
360
A49
102
}
102
{ACAD_REACTORS
330
2A
102
}
330
2A
100
AcDbVisualStyle
  2
3dWireframe
 70
     5
 71
     0
 72
     2
 73
     0
 90
        0
 40
-0.6
 41
-30.0
 62
     5
 63
     7
 74
     1
 91
        4
 64
     7
 65
   257
 75
     1
175
     1
 42
1.0
 92
        0
 66
   257
 43
1.0
 76
     1
 77
     6
 78
     2
 67
     7
 79
     5
170
     0
171
     0
290
     0
174
     0
 93
        1
 44
0.0
173
     0
291
     0
 45
0.0
1001
ACAD
1000
AcDbSavedByObjectVersion
1070
     0
  0
VISUALSTYLE
  5
32
102
{ACAD_XDICTIONARY
360
4A0
102
}
102
{ACAD_REACTORS
330
2A
102
}
330
2A
100
AcDbVisualStyle
  2
Basic
 70
     7
 71
     1
 72
     0
 73
     1
 90
        0
 40
-0.6
 41
-30.0
 62
     5
 63
     7
 74
     0
 91
        4
 64
     7
 65
   257
 75
     1
175
     1
 42
1.0
 92
        8
 66
     7
 43
1.0
 76
     1
 77
     6
 78
     2
 67
     7
 79
     5
170
     0
171
     0
290
     0
174
     0
 93
        1
 44
0.0
173
     0
291
     1
 45
0.0
1001
ACAD
1000
AcDbSavedByObjectVersion
1070
     0
  0
VISUALSTYLE
  5
36
102
{ACAD_XDICTIONARY
360
4A8
102
}
102
{ACAD_REACTORS
330
2A
102
}
330
2A
100
AcDbVisualStyle
  2
Brighten
 70
    12
 71
     2
 72
     2
 73
     0
 90
        0
 40
-0.6
 41
-30.0
 62
     5
 63
     7
 74
     1
 91
        4
 64
     7
 65
   257
 75
     1
175
     1
 42
1.0
 92
        8
 66
     7
 43
1.0
 76
     1
 77
     6
 78
     2
 67
     7
 79
     5
170
     0
171
     0
290
     0
174
     0
 93
        1
 44
50.0
173
     0
291
     1
 45
0.0
1001
ACAD
1000
AcDbSavedByObjectVersion
1070
     0
  0
VISUALSTYLE
  5
3A
102
{ACAD_XDICTIONARY
360
4B0
102
}
102
{ACAD_REACTORS
330
2A
102
}
330
2A
100
AcDbVisualStyle
  2
ColorChange
 70
    16
 71
     2
 72
     2
 73
     3
 90
        0
 40
-0.6
 41
-30.0
 62
     5
 63
     8
 74
     1
 91
        4
 64
     7
 65
   257
 75
     1
175
     1
 42
1.0
 92
        8
 66
     8
 43
1.0
 76
     1
 77
     6
 78
     2
 67
     7
 79
     5
170
     0
171
     0
290
     0
174
     0
 93
        1
 44
0.0
173
     0
291
     1
 45
0.0
1001
ACAD
1000
AcDbSavedByObjectVersion
1070
     0
  0
VISUALSTYLE
  5
A4B
102
{ACAD_REACTORS
330
2A
102
}
330
2A
100
AcDbVisualStyle
  2
Conceptual
 70
     9
 71
     3
 72
     2
 73
     0
 90
        0
 40
-0.6
 41
-30.0
 62
     5
 63
     7
 74
     2
 91
        2
 64
     7
 65
   257
 75
     1
175
     1
 42
40.0
 92
        8
 66
     7
 43
1.0
 76
     1
 77
     6
 78
     2
 67
     7
 79
     3
170
     0
171
     0
290
     0
174
     0
 93
        1
 44
0.0
173
     0
291
     0
 45
0.0
1001
ACAD
1000
AcDbSavedByObjectVersion
1070
     0
  0
VISUALSTYLE
  5
35
102
{ACAD_XDICTIONARY
360
4A6
102
}
102
{ACAD_REACTORS
330
2A
102
}
330
2A
100
AcDbVisualStyle
  2
Dim
 70
    11
 71
     2
 72
     2
 73
     0
 90
        0
 40
-0.6
 41
-30.0
 62
     5
 63
     7
 74
     1
 91
        4
 64
     7
 65
   257
 75
     1
175
     1
 42
1.0
 92
        8
 66
     7
 43
1.0
 76
     1
 77
     6
 78
     2
 67
     7
 79
     5
170
     0
171
     0
290
     0
174
     0
 93
        1
 44
-50.0
173
     0
291
     1
 45
0.0
1001
ACAD
1000
AcDbSavedByObjectVersion
1070
     0
  0
VISUALSTYLE
  5
39
102
{ACAD_XDICTIONARY
360
4AE
102
}
102
{ACAD_REACTORS
330
2A
102
}
330
2A
100
AcDbVisualStyle
  2
Facepattern
 70
    15
 71
     2
 72
     2
 73
     0
 90
        0
 40
-0.6
 41
-30.0
 62
     5
 63
     7
 74
     1
 91
        4
 64
     7
 65
   257
 75
     1
175
     1
 42
1.0
 92
        8
 66
     7
 43
1.0
 76
     1
 77
     6
 78
     2
 67
     7
 79
     5
170
     0
171
     0
290
     0
174
     0
 93
        1
 44
0.0
173
     0
291
     1
 45
0.0
1001
ACAD
1000
AcDbSavedByObjectVersion
1070
     0
  0
VISUALSTYLE
  5
2B
102
{ACAD_XDICTIONARY
360
492
102
}
102
{ACAD_REACTORS
330
2A
102
}
330
2A
100
AcDbVisualStyle
  2
Flat
 70
     0
 71
     2
 72
     1
 73
     1
 90
        2
 40
-0.6
 41
30.0
 62
     5
 63
     7
 74
     0
 91
        4
 64
     7
 65
   257
 75
     1
175
     1
 42
1.0
 92
        8
 66
     7
 43
1.0
 76
     1
 77
     6
 78
     2
 67
     7
 79
     5
170
     0
171
     0
290
     0
174
     0
 93
       13
 44
0.0
173
     0
291
     1
 45
0.0
1001
ACAD
1000
AcDbSavedByObjectVersion
1070
     0
  0
VISUALSTYLE
  5
2C
102
{ACAD_XDICTIONARY
360
494
102
}
102
{ACAD_REACTORS
330
2A
102
}
330
2A
100
AcDbVisualStyle
  2
FlatWithEdges
 70
     1
 71
     2
 72
     1
 73
     1
 90
        2
 40
-0.6
 41
30.0
 62
     5
 63
     7
 74
     1
 91
        4
 64
     7
 65
   257
 75
     1
175
     1
 42
1.0
 92
        0
 66
   257
 43
1.0
 76
     1
 77
     6
 78
     2
 67
     7
 79
     5
170
     0
171
     0
290
     0
174
     0
 93
       13
 44
0.0
173
     0
291
     1
 45
0.0
1001
ACAD
1000
AcDbSavedByObjectVersion
1070
     0
  0
VISUALSTYLE
  5
2D
102
{ACAD_XDICTIONARY
360
496
102
}
102
{ACAD_REACTORS
330
2A
102
}
330
2A
100
AcDbVisualStyle
  2
Gouraud
 70
     2
 71
     2
 72
     2
 73
     1
 90
        2
 40
-0.6
 41
30.0
 62
     5
 63
     7
 74
     0
 91
        4
 64
     7
 65
   257
 75
     1
175
     1
 42
1.0
 92
        0
 66
     7
 43
1.0
 76
     1
 77
     6
 78
     2
 67
     7
 79
     5
170
     0
171
     0
290
     0
174
     0
 93
       13
 44
0.0
173
     0
291
     1
 45
0.0
1001
ACAD
1000
AcDbSavedByObjectVersion
1070
     0
  0
VISUALSTYLE
  5
2E
102
{ACAD_XDICTIONARY
360
498
102
}
102
{ACAD_REACTORS
330
2A
102
}
330
2A
100
AcDbVisualStyle
  2
GouraudWithEdges
 70
     3
 71
     2
 72
     2
 73
     1
 90
        2
 40
-0.6
 41
30.0
 62
     5
 63
     7
 74
     1
 91
        4
 64
     7
 65
   257
 75
     1
175
     1
 42
1.0
 92
        0
 66
   257
 43
1.0
 76
     1
 77
     6
 78
     2
 67
     7
 79
     5
170
     0
171
     0
290
     0
174
     0
 93
       13
 44
0.0
173
     0
291
     1
 45
0.0
1001
ACAD
1000
AcDbSavedByObjectVersion
1070
     0
  0
VISUALSTYLE
  5
38
102
{ACAD_XDICTIONARY
360
4AC
102
}
102
{ACAD_REACTORS
330
2A
102
}
330
2A
100
AcDbVisualStyle
  2
Linepattern
 70
    14
 71
     2
 72
     2
 73
     0
 90
        0
 40
-0.6
 41
-30.0
 62
     5
 63
     7
 74
     1
 91
        4
 64
     7
 65
   257
 75
     7
175
     7
 42
1.0
 92
        8
 66
     7
 43
1.0
 76
     1
 77
     6
 78
     2
 67
     7
 79
     5
170
     0
171
     0
290
     0
174
     0
 93
        1
 44
0.0
173
     0
291
     1
 45
0.0
1001
ACAD
1000
AcDbSavedByObjectVersion
1070
     0
  0
VISUALSTYLE
  5
A4C
102
{ACAD_XDICTIONARY
360
A4D
102
}
102
{ACAD_REACTORS
330
2A
102
}
330
2A
100
AcDbVisualStyle
  2
Realistic
 70
     8
 71
     2
 72
     2
 73
     0
 90
        0
 40
-0.6
 41
-30.0
 62
     5
 63
     7
 74
     1
 91
        0
 64
     7
 65
   257
 75
     1
175
     1
 42
1.0
 92
        8
 66
     8
 43
1.0
 76
     1
 77
     6
 78
     2
 67
     7
 79
     5
170
     0
171
     0
290
     0
174
     0
 93
       13
 44
0.0
173
     0
291
     0
 45
0.0
1001
ACAD
1000
AcDbSavedByObjectVersion
1070
     0
  0
VISUALSTYLE
  5
37
102
{ACAD_XDICTIONARY
360
4AA
102
}
102
{ACAD_REACTORS
330
2A
102
}
330
2A
100
AcDbVisualStyle
  2
Thicken
 70
    13
 71
     2
 72
     2
 73
     0
 90
        0
 40
-0.6
 41
-30.0
 62
     5
 63
     7
 74
     1
 91
        4
 64
     7
 65
   257
 75
     1
175
     1
 42
1.0
 92
       12
 66
     7
 43
1.0
 76
     1
 77
     6
 78
     2
 67
     7
 79
     5
170
     0
171
     0
290
     0
174
     0
 93
        1
 44
0.0
173
     0
291
     1
 45
0.0
1001
ACAD
1000
AcDbSavedByObjectVersion
1070
     0
  0
DICTIONARYVAR
  5
8CA5
102
{ACAD_REACTORS
330
487
102
}
330
487
100
DictionaryVariables
280
     0
  1
1:1
  0
DICTIONARYVAR
  5
8CA3
102
{ACAD_REACTORS
330
487
102
}
330
487
100
DictionaryVariables
280
     0
  1
STANDARD
  0
DICTIONARYVAR
  5
5FE
102
{ACAD_REACTORS
330
487
102
}
330
487
100
DictionaryVariables
280
     0
  1
STANDARD
  0
DICTIONARYVAR
  5
48A
102
{ACAD_REACTORS
330
487
102
}
330
487
100
DictionaryVariables
280
     0
  1
2
  0
DICTIONARYVAR
  5
48B
102
{ACAD_REACTORS
330
487
102
}
330
487
100
DictionaryVariables
280
     0
  1
1
  0
DICTIONARYVAR
  5
86B
102
{ACAD_REACTORS
330
487
102
}
330
487
100
DictionaryVariables
280
     0
  1
0
  0
DICTIONARYVAR
  5
8CA6
102
{ACAD_REACTORS
330
487
102
}
330
487
100
DictionaryVariables
280
     0
  1
0
  0
DICTIONARYVAR
  5
8CA4
102
{ACAD_REACTORS
330
487
102
}
330
487
100
DictionaryVariables
280
     0
  1
0
  0
DICTIONARYVAR
  5
86A
102
{ACAD_REACTORS
330
487
102
}
330
487
100
DictionaryVariables
280
     0
  1
127
  0
DICTIONARY
  5
7D4
330
1E
100
AcDbDictionary
280
     1
281
     1
  3
ADSK_XREC_LAYOUTTHUMBNAIL
360
7D5
  0
DICTIONARY
  5
9306
330
3D
100
AcDbDictionary
280
     1
281
     1
  3
ACAD_XREC_ROUNDTRIP
360
9307
  0
DICTIONARY
  5
9304
330
3C
100
AcDbDictionary
280
     1
281
     1
  3
ACAD_XREC_ROUNDTRIP
360
9305
  0
DICTIONARY
  5
9308
330
3E
100
AcDbDictionary
280
     1
281
     1
  3
ACAD_XREC_ROUNDTRIP
360
9309
  0
DICTIONARY
  5
8CA0
330
4BB
100
AcDbDictionary
280
     1
281
     1
  3
ACAD_ROUNDTRIP_2008_TABLESTYLE_CELLSTYLEMAP
360
9303
  3
ACAD_XREC_ROUNDTRIP
360
930A
  0
DICTIONARY
  5
49A
330
2F
100
AcDbDictionary
280
     1
281
     1
  3
ACAD_XREC_ROUNDTRIP
360
49B
  0
DICTIONARY
  5
A49
330
A48
100
AcDbDictionary
280
     1
281
     1
  3
ACAD_XREC_ROUNDTRIP
360
A4A
  0
DICTIONARY
  5
4A0
330
32
100
AcDbDictionary
280
     1
281
     1
  3
ACAD_XREC_ROUNDTRIP
360
4A1
  0
DICTIONARY
  5
4A8
330
36
100
AcDbDictionary
280
     1
281
     1
  3
ACAD_XREC_ROUNDTRIP
360
4A9
  0
DICTIONARY
  5
4B0
330
3A
100
AcDbDictionary
280
     1
281
     1
  3
ACAD_XREC_ROUNDTRIP
360
4B1
  0
DICTIONARY
  5
4A6
330
35
100
AcDbDictionary
280
     1
281
     1
  3
ACAD_XREC_ROUNDTRIP
360
4A7
  0
DICTIONARY
  5
4AE
330
39
100
AcDbDictionary
280
     1
281
     1
  3
ACAD_XREC_ROUNDTRIP
360
4AF
  0
DICTIONARY
  5
492
330
2B
100
AcDbDictionary
280
     1
281
     1
  3
ACAD_XREC_ROUNDTRIP
360
493
  0
DICTIONARY
  5
494
330
2C
100
AcDbDictionary
280
     1
281
     1
  3
ACAD_XREC_ROUNDTRIP
360
495
  0
DICTIONARY
  5
496
330
2D
100
AcDbDictionary
280
     1
281
     1
  3
ACAD_XREC_ROUNDTRIP
360
497
  0
DICTIONARY
  5
498
330
2E
100
AcDbDictionary
280
     1
281
     1
  3
ACAD_XREC_ROUNDTRIP
360
499
  0
DICTIONARY
  5
4AC
330
38
100
AcDbDictionary
280
     1
281
     1
  3
ACAD_XREC_ROUNDTRIP
360
4AD
  0
DICTIONARY
  5
A4D
330
A4C
100
AcDbDictionary
280
     1
281
     1
  3
ACAD_XREC_ROUNDTRIP
360
A4E
  0
DICTIONARY
  5
4AA
330
37
100
AcDbDictionary
280
     1
281
     1
  3
ACAD_XREC_ROUNDTRIP
360
4AB
  0
XRECORD
  5
7D5
102
{ACAD_REACTORS
330
7D4
102
}
330
7D4
100
AcDbXrecord
280
     1
310
28000000B40000007F00000001000800000000004C59000000000000000000000001000000000000FFFFFF0000000000FFFFFF000000000000000000000000000000000000000000000000000000000000000000330000006600000099000000CC000000FF00000000330000333300006633000099330000CC330000FF3300
310
0000660000336600006666000099660000CC660000FF66000000990000339900006699000099990000CC990000FF99000000CC000033CC000066CC000099CC0000CCCC0000FFCC000000FF000033FF000066FF000099FF0000CCFF0000FFFF000000003300330033006600330099003300CC003300FF003300003333003333
310
33006633330099333300CC333300FF33330000663300336633006666330099663300CC663300FF66330000993300339933006699330099993300CC993300FF99330000CC330033CC330066CC330099CC3300CCCC3300FFCC330000FF330033FF330066FF330099FF3300CCFF3300FFFF330000006600330066006600660099
310
006600CC006600FF00660000336600333366006633660099336600CC336600FF33660000666600336666006666660099666600CC666600FF66660000996600339966006699660099996600CC996600FF99660000CC660033CC660066CC660099CC6600CCCC6600FFCC660000FF660033FF660066FF660099FF6600CCFF6600
310
FFFF660000009900330099006600990099009900CC009900FF00990000339900333399006633990099339900CC339900FF33990000669900336699006666990099669900CC669900FF66990000999900339999006699990099999900CC999900FF99990000CC990033CC990066CC990099CC9900CCCC9900FFCC990000FF99
310
0033FF990066FF990099FF9900CCFF9900FFFF99000000CC003300CC006600CC009900CC00CC00CC00FF00CC000033CC003333CC006633CC009933CC00CC33CC00FF33CC000066CC003366CC006666CC009966CC00CC66CC00FF66CC000099CC003399CC006699CC009999CC00CC99CC00FF99CC0000CCCC0033CCCC0066CC
310
CC0099CCCC00CCCCCC00FFCCCC0000FFCC0033FFCC0066FFCC0099FFCC00CCFFCC00FFFFCC000000FF003300FF006600FF009900FF00CC00FF00FF00FF000033FF003333FF006633FF009933FF00CC33FF00FF33FF000066FF003366FF006666FF009966FF00CC66FF00FF66FF000099FF003399FF006699FF009999FF00CC
310
99FF00FF99FF0000CCFF0033CCFF0066CCFF0099CCFF00CCCCFF00FFCCFF0000FFFF0033FFFF0066FFFF0099FFFF00CCFFFF00FFFFFF00000000000D0D0D001A1A1A00282828003535350043434300505050005D5D5D006B6B6B00787878008686860093939300A1A1A100AEAEAE00BBBBBB00C9C9C900D6D6D600E4E4E400
310
F1F1F100FFFFFF0000000000000000000000000000000000000000000000000000000000000000000000000000000000E2E2E2E2E2E2E2E2E2E2E2E2E2E2E2E2E2E2E2E2E2E2E2E2E2E2E2E2E2E2E2E2E2E2E2E2E2E2E2E2E2E2E2E2E2E2E2E2E2E2E2E2E2E2E2E2E2E2E2E2E2E2E2E2E2E2E2E2E2E2E2E2E2E2E2E2E2E2E2
310
E2E2E2E2E2E2E2E2E2E2E2E2E2E2E2E2E2E2E2E2E2E2E2E2E2E2E2E2E2E2E2E2E2E2E2E2E2E2E2E2E2E2E2E2E2E2E2E2E2E2E2E2E2E2E2E2E2E2E2E2E2E2E2E2E2E2E2E2E2E2E2E2E2E2E2E2E2E2E2E2E2E2E2E2E2E2E2E2E2E2E2E2E2E2E2E2E2E2E2E2EFE2E2E2E2E2E2E2E2E2E2E2E2E2E2E2E2E2E2E2E2E2E2E2E2E2E2
310
E2E2E2E2E2E2E2E2E2E2E2E2E2E2E2E2E2E2E2E2E2E2E2E2E2E2E2E2E2E2E2E2E2E2E2E2E2E2E2E2E2E2E2E2E2E2E2E2E2E2E2E2E2E2E2E2E2E2E2E2E2E2E2E2E2E2E2E2E2E2E2E2E2E2E2E2E2E2E2E2E2E2E2E2E2E2E2E2E2E2E2E2E2E2E2E2E2E2E2E2E2E2E2E2E2E2E2E2E2E2E2E2E2E2E2E2E2E2E2E2E2E2E2E2E2E2E2
310
E2E2E2E2E2E2E2E2E2E2E2E2E2E2E2E2E2E2E2E2E2E2E2E2E2E2EFE2E2F5F5F5F5F5F5F5F5F5F5F5F5F5F5F5F5F5F5F5F5F5F5F5F5F5F5F5F5F5F5F5F5F5F5F5F5F5F5F5F5F5F5F5F5F5F5F5F5F5F5F5F5F5F5F5F5F5F5F5F5F5F5F5F5F5F5F5F5F5F5F5F5F5F5F5F5F5F5F5F5F5F5F5F5F5F5F5F5F5F5F5F5F5F5F5F5F5F5
310
F5F5F5F5F5F5F5F5F5F5F5F5F5F5F5F5F5F5F5F5F5F5F5F5F5F5F5F5F5F5F5F5F5F5F5F5F5F5F5F5F5F5F5F5F5F5F5F5F5F5F5F5F5F5F5F5F5F5F5F5F5F5F5F5F5F5F5F5F5F5F5F5F5F5F5E2E2E2E2EFE2E2F5F5F5F5F5F5F5F5F5F5F5F5F5F5F5F5F5F5F5F5F5F5F5F5F5F5F5F5F5F5F5F5F5F5F5F5F5F5F5F5F5F5F5F5F5
310
F5F5F5F5F5F5F5F5F5F5F5F5F5F5F5F5F5F5F5F5F5F5F5F5F5F5F5F5F5F5F5F5F5F5F5F5F5F5F5F5F5F5F5F5F5F5F5F5F5F5F5F5F5F5F5F5F5F5F5F5F5F5F5F5F5F5F5F5F5F5F5F5F5F5F5F5F5F5F5F5F5F5F5F5F5F5F5F5F5F5F5F5F5F5F5F5F5F5F5F5F5F5F5F5F5F5F5F5F5F5F5F5F5F5F5F5F5F5F5F5F5F5F5F5F5F5F5
310
F5E2E2E2E2EFE2E2F5F5F5F5F5F5F5F5F5F5F5F5F5F5F5F5F5F5F5F5F5F5F5F5F5F5F5F5F5F5F5F5F5F5F5F5F5F5F5F5F5F5F5F5F5F5F5F5F5F5F5F5F5F5F5F5F5F5F5F5F5F5F5F5F5F5F5F5F5F5F5F5F5F5F5F5F5F5F5F5F5F5F5F5F5F5F5F5F5F5F5F5F5F5F5F5F5F5F5F5F5F5F5F5F5F5F5F5F5F5F5F5F5F5F5F5F5F5F5
310
F5F5F5F5F5F5F5F5F5F5F5F5F5F5F5F5F5F5F5F5F5F5F5F5F5F5F5F5F5F5F5F5F5F5F5F5F5F5F5F5F5F5F5F5F5F5F5F5F5F5F5F5F5F5E2E2E2E2EFE2E2F5F5F5F5F5F5F5F5F5F5F5F5F5F5F5F5F5F5F5F5F5F5F5F5F5F5F5F5F5F5F5F5F5F5F5F5F5F5F5F5F5F5F5F5F5F5F5F5F5F5F5F5F5F5F5F5F5F5F5F5F5F5F5F5F5F5
310
F5F5F5F5F5F5F5F5F5F5F5F5F5F5F5F5F5F5F5F5F5F5F5F5F5F5F5F5F5F5F5F5F5F5F5F5F5F5F5F5F5F5F5F5F5F5F5F5F5F5F5F5F5F5F5F5F5F5F5F5F5F5F5F5F5F5F5F5F5F5F5F5F5F5F5F5F5F5F5F5F5F5F5F5F5F5F5F5F5F5F5F5F5F5F5F5F5F5F5F5F5F5F5F5F5F5F5E2E2E2E2EFE2E2F5F5F5F5F5F5F5F5F5F5F5F5F5
310
F5F5F5F5F5F5F5F5F5F5F5F5F5F5F5F5F5F5F5F5F5F5F5F5F5F5F5F5F5F5F5F5F5F5F5F5F5F5F5F5F5F5F5F5F5F5F5F5F5F5F5F5F5F5F5F5F5F5F5F5F5F5F5F5F5F5F5F5F5F5F5F5F5F5F5F5F5F5F5F5F5F5F5F5F5F5F5F5F5F5F5F5F5F5F5F5F5F5F5F5F5F5F5F5F5F5F5F5F5F5F5F5F5F5F5F5F5F5F5F5F5F5F5F5F5F5F5
310
F5F5F5F5F5F5F5F5F5F5F5F5F5F5F5F5F5F5F5F5F5F5F5F5F5F5F5F5F5F5F5F5F5E2E2E2E2EFE2E2F5F5F5F5F5F5F5F5F5F5F5F5F5F5F5F5F5F5F5F5F5F5F5F5F5F5F5F5F5F5F5F5F5F5F5F5F5F5F5F5F5F5F5F5F5F5F5F5F5F5F5F5F5F5F5F5F5F5F5F5F5F5F5F5F5F5F5F5F5F5F5F5F5F5F5F5F5F5F5F5F5F5F5F5F5F5F5
310
F5F5F5F5F5F5F5F5F5F5F5F5F5F5F5F5F5F5F5F5F5F5F5F5F5F5F5F5F5F5F5F5F5F5F5F5F5F5F5F5F5F5F5F5F5F5F5F5F5F5F5F5F5F5F5F5F5F5F5F5F5F5F5F5F5F5F5F5F5F5F5F5F5F5F5F5F5F5F5F5F5F5F5F5F5F5E2E2E2E2EFE2E2F5F5F5F5F5F5F5F5F5F5F5F5F5F5F5F5F5F5F5F5F5F5F5F5F5F5F5F5F5F5F5F5F5F5
310
F5F5F5F5F5F5F5F5F5F5F5F5F5F5F5F5F5F5F5F5F5F5F5F5F5F5F5F5F5F5F5F5F5F5F5F5F5F5F5F5F5F5F5F5F5F5F5F5F5F5F5F5F5F5F5F5F5F5F5F5F5F5F5F5F5F5F5F5F5F5F5F5F5F5F5F5F5F5F5F5F5F5F5F5F5F5F5F5F5F5F5F5F5F5F5F5F5F5F5F5F5F5F5F5F5F5F5F5F5F5F5F5F5F5F5F5F5F5F5F5F5F5F5F5F5F5F5
310
F5F5F5F5F5F5F5F5F5F5F5F5E2E2E2E2EFE2E2F5F5F5F5F5F5F5F5F5F5F5F5F5F5F5F5F5F5F5F5F5F5F5F5F5F5F5F5F5F5F5F5F5F5F5F5F5F5F5F5F5F5F5F5F5F5F5F5F5F5F5F5F5F5F5F5F5F5F5F5F5F5F5F5F5F5F5F5F5F5F5F5F5F5F5F5F5F5F5F5F5F5F5F5F5F5F5F5F5F5F5F5F5F5F5F5F5F5F5F5F5F5F5F5F5F5F5F5
310
F5F5F5F5F5F5F5F5F5F5F5F5F5F5F5F5F5F5F5F5F5F5F5F5F5F5F5F5F5F5F5F5F5F5F5F5F5F5F5F5F5F5F5F5F5F5F5F5F5F5F5F5F5F5F5F5F5F5F5F5F5F5F5F5F5E2F5E2E2EFE2E2F5F5F5F5F5F5F5F5F5F5F5F5F5F5F5F5F5F5F5F5F5F5F5F5F5F5F5F5F5F5F5F5F5F5F5F5F5F5F5F5F5F5F5F5F5F5F5F5F5F5F5F5F5F5F5
310
F5F5F5F5F5F5F5F5F5F5F5F5F5F5F5F5F5F5F5F5F5F5F5F5F5F5F5F5F5F5F5F5F5F5F5F5F5F5F5F5F5F5F5F5F5F5F5F5F5F5F5F5F5F5F5F5F5F5F5F5F5F5F5F5F5F5F5F5F5F5F5F5F5F5F5F5F5F5F5F5F5F5F5F5F5F5F5F5F5F5F5F5F5F5F5F5F5F5F5F5F5F5F5F5F5F5F5F5F5F5F5F5F5F5F5F5F5F5E2F5E2E2EFE2E2F5F5
310
F5F5F5F5F5F5F5F5F5F5F5F5F5F5F5F5F5F5F5F5F5F5F5F5F5F5F5F5F5F5F5F5F5F5F5F5F5F5F5F5F5F5F5F5F5F5F5F5F5F5F5F5F5F5F5F5F5F5F5F5F5F5F5F5F5F5F5F5F5F5F5F5F5F5F5F5F5F5F5F5F5F5F5F5F5F5F5F5F5F5F5F5F5F5F5F5F5F5F5F5F5F5F5F5F5F5F5F5F5F5F5F5F5F5F5F5F5F5F5F5F5F5F5F5F5F5F5
310
F5F5F5F5F5F5F5F5F5F5F5F5F5F5F5F5F5F5F5F5F5F5F5F5F5F5F5F5F5F5F5F5F5F5F5F5F5F5F5F5F5F5F5F5E2F5E2E2EFE2E2F5F5F5F5F5F5F5F5F5F5F5F5F5F5F5F5F5F5F5F5F5F5F5F5F5F5F5F5F5F5F5F5F5F5F5F5F5F5F5F5F5F5F5F5F5F5F5F5F5F5F5F5F5F5F5F5F5F5F5F5F5F5F5F5F5F5F5F5F5F5F5F5F5F5F5F5
310
F5F5F5F5F5F5F5F5F5F5F5F5F5F5F5F5F5F5F5F5F5F5F5F5F5F5F5F5F5F5F5F5F5F5F5F5F5F5F5F5F5F5F5F5F5F5F5F5F5F5F5F5F5F5F5F5F5F5F5F5F5F5F5F5F5F5F5F5F5F5F5F5F5F5F5F5F5F5F5F5F5F5F5F5F5F5F5F5F5F5F5F5F5F5F5F5F5E2F5E2E2EFE2E2F5F5F5F5F5F5F5F5F5F5F5F5F5F5F5F5F5F5F5F5F5F5F5
310
F5F5F5F5F5F5F5F5F5F5F5F5F5F5F5F5F5F5F5F5F5F5F5F5F5F5F5F5F5F5F5F5F5F5F5F5F5F5F5F5F5F5F5F5F5F5F5F5F5F5F5F5F5F5F5F5F5F5F5F5F5F5F5F5F5F5F5F5F5F5F5F5F5F5F5F5F5F5F5F5F5F5F5F5F5F5F5F5F5F5F5F5F5F5F5F5F5F5F5F5F5F5F5F5F5F5F5F5F5F5F5F5F5F5F5F5F5F5F5F5F5F5F5F5F5F5F5
310
F5F5F5F5F5F5F5F5F5F5F5F5F5F5F5F5F5F5F5F5F5F5F5E2F5E2E2EFE2E2F5F5F5F5F5F5F5F5F5F5F5F5F5F5F5F5F5F5F5F5F5F5F5F5F5F5F5F5F5F5F5F5F5F5F5F5F5F5F5F5F5F5F5F5F5F5F5F5F5F5F5F5F5F5F5F5F5F5F5F5F5F5F5F5F5F5F5F5F5F5F5F5F5F5F5F5F5F5F5F5F5F5F5F5F5F5F5F5F5F5F5F5F5F5F5F5F5
310
F5F5F5F5F5F5F5F5F5F5F5F5F5F5F5F5F5F5F5F5F5F5F5F5F5F5F5F5F5F5F5F5F5F5F5F5F5F5F5F5F5F5F5F5F5F5F5F5F5F5F5F5F5F5F5F5F5F5F5F5F5F5F5F5F5F5F5F5F5F5F5F5F5F5F5F5E2F5E2E2EFE2E2F5F5F5F5F5F5F5F5F5F5F5F5F5F5F5F5F5F5F5F5F5F5F5F5F5F5F5F5F5F5F5F5F5F5F5F5F5F5F5F5F5F5F5F5
310
F5F5F5F5F5F5F5F5F5F5F5F5F5F5F5F5F5F5F5F5F5F5F5F5F5F5F5F5F5F5F5F5F5F5F5F5F5F5F5F5F5F5F5F5F5F5F5F5F5F5F5F5F5F5F5F5F5F5F5F5F5F5F5F5F5F5F5F5F5F5F5F5F5F5F5F5F5F5F5F5F5F5F5F5F5F5F5F5F5F5F5F5F5F5F5F5F5F5F5F5F5F5F5F5F5F5F5F5F5F5F5F5F5F5F5F5F5F5F5F5F5F5F5F5F5F5F5
310
F5F5E2F5E2E2EFE2E2F5F5F5F5F5F5F5F5F5F5F5F5F5F5F5F5F5F5F5F5F5F5F5F5F5F5F5F5F5F5F5F5F5F5F5F5F5F5F5F5F5F5F5F5F5F5F5F5F5F5F5F5F5F5F5F5F5F5F5F5F5F5F5F5F5F5F5F5F5F5F5F5F5F5F5F5F5F5F5F5F5F5F5F5F5F5F5F5F5F5F5F5F5F5F5F5F5F5F5F5F5F5F5F5F5F5F5F5F5F5F5F5F5F5F5F5F5F5
310
F5F5F5F5F5F5F5F5F5F5F5F5F5F5F5F5F5F5F5F5F5F5F5F5F5F5F5F5F5F5F5F5F5F5F5F5F5F5F5F5F5F5F5F5F5F5F5F5F5F5F5F5F5F5F5E2F5E2E2EFE2E2F5F5F5F5F5F5F5F5F5F5F5F5F5F5F5F5F5F5F5F5F5F5F5F5F5F5F5F5F5F5F5F5F5F5F5F5F5F5F5F5F5F5F5F5F5F5F5F5F5F5F5F5F5F5F5F5F5F5F5F5F5F5F5F5F5
310
F5F5F5F5F5F5F5F5F5F5F5F5F5F5F5F5F5F5F5F5F5F5F5F5F5F5F5F5F5F5F5F5F5F5F5F5F5F5F5F5F5F5F5F5F5F5F5F5F5F5F5F5F5F5F5F5F5F5F5F5F5F5F5F5F5F5F5F5F5F5F5F5F5F5F5F5F5F5F5F5F5F5F5F5F5F5F5F5F5F5F5F5F5F5F5F5F5F5F5F5F5F5F5F5F5F5F5F5E2F5E2E2EFE2E2F5F5F5F5F5F5F5F5F5F5F5F5
310
F5F5F5F5F5F5F5F5F5F5F5F5F5F5F5F5F5F5F5F5F5F5F5F5F5F5F5F5F5F5F5F5F5F5F5F5F5F5F5F5F5F5F5F5F5F5F5F5F5F5F5F5F5F5F5F5F5F5F5F5F5F5F5F5F5F5F5F5F5F5F5F5F5F5F5F5F5F5F5F5F5F5F5F5F5F5F5F5F5F5F5F5F5F5F5F5F5F5F5F5F5F5F5F5F5F5F5F5F5F5F5F5F5F5F5F5F5F5F5F5F5F5F5F5F5F5F5
310
F5F5F5F5F5F5F5F5F5F5F5F5F5F5F5F5F5F5F5F5F5F5F5F5F5F5F5F5F5F5F5F5F5F5E2E2E2E2EFE2E2F5F5F5F5F5F5F5F5F5F5F5F5F5F5F5F5F5F5F5F5F5F5F5F5F5F5F5F5F5F5F5F5F5F5F5F5F5F5F5F5F5F5F5F5F5F5F5F5F5F5F5F5F5F5F5F5F5F5F5F5F5F5F5F5F5F5F5F5F5F5F5F5F5F5F5F5F5F5F5F5F5F5F5F5F5F5
310
F5F5F5F5F5F5F5F5F5F5F5F5F5F5F5F5F5F5F5F5F5F5F5F5F5F5F5F5F5F5F5F5F5F5F5F5F5F5F5F5F5F5F5F5F5F5F5F5F5F5F5F5F5F5F5F5F5F5F5F5F5F5F5F5F5F5F5F5F5F5F5F5F5F5F5F5F5F5F5F5F5F5F5F5F5F5F5E2E2E2E2EFE2E2F5F5F5F5F5F5F5F5F5F5F5F5F5F5F5F5F5F5F5F5F5F5F5F5F5F5F5F5F5F5F5F5F5
310
F5F5F5F5F5F5F5F5F5F5F5F5F5F5F5F5F5F5F5F5F5F5F5F5F5F5F5F5F5F5F5F5F5F5F5F5F5F5F5F5F5F5F5F5F5F5F5F5F5F5F5F5F5F5F5F5F5F5F5F5F5F5F5F5F5F5F5F5F5F5F5F5F5F5F5F5F5F5F5F5F5F5F5F5F5F5F5F5F5F5F5F5F5F5F5F5F5F5F5F5F5F5F5F5F5F5F5F5F5F5F5F5F5F5F5F5F5F5F5F5F5F5F5F5F5F5F5
310
F5F5F5F5F5F5F5F5F5F5F5F5F5E2E2E2E2EFE2E2F5F5F5F5F5F5F5F5F5F5F5F5F5F5F5F5F5F5F5F5F5F5F5F5F5F5F5F5F5F5F5F5F5F5F5F5F5F5F5F5F5F5F5F5F5F5F5F5F5F5F5F5F5F5F5F5F5F5F5F5F5F5F5F5F5F5F5F5F5F5F5F5F5F5F5F5F5F5F5F5F5F5F5F5F5F5F5F5F5F5F5F5F5F5F5F5F5F5F5F5F5F5F5F5F5F5F5
310
F5F5F5F5F5F5F5F5F5F5F5F5F5F5F5F5F5F5F5F5F5F5F5F5F5F5F5F5F5F5F5F5F5F5F5F5F5F5F5F5F5F5F5F5F5F5F5F5F5F5F5F5F5F5F5F5F5F5F5F5F5F5F5F5F5F5E2E2E2E2EFE2E2F5F5F5F5F5F5F5F5F5F5F5F5F5F5F5F5F5F5F5F5F5F5F5F5F5F5F5F5F5F5F5F5F5F5F5F5F5F5F5F5F5F5F5F5F5F5F5F5F5F5F5F5F5F5
310
F5F5F5F5F5F5F5F5F5F5F5F5F5F5F5F5F5F5F5F5F5F5F5F5F5F5F5F5F5F5F5F5F5F5F5F5F5F5F5F5F5F5F5F5F5F5F5F5F5F5F5F5F5F5F5F5F5F5F5F5F5F5F5F5F5F5F5F5F5F5F5F5F5F5F5F5F5F5F5F5F5F5F5F5F5F5F5F5F5F5F5F5F5F5F5F5F5F5F5F5F5F5F5F5F5F5F5F5F5F5F5F5F5F5F5F5F5F5F5E2E2E2E2EFE2E2F5
310
F5F5F5F5F5F5F5F5F5F5F5F5F5F5F5F5F5F5F5F5F5F5F5F5F5F5F5F5F5F5F5F5F5F5F5F5F5F5F5F5F5F5F5F5F5F5F5F5F5F5F5F5F5F5F5F5F5F5F5F5F5F5F5F5F5F5F5F5F5F5F5F5F5F5F5F5F5F5F5F5F5F5F5F5F5F5F5F5F5F5F5F5F5F5F5F5F5F5F5F5F5F5F5F5F5F5F5F5F5F5F5F5F5F5F5F5F5F5F5F5F5F5F5F5F5F5F5
310
F5F5F5F5F5F5F5F5F5F5F5F5F5F5F5F5F5F5F5F5F5F5F5F5F5F5F5F5F5F5F5F5F5F5F5F5F5F5F5F5F5F5F5F5F5E2E2E2E2EFE2E2F5F5F5F5F5F5F5F5F5F5F5F5F5F5F5F5F5F5F5F5F5F5F5F5F5F5F5F5F5F5F5F5F5F5F5F5F5F5F5F5F5F5F5F5F5F5F5F5F5F5F5F5F5F5F5F5F5F5F5F5F5F5F5F5F5F5F5F5F5F5F5F5F5F5F5
310
F5F5F5F5F5F5F5F5F5F5F5F5F5F5F5F5F5F5F5F5F5F5F5F5F5F5F5F5F5F5F5F5F5F5F5F5F5F5F5F5F5F5F5F5F5F5F5F5F5F5F5F5F5F5F5F5F5F5F5F5F5F5F5F5F5F5F5F5F5F5F5F5F5F5F5F5F5F5F5F5F5F5F5F5F5F5F5F5F5F5F5F5F5F5F5F5F5F5E2E2E2E2EFE2E2F5F5F5F5F5F5F5F5F5F5F5F5F5F5F5F5F5F5F5F5F5F5
310
F5F5F5F5F5F5F5F5F5F5F5F5F5F5F5F5F5F5F5F5F5F5F5F5F5F5F5F5F5F5F5F5F5F5F5F5F5F5F5F5F5F5F5F5F5F5F5F5F5F5F5F5F5F5F5F5F5F5F5F5F5F5F5F5F5F5F5F5F5F5F5F5F5F5F5F5F5F5F5F5F5F5F5F5F5F5F5F5F5F5F5F5F5F5F5F5F5F5F5F5F5F5F5F5F5F5F5F5F5F5F5F5F5F5F5F5F5F5F5F5F5F5F5F5F5F5F5
310
F5F5F5F5F5F5F5F5F5F5F5F5F5F5F5F5F5F5F5F5F5F5F5F5E2E2E2E2EFE2E2F5F5F5F5F5F5F5F5F5F5F5F5F5F5F5F5F5F5F5F5F5F5F5F5F5F5F5F5F5F5F5F5F5F5F5F5F5F5F5F5F5F5F5F5F5F5F5F5F5F5F5F5F5F5F5F5F5F5F5F5F5F5F5F5F5F5F5F5F5F5F5F5F5F5F5F5F5F5F5F5F5F5F5F5F5F5F5F5F5F5F5F5F5F5F5F5
310
F5F5F5F5F5F5F5F5F5F5F5F5F5F5F5F5F5F5F5F5F5F5F5F5F5F5F5F5F5F5F5F5F5F5F5F5F5F5F5F5F5F5F5F5F5F5F5F5F5F5F5F5F5F5F5F5F5F5F5F5F5F5F5F5F5F5F5F5F5F5F5F5F5F5F5F5F5E2E2E2E2EFE2E2F5F5F5F5F5F5F5F5F5F5F5F5F5F5F5F5F5F5F5F5F5F5F5F5F5F5F5F5F5F5F5F5F5F5F5F5F5F5F5F5F5F5F5
310
F5F5F5F5F5F5F5F5F5F5F5F5F5F5F5F5F5F5F5F5F5F5F5F5F5F5F5F5F5F5F5F5F5F5F5F5F5F5F5E2E2E2E2E2E2E2E2E2E2E2E2E2E2E2E2E2E2E2E2E2E2E2E2E2E2E2E2E2E2E2F5F5F5F5F5F5F5F5F5F5F5F5F5F5F5F5F5F5F5F5F5F5F5F5F5F5F5F5F5F5F5F5F5F5F5F5F5F5F5F5F5F5F5F5F5F5F5F5F5F5F5F5F5F5F5F5F5
310
F5F5F5E2E2E2E2EFE2E2F5F5F5F5F5F5F5F5F5F5F5F5F5F5F5F5F5F5F5F5F5F5F5F5F5F5F5F5F5F5F5F5F5F5F5F5F5F5F5F5F5F5F5F5F5F5F5F5F5F5F5F5F5F5F5F5F5F5F5F5F5F5F5F5F5F5F5F5F5F5F5F5F5F5F5F5F5F5F5F5F5F5E2E2E2E2E2E2E2E2E2E2E2E2E2E2E2E2E2E2E2E2E2E2E2E2E2E2E2E2E2E2E2F5F5F5F5
310
F5F5F5F5F5F5F5F5F5F5F5F5F5F5F5F5F5F5F5F5F5F5F5F5F5F5F5F5F5F5F5F5F5F5F5F5F5F5F5F5F5F5F5F5F5F5F5F5F5F5F5F5F5F5F5F5E2E2E2E2EFE2E2F5F5F5F5F5F5F5F5F5F5F5F5F5F5F5F5F5F5F5F5F5F5F5F5F5F5F5F5F5F5F5F5F5F5F5F5F5F5F5F5F5F5F5F5F5F5F5F5F5F5F5F5F5F5F5F5F5F5F5F5F5F5F5F5
310
F5F5F5F5F5F5F5F5F5F5F5F5F5F5F5F5F5F5F5F5F5F5F5F5F5F5F5F5F5F5F5F5F5F5F5F5F5F5F5F5F5F5F5F5F5F5F5F5F5F5F5F5F5F5F5F5F5F5F5F5F5F5F5F5F5F5F5F5F5F5F5F5F5F5F5F5F5F5F5F5F5F5F5F5F5F5F5F5F5F5F5F5F5F5F5F5F5F5F5F5F5F5F5F5F5F5F5F5F5E2E2E2E2EFE2E2F5F5F5F5F5F5F5F5F5F5F5
310
F5F5F5F5F5F5F5F5F5F5F5F5F5F5F5F5F5F5F5F5F5F5F5F5F5F5F5F5F5F5F5F5F5F5F5F5F5F5F5F5F5F5F5F5F5F5F5F5F5F5F5F5F5F5F5F5F5F5F5F5F5F5F5F5F5F5F5F5F5F5F5F5F5F5F5F5F5F5F5F5F5F5F5F5F5F5F5F5F5F5F5F5F5F5F5F5F5F5F5F5F5F5F5F5F5F5F5F5F5F5F5F5F5F5F5F5F5F5F5F5F5F5F5F5F5F5F5
310
F5F5F5F5F5F5F5F5F5F5F5F5F5F5F5F5F5F5F5F5F5F5F5F5F5F5F5F5F5F5F5F5F5F5F5E2E2E2E2EFE2E2F5F5F5F5F5F5F5F5F5F5F5F5F5F5F5F5F5F5F5F5F5F5F5F5F5F5F5F5F5F5F5F5F5F5F5F5F5F5F5F5F5F5F5F5F5F5F5F5F5F5F5F5F5F5F5F5F5F5F5F5F5F5F5F5F5F5F5F5F5F5F5F5F5F5F5F5F5F5F5F5F5F5F5F5F5
310
F5F5F5F5F5F5F5F5F5F5F5F5F5F5F5F5F5F5F5F5F5F5F5F5F5F5F5F5F5F5F5F5F5F5F5F5F5F5F5F5F5F5F5F5F5F5F5F5F5F5F5F5F5F5F5F5F5F5F5F5F5F5F5F5F5F5F5F5F5F5F5F5F5F5F5F5F5F5F5F5F5F5F5F5F5F5F5F5E2E2E2E2EFE2E2F5F5F5F5F5F5F5F5F5F5F5F5F5F5F5F5F5F5F5F5F5F5F5F5F5F5F5F5F5F5F5F5
310
F5F5F5F5F5F5F5F5F5F5F5F5F5F5F5F5E2BEF5F5F5F5F5F5F5F5F5F5F5F5F5F5F5F5F5F5F5F5F5F5F5F5F5F5F5F5F5F5F5F5F5F5F5F5F5F5F5F5F5F5F5F5F5F5F5F5F5F5F5F5F5F5F5F5F5F5F5F5F5F5F5F5F5F5F5F5F5F5F5F5F5F5F5F5F5F5F5F5F5F5F5F5F5F5F5F5F5F5F5F5F5F5F5F5F5F5F5F5F5F5F5F5F5F5F5F5F5
310
F5F5F5F5F5F5F5F5F5F5F5F5F5F5E2E2E2E2EFE2E2F5F5F5F5F5F5F5F5F5F5F5F5F5F5F5F5F5F5F5F5F5F5F5F5F5F5F5F5F5F5F5F5F5F5F5F5F5F5F5F5F5F5F5F5F5F5F5BEE2E2F5F5F5F5F5F5F5F5F5F5F5F5F5F5F5F5F5F5F5F5F5F5F5F5F5F5F5F5F5F5F5F5E2E2E2E2E2F5E2E2E2E2E2E2F5E2E2E2E2E2F5E2E2E2E2E2
310
F5E2E2E2E2E2E2F5F5F5F5F5F5F5F5F5F5F5F5F5F5F5F5F5F5F5F5F5F5F5F5F5F5F5F5F5F5F5F5F5F5F5F5F5F5F5F5F5F5F5F5F5F5F5F5F5F5F5F5F5F5F5F5F5F5F5F5E2E2E2E2EFE2E2F5F5F5F5F5F5F5F5F5F5F5F5F5F5F5F5F5F5F5F5F5F5F5F5F5F5F5F5F5F5F5F5F5F5F5F5F5F5F5F5F5F5F5F5F5F5F5F5E2F5F5F5F5
310
F5F5F5F5F5F5F5F5F5F5F5F5F5F5F5F5F5F5F5F5F5F5F5F5F5F5F5F5F5E2F5F5F5F5F5F5F5F5F5F5F5F5F5F5F5F5F5F5F5F5F5F5F5F5F5F5F5F5F5E2F5F5F5F5F5F5F5F5F5F5F5F5F5F5F5F5F5F5F5F5F5F5F5F5F5F5F5F5F5F5F5F5F5F5F5F5F5F5F5F5F5F5F5F5F5F5F5F5F5F5F5F5F5F5F5F5F5F5F5F5E2F5E2E2EFE2E2
310
F5F5F5F5F5F5F5F5F5F5F5F5F5F5F5F5F5F5F5F5F5F5F5F5F5F5F5F5F5F5F5F5F5F5F5F5F5F5F5F5F5F5F5F5F5F5F5F5E2F5F5F5F5F5F5F5F5F5F5F5F5F5F5F5F5F5F5F5F5F5F5F5F5F5F5F5F5F5F5F5F5F5E2F5F5F5F5F5F5F5F5F5F5F5F5F5F5F5F5F5F5F5F5F5F5F5F5F5F5F5F5F5E2F5F5F5F5F5F5F5F5F5F5F5F5F5F5
310
F5F5F5F5F5F5F5F5F5F5F5F5F5F5F5F5F5F5F5F5F5F5F5F5F5F5F5F5F5F5F5F5F5F5F5F5F5F5F5F5F5F5F5F5F5F5E2F5E2E2EFE2E2F5F5F5F5F5F5F5F5F5F5F5F5F5F5F5F5F5F5F5F5F5F5F5F5F5F5F5F5F5F5F5F5F5F5F5F5F5F5F5F5F5F5F5F5F5F5F5F5E2F5F5F5F5F5F5F5F5F5F5F5F5F5F5F5F5F5F5F5F5F5F5F5F5F5
310
F5F5F5F5F5F5F5F5E2F5F5F5F5F5F5F5F5F5F5F5F5F5F5F5F5F5F5F5F5F5F5F5F5F5F5F5F5F5F5F5F5F5F5F5F5F5F5F5F5F5F5F5F5F5F5F5F5F5F5F5F5F5F5F5F5F5F5F5F5F5F5F5F5F5F5F5F5F5F5F5F5F5F5F5F5F5F5F5F5F5F5F5F5F5F5F5F5F5F5E2F5E2E2EFE2E2F5F5F5F5F5F5F5F5F5F5F5F5F5F5F5F5F5F5F5F5F5
310
F5F5F5F5F5F5F5F5F5F5F5F5F5F5F5F5F5F5F5F5F5F5F5F5F5F5F5E2F5F5F5F5F5F5F5E2E2E2F5E2E2E2E2E2E2F5E2E2E2E2E2F5E2E2E2E2E2F5E2E2E2E2F5F5F5F5F5F5F5F5F5F5F5F5F5F5F5F5F5F5F5F5F5F5F5F5F5F5F5F5F5E2F5F5F5F5F5F5F5F5F5F5F5F5F5F5F5F5F5F5F5F5F5F5F5F5F5F5F5F5F5F5F5F5F5F5F5
310
F5F5F5F5F5F5F5F5F5F5F5F5F5F5F5F5F5F5F5F5F5F5F5F5F5E2F5E2E2EFE2E2F5F5F5F5F5F5F5F5F5F5F5F5F5F5F5F5F5F5F5F5F5F5F5F5F5F5F5F5F5F5F5F5F5F5F5F5F5F5F5F5F5F5F5F5F5F5F5F5E2F5F5F5F5F5F5F5E2F5F5F5F5F5F5F5F5F5F5F5F5F5F5F5F5F5F5F5F5F5F5F5F5F5F5F5F5F5F5F5F5F5F5F5F5F5F5
310
F5F5F5F5F5F5F5F5F5F5F5F5F5F5F5F5F5E2F5F5F5F5F5F5F5F5F5F5F5F5F5F5F5F5F5F5F5F5F5F5F5F5F5F5F5F5F5F5F5F5F5F5F5F5F5F5F5F5F5F5F5F5F5F5F5F5F5F5F5F5F5F5F5F5F5F5F5F5E2F5E2E2EFE2E2F5F5F5F5F5F5F5F5F5F5F5F5F5F5F5F5F5F5F5F5F5F5F5F5F5F5F5F5F5F5F5F5F5F5F5F5F5F5F5F5F5F5
310
F5F5F5F5F5F5E2F5F5F5F5F5F5F5E2F5F5F5F5F5F5F5F5F5F5F5F5F5F5F5F5F5F5F5F5F5F5F5F5F5F5F5F5F5F5F5F5F5F5F5F5F5F5F5F5F5F5F5F5F5F5F5F5F5F5F5F5F5F5F5E2F5F5F5F5F5F5F5F5F5F5F5F5F5F5F5F5F5F5F5F5F5F5F5F5F5F5F5F5F5F5F5F5F5F5F5F5F5F5F5F5F5F5F5F5F5F5F5F5F5F5F5F5F5F5F5F5
310
F5F5F5F5E2F5E2E2EFE2E2F5F5F5F5F5F5F5F5F5F5F5F5F5F5F5F5F5F5F5F5F5F5F5F5F5F5F5F5F5F5F5F5F5F5F5F5F5F5F5F5F5F5F5F5F5F5F5F5E2F5F5F5F5F5F5F5F5F5F5F5F5F5F5F5F5F5F5F5F5F5F5F5F5F5F5F5F5F5F5F5F5F5F5F5F5F5F5F5F5F5F5F5F5F5F5F5F5F5F5F5F5F5F5F5F5F5F5F5F5F5F5F5E2F5F5F5
310
F5F5F5F5F5F5F5F5F5F5F5F5F5F5F5F5F5F5F5F5F5F5F5F5F5F5F5F5F5F5F5F5F5F5F5F5F5F5F5F5F5F5F5F5F5F5F5F5F5F5F5F5F5F5F5F5F5E2F5E2E2EFE2E2F5F5F5F5F5F5F5F5F5F5F5F5F5F5F5F5F5F5F5F5F5F5F5F5F5F5F5F5F5F5F5F5F5F5F5F5F5F5F5F5F5F5F5F5F5F5F5F5E2F5F5F5F5F5F5F5E2F5F5F5F5F5F5
310
F5F5F5F5F5F5F5F5F5F5F5F5F5F5F5F5F5F5F5F5F5F5F5F5F5F5F5F5F5F5F5F5F5F5F5F5F5F5F5F5F5F5F5F5F5F5F5F5F5E2F5F5F5F5F5F5F5F5F5F5F5F5F5F5F5F5F5F5F5F5F5F5F5F5F5F5F5F5F5F5F5F5F5F5F5F5F5F5F5F5F5F5F5F5F5F5F5F5F5F5F5F5F5F5F5F5F5F5F5F5E2F5E2E2EFE2E2F5F5F5F5F5F5F5F5F5F5
310
F5F5F5F5F5F5F5F5F5F5F5F5F5F5F5F5F5F5F5F5F5F5F5F5F5F5F5F5F5F5F5F5F5F5F5F5F5F5E2F5F5F5F5F5F5F5E2F5F5F5F5F5F5F5F5F5F5F5F5F5F5F5F5F5F5F5F5F5F5F5F5F5F5F5F5F5F5F5F5F5F5F5F5F5F5F5F5F5F5F5F5F5F5F5F5F5F5F5F5F5F5F5E2F5F5F5F5F5F5F5F5F5F5F5F5F5F5F5F5F5F5F5F5F5F5F5F5
310
F5F5F5F5F5F5F5F5F5F5F5F5F5F5F5F5F5F5F5F5F5F5F5F5F5F5F5F5F5F5F5F5F5F5F5F5E2F5E2E2EFE2E2F5F5F5F5F5F5F5F5F5F5F5F5F5F5F5F5F5F5F5F5F5F5F5F5F5F5F5F5F5F5F5F5F5F5F5F5F5F5F5F5F5F5F5F5F5F5F5F5E2F5F5F5F5F5F5F5E2F5F5F5F5F5F5F5F5F5F5F5F5F5F5F5F5F5F5F5F5F5F5F5F5F5F5F5
310
F5F5F5F5F5F5F5F5F5F5F5F5F5F5F5F5F5F5F5F5F5F5F5F5F5F5F5F5F5F5F5F5F5F5F5F5F5F5F5F5F5F5F5F5F5F5F5F5F5F5F5F5F5F5F5F5F5F5F5F5F5F5F5F5F5F5F5F5F5F5F5F5F5F5F5F5F5F5F5F5F5F5F5F5F5F5F5F5F5E2E2E2E2EFE2E2F5F5F5F5F5F5F5F5F5F5F5F5F5F5F5F5F5F5F5F5F5F5F5F5F5F5F5F5F5F5F5
310
F5F5F5F5F5F5F5F5F5F5F5F5F5F5F5F5F5E2F5F5F5F5F5F5F5E2F5F5F5F5F5F5F5F5F5F5F5F5F5F5F5F5F5F5F5F5F5F5F5F5F5F5F5F5F5F5F5F5F5F5F5F5F5F5F5F5F5F5F5F5F5F5F5F5F5F5F5F5F5F5F5E2F5F5F5F5F5F5F5F5F5F5F5F5F5F5F5F5F5F5F5F5F5F5F5F5F5F5F5F5F5F5F5F5F5F5F5F5F5F5F5F5F5F5F5F5F5
310
F5F5F5F5F5F5F5F5F5F5F5F5F5F5F5E2E2E2E2EFE2E2F5F5F5F5F5F5F5F5F5F5F5F5F5F5F5F5F5F5F5F5F5F5F5F5F5F5F5F5F5F5F5F5F5F5F5F5F5F5F5F5F5F5F5F5F5F5F5F5E2F5F5F5F5F5F5F5E2F5F5F5F5F5F5F5F5F5F5F5F5F5F5F5F5F5F5F5F5F5F5F5F5F5F5F5F5F5F5F5F5F5F5F5F5F5F5F5F5F5F5F5F5F5F5F5F5
310
F5F5F5F5F5F5F5E2F5F5F5F5F5F5F5F5F5F5F5F5F5F5F5F5F5F5F5F5F5F5F5F5F5F5F5F5F5F5F5F5F5F5F5F5F5F5F5F5F5F5F5F5F5F5F5F5F5F5F5F5F5F5F5F5F5F5F5F5E2E2E2E2EFE2E2F5F5F5F5F5F5F5F5F5F5F5F5F5F5F5F5F5F5F5F5F5F5F5F5F5F5F5F5F5F5F5F5F5F5F5F5F5F5F5F5F5F5F5F5F5F5F5F5E2F5F5F5
310
F5F5F5F5F5F5F5F5F5F5F5F5F5F5F5F5F5F5F5F5F5F5F5F5F5F5F5F5F5F5F5F5F5F5F5F5F5F5F5F5F5F5F5F5F5F5F5F5F5F5F5F5F5F5F5F5F5F5F5F5E2F5F5F5F5F5F5F5F5F5F5F5F5F5F5F5F5F5F5F5F5F5F5F5F5F5F5F5F5F5F5F5F5F5F5F5F5F5F5F5F5F5F5F5F5F5F5F5F5F5F5F5F5F5F5F5F5F5F5F5F5E2E2E2E2EFE2
310
E2F5F5F5F5F5F5F5F5F5F5F5F5F5F5F5F5F5F5F5F5F5F5F5F5F5F5F5F5F5F5F5F5F5F5F5F5F5F5F5F5F5F5F5F5F5F5F5F5E2F5F5F5F5F5F5F5E2F5F5F5F5F5F5F5F5F5F5F5F5F5F5F5F5F5F5F5F5F5F5F5F5F5F5F5F5F5F5F5F5F5F5F5F5F5F5F5F5F5F5F5F5F5F5F5F5F5F5F5F5F5F5F5E2F5F5F5F5F5F5F5F5F5F5F5F5F5
310
F5F5F5F5F5F5F5F5F5F5F5F5F5F5F5F5F5F5F5F5F5F5F5F5F5F5F5F5F5F5F5F5F5F5F5F5F5F5F5F5F5F5F5F5F5F5F5E2E2E2E2EFE2E2F5F5F5F5F5F5F5F5F5F5F5F5F5F5F5F5F5F5F5F5F5F5F5F5F5F5F5F5F5F5F5F5F5F5F5F5F5F5F5F5F5F5F5F5F5F5F5F5E2F5F5F5F5F5F5F5E2F5F5F5F5F5F5F5F5F5F5F5F5F5F5F5F5
310
F5F5F5F5F5F5F5F5F5F5F5F5F5F5F5F5F5F5F5F5F5F5F5F5F5F5F5F5F5F5F5F5F5F5F5F5F5F5F5E2F5F5F5F5F5F5F5F5F5F5F5F5F5F5F5F5F5F5F5F5F5F5F5F5F5F5F5F5F5F5F5F5F5F5F5F5F5F5F5F5F5F5F5F5F5F5F5F5F5F5F5F5F5F5F5F5F5F5F5F5E2E2E2E2EFE2E2F5F5F5F5F5F5F5F5F5F5F5F5F5F5F5F5F5F5F5F5
310
F5F5F5F5F5F5F5F5F5F5F5F5F5F5F5F5F5F5F5F5F5F5F5F5F5F5F5F5E2F5F5F5F5F5F5F5E2F5F5F5F5F5F5F5F5F5F5F5F5F5F5F5F5F5F5F5F5F5F5F5F5F5F5F5F5F5F5F5F5F5F5F5F5F5F5F5F5F5F5F5F5F5F5F5F5F5F5F5F5F5F5F5F5F5F5F5F5F5F5F5F5F5F5F5F5F5F5F5F5F5F5F5F5F5F5F5F5F5F5F5F5F5F5F5F5F5F5
310
F5F5F5F5F5F5F5F5F5F5F5F5F5F5F5F5F5F5F5F5F5F5F5F5F5F5E2E2E2E2EFE2E2F5F5F5F5F5F5F5F5F5F5F5F5F5F5F5F5F5F5F5F5F5F5F5F5F5F5F5F5F5F5F5F5F5F5F5F5F5F5F5F5F5F5F5F5F5F5F5F5E2F5F5F5F5F5F5F5E2F5F5F5F5F5F5F5F5F5F5F5F5F5F5F5F5F5F5F5F5F5F5F5F5F5F5F5F5F5F5F5F5F5F5F5F5F5
310
F5F5F5F5F5F5F5F5F5F5F5F5F5F5F5F5F5F5E2F5F5F5F5F5F5F5F5F5F5F5F5F5F5F5F5F5F5F5F5F5F5F5F5F5F5F5F5F5F5F5F5F5F5F5F5F5F5F5F5F5F5F5F5F5F5F5F5F5F5F5F5F5F5F5F5F5F5F5F5E2E2E2E2EFE2E2F5F5F5F5F5F5F5F5F5F5F5F5F5F5F5F5F5F5F5F5F5F5F5F5F5F5F5F5F5F5F5F5F5F5F5F5F5F5F5F5F5
310
F5F5F5F5F5F5F5E2F5F5F5F5F5F5F5E2F5F5F5F5F5F5F5F5F5F5F5F5F5F5F5F5F5F5F5F5F5F5F5F5F5F5F5F5F5F5F5F5F5F5F5F5F5E2E2F5F5F5E2F5F5F5F5F5F5F5F5F5F5F5F5E2F5F5F5F5F5F5F5F5F5F5F5F5F5F5F5F5F5F5F5F5F5F5F5F5F5F5F5F5F5F5F5F5F5F5F5F5F5F5F5F5F5F5F5F5F5F5F5F5F5F5F5F5F5F5F5
310
F5F5F5F5F5E2E2E2E2EFE2E2F5F5F5F5F5F5F5F5F5F5F5F5F5F5F5F5F5F5F5F5F5F5F5F5F5F5F5F5F5F5F5F5F5F5F5F5F5F5F5F5F5F5F5F5F5F5F5F5E2F5F5F5F5F5F5F5E2F5F5F5F5F5F5F5F5F5F5F5F5F5F5F5F5F5F5F5F5F5F5F5F5F5F5F5F5F5F5F5F5F5F5F5F5F5E2E2E2E2E2E2F5F5F5F5F5F5F5F5F5F5F5F5E2E2E2
310
E2F5F5F5F5F5F5F5F5F5F5F5F5F5F5F5F5F5F5F5F5F5F5F5F5F5F5F5F5F5F5F5F5F5F5F5F5F5F5F5F5F5F5F5F5F5F5F5F5F5F5F5F5F5F5F5F5F5E2E2E2E2EFE2E2F5F5F5F5F5F5F5F5F5F5F5F5F5F5F5F5F5F5F5F5F5F5F5F5F5F5F5F5F5F5F5F5F5F5F5F5F5F5F5F5F5F5F5F5F5F5F5F5E2F5F5F5F5F5F5F5F5F5F5F5F5F5
310
F5F5F5F5F5F5F5F5F5F5F5F5F5F5F5F5F5F5F5F5F5F5F5F5F5F5F5F5F5F5F5F5E2E2F5F5F5E2F5F5F5F5F5F5F5F5F5F5F5F5F5F5F5E2F5F5F5F5F5F5F5F5F5F5F5F5F5F5F5F5F5F5F5F5F5F5F5F5F5F5F5F5F5F5F5F5F5F5F5F5F5F5F5F5F5F5F5F5F5F5F5F5F5F5F5F5F5F5F5F5F5E2E2E2E2EFE2E2F5F5F5F5F5F5F5F5F5
310
F5F5F5F5F5F5F5F5F5F5F5F5F5F5F5F5F5F5F5F5F5F5F5F5F5F5F5F5F5F5F5F5F5F5F5F5F5F5F5E2F5F5F5F5F5F5F5E2F5F5F5F5F5F5F5F5F5F5F5F5F5F5F5F5F5F5F5F5F5F5F5F5F5F5F5F5F5F5F5F5F5F5F5F5F5E2E2E2E2E2E2F5F5F5F5F5F5F5F5F5F5F5F5F5F5F5E2F5F5F5F5F5F5F5F5F5F5F5F5F5F5F5F5F5F5F5F5
310
F5F5F5F5F5F5F5F5F5F5F5F5F5F5F5F5F5F5F5F5F5F5F5F5F5F5F5F5F5F5F5F5F5F5F5F5F5E2E2E2E2EFE2E2F5F5F5F5F5F5F5F5F5F5F5F5F5F5F5F5F5F5F5F5F5F5F5F5F5F5F5F5F5F5F5F5F5F5F5F5F5F5F5F5F5F5F5F5F5F5F5F5E2F5F5F5F5F5F5F5E2F5F5F5F5F5F5F5F5F5F5F5F5F5F5F5F5F5F5F5F5F5E2E2F5F5F5
310
F5F5F5F5F5F5F5F5F5F5F5E2E2F5F5F5E2F5F5F5F5F5F5F5F5F5F5F5F5F5F5F5E2F5F5F5F5F5F5F5F5F5F5F5F5F5F5F5F5F5F5F5F5F5F5F5F5F5F5F5F5F5F5F5F5F5F5F5F5F5F5F5F5F5F5F5F5F5F5F5F5F5F5F5F5F5F5F5F5F5E2E2E2E2EFE2E2F5F5F5F5F5F5F5F5F5F5F5F5F5F5F5F5F5F5F5F5F5F5F5F5F5F5F5F5F5F5
310
F5F5F5F5F5F5F5F5F5F5F5F5F5F5F5F5F5F5E2F5F5F5F5F5F5F5E2F5F5F5F5F5F5F5F5F5F5F5F5F5F5F5F5F5F5F5E2E2E2E2E2E2F5F5F5F5F5F5F5F5F5F5F5F5E2E2F5F5F5E2F5F5F5F5F5F5F5F5F5F5F5F5F5F5F5E2F5F5F5F5F5F5F5F5F5F5F5F5F5F5F5F5F5F5F5F5F5F5F5F5F5F5F5F5F5F5F5F5F5F5F5F5F5F5F5F5F5
310
F5F5F5F5F5F5F5F5F5F5F5F5F5F5F5F5E2E2E2E2EFE2E2F5F5F5F5F5F5F5F5F5F5F5F5F5F5F5F5F5F5F5F5F5F5F5F5F5F5F5F5F5F5F5F5F5F5F5F5F5F5F5F5F5F5F5F5F5F5F5F5E2F5F5F5F5F5F5F5E2F5F5F5F5F5F5F5F5F5F5F5F5F5F5F5F5F5F5E2E2E2F5F5F5E2E2E2E2F5F5F5F5F5F5F5F5F5E2E2F5F5F5E2F5F5F5F5
310
F5F5F5F5F5F5F5F5F5F5F5F5F5F5F5F5F5F5F5F5F5F5F5F5F5F5F5F5F5F5F5F5F5F5F5F5F5F5F5F5F5F5F5F5F5F5F5F5F5F5F5F5F5F5F5F5F5F5F5F5F5F5F5F5F5F5F5F5F5E2E2E2E2EFE2E2F5F5F5F5F5F5F5F5F5F5F5F5F5F5F5F5F5F5F5F5F5F5F5F5F5F5F5F5F5F5F5F5F5F5F5F5F5F5F5F5F5F5F5F5F5F5F5F5E2F5F5
310
F5F5F5F5F5E2F5F5F5F5F5F5F5F5F5F5F5F5F5F5F5F5F5E2E2F5F5F5F5F5F5E2E2E2F5F5F5F5F5F5F5F5F5E2E2F5F5F5E2F5F5F5F5F5F5F5F5F5F5F5F5F5F5F5E2F5F5F5F5F5F5F5F5F5F5F5F5F5F5F5F5F5F5F5F5F5F5F5F5F5F5F5F5F5F5F5F5F5F5F5F5F5F5F5F5F5F5F5F5F5F5F5F5F5F5F5F5F5F5F5F5F5E2E2E2E2EF
310
E2E2F5F5F5F5F5F5F5F5F5F5F5F5F5F5F5F5F5F5F5F5F5F5F5F5F5F5F5F5F5F5F5F5F5F5F5F5F5F5F5F5F5F5F5F5F5F5F5F5E2F5F5F5F5F5F5F5F5F5F5F5F5F5F5F5F5F5F5F5F5F5F5F5F5F5E2F5F5F5F5F5F5F5F5E2E2F5F5F5F5F5F5F5F5F5E2E2F5F5F5E2F5F5F5F5F5F5F5F5F5F5F5F5F5F5F5E2F5F5F5F5F5F5F5F5F5
310
F5F5F5F5F5F5F5F5F5F5F5F5F5F5F5F5F5F5F5F5F5F5F5F5F5F5F5F5F5F5F5F5F5F5F5F5F5F5F5F5F5F5F5F5F5F5F5F5E2F5E2E2EFE2E2F5F5F5F5F5F5F5F5F5F5F5F5F5F5F5F5F5F5F5F5F5F5F5F5F5F5F5F5F5F5F5F5F5F5F5F5F5F5F5F5F5F5F5F5F5F5F5F5E2F5F5F5F5F5F5F5E2F5F5F5F5F5F5F5F5F5F5F5F5F5F5F5
310
F5E2E2F5F5F5E2E2F5F5F5E2E2F5F5F5F5F5F5F5F5F5E2E2F5F5F5E2F5F5F5F5F5F5F5F5F5F5F5F5F5F5F5E2F5F5F5F5F5F5F5F5F5F5F5F5F5F5F5F5F5F5F5F5F5F5F5F5F5F5F5F5F5F5F5F5F5F5F5F5F5F5F5F5F5F5F5F5F5F5F5F5F5F5F5F5F5F5F5F5F5E2F5E2E2EFE2E2F5F5F5F5F5F5F5F5F5F5F5F5F5F5F5F5F5F5F5
310
F5F5F5F5F5F5F5F5F5F5F5F5F5F5F5F5F5F5F5F5F5F5F5F5F5F5F5F5F5E2F5F5F5F5F5F5F5E2F5F5F5F5F5F5F5F5F5F5F5F5F5F5F5F5E2E2F5F5F5E2E2F5F5F5E2E2F5F5F5F5F5F5F5F5F5E2E2F5F5F5E2F5F5F5F5F5F5F5F5F5F5F5F5F5F5F5E2F5F5F5F5F5F5F5F5F5F5F5F5F5F5F5F5F5F5F5F5F5F5F5F5F5F5F5F5F5F5
310
F5F5F5F5F5F5F5F5F5F5F5F5F5F5F5F5F5F5F5F5F5F5F5F5F5F5F5E2F5E2E2EFE2E2F5F5F5F5F5F5F5F5F5F5F5F5F5F5F5F5F5F5F5F5F5F5F5F5F5F5F5F5F5F5F5F5F5F5F5F5F5F5F5F5F5F5F5F5F5E2E2E2E2F5F5F5F5F5F5F5E2F5F5F5F5F5F5F5F5F5F5F5F5F5F5F5F5F5E2E2F5F5E2E2F5F5F5E2E2F5F5F5F5F5F5F5F5
310
F5E2E2F5F5F5E2F5F5F5F5F5F5F5F5F5F5F5F5F5F5F5E2F5F5F5F5F5F5F5F5F5F5F5F5F5F5F5F5F5F5F5F5F5F5F5F5F5F5F5F5F5F5F5F5F5F5F5F5F5F5F5F5F5F5F5F5F5F5F5F5F5F5F5F5F5F5F5F5F5E2F5E2E2EFE2E2F5F5F5F5F5F5F5F5F5F5F5F5F5F5F5F5F5F5F5F5F5F5F5F5F5F5F5F5F5F5F5F5F5F5F5F5F5F5F5F5
310
F5F5F5F5F5E2E2E2E2F5F5F5F5F5F5F5E2F5F5F5F5F5F5F5F5F5F5F5F5F5F5F5F5F5E2E2F5F5E2E2F5F5F5E2E2F5F5F5F5F5F5F5F5F5E2E2F5F5F5E2F5F5F5F5F5F5F5F5F5F5F5F5F5F5F5E2F5F5F5F5F5F5F5F5F5F5F5F5F5F5F5F5F5F5F5F5F5F5F5F5F5F5F5F5F5F5F5F5F5F5F5F5F5F5F5F5F5F5F5F5F5F5F5F5F5F5F5
310
F5F5F5F5F5F5E2F5E2E2EFE2E2F5F5F5F5F5F5F5F5F5F5F5F5F5F5F5F5F5F5F5F5F5F5F5F5F5F5F5F5F5F5F5F5F5F5F5F5F5F5F5F5F5F5F5F5F5E2E2E2E2F5F5F5F5F5F5F5E2F5F5F5F5F5F5F5F5F5F5F5F5F5F5F5F5F5F5E2E2F5E2E2F5F5F5E2E2F5F5F5F5F5F5F5F5F5E2E2E2E2E2E2F5F5F5F5F5F5F5F5F5F5F5F5F5F5
310
F5F5F5F5F5F5F5F5F5F5F5F5F5F5F5F5F5F5F5F5F5F5F5F5F5F5F5F5F5F5F5F5F5F5F5F5F5F5F5F5F5F5F5F5F5F5F5F5F5F5F5F5F5F5F5F5F5F5F5E2F5E2E2EFE2E2F5F5F5F5F5F5F5F5F5F5F5F5F5F5F5F5F5F5F5F5F5F5F5F5F5F5F5F5F5F5F5F5F5F5F5F5F5F5F5F5F5F5F5F5F5F5F5F5E2F5F5F5F5F5F5F5F5F5F5F5F5
310
F5F5F5F5F5F5F5F5F5F5F5F5E2E2E2E2E2E2E2E2E2E2E2E2E2F5F5F5F5F5F5E2E2E2E2E2E2E2E2E2E2E2F5F5F5F5F5F5F5F5F5F5F5F5E2F5F5F5F5F5F5F5F5F5F5F5F5F5F5F5F5F5F5F5F5F5F5F5F5F5F5F5F5F5F5F5F5F5F5F5F5F5F5F5F5F5F5F5F5F5F5F5F5F5F5F5F5F5F5F5F5F5E2F5E2E2EFE2E2F5F5F5F5F5F5F5F5
310
F5F5F5F5F5F5F5F5F5F5F5F5F5F5F5F5F5F5F5F5F5F5F5F5F5F5F5F5F5F5F5F5F5F5F5F5F5F5F5F5E2F5F5F5F5F5F5F5E2F5F5F5F5F5F5F5F5F5F5F5F5F5F5F5F5E2E2F5F5F5F5F5F5F5F5F5E2E2F5F5F5F5F5F5E2E2F5F5F5F5F5F5F5E2E2F5F5F5F5F5F5F5F5F5F5F5F5E2F5F5F5F5F5F5F5F5F5F5F5F5F5F5F5F5F5F5F5
310
F5F5F5F5F5F5F5F5F5F5F5F5F5F5F5F5F5F5F5F5F5F5F5F5F5F5F5F5F5F5F5F5F5F5F5F5F5F5E2F5E2E2EFE2E2F5F5F5F5F5F5F5F5F5F5F5F5F5F5F5F5F5F5F5F5F5F5F5F5F5F5F5F5F5F5F5F5F5F5F5F5F5F5F5F5F5F5F5F5F5F5F5F5E2F5F5F5F5F5F5F5E2F5F5F5F5F5F5F5F5F5F5F5F5F5F5F5F5E2F5E2F5F5F5F5F5F5
310
F5E2F5E2F5F5F5F5F5F5E2F5F5F5F5F5F5F5F5F5E2F5F5F5F5F5F5F5F5F5F5F5F5E2F5F5F5F5F5F5F5F5F5F5F5F5F5F5F5F5F5F5F5F5F5F5F5F5F5F5F5F5F5F5F5F5F5F5F5F5F5F5F5F5F5F5F5F5F5F5F5F5F5F5F5F5F5F5F5F5F5E2F5E2E2EFE2E2F5F5F5F5F5F5F5F5F5F5F5F5F5F5F5F5F5F5F5F5F5F5F5F5F5F5F5F5F5
310
F5F5F5F5F5F5F5F5F5F5F5F5F5F5F5F5F5F5F5E2F5F5F5F5F5F5F5E2F5F5F5F5F5F5F5F5F5F5F5F5F5F5F5F5E2F5F5E2E2F5F5F5E2E2F5F5E2E2E2E2E2E2E2E2F5F5F5F5F5F5F5F5F5E2F5F5F5F5F5F5F5F5F5F5F5F5E2F5F5F5F5F5F5F5F5F5F5F5F5F5F5F5F5F5F5F5F5F5F5F5F5F5F5F5F5F5F5F5F5F5F5F5F5F5F5F5F5
310
F5F5F5F5F5F5F5F5F5F5F5F5F5F5F5F5F5E2E2E2E2EFE2E2F5F5F5F5F5F5F5F5F5F5F5F5F5F5F5F5F5F5F5F5F5F5F5F5F5F5F5F5F5F5F5F5F5F5F5F5F5F5F5F5F5F5F5F5F5F5F5F5E2F5F5F5F5F5F5F5E2F5F5F5F5F5F5F5F5F5F5F5F5F5F5F5F5E2F5F5F5F5E2E2E2F5F5F5F5E2F5F5F5F5F5F5E2F5F5F5F5F5F5F5F5F5E2
310
F5F5F5F5F5F5F5F5F5F5F5F5E2F5F5F5F5F5F5F5F5F5F5F5F5F5F5F5F5F5F5F5F5F5F5F5F5F5F5F5F5F5F5F5F5F5F5F5F5F5F5F5F5F5F5F5F5F5F5F5F5F5F5F5F5F5F5F5F5F5E2E2E2E2EFE2E2F5F5F5F5F5F5F5F5F5F5F5F5F5F5F5F5F5F5F5F5F5F5F5F5F5F5F5F5F5F5F5F5F5F5F5F5F5F5F5F5F5F5F5F5F5F5F5F5E2F5
310
F5F5F5F5F5F5E2F5F5F5F5F5F5F5F5F5F5F5F5F5F5E2E2E2F5F5F5F5E2E2E2F5F5F5F5E2F5F5F5F5F5F5E2F5F5F5F5F5F5F5F5F5E2F5F5F5F5F5F5F5F5F5F5F5F5F5F5F5F5F5F5F5F5F5F5F5F5F5F5F5F5F5F5F5F5F5F5F5F5F5F5F5F5F5F5F5F5F5F5F5F5F5F5F5F5F5F5F5F5F5F5F5F5F5F5F5F5F5F5F5F5F5F5E2E2E2E2
310
EFE2E2F5F5F5F5F5F5F5F5F5F5F5F5F5F5F5F5F5F5F5F5F5F5F5F5F5F5F5F5F5F5F5F5F5F5F5F5F5F5F5F5F5F5F5F5F5F5F5F5E2F5F5F5F5F5F5F5E2F5F5F5F5F5F5F5F5F5F5F5F5F5F5F5F5E2F5F5F5F5E2E2E2F5F5F5F5E2F5F5F5F5F5F5E2F5F5F5F5F5F5F5F5F5E2F5F5F5F5F5F5F5F5F5F5F5F5E2F5F5F5F5F5F5F5F5
310
F5F5F5F5F5F5F5F5F5F5F5F5F5F5F5F5F5F5F5F5F5F5F5F5F5F5F5F5F5F5F5F5F5F5F5F5F5F5F5F5F5F5F5F5F5F5F5F5F5E2E2E2E2EFE2E2F5F5F5F5F5F5F5F5F5F5F5F5F5F5F5F5F5F5F5F5F5F5F5F5F5F5F5F5F5F5F5F5F5F5F5F5F5F5F5F5F5F5F5F5F5F5F5F5E2F5F5F5F5F5F5F5F5F5F5F5F5F5F5F5F5F5F5F5F5F5F5
310
F5F5E2F5F5F5E2F5F5F5E2F5F5F5E2F5F5F5F5F5F5E2F5F5F5F5F5F5F5F5F5E2F5F5F5F5F5F5F5F5F5F5F5F5E2F5F5F5F5F5F5F5F5F5F5F5F5F5F5F5F5F5F5F5F5F5F5F5F5F5F5F5F5F5F5F5F5F5F5F5F5F5F5F5F5F5F5F5F5F5F5F5F5F5F5F5F5F5F5F5F5F5E2E2E2E2EFE2E2F5F5F5F5F5F5F5F5F5F5F5F5F5F5F5F5F5F5
310
F5F5F5F5F5F5F5F5F5F5F5F5F5F5F5F5F5F5F5F5F5F5F5F5F5F5F5F5F5F5E2F5F5F5F5F5F5F5E2F5F5F5F5F5F5F5F5F5F5F5F5F5F5F5F5E2F5E2E2F5F5F5F5F5E2F5F5E2E2E2E2E2E2E2E2F5F5F5F5F5F5F5F5F5E2F5F5F5F5F5F5F5F5F5F5F5F5E2F5F5F5F5F5F5F5F5F5F5F5F5F5F5F5F5F5F5F5F5F5F5F5F5F5F5F5F5F5
310
F5F5F5F5F5F5F5F5F5F5F5F5F5F5F5F5F5F5F5F5F5F5F5F5F5F5F5F5E2E2E2E2EFE2E2F5F5F5F5F5F5F5F5F5F5F5F5F5F5F5F5F5F5F5F5F5F5F5F5F5F5F5F5F5F5F5F5F5F5F5F5F5F5F5F5F5F5F5F5F5F5F5F5E2F5F5F5F5F5F5F5E2F5F5F5F5F5F5F5F5F5F5F5F5F5F5F5F5E2E2E2F5F5F5F5F5F5F5E2E2E2F5F5F5F5F5F5
310
E2F5F5F5F5F5F5F5F5F5E2F5F5F5F5F5F5F5F5F5F5F5F5E2F5F5F5F5F5F5F5F5F5F5F5F5F5F5F5F5F5F5F5F5F5F5F5F5F5F5F5F5F5F5F5F5F5F5F5F5F5F5F5F5F5F5F5F5F5F5F5F5F5F5F5F5F5F5F5F5F5E2E2E2E2EFE2E2F5F5F5F5F5F5F5F5F5F5F5F5F5F5F5F5F5F5F5F5F5F5F5F5F5F5F5F5F5F5F5F5F5F5F5F5F5F5F5
310
F5F5F5F5F5F5F5F5F5E2F5F5F5F5F5F5F5E2F5F5F5F5F5F5F5F5F5F5F5F5F5F5F5F5E2E2E2F5F5F5F5F5F5F5E2E2E2F5F5F5F5F5F5E2E2F5F5F5F5F5F5F5E2E2F5F5F5F5F5F5F5F5F5F5F5F5E2F5F5F5F5F5F5F5F5F5F5F5F5F5F5F5F5F5F5F5F5F5F5F5F5F5F5F5F5F5F5F5F5F5F5F5F5F5F5F5F5F5F5F5F5F5F5F5F5F5F5
310
F5F5F5F5F5F5F5E2E2E2E2EFE2E2F5F5F5F5F5F5F5F5F5F5F5F5F5F5F5F5F5F5F5F5F5F5F5F5F5F5F5F5F5F5F5F5F5F5F5F5F5F5F5F5F5F5F5F5F5F5F5F5E2F5F5F5F5F5F5F5E2F5F5F5F5F5F5F5F5F5F5F5F5F5F5F5F5E2E2E2E2E2E2E2E2E2E2E2E2E2F5F5F5F5F5F5E2E2E2E2E2E2E2E2E2E2E2F5F5F5F5F5F5F5F5F5F5
310
F5F5F5F5F5F5F5F5F5F5F5F5F5F5F5F5F5F5F5F5F5F5F5F5F5F5F5F5F5F5F5F5F5F5F5F5F5F5F5F5F5F5F5F5F5F5F5F5F5F5F5F5F5F5F5F5F5F5F5F5E2E2E2E2EFE2E2F5F5F5F5F5F5F5F5F5F5F5F5F5F5F5F5F5F5F5F5F5F5F5F5F5F5F5F5F5F5F5F5F5F5F5F5F5F5F5F5F5F5F5F5F5F5F5F5E2F5F5F5F5F5F5F5E2F5F5F5
310
F5F5F5F5F5F5F5F5F5F5F5F5F5F5F5F5F5F5F5E2F5F5F5F5F5F5F5F5F5F5F5F5F5E2E2E2E2E2E2E2E2F5F5F5F5F5F5F5F5F5F5F5F5F5F5E2F5F5F5F5F5F5F5F5F5F5F5F5F5F5F5F5F5F5F5F5F5F5F5F5F5F5F5F5F5F5F5F5F5F5F5F5F5F5F5F5F5F5F5F5F5F5F5F5F5F5F5F5F5F5F5F5F5E2E2E2E2EFE2E2F5F5F5F5F5F5F5
310
F5F5F5F5F5F5F5F5F5F5F5F5F5F5F5F5F5F5F5F5F5F5F5F5F5F5F5F5F5F5F5F5F5F5F5F5F5F5F5F5F5E2F5F5F5F5F5F5F5F5F5F5F5F5F5F5F5F5F5F5F5F5F5F5F5F5F5F5F5E2E2E2E2E2E2E2F5F5F5F5F5F5F5F5F5F5E2E2E2E2E2E2E2E2F5F5F5F5F5F5F5F5F5F5F5F5F5F5E2F5F5F5F5F5F5F5F5F5F5F5F5F5F5F5F5F5F5
310
F5F5F5F5F5F5F5F5F5F5F5F5F5F5F5F5F5F5F5F5F5F5F5F5F5F5F5F5F5F5F5F5F5F5F5F5F5F5F5E2E2E2E2EFE2E2F5F5F5F5F5F5F5F5F5F5F5F5F5F5F5F5F5F5F5F5F5F5F5F5F5F5F5F5F5F5F5F5F5F5F5F5F5F5F5F5F5F5F5F5F5F5F5F5E2F5F5F5F5F5F5F5E2F5F5F5F5F5F5F5F5F5F5F5F5F5F5F5F5F5F5F5F5F5F5F5F5
310
F5F5F5F5F5F5F5F5F5F5F5F5E2E2E2E2E2E2E2E2F5F5F5F5F5F5F5F5F5F5F5F5F5F5E2F5F5F5F5F5F5F5F5F5F5F5F5F5F5F5F5F5F5F5F5F5F5F5F5F5F5F5F5F5F5F5F5F5F5F5F5F5F5F5F5F5F5F5F5F5F5F5F5F5F5F5F5F5F5F5F5F5E2E2E2E2EFE2E2F5F5F5F5F5F5F5F5F5F5F5F5F5F5F5F5F5F5F5F5F5F5F5F5F5F5F5F5
310
F5F5F5F5F5F5F5F5F5F5F5F5F5F5F5F5F5F5F5F5E2F5F5F5F5F5F5F5E2F5F5F5F5F5F5F5F5F5F5F5F5F5F5F5F5F5F5F5F5F5F5F5F5F5F5F5F5F5F5F5F5F5F5F5F5E2E2E2E2E2E2E2E2F5F5F5F5F5F5F5F5F5F5F5F5F5F5E2F5F5F5F5F5F5F5F5F5F5F5F5F5F5F5F5F5F5F5F5F5F5F5F5F5F5F5F5F5F5F5F5F5F5F5F5F5F5F5
310
F5F5F5F5F5F5F5F5F5F5F5F5F5F5F5F5F5F5E2E2E2E2EFE2E2F5F5F5F5F5F5F5F5F5F5F5F5F5F5F5F5F5F5F5F5F5F5F5F5F5F5F5F5F5F5F5F5F5F5F5F5F5F5F5F5F5F5F5F5F5F5F5F5E2F5F5F5F5F5F5F5E2F5F5F5F5F5F5F5F5F5F5F5F5F5F5F5F5F5F5F5F5F5F5F5F5F5F5F5F5F5F5F5F5F5F5F5F5E2E2F5F5F5F5E2E2F5
310
F5F5F5F5F5F5F5F5F5F5F5F5F5E2F5F5F5F5F5F5F5F5F5F5F5F5F5F5F5F5F5F5F5F5F5F5F5F5F5F5F5F5F5F5F5F5F5F5F5F5F5F5F5F5F5F5F5F5F5F5F5F5F5F5F5F5F5F5F5F5F5E2E2E2E2EFE2E2F5F5F5F5F5F5F5F5F5F5F5F5F5F5F5F5F5F5F5F5F5F5F5F5F5F5F5F5F5F5F5F5F5F5F5F5F5F5F5F5F5F5F5F5F5F5F5F5E2
310
F5F5F5F5F5F5F5E2F5F5F5F5F5F5F5F5F5F5F5F5F5F5F5F5F5F5F5F5F5F5F5F5F5F5F5F5F5F5F5F5F5F5F5F5F5F5F5F5F5F5F5F5F5F5F5F5F5F5F5F5F5F5F5F5F5F5E2F5F5F5F5F5F5F5F5F5F5F5F5F5F5F5F5F5F5F5F5F5F5F5F5F5F5F5F5F5F5F5F5F5F5F5F5F5F5F5F5F5F5F5F5F5F5F5F5F5F5F5F5F5F5F5F5F5E2E2E2
310
E2EFE2E2F5F5F5F5F5F5F5F5F5F5F5F5F5F5F5F5F5F5F5F5F5F5F5F5F5F5F5F5F5F5F5F5F5F5F5F5F5F5F5F5F5F5F5F5F5F5F5F5E2F5F5F5F5F5F5F5E2F5F5F5F5F5F5F5F5F5F5F5F5F5F5F5F5F5F5F5F5F5F5F5F5F5F5F5F5F5F5F5F5F5F5F5F5F5F5F5F5F5F5F5F5F5F5F5F5F5F5F5F5F5F5F5F5F5F5F5F5F5F5F5F5F5F5
310
F5F5F5F5F5F5F5F5F5F5F5F5F5F5F5F5F5F5F5F5F5F5F5F5F5F5F5F5F5F5F5F5F5F5F5F5F5F5F5F5F5F5F5F5F5F5F5F5F5F5E2E2E2E2EFE2E2F5F5F5F5F5F5F5F5F5F5F5F5F5F5F5F5F5F5F5F5F5F5F5F5F5F5F5F5F5F5F5F5F5F5F5F5F5F5F5F5F5F5F5F5F5F5F5F5E2F5F5F5F5F5F5F5F5F5F5F5F5F5F5F5F5F5F5F5F5F5
310
F5F5F5F5F5F5F5F5F5F5F5F5F5F5F5F5F5F5F5F5F5F5F5F5F5F5F5F5F5F5F5F5F5F5F5F5F5F5F5F5F5F5F5F5F5E2F5F5F5F5F5F5F5F5F5F5F5F5F5F5F5F5F5F5F5F5F5F5F5F5F5F5F5F5F5F5F5F5F5F5F5F5F5F5F5F5F5F5F5F5F5F5F5F5F5F5F5F5F5F5F5F5F5E2F5E2E2EFE2E2F5F5F5F5F5F5F5F5F5F5F5F5F5F5F5F5F5
310
F5F5F5F5F5F5F5F5F5F5F5F5F5F5F5F5F5F5F5F5F5F5F5F5F5F5F5F5F5F5F5E2F5F5F5F5F5F5F5E2F5F5F5F5F5F5F5F5F5F5F5F5F5F5F5F5F5F5F5F5F5F5F5F5F5F5F5F5F5F5F5F5F5F5F5F5F5F5F5F5F5F5F5F5F5F5F5F5F5F5F5F5F5F5F5F5F5F5E2F5F5F5F5F5F5F5F5F5F5F5F5F5F5F5F5F5F5F5F5F5F5F5F5F5F5F5F5
310
F5F5F5F5F5F5F5F5F5F5F5F5F5F5F5F5F5F5F5F5F5F5F5F5F5F5F5F5F5E2F5E2E2EFE2E2F5F5F5F5F5F5F5F5F5F5F5F5F5F5F5F5F5F5F5F5F5F5F5F5F5F5F5F5F5F5F5F5F5F5F5F5F5F5F5F5F5F5F5F5F5F5F5F5E2F5F5F5F5F5F5F5E2F5F5F5F5F5F5F5F5F5F5F5F5F5F5F5F5F5F5F5F5F5F5F5F5F5F5F5F5F5F5F5F5F5F5
310
F5F5F5F5F5F5F5F5F5F5F5F5F5F5F5F5F5F5F5F5F5F5F5F5E2F5F5F5F5F5F5F5F5F5F5F5F5F5F5F5F5F5F5F5F5F5F5F5F5F5F5F5F5F5F5F5F5F5F5F5F5F5F5F5F5F5F5F5F5F5F5F5F5F5F5F5F5F5F5F5F5F5E2F5E2E2EFE2E2F5F5F5F5F5F5F5F5F5F5F5F5F5F5F5F5F5F5F5F5F5F5F5F5F5F5F5F5F5F5F5F5F5F5F5F5F5F5
310
F5F5F5F5F5F5F5F5F5F5E2F5F5F5F5F5F5F5E2F5F5F5F5F5F5F5F5F5F5F5F5F5F5F5F5F5F5F5F5F5F5F5F5F5F5F5F5F5F5F5F5F5F5F5F5F5F5F5F5F5F5F5F5F5F5F5F5F5F5F5F5F5F5F5F5F5F5E2F5F5F5F5F5F5F5F5F5F5F5F5F5F5F5F5F5F5F5F5F5F5F5F5F5F5F5F5F5F5F5F5F5F5F5F5F5F5F5F5F5F5F5F5F5F5F5F5F5
310
F5F5F5F5F5F5F5F5E2F5E2E2EFE2E2F5F5F5F5F5F5F5F5F5F5F5F5F5F5F5F5F5F5F5F5F5F5F5F5F5F5F5F5F5F5F5F5F5F5F5F5F5F5F5F5F5F5F5F5F5F5F5F5E2F5F5F5F5F5F5F5E2F5F5F5F5F5F5F5F5F5F5F5F5F5F5F5F5F5F5F5F5F5F5F5F5F5F5F5F5F5F5F5F5F5F5F5F5F5F5F5F5F5F5F5F5F5F5F5F5F5F5F5F5F5F5F5
310
F5F5F5E2F5F5F5F5F5F5F5F5F5F5F5F5F5F5F5F5F5F5F5F5F5F5F5F5F5F5F5F5F5F5F5F5F5F5F5F5F5F5F5F5F5F5F5F5F5F5F5F5F5F5F5F5F5F5F5F5F5E2F5E2E2EFE2E2F5F5F5F5F5F5F5F5F5F5F5F5F5F5F5F5F5F5F5F5F5F5F5F5F5F5F5F5F5F5F5F5F5F5F5F5F5F5F5F5F5F5F5F5F5F5F5F5E2F5F5F5F5F5F5F5E2F5F5
310
F5F5F5F5F5F5F5F5F5F5F5F5F5F5F5F5F5F5F5F5F5F5F5F5F5F5F5F5F5F5F5F5F5F5F5F5F5F5F5F5F5F5F5F5F5F5F5F5F5F5F5F5F5F5F5F5F5F5F5F5F5F5F5F5F5F5F5F5F5F5F5F5F5F5F5F5F5F5F5F5F5F5F5F5F5F5F5F5F5F5F5F5F5F5F5F5F5F5F5F5F5F5F5F5F5F5F5F5F5F5F5F5F5F5E2F5E2E2EFE2E2F5F5F5F5F5F5
310
F5F5F5F5F5F5F5F5F5F5F5F5F5F5F5F5F5F5F5F5F5F5F5F5F5F5F5F5F5F5F5F5F5F5F5F5F5F5F5F5F5F5E2F5F5F5F5F5F5F5E2F5F5F5F5F5F5F5F5F5F5F5F5F5F5F5F5F5F5F5F5F5F5F5F5F5F5F5F5F5F5F5F5F5F5F5F5F5F5F5F5F5F5F5F5F5F5F5F5F5F5F5F5F5F5F5F5F5F5E2F5F5F5F5F5F5F5F5F5F5F5F5F5F5F5F5F5
310
F5F5F5F5F5F5F5F5F5F5F5F5F5F5F5F5F5F5F5F5F5F5F5F5F5F5F5F5F5F5F5F5F5F5F5F5F5F5F5F5E2F5E2E2EFE2E2F5F5F5F5F5F5F5F5F5F5F5F5F5F5F5F5F5F5F5F5F5F5F5F5F5F5F5F5F5F5F5F5F5F5F5F5F5F5F5F5F5F5F5F5F5F5F5F5E2F5F5F5F5F5F5F5F5F5F5F5F5F5F5F5F5F5F5F5F5F5F5F5F5F5F5F5F5F5F5F5
310
F5F5F5F5F5F5F5F5F5F5F5F5F5F5F5F5F5F5F5F5F5F5F5F5F5F5F5F5F5F5F5F5F5F5F5E2F5F5F5F5F5F5F5F5F5F5F5F5F5F5F5F5F5F5F5F5F5F5F5F5F5F5F5F5F5F5F5F5F5F5F5F5F5F5F5F5F5F5F5F5F5F5F5F5F5F5F5F5F5F5F5F5F5E2F5E2E2EFE2E2F5F5F5F5F5F5F5F5F5F5F5F5F5F5F5F5F5F5F5F5F5F5F5F5F5F5F5
310
F5F5F5F5F5F5F5F5F5F5F5F5F5F5F5F5F5F5F5F5F5E2F5F5F5F5F5F5F5E2F5F5F5F5F5F5F5F5F5F5F5F5F5F5F5F5F5F5F5F5F5F5F5F5F5F5F5F5F5F5F5F5F5F5F5F5F5F5F5F5F5F5F5F5F5F5F5F5F5F5F5F5F5F5F5F5F5F5E2F5F5F5F5F5F5F5F5F5F5F5F5F5F5F5F5F5F5F5F5F5F5F5F5F5F5F5F5F5F5F5F5F5F5F5F5F5F5
310
F5F5F5F5F5F5F5F5F5F5F5F5F5F5F5F5F5F5F5E2F5E2E2EFE2E2F5F5F5F5F5F5F5F5F5F5F5F5F5F5F5F5F5F5F5F5F5F5F5F5F5F5F5F5F5F5F5F5F5F5F5F5F5F5F5F5F5F5F5F5F5F5F5F5E2BEF5F5F5F5F5F5E2F5F5F5F5F5F5F5F5F5F5F5F5F5F5F5F5F5F5F5F5F5F5F5F5F5F5F5F5F5F5F5F5F5F5F5F5F5F5F5F5F5F5F5F5
310
F5F5F5F5F5F5F5F5F5F5F5F5F5F5E2F5F5F5F5F5F5F5F5F5F5F5F5F5F5F5F5F5F5F5F5F5F5F5F5F5F5F5F5F5F5F5F5F5F5F5F5F5F5F5F5F5F5F5F5F5F5F5F5F5F5F5F5F5F5F5F5F5E2E2E2E2EFE2E2F5F5F5F5F5F5F5F5F5F5F5F5F5F5F5F5F5F5F5F5F5F5F5F5F5F5F5F5F5F5F5F5F5F5F5F5F5F5F5F5F5F5F5F5F5F5F5E2
310
E2E2F5F5F5F5F5F5E2E2E2E2F5E2E2E2E2E2F5E2E2E2E2E2F5E2E2E2E2E2E2E2E2E2E2E2E2F5E2E2E2E2E2E2E2E2E2E2E2E2E2E2E2E2E2E2F5E2E2E2E2E2E2E2E2E2E2E2F5F5F5F5F5F5F5F5F5F5F5F5F5F5F5F5F5F5F5F5F5F5F5F5F5F5F5F5F5F5F5F5F5F5F5F5F5F5F5F5F5F5F5F5F5F5F5F5F5F5F5F5F5F5F5F5F5E2E2
310
E2E2EFE2E2F5F5F5F5F5F5F5F5F5F5F5F5F5F5F5F5F5F5F5F5F5F5F5F5F5F5F5F5F5F5F5F5F5F5F5F5F5F5F5F5F5F5F5F5F5F5F5BEE2F5F5F5F5F5F5F5F5F5F5F5F5F5F5F5F5F5F5F5F5F5F5F5F5F5F5F5F5F5F5F5F5F5F5F5F5F5F5F5F5F5F5F5F5F5F5F5F5F5F5F5F5F5F5F5F5F5F5F5F5F5F5F5F5F5F5F5F5F5F5F5F5F5
310
F5F5F5F5F5F5F5F5F5F5F5F5F5F5F5F5F5F5F5F5F5F5F5F5F5F5F5F5F5F5F5F5F5F5F5F5F5F5F5F5F5F5F5F5F5F5F5F5F5F5F5E2E2E2E2EFE2E2F5F5F5F5F5F5F5F5F5F5F5F5F5F5F5F5F5F5F5F5F5F5F5F5F5F5F5F5F5F5F5F5F5F5F5F5F5F5F5F5F5F5F5F5F5F5F5F5F5F5F5F5F5F5F5F5F5F5F5F5F5F5F5F5F5F5F5F5F5
310
F5F5F5F5F5F5F5F5F5F5F5F5F5F5F5F5F5F5F5F5F5F5F5F5F5F5F5F5F5F5F5F5F5F5F5F5F5F5F5F5F5F5F5F5F5F5F5F5F5F5F5F5F5F5F5F5F5F5F5F5F5F5F5F5F5F5F5F5F5F5F5F5F5F5F5F5F5F5F5F5F5F5F5F5F5F5F5F5F5F5F5F5F5F5F5F5F5F5F5F5F5F5F5F5E2E2E2E2EFE2E2F5F5F5F5F5F5F5F5F5F5F5F5F5F5F5F5
310
F5F5F5F5F5F5F5F5F5F5F5F5F5F5F5F5F5F5F5F5F5F5F5F5F5F5F5F5F5F5F5F5F5F5F5F5F5F5F5F5F5F5F5F5F5F5F5F5F5F5F5F5F5F5F5F5F5F5F5F5F5F5F5F5F5F5F5F5F5F5F5F5F5F5F5F5F5F5F5F5F5F5F5F5F5F5F5F5F5F5F5F5F5F5F5F5F5F5F5F5F5F5F5F5F5F5F5F5F5F5F5F5F5F5F5F5F5F5F5F5F5F5F5F5F5F5F5
310
F5F5F5F5F5F5F5F5F5F5F5F5F5F5F5F5F5F5F5F5F5F5F5F5F5F5F5F5F5F5E2E2E2E2EFE2E2F5F5F5F5F5F5F5F5F5F5F5F5F5F5F5F5F5F5F5F5F5F5F5F5F5F5F5F5F5F5F5F5F5F5F5F5F5F5F5F5F5F5F5F5F5F5F5F5F5F5F5F5F5F5F5F5F5F5F5F5F5F5F5F5F5F5F5F5F5F5F5F5F5F5F5F5F5F5F5F5F5F5F5F5F5F5F5F5F5F5
310
F5F5F5F5F5F5F5F5F5F5F5F5F5F5F5F5F5F5F5F5F5F5F5F5F5F5F5F5F5F5F5F5F5F5F5F5F5F5F5F5F5F5F5F5F5F5F5F5F5F5F5F5F5F5F5F5F5F5F5F5F5F5F5F5F5F5F5F5F5F5F5F5F5F5F5F5F5F5F5F5F5F5F5E2E2E2E2EFE2E2F5F5F5F5F5F5F5F5F5F5F5F5F5F5F5F5F5F5F5F5F5F5F5F5F5F5F5F5F5F5F5F5F5F5F5F5F5
310
F5F5F5F5F5F5F5F5F5F5F5F5F5F5F5F5F5F5BEE2F5F5F5F5F5F5F5F5F5F5F5F5F5F5F5F5F5F5F5F5F5F5F5F5F5F5F5F5F5F5F5F5F5F5F5F5F5F5F5F5F5F5F5F5F5F5F5F5F5F5F5F5F5F5F5F5F5BEE2F5F5F5F5F5F5F5F5F5F5F5F5F5F5F5F5F5F5F5F5F5F5F5F5F5F5F5F5F5F5F5F5F5F5F5F5F5F5F5F5F5F5F5F5F5F5F5F5
310
F5F5F5F5F5F5F5F5F5E2E2E2E2EFE2E2F5F5F5F5F5F5F5F5F5F5F5F5F5F5F5F5F5F5F5F5F5F5F5F5F5F5F5F5F5F5F5F5F5F5F5F5F5F5F5F5F5F5F5F5F5F5F5F5F5F5F5F5F5F5F5E2E2E2E2E2E2E2E2E2E2E2E2E2E2E2E2E2E2E2E2E2E2E2E2E2E2E2E2E2E2E2E2E2E2E2E2E2E2E2E2E2E2E2E2E2E2E2E2E2E2E2E2E2E2E2E2
310
E2E2E2E2E2F5F5F5F5F5F5F5F5F5F5F5F5F5F5F5F5F5F5F5F5F5F5F5F5F5F5F5F5F5F5F5F5F5F5F5F5F5F5F5F5F5F5F5F5F5F5F5F5F5F5F5F5F5F5F5F5F5E2E2E2E2EFE2E2F5F5F5F5F5F5F5F5F5F5F5F5F5F5F5F5F5F5F5F5F5F5F5F5F5F5F5F5F5F5F5F5F5F5F5F5F5F5F5F5F5F5F5F5F5F5F5F5F5F5F5F5F5F5F5F5E2BE
310
F5F5F5F5F5F5F5F5F5F5F5F5F5F5F5F5F5F5F5F5F5F5F5F5F5E2E2E2E2F5F5F5F5F5F5F5F5F5F5F5F5F5F5F5F5F5F5F5F5F5F5F5F5F5F5F5F5BEF5F5F5F5F5F5F5F5F5F5F5F5F5F5F5F5F5F5F5F5F5F5F5F5F5F5F5F5F5F5F5F5F5F5F5F5F5F5F5F5F5F5F5F5F5F5F5F5F5F5F5F5F5F5F5F5F5E2E2E2E2EFE2E2F5F5F5F5F5
310
F5F5F5F5F5F5F5F5F5F5F5F5F5F5F5F5F5F5F5F5F5F5F5F5F5F5F5F5F5F5F5F5F5F5F5F5F5F5F5F5F5F5F5F5F5F5F5F5F5F5F5F5F5F5F5F5F5F5F5F5F5F5F5F5F5F5F5F5F5F5F5F5F5F5F5F5F5F5E2E2E2E2F5F5F5F5F5F5F5F5F5F5F5F5F5F5F5F5F5F5F5F5F5F5F5F5F5F5F5F5F5F5F5F5F5F5F5F5F5F5F5F5F5F5F5F5F5
310
F5F5F5F5F5F5F5F5F5F5F5F5F5F5F5F5F5F5F5F5F5F5F5F5F5F5F5F5F5F5F5F5F5F5F5F5F5F5F5F5F5E2E2E2E2EFE2E2F5F5F5F5F5F5F5F5F5F5F5F5F5F5F5F5F5F5F5F5F5F5F5F5F5F5F5F5F5F5F5F5F5F5F5F5F5F5F5F5F5F5F5F5F5F5F5F5F5F5F5F5F5F5F5F5F5F5F5F5F5F5F5F5F5F5F5F5F5F5F5F5F5F5F5F5F5F5F5
310
F5F5F5F5F5F5F5F5F5F5F5F5F5F5F5F5F5F5F5F5F5F5F5F5F5F5F5F5F5F5F5F5F5F5F5F5F5F5F5F5F5F5F5F5F5F5F5F5F5F5F5F5F5F5F5F5F5F5F5F5F5F5F5F5F5F5F5F5F5F5F5F5F5F5F5F5F5F5F5F5F5F5F5F5F5F5F5F5F5F5F5F5F5F5E2E2E2E2EFE2E2F5F5F5F5F5F5F5F5F5F5F5F5F5F5F5F5F5F5F5F5F5F5F5F5F5F5
310
F5F5F5F5F5F5F5F5F5F5F5F5F5F5F5F5F5F5F5F5F5F5F5F5F5F5F5F5F5F5F5F5F5F5F5F5F5F5F5F5F5F5F5F5F5F5F5F5F5F5F5F5F5F5F5F5F5F5F5F5F5F5F5F5F5F5F5F5F5F5F5F5F5F5F5F5F5F5F5F5F5F5F5F5F5F5F5F5F5F5F5F5F5F5F5F5F5F5F5F5F5F5F5F5F5F5F5F5F5F5F5F5F5F5F5F5F5F5F5F5F5F5F5F5F5F5F5
310
F5F5F5F5F5F5F5F5F5F5F5F5F5F5F5F5F5F5F5F5E2E2E2E2EFE2E2F5F5F5F5F5F5F5F5F5F5F5F5F5F5F5F5F5F5F5F5F5F5F5F5F5F5F5F5F5F5F5F5F5F5F5F5F5F5F5F5F5F5F5F5F5F5F5F5F5F5F5F5F5F5F5F5F5F5F5F5F5F5F5F5F5F5F5F5F5F5F5F5F5F5F5F5F5F5F5F5F5F5F5F5F5F5F5F5F5F5F5F5F5F5F5F5F5F5F5F5
310
F5F5F5F5F5F5F5F5F5F5F5F5F5F5F5F5F5F5F5F5F5F5F5F5F5F5F5F5F5F5F5F5F5F5F5F5F5F5F5F5F5F5F5F5F5F5F5F5F5F5F5F5F5F5F5F5F5F5F5F5F5F5F5F5F5F5F5F5F5F5F5F5F5E2E2E2E2EFE2E2F5F5F5F5F5F5F5F5F5F5F5F5F5F5F5F5F5F5F5F5F5F5F5F5F5F5F5F5F5F5F5F5F5F5F5F5F5F5F5F5F5F5F5F5F5F5F5
310
F5F5F5F5F5F5F5F5F5F5F5F5F5F5F5F5F5F5F5F5F5F5F5F5F5F5F5F5F5F5F5F5F5F5F5F5F5F5F5F5F5F5F5F5F5F5F5F5F5F5F5F5F5F5F5F5F5F5F5F5F5F5F5F5F5F5F5F5F5F5F5F5F5F5F5F5F5F5F5F5F5F5F5F5F5F5F5F5F5F5F5F5F5F5F5F5F5F5F5F5F5F5F5F5F5F5F5F5F5F5F5F5F5F5F5F5F5F5F5F5F5F5F5F5F5F5E2
310
E2E2E2EFE2E2F5F5F5F5F5F5F5F5F5F5F5F5F5F5F5F5F5F5F5F5F5F5F5F5F5F5F5F5F5F5F5F5F5F5F5F5F5F5F5F5F5F5F5F5F5F5F5F5F5F5F5F5F5F5F5F5F5F5F5F5F5F5F5F5F5F5F5F5F5F5F5F5F5F5F5F5F5F5F5F5F5F5F5F5F5F5F5F5F5F5F5F5F5F5F5F5F5F5F5F5F5F5F5F5F5F5F5F5F5F5F5F5F5F5F5F5F5F5F5F5F5
310
F5F5F5F5F5F5F5F5F5F5F5F5F5F5F5F5F5F5F5F5F5F5F5F5F5F5F5F5F5F5F5F5F5F5F5F5F5F5F5F5F5F5F5F5F5F5F5F5F5F5F5F5E2E2E2E2EFE2E2F5F5F5F5F5F5F5F5F5F5F5F5F5F5F5F5F5F5F5F5F5F5F5F5F5F5F5F5F5F5F5F5F5F5F5F5F5F5F5F5F5F5F5F5F5F5F5F5F5F5F5F5F5F5F5F5F5F5F5F5F5F5F5F5F5F5F5F5
310
F5F5F5F5F5F5F5F5F5F5F5F5F5F5F5F5F5F5F5F5F5F5F5F5F5F5F5F5F5F5F5F5F5F5F5F5F5F5F5F5F5F5F5F5F5F5F5F5F5F5F5F5F5F5F5F5F5F5F5F5F5F5F5F5F5F5F5F5F5F5F5F5F5F5F5F5F5F5F5F5F5F5F5F5F5F5F5F5F5F5F5F5F5F5F5F5F5F5F5F5F5F5F5F5F5E2E2E2E2EFE2E2F5F5F5F5F5F5F5F5F5F5F5F5F5F5F5
310
F5F5F5F5F5F5F5F5F5F5F5F5F5F5F5F5F5F5F5F5F5F5F5F5F5F5F5F5F5F5F5F5F5F5F5F5F5F5F5F5F5F5F5F5F5F5F5F5F5F5F5F5F5F5F5F5F5F5F5F5F5F5F5F5F5F5F5F5F5F5F5F5F5F5F5F5F5F5F5F5F5F5F5F5F5F5F5F5F5F5F5F5F5F5F5F5F5F5F5F5F5F5F5F5F5F5F5F5F5F5F5F5F5F5F5F5F5F5F5F5F5F5F5F5F5F5F5
310
F5F5F5F5F5F5F5F5F5F5F5F5F5F5F5F5F5F5F5F5F5F5F5F5F5F5F5F5F5F5F5E2F5E2E2EFE2E2F5F5F5F5F5F5F5F5F5F5F5F5F5F5F5F5F5F5F5F5F5F5F5F5F5F5F5F5F5F5F5F5F5F5F5F5F5F5F5F5F5F5F5F5F5F5F5F5F5F5F5F5F5F5F5F5F5F5F5F5F5F5F5F5F5F5F5F5F5F5F5F5F5F5F5F5F5F5F5F5F5F5F5F5F5F5F5F5F5
310
F5F5F5F5F5F5F5F5F5F5F5F5F5F5F5F5F5F5F5F5F5F5F5F5F5F5F5F5F5F5F5F5F5F5F5F5F5F5F5F5F5F5F5F5F5F5F5F5F5F5F5F5F5F5F5F5F5F5F5F5F5F5F5F5F5F5F5F5F5F5F5F5F5F5F5F5F5F5F5F5F5F5F5F5E2F5E2E2EFE2E2F5F5F5F5F5F5F5F5F5F5F5F5F5F5F5F5F5F5F5F5F5F5F5F5F5F5F5F5F5F5F5F5F5F5F5F5
310
F5F5F5F5F5F5F5F5F5F5F5F5F5F5F5F5F5F5F5F5F5F5F5F5F5F5F5F5F5F5F5F5F5F5F5F5F5F5F5F5F5F5F5F5F5F5F5F5F5F5F5F5F5F5F5F5F5F5F5F5F5F5F5F5F5F5F5F5F5F5F5F5F5F5F5F5F5F5F5F5F5F5F5F5F5F5F5F5F5F5F5F5F5F5F5F5F5F5F5F5F5F5F5F5F5F5F5F5F5F5F5F5F5F5F5F5F5F5F5F5F5F5F5F5F5F5F5
310
F5F5F5F5F5F5F5F5F5F5E2F5E2E2EFE2E2F5F5F5F5F5F5F5F5F5F5F5F5F5F5F5F5F5F5F5F5F5F5F5F5F5F5F5F5F5F5F5F5F5F5F5F5F5F5F5F5F5F5F5F5F5F5F5F5F5F5F5F5F5F5F5F5F5F5F5F5F5F5F5F5F5F5F5F5F5F5F5F5F5F5F5F5F5F5F5F5F5F5F5F5F5F5F5F5F5F5F5F5F5F5F5F5F5F5F5F5F5F5F5F5F5F5F5F5F5F5
310
F5F5F5F5F5F5F5F5F5F5F5F5F5F5F5F5F5F5F5F5F5F5F5F5F5F5F5F5F5F5F5F5F5F5F5F5F5F5F5F5F5F5F5F5F5F5F5F5F5F5F5F5F5F5F5F5F5F5F5F5F5F5F5E2F5E2E2EFE2E2F5F5F5F5F5F5F5F5F5F5F5F5F5F5F5F5F5F5F5F5F5F5F5F5F5F5F5F5F5F5F5F5F5F5F5F5F5F5F5F5F5F5F5F5F5F5F5F5F5F5F5F5F5F5F5F5F5
310
F5F5F5F5F5F5F5F5F5F5F5F5F5F5F5F5F5F5F5F5F5F5F5F5F5F5F5F5F5F5F5F5F5F5F5F5F5F5F5F5F5F5F5F5F5F5F5F5F5F5F5F5F5F5F5F5F5F5F5F5F5F5F5F5F5F5F5F5F5F5F5F5F5F5F5F5F5F5F5F5F5F5F5F5F5F5F5F5F5F5F5F5F5F5F5F5F5F5F5F5F5F5F5F5F5F5F5F5F5F5F5F5F5F5F5F5E2F5E2E2EFE2E2F5F5F5F5
310
F5F5F5F5F5F5F5F5F5F5F5F5F5F5F5F5F5F5F5F5F5F5F5F5F5F5F5F5F5F5F5F5F5F5F5F5F5F5F5F5F5F5F5F5F5F5F5F5F5F5F5F5F5F5F5F5F5F5F5F5F5F5F5F5F5F5F5F5F5F5F5F5F5F5F5F5F5F5F5F5F5F5F5F5F5F5F5F5F5F5F5F5F5F5F5F5F5F5F5F5F5F5F5F5F5F5F5F5F5F5F5F5F5F5F5F5F5F5F5F5F5F5F5F5F5F5F5
310
F5F5F5F5F5F5F5F5F5F5F5F5F5F5F5F5F5F5F5F5F5F5F5F5F5F5F5F5F5F5F5F5F5F5F5F5F5F5F5F5F5F5E2F5E2E2EFE2E2F5F5F5F5F5F5F5F5F5F5F5F5F5F5F5F5F5F5F5F5F5F5F5F5F5F5F5F5F5F5F5F5F5F5F5F5F5F5F5F5F5F5F5F5F5F5F5F5F5F5F5F5F5F5F5F5F5F5F5F5F5F5F5F5F5F5F5F5F5F5F5F5F5F5F5F5F5F5
310
F5F5F5F5F5F5F5F5F5F5F5F5F5F5F5F5F5F5F5F5F5F5F5F5F5F5F5F5F5F5F5F5F5F5F5F5F5F5F5F5F5F5F5F5F5F5F5F5F5F5F5F5F5F5F5F5F5F5F5F5F5F5F5F5F5F5F5F5F5F5F5F5F5F5F5F5F5F5F5F5F5F5F5F5F5F5F5F5F5F5F5F5F5F5F5E2F5E2E2EFE2E2F5F5F5F5F5F5F5F5F5F5F5F5F5F5F5F5F5F5F5F5F5F5F5F5F5
310
F5F5F5F5F5F5F5F5F5F5F5F5F5F5F5F5F5F5F5F5F5F5F5F5F5F5F5F5F5F5F5F5F5F5F5F5F5F5F5F5F5F5F5F5F5F5F5F5F5F5F5F5F5F5F5F5F5F5F5F5F5F5F5F5F5F5F5F5F5F5F5F5F5F5F5F5F5F5F5F5F5F5F5F5F5F5F5F5F5F5F5F5F5F5F5F5F5F5F5F5F5F5F5F5F5F5F5F5F5F5F5F5F5F5F5F5F5F5F5F5F5F5F5F5F5F5F5
310
F5F5F5F5F5F5F5F5F5F5F5F5F5F5F5F5F5F5F5F5F5E2F5E2E2EFE2E2F5F5F5F5F5F5F5F5F5F5F5F5F5F5F5F5F5F5F5F5F5F5F5F5F5F5F5F5F5F5F5F5F5F5F5F5F5F5F5F5F5F5F5F5F5F5F5F5F5F5F5F5F5F5F5F5F5F5F5F5F5F5F5F5F5F5F5F5F5F5F5F5F5F5F5F5F5F5F5F5F5F5F5F5F5F5F5F5F5F5F5F5F5F5F5F5F5F5F5
310
F5F5F5F5F5F5F5F5F5F5F5F5F5F5F5F5F5F5F5F5F5F5F5F5F5F5F5F5F5F5F5F5F5F5F5F5F5F5F5F5F5F5F5F5F5F5F5F5F5F5F5F5F5F5F5F5F5F5F5F5F5F5F5F5F5F5F5F5F5F5F5F5F5F5E2F5E2E2EFE2E2F5F5F5F5F5F5F5F5F5F5F5F5F5F5F5F5F5F5F5F5F5F5F5F5F5F5F5F5F5F5F5F5F5F5F5F5F5F5F5F5F5F5F5F5F5F5
310
F5F5F5F5F5F5F5F5F5F5F5F5F5F5F5F5F5F5F5F5F5F5F5F5F5F5F5F5F5F5F5F5F5F5F5F5F5F5F5F5F5F5F5F5F5F5F5F5F5F5F5F5F5F5F5F5F5F5F5F5F5F5F5F5F5F5F5F5F5F5F5F5F5F5F5F5F5F5F5F5F5F5F5F5F5F5F5F5F5F5F5F5F5F5F5F5F5F5F5F5F5F5F5F5F5F5F5F5F5F5F5F5F5F5F5F5F5F5F5F5F5F5F5F5F5F5F5
310
E2E2E2E2EFE2E2F5F5F5F5F5F5F5F5F5F5F5F5F5F5F5F5F5F5F5F5F5F5F5F5F5F5F5F5F5F5F5F5F5F5F5F5F5F5F5F5F5F5F5F5F5F5F5F5F5F5F5F5F5F5F5F5F5F5F5F5F5F5F5F5F5F5F5F5F5F5F5F5F5F5F5F5F5F5F5F5F5F5F5F5F5F5F5F5F5F5F5F5F5F5F5F5F5F5F5F5F5F5F5F5F5F5F5F5F5F5F5F5F5F5F5F5F5F5F5F5
310
F5F5F5F5F5F5F5F5F5F5F5F5F5F5F5F5F5F5F5F5F5F5F5F5F5F5F5F5F5F5F5F5F5F5F5F5F5F5F5F5F5F5F5F5F5F5F5F5F5F5F5F5F5E2E2E2E2EFE2E2F5F5F5F5F5F5F5F5F5F5F5F5F5F5F5F5F5F5F5F5F5F5F5F5F5F5F5F5F5F5F5F5F5F5F5F5F5F5F5F5F5F5F5F5F5F5F5F5F5F5F5F5F5F5F5F5F5F5F5F5F5F5F5F5F5F5F5
310
F5F5F5F5F5F5F5F5F5F5F5F5F5F5F5F5F5F5F5F5F5F5F5F5F5F5F5F5F5F5F5F5F5F5F5F5F5F5F5F5F5F5F5F5F5F5F5F5F5F5F5F5F5F5F5F5F5F5F5F5F5F5F5F5F5F5F5F5F5F5F5F5F5F5F5F5F5F5F5F5F5F5F5F5F5F5F5F5F5F5F5F5F5F5F5F5F5F5F5F5F5F5F5F5F5F5E2E2E2E2EFE2E2F5F5F5F5F5F5F5F5F5F5F5F5F5F5
310
F5F5F5F5F5F5F5F5F5F5F5F5F5F5F5F5F5F5F5F5F5F5F5F5F5F5F5F5F5F5F5F5F5F5F5F5F5F5F5F5F5F5F5F5F5F5F5F5F5F5F5F5F5F5F5F5F5F5F5F5F5F5F5F5F5F5F5F5F5F5F5F5F5F5F5F5F5F5F5F5F5F5F5F5F5F5F5F5F5F5F5F5F5F5F5F5F5F5F5F5F5F5F5F5F5F5F5F5F5F5F5F5F5F5F5F5F5F5F5F5F5F5F5F5F5F5F5
310
F5F5F5F5F5F5F5F5F5F5F5F5F5F5F5F5F5F5F5F5F5F5F5F5F5F5F5F5F5F5F5F5E2E2E2E2EFE2E2F5F5F5F5F5F5F5F5F5F5F5F5F5F5F5F5F5F5F5F5F5F5F5F5F5F5F5F5F5F5F5F5F5F5F5F5F5F5F5F5F5F5F5F5F5F5F5F5F5F5F5F5F5F5F5F5F5F5F5F5F5F5F5F5F5F5F5F5F5F5F5F5F5F5F5F5F5F5F5F5F5F5F5F5F5F5F5F5
310
F5F5F5F5F5F5F5F5F5F5F5F5F5F5F5F5F5F5F5F5F5F5F5F5F5F5F5F5F5F5F5F5F5F5F5F5F5F5F5F5F5F5F5F5F5F5F5F5F5F5F5F5F5F5F5F5F5F5F5F5F5F5F5F5F5F5F5F5F5F5F5F5F5F5F5F5F5F5F5F5F5F5F5F5F5E2E2E2E2EFE2E2E2E2E2E2E2E2E2E2E2E2E2E2E2E2E2E2E2E2E2E2E2E2E2E2E2E2E2E2E2E2E2E2E2E2E2
310
E2E2E2E2E2E2E2E2E2E2E2E2E2E2E2E2E2E2E2E2E2E2E2E2E2E2E2E2E2E2E2E2E2E2E2E2E2E2E2E2E2E2E2E2E2E2E2E2E2E2E2E2E2E2E2E2E2E2E2E2E2E2E2E2E2E2E2E2E2E2E2E2E2E2E2E2E2E2E2E2E2E2E2E2E2E2E2E2E2E2E2E2E2E2E2E2E2E2E2E2E2E2E2E2E2E2E2E2E2E2E2E2E2E2E2E2E2E2E2E2E2E2E2E2E2E2E2
310
E2E2E2E2E2E2E2E2E2E2E2E2E2E2E2EFE2E2F5F5F5F5F5F5F5F5F5F5F5F5F5F5F5F5F5F5F5F5F5F5F5F5F5F5F5F5F5F5F5F5F5F5F5F5F5F5F5F5F5F5F5F5F5F5F5F5F5F5F5F5F5F5F5F5F5F5F5F5F5F5F5F5F5F5F5F5F5F5F5F5F5F5F5F5F5F5F5F5F5F5F5F5F5F5F5F5F5F5F5F5F5F5F5F5F5F5F5F5F5F5F5F5F5F5F5F5F5
310
F5F5F5F5F5F5F5F5F5F5F5F5F5F5F5F5F5F5F5F5F5F5F5F5F5F5F5F5F5F5F5F5F5F5F5F5F5F5F5F5F5F5F5F5F5F5F5F5F5F5F5F5F5F5F5F5F5F5F5F5F5F5F5F5F5E2E2E2EFE2E2E2E2E2E2E2E2E2E2F5F5F5F5F5F5F5F5F5E2E2E2E2E2E2E2E2E2E2E2E2E2E2E2E2F5F5F5F5F5F5F5F5F5E2E2E2E2E2E2E2E2E2E2E2E2E2E2
310
E2E2F5F5F5F5F5F5F5F5F5E2E2E2E2E2E2E2E2E2E2E2E2E2E2E2E2F5F5F5F5F5F5F5F5F5E2E2E2E2E2E2E2E2E2E2E2E2E2E2E2E2F5F5F5F5F5F5F5F5F5E2E2E2E2E2E2E2E2E2E2E2E2E2E2E2E2F5F5F5F5F5F5F5F5F5E2E2E2E2E2E2E2E2E2E2E2E2E2E2E2E2F5F5F5F5F5F5F5F5F5E2E2E2E2E2E2E2E2E2EFEFE2E2E2E2E2
310
E2E2E2E2E2E2E2E2E2E2E2E2E2E2E2E2E2E2E2E2E2E2E2E2E2E2E2E2E2E2E2E2E2E2E2E2E2E2E2E2E2E2E2E2E2E2E2E2E2E2E2E2E2E2E2E2E2E2E2E2E2E2E2E2E2E2E2E2E2E2E2E2E2E2E2E2E2E2E2E2E2E2E2E2E2E2E2E2E2E2E2E2E2E2E2E2E2E2E2E2E2E2E2E2E2E2E2E2E2E2E2E2E2E2E2E2E2E2E2E2E2E2E2E2E2E2E2
310
E2E2E2E2E2E2E2E2E2E2E2E2E2E2E2E2E2E2E2E2E2E2E2E2E2E2E2E2E2E2E2E2E2E2E2E2E2E2E2E2E2E2E2E2E2E2EFEF
  0
XRECORD
  5
9307
102
{ACAD_REACTORS
330
9306
102
}
330
9306
100
AcDbXrecord
280
     1
102
MATERIAL
148
0.0
149
0.0
149
0.0
 93
        0
 94
      127
282
     0
 72
     1
 77
     1
171
     1
175
     1
179
     1
273
     0
  0
XRECORD
  5
9305
102
{ACAD_REACTORS
330
9304
102
}
330
9304
100
AcDbXrecord
280
     1
102
MATERIAL
148
0.0
149
0.0
149
0.0
 93
        0
 94
      127
282
     0
 72
     1
 77
     1
171
     1
175
     1
179
     1
273
     0
  0
XRECORD
  5
9309
102
{ACAD_REACTORS
330
9308
102
}
330
9308
100
AcDbXrecord
280
     1
102
MATERIAL
148
0.0
149
0.0
149
0.0
 93
        0
 94
      127
282
     0
 72
     1
 77
     1
171
     1
175
     1
179
     1
273
     0
  0
CELLSTYLEMAP
  5
9303
102
{ACAD_REACTORS
330
8CA0
102
}
330
8CA0
100
AcDbCellStyleMap
 90
        3
300
CELLSTYLE
  1
TABLEFORMAT_BEGIN
 90
        5
170
     1
 91
        0
 92
    32768
 62
   257
 93
        1
300
CONTENTFORMAT
  1
CONTENTFORMAT_BEGIN
 90
        0
 91
        0
 92
      512
 93
        0
300

 40
0.0
140
1.0
 94
        5
 62
     0
340
11
144
0.25
309
CONTENTFORMAT_END
171
     0
 94
        6
 95
        1
302
GRIDFORMAT
  1
GRIDFORMAT_BEGIN
 90
        0
 91
        1
 62
     0
 92
       -2
340
0
 93
        0
 40
0.045
309
GRIDFORMAT_END
 95
        2
302
GRIDFORMAT
  1
GRIDFORMAT_BEGIN
 90
        0
 91
        1
 62
     0
 92
       -2
340
0
 93
        0
 40
0.045
309
GRIDFORMAT_END
 95
        4
302
GRIDFORMAT
  1
GRIDFORMAT_BEGIN
 90
        0
 91
        1
 62
     0
 92
       -2
340
0
 93
        0
 40
0.045
309
GRIDFORMAT_END
 95
        8
302
GRIDFORMAT
  1
GRIDFORMAT_BEGIN
 90
        0
 91
        1
 62
     0
 92
       -2
340
0
 93
        0
 40
0.045
309
GRIDFORMAT_END
 95
       16
302
GRIDFORMAT
  1
GRIDFORMAT_BEGIN
 90
        0
 91
        1
 62
     0
 92
       -2
340
0
 93
        0
 40
0.045
309
GRIDFORMAT_END
 95
       32
302
GRIDFORMAT
  1
GRIDFORMAT_BEGIN
 90
        0
 91
        1
 62
     0
 92
       -2
340
0
 93
        0
 40
0.045
309
GRIDFORMAT_END
309
TABLEFORMAT_END
  1
CELLSTYLE_BEGIN
 90
        1
 91
        1
300
_TITLE
309
CELLSTYLE_END
300
CELLSTYLE
  1
TABLEFORMAT_BEGIN
 90
        5
170
     1
 91
        0
 92
        0
 62
   257
 93
        1
300
CONTENTFORMAT
  1
CONTENTFORMAT_BEGIN
 90
        0
 91
        0
 92
      512
 93
        0
300

 40
0.0
140
1.0
 94
        5
 62
     0
340
11
144
0.18
309
CONTENTFORMAT_END
171
     0
 94
        6
 95
        1
302
GRIDFORMAT
  1
GRIDFORMAT_BEGIN
 90
        0
 91
        1
 62
     0
 92
       -2
340
0
 93
        0
 40
0.045
309
GRIDFORMAT_END
 95
        2
302
GRIDFORMAT
  1
GRIDFORMAT_BEGIN
 90
        0
 91
        1
 62
     0
 92
       -2
340
0
 93
        0
 40
0.045
309
GRIDFORMAT_END
 95
        4
302
GRIDFORMAT
  1
GRIDFORMAT_BEGIN
 90
        0
 91
        1
 62
     0
 92
       -2
340
0
 93
        0
 40
0.045
309
GRIDFORMAT_END
 95
        8
302
GRIDFORMAT
  1
GRIDFORMAT_BEGIN
 90
        0
 91
        1
 62
     0
 92
       -2
340
0
 93
        0
 40
0.045
309
GRIDFORMAT_END
 95
       16
302
GRIDFORMAT
  1
GRIDFORMAT_BEGIN
 90
        0
 91
        1
 62
     0
 92
       -2
340
0
 93
        0
 40
0.045
309
GRIDFORMAT_END
 95
       32
302
GRIDFORMAT
  1
GRIDFORMAT_BEGIN
 90
        0
 91
        1
 62
     0
 92
       -2
340
0
 93
        0
 40
0.045
309
GRIDFORMAT_END
309
TABLEFORMAT_END
  1
CELLSTYLE_BEGIN
 90
        2
 91
        1
300
_HEADER
309
CELLSTYLE_END
300
CELLSTYLE
  1
TABLEFORMAT_BEGIN
 90
        5
170
     1
 91
        0
 92
        0
 62
   257
 93
        1
300
CONTENTFORMAT
  1
CONTENTFORMAT_BEGIN
 90
        0
 91
        0
 92
      512
 93
        0
300

 40
0.0
140
1.0
 94
        2
 62
     0
340
11
144
0.18
309
CONTENTFORMAT_END
171
     0
 94
        6
 95
        1
302
GRIDFORMAT
  1
GRIDFORMAT_BEGIN
 90
        0
 91
        1
 62
     0
 92
       -2
340
0
 93
        0
 40
0.045
309
GRIDFORMAT_END
 95
        2
302
GRIDFORMAT
  1
GRIDFORMAT_BEGIN
 90
        0
 91
        1
 62
     0
 92
       -2
340
0
 93
        0
 40
0.045
309
GRIDFORMAT_END
 95
        4
302
GRIDFORMAT
  1
GRIDFORMAT_BEGIN
 90
        0
 91
        1
 62
     0
 92
       -2
340
0
 93
        0
 40
0.045
309
GRIDFORMAT_END
 95
        8
302
GRIDFORMAT
  1
GRIDFORMAT_BEGIN
 90
        0
 91
        1
 62
     0
 92
       -2
340
0
 93
        0
 40
0.045
309
GRIDFORMAT_END
 95
       16
302
GRIDFORMAT
  1
GRIDFORMAT_BEGIN
 90
        0
 91
        1
 62
     0
 92
       -2
340
0
 93
        0
 40
0.045
309
GRIDFORMAT_END
 95
       32
302
GRIDFORMAT
  1
GRIDFORMAT_BEGIN
 90
        0
 91
        1
 62
     0
 92
       -2
340
0
 93
        0
 40
0.045
309
GRIDFORMAT_END
309
TABLEFORMAT_END
  1
CELLSTYLE_BEGIN
 90
        3
 91
        2
300
_DATA
309
CELLSTYLE_END
  0
XRECORD
  5
930A
102
{ACAD_REACTORS
330
8CA0
102
}
330
8CA0
100
AcDbXrecord
280
     1
102
ACAD_ROUNDTRIP_PRE2007_TABLESTYLE
 90
      512
 91
        0
  1

 92
      512
 93
        0
  2

 94
      512
 95
        0
  3

  0
XRECORD
  5
49B
102
{ACAD_REACTORS
330
49A
102
}
330
49A
100
AcDbXrecord
280
     1
102
RTVSPropertyOp0
 70
     1
102
RTVSPropertyOp1
 70
     1
102
RTVSPropertyOp2
 70
     1
102
RTVSPropertyOp3
 70
     1
102
RTVSPropertyOp4
 70
     1
102
RTVSPropertyOp5
 70
     1
102
RTVSPropertyOp6
 70
     1
102
RTVSPropertyOp7
 70
     1
102
RTVSPropertyOp8
 70
     1
102
RTVSPropertyOp9
 70
     1
102
RTVSPropertyOp10
 70
     1
102
RTVSPropertyOp11
 70
     1
102
RTVSPropertyOp12
 70
     1
102
RTVSPropertyOp13
 70
     1
102
RTVSPropertyOp14
 70
     1
102
RTVSPropertyOp15
 70
     1
102
RTVSPropertyOp16
 70
     1
102
RTVSPropertyOp17
 70
     1
102
RTVSPropertyOp18
 70
     1
102
RTVSPropertyOp19
 70
     1
102
RTVSPropertyOp20
 70
     1
102
RTVSPropertyOp21
 70
     1
102
RTVSPropertyOp22
 70
     1
102
RTVSPropertyOp23
 70
     1
102
RTVSPropertyOp24
 70
     1
102
RTVSPropertyOp25
 70
     1
102
RTVSPropertyOp26
 70
     1
102
RTVSPropertyOp27
 70
     1
  0
XRECORD
  5
A4A
102
{ACAD_REACTORS
330
A49
102
}
330
A49
100
AcDbXrecord
280
     1
102
RTVSPropertyOp0
 70
     1
102
RTVSPropertyOp1
 70
     1
102
RTVSPropertyOp2
 70
     1
102
RTVSPropertyOp3
 70
     1
102
RTVSPropertyOp4
 70
     1
102
RTVSPropertyOp5
 70
     1
102
RTVSPropertyOp6
 70
     1
102
RTVSPropertyOp7
 70
     1
102
RTVSPropertyOp8
 70
     1
102
RTVSPropertyOp9
 70
     1
102
RTVSPropertyOp10
 70
     1
102
RTVSPropertyOp11
 70
     1
102
RTVSPropertyOp12
 70
     1
102
RTVSPropertyOp13
 70
     1
102
RTVSPropertyOp14
 70
     1
102
RTVSPropertyOp15
 70
     1
102
RTVSPropertyOp16
 70
     1
102
RTVSPropertyOp17
 70
     1
102
RTVSPropertyOp18
 70
     1
102
RTVSPropertyOp19
 70
     1
102
RTVSPropertyOp20
 70
     1
102
RTVSPropertyOp21
 70
     1
102
RTVSPropertyOp22
 70
     1
102
RTVSPropertyOp23
 70
     1
102
RTVSPropertyOp24
 70
     1
102
RTVSPropertyOp25
 70
     1
102
RTVSPropertyOp26
 70
     1
102
RTVSPropertyOp27
 70
     1
  0
XRECORD
  5
4A1
102
{ACAD_REACTORS
330
4A0
102
}
330
4A0
100
AcDbXrecord
280
     1
102
RTVSPropertyOp0
 70
     1
102
RTVSPropertyOp1
 70
     1
102
RTVSPropertyOp2
 70
     1
102
RTVSPropertyOp3
 70
     1
102
RTVSPropertyOp4
 70
     1
102
RTVSPropertyOp5
 70
     1
102
RTVSPropertyOp6
 70
     1
102
RTVSPropertyOp7
 70
     1
102
RTVSPropertyOp8
 70
     1
102
RTVSPropertyOp9
 70
     1
102
RTVSPropertyOp10
 70
     1
102
RTVSPropertyOp11
 70
     1
102
RTVSPropertyOp12
 70
     1
102
RTVSPropertyOp13
 70
     1
102
RTVSPropertyOp14
 70
     1
102
RTVSPropertyOp15
 70
     1
102
RTVSPropertyOp16
 70
     1
102
RTVSPropertyOp17
 70
     1
102
RTVSPropertyOp18
 70
     1
102
RTVSPropertyOp19
 70
     1
102
RTVSPropertyOp20
 70
     1
102
RTVSPropertyOp21
 70
     1
102
RTVSPropertyOp22
 70
     1
102
RTVSPropertyOp23
 70
     1
102
RTVSPropertyOp24
 70
     1
102
RTVSPropertyOp25
 70
     1
102
RTVSPropertyOp26
 70
     1
102
RTVSPropertyOp27
 70
     1
  0
XRECORD
  5
4A9
102
{ACAD_REACTORS
330
4A8
102
}
330
4A8
100
AcDbXrecord
280
     1
102
RTVSPropertyOp0
 70
     1
102
RTVSPropertyOp1
 70
     1
102
RTVSPropertyOp2
 70
     1
102
RTVSPropertyOp3
 70
     1
102
RTVSPropertyOp4
 70
     1
102
RTVSPropertyOp5
 70
     1
102
RTVSPropertyOp6
 70
     1
102
RTVSPropertyOp7
 70
     1
102
RTVSPropertyOp8
 70
     1
102
RTVSPropertyOp9
 70
     1
102
RTVSPropertyOp10
 70
     1
102
RTVSPropertyOp11
 70
     1
102
RTVSPropertyOp12
 70
     1
102
RTVSPropertyOp13
 70
     1
102
RTVSPropertyOp14
 70
     1
102
RTVSPropertyOp15
 70
     1
102
RTVSPropertyOp16
 70
     1
102
RTVSPropertyOp17
 70
     1
102
RTVSPropertyOp18
 70
     1
102
RTVSPropertyOp19
 70
     1
102
RTVSPropertyOp20
 70
     1
102
RTVSPropertyOp21
 70
     1
102
RTVSPropertyOp22
 70
     1
102
RTVSPropertyOp23
 70
     1
102
RTVSPropertyOp24
 70
     1
102
RTVSPropertyOp25
 70
     1
102
RTVSPropertyOp26
 70
     1
102
RTVSPropertyOp27
 70
     1
  0
XRECORD
  5
4B1
102
{ACAD_REACTORS
330
4B0
102
}
330
4B0
100
AcDbXrecord
280
     1
102
RTVSPropertyOp0
 70
     1
102
RTVSPropertyOp1
 70
     1
102
RTVSPropertyOp2
 70
     1
102
RTVSPropertyOp3
 70
     1
102
RTVSPropertyOp4
 70
     1
102
RTVSPropertyOp5
 70
     1
102
RTVSPropertyOp6
 70
     1
102
RTVSPropertyOp7
 70
     1
102
RTVSPropertyOp8
 70
     1
102
RTVSPropertyOp9
 70
     1
102
RTVSPropertyOp10
 70
     1
102
RTVSPropertyOp11
 70
     1
102
RTVSPropertyOp12
 70
     1
102
RTVSPropertyOp13
 70
     1
102
RTVSPropertyOp14
 70
     1
102
RTVSPropertyOp15
 70
     1
102
RTVSPropertyOp16
 70
     1
102
RTVSPropertyOp17
 70
     1
102
RTVSPropertyOp18
 70
     1
102
RTVSPropertyOp19
 70
     1
102
RTVSPropertyOp20
 70
     1
102
RTVSPropertyOp21
 70
     1
102
RTVSPropertyOp22
 70
     1
102
RTVSPropertyOp23
 70
     1
102
RTVSPropertyOp24
 70
     1
102
RTVSPropertyOp25
 70
     1
102
RTVSPropertyOp26
 70
     1
102
RTVSPropertyOp27
 70
     1
  0
XRECORD
  5
4A7
102
{ACAD_REACTORS
330
4A6
102
}
330
4A6
100
AcDbXrecord
280
     1
102
RTVSPropertyOp0
 70
     1
102
RTVSPropertyOp1
 70
     1
102
RTVSPropertyOp2
 70
     1
102
RTVSPropertyOp3
 70
     1
102
RTVSPropertyOp4
 70
     1
102
RTVSPropertyOp5
 70
     1
102
RTVSPropertyOp6
 70
     1
102
RTVSPropertyOp7
 70
     1
102
RTVSPropertyOp8
 70
     1
102
RTVSPropertyOp9
 70
     1
102
RTVSPropertyOp10
 70
     1
102
RTVSPropertyOp11
 70
     1
102
RTVSPropertyOp12
 70
     1
102
RTVSPropertyOp13
 70
     1
102
RTVSPropertyOp14
 70
     1
102
RTVSPropertyOp15
 70
     1
102
RTVSPropertyOp16
 70
     1
102
RTVSPropertyOp17
 70
     1
102
RTVSPropertyOp18
 70
     1
102
RTVSPropertyOp19
 70
     1
102
RTVSPropertyOp20
 70
     1
102
RTVSPropertyOp21
 70
     1
102
RTVSPropertyOp22
 70
     1
102
RTVSPropertyOp23
 70
     1
102
RTVSPropertyOp24
 70
     1
102
RTVSPropertyOp25
 70
     1
102
RTVSPropertyOp26
 70
     1
102
RTVSPropertyOp27
 70
     1
  0
XRECORD
  5
4AF
102
{ACAD_REACTORS
330
4AE
102
}
330
4AE
100
AcDbXrecord
280
     1
102
RTVSPropertyOp0
 70
     1
102
RTVSPropertyOp1
 70
     1
102
RTVSPropertyOp2
 70
     1
102
RTVSPropertyOp3
 70
     1
102
RTVSPropertyOp4
 70
     1
102
RTVSPropertyOp5
 70
     1
102
RTVSPropertyOp6
 70
     1
102
RTVSPropertyOp7
 70
     1
102
RTVSPropertyOp8
 70
     1
102
RTVSPropertyOp9
 70
     1
102
RTVSPropertyOp10
 70
     1
102
RTVSPropertyOp11
 70
     1
102
RTVSPropertyOp12
 70
     1
102
RTVSPropertyOp13
 70
     1
102
RTVSPropertyOp14
 70
     1
102
RTVSPropertyOp15
 70
     1
102
RTVSPropertyOp16
 70
     1
102
RTVSPropertyOp17
 70
     1
102
RTVSPropertyOp18
 70
     1
102
RTVSPropertyOp19
 70
     1
102
RTVSPropertyOp20
 70
     1
102
RTVSPropertyOp21
 70
     1
102
RTVSPropertyOp22
 70
     1
102
RTVSPropertyOp23
 70
     1
102
RTVSPropertyOp24
 70
     1
102
RTVSPropertyOp25
 70
     1
102
RTVSPropertyOp26
 70
     1
102
RTVSPropertyOp27
 70
     1
  0
XRECORD
  5
493
102
{ACAD_REACTORS
330
492
102
}
330
492
100
AcDbXrecord
280
     1
102
RTVSPropertyOp0
 70
     1
102
RTVSPropertyOp1
 70
     1
102
RTVSPropertyOp2
 70
     1
102
RTVSPropertyOp3
 70
     1
102
RTVSPropertyOp4
 70
     1
102
RTVSPropertyOp5
 70
     1
102
RTVSPropertyOp6
 70
     1
102
RTVSPropertyOp7
 70
     1
102
RTVSPropertyOp8
 70
     1
102
RTVSPropertyOp9
 70
     1
102
RTVSPropertyOp10
 70
     1
102
RTVSPropertyOp11
 70
     1
102
RTVSPropertyOp12
 70
     1
102
RTVSPropertyOp13
 70
     1
102
RTVSPropertyOp14
 70
     1
102
RTVSPropertyOp15
 70
     1
102
RTVSPropertyOp16
 70
     1
102
RTVSPropertyOp17
 70
     1
102
RTVSPropertyOp18
 70
     1
102
RTVSPropertyOp19
 70
     1
102
RTVSPropertyOp20
 70
     1
102
RTVSPropertyOp21
 70
     1
102
RTVSPropertyOp22
 70
     1
102
RTVSPropertyOp23
 70
     1
102
RTVSPropertyOp24
 70
     1
102
RTVSPropertyOp25
 70
     1
102
RTVSPropertyOp26
 70
     1
102
RTVSPropertyOp27
 70
     1
  0
XRECORD
  5
495
102
{ACAD_REACTORS
330
494
102
}
330
494
100
AcDbXrecord
280
     1
102
RTVSPropertyOp0
 70
     1
102
RTVSPropertyOp1
 70
     1
102
RTVSPropertyOp2
 70
     1
102
RTVSPropertyOp3
 70
     1
102
RTVSPropertyOp4
 70
     1
102
RTVSPropertyOp5
 70
     1
102
RTVSPropertyOp6
 70
     1
102
RTVSPropertyOp7
 70
     1
102
RTVSPropertyOp8
 70
     1
102
RTVSPropertyOp9
 70
     1
102
RTVSPropertyOp10
 70
     1
102
RTVSPropertyOp11
 70
     1
102
RTVSPropertyOp12
 70
     1
102
RTVSPropertyOp13
 70
     1
102
RTVSPropertyOp14
 70
     1
102
RTVSPropertyOp15
 70
     1
102
RTVSPropertyOp16
 70
     1
102
RTVSPropertyOp17
 70
     1
102
RTVSPropertyOp18
 70
     1
102
RTVSPropertyOp19
 70
     1
102
RTVSPropertyOp20
 70
     1
102
RTVSPropertyOp21
 70
     1
102
RTVSPropertyOp22
 70
     1
102
RTVSPropertyOp23
 70
     1
102
RTVSPropertyOp24
 70
     1
102
RTVSPropertyOp25
 70
     1
102
RTVSPropertyOp26
 70
     1
102
RTVSPropertyOp27
 70
     1
  0
XRECORD
  5
497
102
{ACAD_REACTORS
330
496
102
}
330
496
100
AcDbXrecord
280
     1
102
RTVSPropertyOp0
 70
     1
102
RTVSPropertyOp1
 70
     1
102
RTVSPropertyOp2
 70
     1
102
RTVSPropertyOp3
 70
     1
102
RTVSPropertyOp4
 70
     1
102
RTVSPropertyOp5
 70
     1
102
RTVSPropertyOp6
 70
     1
102
RTVSPropertyOp7
 70
     1
102
RTVSPropertyOp8
 70
     1
102
RTVSPropertyOp9
 70
     1
102
RTVSPropertyOp10
 70
     1
102
RTVSPropertyOp11
 70
     1
102
RTVSPropertyOp12
 70
     1
102
RTVSPropertyOp13
 70
     1
102
RTVSPropertyOp14
 70
     1
102
RTVSPropertyOp15
 70
     1
102
RTVSPropertyOp16
 70
     1
102
RTVSPropertyOp17
 70
     1
102
RTVSPropertyOp18
 70
     1
102
RTVSPropertyOp19
 70
     1
102
RTVSPropertyOp20
 70
     1
102
RTVSPropertyOp21
 70
     1
102
RTVSPropertyOp22
 70
     1
102
RTVSPropertyOp23
 70
     1
102
RTVSPropertyOp24
 70
     1
102
RTVSPropertyOp25
 70
     1
102
RTVSPropertyOp26
 70
     1
102
RTVSPropertyOp27
 70
     1
  0
XRECORD
  5
499
102
{ACAD_REACTORS
330
498
102
}
330
498
100
AcDbXrecord
280
     1
102
RTVSPropertyOp0
 70
     1
102
RTVSPropertyOp1
 70
     1
102
RTVSPropertyOp2
 70
     1
102
RTVSPropertyOp3
 70
     1
102
RTVSPropertyOp4
 70
     1
102
RTVSPropertyOp5
 70
     1
102
RTVSPropertyOp6
 70
     1
102
RTVSPropertyOp7
 70
     1
102
RTVSPropertyOp8
 70
     1
102
RTVSPropertyOp9
 70
     1
102
RTVSPropertyOp10
 70
     1
102
RTVSPropertyOp11
 70
     1
102
RTVSPropertyOp12
 70
     1
102
RTVSPropertyOp13
 70
     1
102
RTVSPropertyOp14
 70
     1
102
RTVSPropertyOp15
 70
     1
102
RTVSPropertyOp16
 70
     1
102
RTVSPropertyOp17
 70
     1
102
RTVSPropertyOp18
 70
     1
102
RTVSPropertyOp19
 70
     1
102
RTVSPropertyOp20
 70
     1
102
RTVSPropertyOp21
 70
     1
102
RTVSPropertyOp22
 70
     1
102
RTVSPropertyOp23
 70
     1
102
RTVSPropertyOp24
 70
     1
102
RTVSPropertyOp25
 70
     1
102
RTVSPropertyOp26
 70
     1
102
RTVSPropertyOp27
 70
     1
  0
XRECORD
  5
4AD
102
{ACAD_REACTORS
330
4AC
102
}
330
4AC
100
AcDbXrecord
280
     1
102
RTVSPropertyOp0
 70
     1
102
RTVSPropertyOp1
 70
     1
102
RTVSPropertyOp2
 70
     1
102
RTVSPropertyOp3
 70
     1
102
RTVSPropertyOp4
 70
     1
102
RTVSPropertyOp5
 70
     1
102
RTVSPropertyOp6
 70
     1
102
RTVSPropertyOp7
 70
     1
102
RTVSPropertyOp8
 70
     1
102
RTVSPropertyOp9
 70
     1
102
RTVSPropertyOp10
 70
     1
102
RTVSPropertyOp11
 70
     1
102
RTVSPropertyOp12
 70
     1
102
RTVSPropertyOp13
 70
     1
102
RTVSPropertyOp14
 70
     1
102
RTVSPropertyOp15
 70
     1
102
RTVSPropertyOp16
 70
     1
102
RTVSPropertyOp17
 70
     1
102
RTVSPropertyOp18
 70
     1
102
RTVSPropertyOp19
 70
     1
102
RTVSPropertyOp20
 70
     1
102
RTVSPropertyOp21
 70
     1
102
RTVSPropertyOp22
 70
     1
102
RTVSPropertyOp23
 70
     1
102
RTVSPropertyOp24
 70
     1
102
RTVSPropertyOp25
 70
     1
102
RTVSPropertyOp26
 70
     1
102
RTVSPropertyOp27
 70
     1
  0
XRECORD
  5
A4E
102
{ACAD_REACTORS
330
A4D
102
}
330
A4D
100
AcDbXrecord
280
     1
102
RTVSPropertyOp0
 70
     1
102
RTVSPropertyOp1
 70
     1
102
RTVSPropertyOp2
 70
     1
102
RTVSPropertyOp3
 70
     1
102
RTVSPropertyOp4
 70
     1
102
RTVSPropertyOp5
 70
     1
102
RTVSPropertyOp6
 70
     1
102
RTVSPropertyOp7
 70
     1
102
RTVSPropertyOp8
 70
     1
102
RTVSPropertyOp9
 70
     1
102
RTVSPropertyOp10
 70
     1
102
RTVSPropertyOp11
 70
     1
102
RTVSPropertyOp12
 70
     1
102
RTVSPropertyOp13
 70
     1
102
RTVSPropertyOp14
 70
     1
102
RTVSPropertyOp15
 70
     1
102
RTVSPropertyOp16
 70
     1
102
RTVSPropertyOp17
 70
     1
102
RTVSPropertyOp18
 70
     1
102
RTVSPropertyOp19
 70
     1
102
RTVSPropertyOp20
 70
     1
102
RTVSPropertyOp21
 70
     1
102
RTVSPropertyOp22
 70
     1
102
RTVSPropertyOp23
 70
     1
102
RTVSPropertyOp24
 70
     1
102
RTVSPropertyOp25
 70
     1
102
RTVSPropertyOp26
 70
     1
102
RTVSPropertyOp27
 70
     1
  0
XRECORD
  5
4AB
102
{ACAD_REACTORS
330
4AA
102
}
330
4AA
100
AcDbXrecord
280
     1
102
RTVSPropertyOp0
 70
     1
102
RTVSPropertyOp1
 70
     1
102
RTVSPropertyOp2
 70
     1
102
RTVSPropertyOp3
 70
     1
102
RTVSPropertyOp4
 70
     1
102
RTVSPropertyOp5
 70
     1
102
RTVSPropertyOp6
 70
     1
102
RTVSPropertyOp7
 70
     1
102
RTVSPropertyOp8
 70
     1
102
RTVSPropertyOp9
 70
     1
102
RTVSPropertyOp10
 70
     1
102
RTVSPropertyOp11
 70
     1
102
RTVSPropertyOp12
 70
     1
102
RTVSPropertyOp13
 70
     1
102
RTVSPropertyOp14
 70
     1
102
RTVSPropertyOp15
 70
     1
102
RTVSPropertyOp16
 70
     1
102
RTVSPropertyOp17
 70
     1
102
RTVSPropertyOp18
 70
     1
102
RTVSPropertyOp19
 70
     1
102
RTVSPropertyOp20
 70
     1
102
RTVSPropertyOp21
 70
     1
102
RTVSPropertyOp22
 70
     1
102
RTVSPropertyOp23
 70
     1
102
RTVSPropertyOp24
 70
     1
102
RTVSPropertyOp25
 70
     1
102
RTVSPropertyOp26
 70
     1
102
RTVSPropertyOp27
 70
     1
  0
ENDSEC
  0
EOF
