  0
SECTION
  2
HEADER
  9
$ACADVER
  1
AC1018
  9
$ACADMAINTVER
 70
   104
  9
$DWGCODEPAGE
  3
ANSI_1250
  9
$LASTSAVEDBY
  1
bonzo
  9
$INSBASE
 10
0.0
 20
0.0
 30
0.0
  9
$EXTMIN
 10
-6.53156451113215
 20
1.854802264098956
 30
0.0
  9
$EXTMAX
 10
-0.98602272336511
 20
11.12037728203933
 30
0.0
  9
$LIMMIN
 10
0.0
 20
0.0
  9
$LIMMAX
 10
12.0
 20
9.0
  9
$ORTHOMODE
 70
     1
  9
$REGENMODE
 70
     1
  9
$FILLMODE
 70
     1
  9
$QTEXTMODE
 70
     0
  9
$MIRRTEXT
 70
     1
  9
$LTSCALE
 40
1.0
  9
$ATTMODE
 70
     1
  9
$TEXTSIZE
 40
0.2
  9
$TRACEWID
 40
0.05
  9
$TEXTSTYLE
  7
Standard
  9
$CLAYER
  8
0
  9
$CELTYPE
  6
ByLayer
  9
$CECOLOR
 62
   256
  9
$CELTSCALE
 40
1.0
  9
$DISPSILH
 70
     0
  9
$DIMSCALE
 40
0.02
  9
$DIMASZ
 40
3.0
  9
$DIMEXO
 40
20.0
  9
$DIMDLI
 40
0.0
  9
$DIMRND
 40
0.1
  9
$DIMDLE
 40
0.0
  9
$DIMEXE
 40
5.0
  9
$DIMTP
 40
0.0
  9
$DIMTM
 40
0.0
  9
$DIMTXT
 40
9.0
  9
$DIMCEN
 40
12.0
  9
$DIMTSZ
 40
0.0
  9
$DIMTOL
 70
     0
  9
$DIMLIM
 70
     0
  9
$DIMTIH
 70
     0
  9
$DIMTOH
 70
     0
  9
$DIMSE1
 70
     1
  9
$DIMSE2
 70
     1
  9
$DIMTAD
 70
     1
  9
$DIMZIN
 70
     1
  9
$DIMBLK
  1

  9
$DIMASO
 70
     1
  9
$DIMSHO
 70
     1
  9
$DIMPOST
  1

  9
$DIMAPOST
  1

  9
$DIMALT
 70
     0
  9
$DIMALTD
 70
     4
  9
$DIMALTF
 40
1.0
  9
$DIMLFAC
 40
1.0
  9
$DIMTOFL
 70
     1
  9
$DIMTVP
 40
0.0
  9
$DIMTIX
 70
     1
  9
$DIMSOXD
 70
     0
  9
$DIMSAH
 70
     1
  9
$DIMBLK1
  1
MAR-STRZ
  9
$DIMBLK2
  1
MAR-STRZ
  9
$DIMSTYLE
  2
AR SKALA 1-50
  9
$DIMCLRD
 70
   256
  9
$DIMCLRE
 70
   256
  9
$DIMCLRT
 70
   256
  9
$DIMTFAC
 40
0.01
  9
$DIMGAP
 40
6.0
  9
$DIMJUST
 70
     0
  9
$DIMSD1
 70
     0
  9
$DIMSD2
 70
     0
  9
$DIMTOLJ
 70
     1
  9
$DIMTZIN
 70
     0
  9
$DIMALTZ
 70
     0
  9
$DIMALTTZ
 70
     0
  9
$DIMUPT
 70
     0
  9
$DIMDEC
 70
     2
  9
$DIMTDEC
 70
     2
  9
$DIMALTU
 70
     2
  9
$DIMALTTD
 70
     4
  9
$DIMTXSTY
  7
AR 01 SWIS
  9
$DIMAUNIT
 70
     0
  9
$DIMADEC
 70
     1
  9
$DIMALTRND
 40
0.0
  9
$DIMAZIN
 70
     0
  9
$DIMDSEP
 70
    46
  9
$DIMATFIT
 70
     3
  9
$DIMFRAC
 70
     0
  9
$DIMLDRBLK
  1
MAR-STRZ
  9
$DIMLUNIT
 70
     2
  9
$DIMLWD
 70
    -2
  9
$DIMLWE
 70
    -2
  9
$DIMTMOVE
 70
     2
  9
$LUNITS
 70
     2
  9
$LUPREC
 70
     4
  9
$SKETCHINC
 40
0.1
  9
$FILLETRAD
 40
0.05
  9
$AUNITS
 70
     0
  9
$AUPREC
 70
     0
  9
$MENU
  1
.
  9
$ELEVATION
 40
0.0
  9
$PELEVATION
 40
0.0
  9
$THICKNESS
 40
0.0
  9
$LIMCHECK
 70
     0
  9
$CHAMFERA
 40
0.5
  9
$CHAMFERB
 40
0.5
  9
$CHAMFERC
 40
1.0
  9
$CHAMFERD
 40
0.0
  9
$SKPOLY
 70
     0
  9
$TDCREATE
 40
2455956.499359827
  9
$TDUCREATE
 40
2455956.416026493
  9
$TDUPDATE
 40
2459311.315065521
  9
$TDUUPDATE
 40
2459311.231732187
  9
$TDINDWG
 40
0.1246723148
  9
$TDUSRTIMER
 40
0.1246723148
  9
$USRTIMER
 70
     1
  9
$ANGBASE
 50
0.0
  9
$ANGDIR
 70
     0
  9
$PDMODE
 70
     0
  9
$PDSIZE
 40
0.0
  9
$PLINEWID
 40
0.0
  9
$SPLFRAME
 70
     0
  9
$SPLINETYPE
 70
     6
  9
$SPLINESEGS
 70
     8
  9
$HANDSEED
  5
1DA4
  9
$SURFTAB1
 70
     6
  9
$SURFTAB2
 70
     6
  9
$SURFTYPE
 70
     6
  9
$SURFU
 70
     6
  9
$SURFV
 70
     6
  9
$UCSBASE
  2

  9
$UCSNAME
  2

  9
$UCSORG
 10
0.0
 20
0.0
 30
0.0
  9
$UCSXDIR
 10
1.0
 20
0.0
 30
0.0
  9
$UCSYDIR
 10
0.0
 20
1.0
 30
0.0
  9
$UCSORTHOREF
  2

  9
$UCSORTHOVIEW
 70
     0
  9
$UCSORGTOP
 10
0.0
 20
0.0
 30
0.0
  9
$UCSORGBOTTOM
 10
0.0
 20
0.0
 30
0.0
  9
$UCSORGLEFT
 10
0.0
 20
0.0
 30
0.0
  9
$UCSORGRIGHT
 10
0.0
 20
0.0
 30
0.0
  9
$UCSORGFRONT
 10
0.0
 20
0.0
 30
0.0
  9
$UCSORGBACK
 10
0.0
 20
0.0
 30
0.0
  9
$PUCSBASE
  2

  9
$PUCSNAME
  2

  9
$PUCSORG
 10
0.0
 20
0.0
 30
0.0
  9
$PUCSXDIR
 10
1.0
 20
0.0
 30
0.0
  9
$PUCSYDIR
 10
0.0
 20
1.0
 30
0.0
  9
$PUCSORTHOREF
  2

  9
$PUCSORTHOVIEW
 70
     0
  9
$PUCSORGTOP
 10
0.0
 20
0.0
 30
0.0
  9
$PUCSORGBOTTOM
 10
0.0
 20
0.0
 30
0.0
  9
$PUCSORGLEFT
 10
0.0
 20
0.0
 30
0.0
  9
$PUCSORGRIGHT
 10
0.0
 20
0.0
 30
0.0
  9
$PUCSORGFRONT
 10
0.0
 20
0.0
 30
0.0
  9
$PUCSORGBACK
 10
0.0
 20
0.0
 30
0.0
  9
$USERI1
 70
     0
  9
$USERI2
 70
     0
  9
$USERI3
 70
     0
  9
$USERI4
 70
     0
  9
$USERI5
 70
     0
  9
$USERR1
 40
0.0
  9
$USERR2
 40
0.0
  9
$USERR3
 40
0.0
  9
$USERR4
 40
0.0
  9
$USERR5
 40
0.0
  9
$WORLDVIEW
 70
     1
  9
$SHADEDGE
 70
     3
  9
$SHADEDIF
 70
    70
  9
$TILEMODE
 70
     1
  9
$MAXACTVP
 70
    64
  9
$PINSBASE
 10
0.0
 20
0.0
 30
0.0
  9
$PLIMCHECK
 70
     0
  9
$PEXTMIN
 10
6.561544945354853
 20
3.282189374834842
 30
0.0
  9
$PEXTMAX
 10
296.6096419909582
 20
206.4421558651099
 30
0.0
  9
$PLIMMIN
 10
3.386557152386103
 20
0.1071894225185588
  9
$PLIMMAX
 10
300.4395661855892
 20
209.9958460387295
  9
$UNITMODE
 70
     0
  9
$VISRETAIN
 70
     1
  9
$PLINEGEN
 70
     0
  9
$PSLTSCALE
 70
     0
  9
$TREEDEPTH
 70
  3020
  9
$CMLSTYLE
  2
Standard
  9
$CMLJUST
 70
     0
  9
$CMLSCALE
 40
1.0
  9
$PROXYGRAPHICS
 70
     1
  9
$MEASUREMENT
 70
     0
  9
$CELWEIGHT
370
    -1
  9
$ENDCAPS
280
     0
  9
$JOINSTYLE
280
     0
  9
$LWDISPLAY
290
     0
  9
$INSUNITS
 70
     1
  9
$HYPERLINKBASE
  1

  9
$STYLESHEET
  1

  9
$XEDIT
290
     1
  9
$CEPSNTYPE
380
     0
  9
$PSTYLEMODE
290
     1
  9
$FINGERPRINTGUID
  2
{1B330B5B-CE04-4EC8-B886-8C8BFC3A02BF}
  9
$VERSIONGUID
  2
{C56DD773-3995-44FE-A62D-0D9390AB4460}
  9
$EXTNAMES
290
     1
  9
$PSVPSCALE
 40
0.0
  9
$OLESTARTUP
290
     0
  9
$SORTENTS
280
   127
  9
$INDEXCTL
280
     0
  9
$HIDETEXT
280
     1
  9
$XCLIPFRAME
290
     0
  9
$HALOGAP
280
     0
  9
$OBSCOLOR
 70
   257
  9
$OBSLTYPE
280
     0
  9
$INTERSECTIONDISPLAY
280
     0
  9
$INTERSECTIONCOLOR
 70
   257
  9
$DIMASSOC
280
     2
  9
$PROJECTNAME
  1

  0
ENDSEC
  0
SECTION
  2
CLASSES
  0
CLASS
  1
ACDBDICTIONARYWDFLT
  2
AcDbDictionaryWithDefault
  3
ObjectDBX Classes
 90
        0
 91
        1
280
     0
281
     0
  0
CLASS
  1
VISUALSTYLE
  2
AcDbVisualStyle
  3
ObjectDBX Classes
 90
     4095
 91
       16
280
     0
281
     0
  0
CLASS
  1
MATERIAL
  2
AcDbMaterial
  3
ObjectDBX Classes
 90
     1153
 91
        3
280
     0
281
     0
  0
CLASS
  1
DICTIONARYVAR
  2
AcDbDictionaryVar
  3
ObjectDBX Classes
 90
        0
 91
        9
280
     0
281
     0
  0
CLASS
  1
TABLESTYLE
  2
AcDbTableStyle
  3
ObjectDBX Classes
 90
     4095
 91
        1
280
     0
281
     0
  0
CLASS
  1
SORTENTSTABLE
  2
AcDbSortentsTable
  3
ObjectDBX Classes
 90
        0
 91
        4
280
     0
281
     0
  0
CLASS
  1
DIMASSOC
  2
AcDbDimAssoc
  3
"AcDbDimAssoc|Product Desc:     AcDim ARX App For Dimension|Company:          Autodesk, Inc.|WEB Address:      www.autodesk.com"
 90
        0
 91
        1
280
     0
281
     0
  0
CLASS
  1
SCALE
  2
AcDbScale
  3
ObjectDBX Classes
 90
     1153
 91
       33
280
     0
281
     0
  0
CLASS
  1
MLEADERSTYLE
  2
AcDbMLeaderStyle
  3
ACDB_MLEADERSTYLE_CLASS
 90
     4095
 91
        1
280
     0
281
     0
  0
CLASS
  1
CELLSTYLEMAP
  2
AcDbCellStyleMap
  3
ObjectDBX Classes
 90
     1152
 91
        2
280
     0
281
     0
  0
ENDSEC
  0
SECTION
  2
TABLES
  0
TABLE
  2
VPORT
  5
8
102
{ACAD_XDICTIONARY
360
84C
102
}
330
0
100
AcDbSymbolTable
 70
     1
  0
VPORT
  5
29
330
8
100
AcDbSymbolTableRecord
100
AcDbViewportTableRecord
  2
*Active
 70
     0
 10
0.0
 20
0.0
 11
1.0
 21
1.0
 12
-3.16400456279071
 22
6.536070217432334
 13
0.0
 23
0.0
 14
0.5
 24
0.5
 15
0.5
 25
0.5
 16
0.0
 26
0.0
 36
1.0
 17
0.0
 27
0.0
 37
-1000.0
 40
10.45121457091424
 41
2.060556464811783
 42
50.0
 43
4.148984367261674
 44
9.217858496371269
 50
0.0
 51
0.0
 71
     0
 72
   100
 73
     1
 74
     3
 75
     0
 76
     0
 77
     0
 78
     0
281
     0
 65
     1
110
0.0
120
0.0
130
0.0
111
1.0
121
0.0
131
0.0
112
0.0
122
1.0
132
0.0
 79
     0
146
0.0
  0
ENDTAB
  0
TABLE
  2
LTYPE
  5
5
330
0
100
AcDbSymbolTable
 70
     2
  0
LTYPE
  5
14
330
5
100
AcDbSymbolTableRecord
100
AcDbLinetypeTableRecord
  2
ByBlock
 70
     0
  3

 72
    65
 73
     0
 40
0.0
  0
LTYPE
  5
15
330
5
100
AcDbSymbolTableRecord
100
AcDbLinetypeTableRecord
  2
ByLayer
 70
     0
  3

 72
    65
 73
     0
 40
0.0
  0
LTYPE
  5
16
330
5
100
AcDbSymbolTableRecord
100
AcDbLinetypeTableRecord
  2
Continuous
 70
     0
  3
Solid line
 72
    65
 73
     0
 40
0.0
  0
LTYPE
  5
886
330
5
100
AcDbSymbolTableRecord
100
AcDbLinetypeTableRecord
  2
DASHED
 70
     0
  3
Dashed __ __ __ __ __ __ __ __ __ __ __ __ __ _
 72
    65
 73
     2
 40
0.75
 49
0.5
 74
     0
 49
-0.25
 74
     0
  0
ENDTAB
  0
TABLE
  2
LAYER
  5
2
102
{ACAD_XDICTIONARY
360
7D1
102
}
330
0
100
AcDbSymbolTable
 70
     4
  0
LAYER
  5
10
102
{ACAD_XDICTIONARY
360
B4C
102
}
330
2
100
AcDbSymbolTableRecord
100
AcDbLayerTableRecord
  2
0
 70
     0
 62
     7
  6
Continuous
370
    25
390
F
  0
LAYER
  5
87B
102
{ACAD_XDICTIONARY
360
B4E
102
}
330
2
100
AcDbSymbolTableRecord
100
AcDbLayerTableRecord
  2
STREFA BEZPIECZEŃSTWA
 70
     0
 62
     7
  6
DASHED
370
    25
390
F
1001
AcAecLayerStandard
1000

1000

  0
LAYER
  5
87D
102
{ACAD_XDICTIONARY
360
B50
102
}
330
2
100
AcDbSymbolTableRecord
100
AcDbLayerTableRecord
  2
WYMIAR
 70
     0
 62
     7
  6
Continuous
370
    25
390
F
1001
AcAecLayerStandard
1000

1000

  0
LAYER
  5
8CC
330
2
100
AcDbSymbolTableRecord
100
AcDbLayerTableRecord
  2
Defpoints
 70
     0
 62
     7
  6
Continuous
290
     0
370
     5
390
F
1001
RAK
1000
{ACET-LAYISO
1070
     0
1070
     7
1000
Continuous
1071
        5
1071
        0
1005
F
1000
ACET-LAYISO}
  0
ENDTAB
  0
TABLE
  2
STYLE
  5
3
330
0
100
AcDbSymbolTable
 70
     2
  0
STYLE
  5
11
330
3
100
AcDbSymbolTableRecord
100
AcDbTextStyleTableRecord
  2
Standard
 70
     0
 40
0.0
 41
1.0
 50
0.0
 71
     0
 42
0.2
  3
txt
  4

  0
STYLE
  5
8CE
330
3
100
AcDbSymbolTableRecord
100
AcDbTextStyleTableRecord
  2
AR 01 SWIS
 70
     0
 40
0.0
 41
1.0
 50
0.0
 71
     0
 42
55.0
  3
swissc.ttf
  4

1001
ACAD
1000
Swis721 Cn BT
1071
       34
  0
ENDTAB
  0
TABLE
  2
VIEW
  5
6
330
0
100
AcDbSymbolTable
 70
     0
  0
ENDTAB
  0
TABLE
  2
UCS
  5
7
330
0
100
AcDbSymbolTable
 70
     0
  0
ENDTAB
  0
TABLE
  2
APPID
  5
9
330
0
100
AcDbSymbolTable
 70
     9
  0
APPID
  5
12
330
9
100
AcDbSymbolTableRecord
100
AcDbRegAppTableRecord
  2
ACAD
 70
     0
  0
APPID
  5
7CB
330
9
100
AcDbSymbolTableRecord
100
AcDbRegAppTableRecord
  2
ACAD_PSEXT
 70
     0
  0
APPID
  5
875
330
9
100
AcDbSymbolTableRecord
100
AcDbRegAppTableRecord
  2
ACAD_EXEMPT_FROM_CAD_STANDARDS
 70
     0
  0
APPID
  5
87C
330
9
100
AcDbSymbolTableRecord
100
AcDbRegAppTableRecord
  2
AcAecLayerStandard
 70
     0
  0
APPID
  5
8D4
330
9
100
AcDbSymbolTableRecord
100
AcDbRegAppTableRecord
  2
RAK
 70
     0
  0
APPID
  5
8D5
330
9
100
AcDbSymbolTableRecord
100
AcDbRegAppTableRecord
  2
ACAD_DSTYLE_DIMJOGGED_JOGANGLE_SYMBOL
 70
     0
  0
APPID
  5
8D6
330
9
100
AcDbSymbolTableRecord
100
AcDbRegAppTableRecord
  2
ACAD_DSTYLE_DIMJAG
 70
     0
  0
APPID
  5
8D7
330
9
100
AcDbSymbolTableRecord
100
AcDbRegAppTableRecord
  2
ACAD_DSTYLE_DIMTALN
 70
     0
  0
APPID
  5
B46
330
9
100
AcDbSymbolTableRecord
100
AcDbRegAppTableRecord
  2
ACAD_MLEADERVER
 70
     0
  0
ENDTAB
  0
TABLE
  2
DIMSTYLE
  5
A
330
0
100
AcDbSymbolTable
 70
     1
100
AcDbDimStyleTable
 71
     1
340
8CF
  0
DIMSTYLE
105
8CF
102
{ACAD_REACTORS
330
1CDA
102
}
330
A
100
AcDbSymbolTableRecord
100
AcDbDimStyleTableRecord
  2
AR SKALA 1-50
 70
     0
 40
0.02
 41
3.0
 42
20.0
 43
0.0
 44
5.0
 45
0.1
 73
     0
 74
     0
 75
     1
 76
     1
 77
     1
 78
     1
140
9.0
141
12.0
143
1.0
146
0.01
147
6.0
171
     4
172
     1
173
     1
174
     1
176
   256
177
   256
178
   256
179
     1
271
     2
272
     2
274
     4
279
     2
340
8CE
341
8BC
343
8BC
344
8BC
  0
ENDTAB
  0
TABLE
  2
BLOCK_RECORD
  5
1
330
0
100
AcDbSymbolTable
 70
     9
  0
BLOCK_RECORD
  5
1F
102
{ACAD_XDICTIONARY
360
5F8
102
}
330
1
100
AcDbSymbolTableRecord
100
AcDbBlockTableRecord
  2
*Model_Space
340
22
  0
BLOCK_RECORD
  5
1B
330
1
100
AcDbSymbolTableRecord
100
AcDbBlockTableRecord
  2
*Paper_Space
340
1E
  0
BLOCK_RECORD
  5
8BC
330
1
100
AcDbSymbolTableRecord
100
AcDbBlockTableRecord
  2
MAR-STRZ
340
0
310
2800000020000000200000000100080000000000000400000000000000000000000000000000000000000000000080000080000000808000800000008000800080800000C0C0C000C0DCC000F0CAA6000020400000206000002080000020A0000020C0000020E00000400000004020000040400000406000004080000040A0
310
000040C0000040E00000600000006020000060400000606000006080000060A0000060C0000060E00000800000008020000080400000806000008080000080A0000080C0000080E00000A0000000A0200000A0400000A0600000A0800000A0A00000A0C00000A0E00000C0000000C0200000C0400000C0600000C0800000C0
310
A00000C0C00000C0E00000E0000000E0200000E0400000E0600000E0800000E0A00000E0C00000E0E00040000000400020004000400040006000400080004000A0004000C0004000E00040200000402020004020400040206000402080004020A0004020C0004020E000404000004040200040404000404060004040800040
310
40A0004040C0004040E00040600000406020004060400040606000406080004060A0004060C0004060E00040800000408020004080400040806000408080004080A0004080C0004080E00040A0000040A0200040A0400040A0600040A0800040A0A00040A0C00040A0E00040C0000040C0200040C0400040C0600040C08000
310
40C0A00040C0C00040C0E00040E0000040E0200040E0400040E0600040E0800040E0A00040E0C00040E0E00080000000800020008000400080006000800080008000A0008000C0008000E00080200000802020008020400080206000802080008020A0008020C0008020E00080400000804020008040400080406000804080
310
008040A0008040C0008040E00080600000806020008060400080606000806080008060A0008060C0008060E00080800000808020008080400080806000808080008080A0008080C0008080E00080A0000080A0200080A0400080A0600080A0800080A0A00080A0C00080A0E00080C0000080C0200080C0400080C0600080C0
310
800080C0A00080C0C00080C0E00080E0000080E0200080E0400080E0600080E0800080E0A00080E0C00080E0E000C0000000C0002000C0004000C0006000C0008000C000A000C000C000C000E000C0200000C0202000C0204000C0206000C0208000C020A000C020C000C020E000C0400000C0402000C0404000C0406000C0
310
408000C040A000C040C000C040E000C0600000C0602000C0604000C0606000C0608000C060A000C060C000C060E000C0800000C0802000C0804000C0806000C0808000C080A000C080C000C080E000C0A00000C0A02000C0A04000C0A06000C0A08000C0A0A000C0A0C000C0A0E000C0C00000C0C02000C0C04000C0C06000
310
C0C08000C0C0A000F0FBFF00A4A0A000808080000000FF0000FF000000FFFF00FF000000FF00FF00FFFF0000FFFFFF00000000000000000000000000000000000000000000000000000000000000000000000000000000000000000000000000FF000000000000000000000000000000000000000000000000000000000000
310
00FF00000000000000000000000000000000000000000000000000000000000000FF00000000000000000000000000000000000000000000000000000000000000FF00000000000000000000000000000000000000000000000000000000000000FF000000000000000000000000000000000000000000F900000000000000
310
0000FF00000000000000000000000000000000000000000000F90000000000000000FF0000000000000000000000000000000000000000000000F900000000000000FF000000000000000000000000000000000000000000000000F9000000000000FF00000000000000000000000000000000000000000000000000F90000
310
000000FF0000000000000000000000000000000000000000000000000000F900000000FF000000000000000000000000000000000000000000000000000000F9000000FF00000000000000000000000000000000000000000000000000000000F90000FF000000000000000000000000000000000000000000000000000000
310
0000F900FF000000000000000000000000000000000000000000000000000000000000F9FF00000000000000000000000000000000000000000000FFFFFFFFFFFFFFFFFFFFFFFFFFFFFFFFFFFF0000000000000000000000000000000000000000000000FFF900000000000000000000000000000000000000000000000000
310
0000000000FF00F90000000000000000000000000000000000000000000000000000000000FF0000F900000000000000000000000000000000000000000000000000000000FF000000F9000000000000000000000000000000000000000000000000000000FF00000000F90000000000000000000000000000000000000000
310
000000000000FF0000000000F900000000000000000000000000000000000000000000000000FF000000000000F9000000000000000000000000000000000000000000000000FF00000000000000F90000000000000000000000000000000000000000000000FF0000000000000000F9000000000000000000000000000000
310
00000000000000FF00000000000000000000000000000000000000000000000000000000000000FF00000000000000000000000000000000000000000000000000000000000000FF00000000000000000000000000000000000000000000000000000000000000FF0000000000000000000000000000000000000000000000
310
0000000000000000FF0000000000000000000000000000000000000000000000000000000000000000000000000000000000000000000000
102
{BLKREFS
331
1112
331
1113
331
1125
331
1126
331
1CCD
331
1CCE
331
1CE7
331
1CE8
331
1D42
331
1D43
331
1D65
331
1D66
102
}
  0
BLOCK_RECORD
  5
B63
102
{ACAD_XDICTIONARY
360
CBA
102
}
330
1
100
AcDbSymbolTableRecord
100
AcDbBlockTableRecord
  2
A$C445009A0
340
0
1001
ACAD
1000
DesignCenter Data
1002
{
1070
     1
1070
     1
1002
}
  0
BLOCK_RECORD
  5
115A
102
{ACAD_XDICTIONARY
360
1165
102
}
330
1
100
AcDbSymbolTableRecord
100
AcDbBlockTableRecord
  2
A$C7305598A
340
0
1001
ACAD
1000
DesignCenter Data
1002
{
1070
     1
1070
     1
1002
}
  0
BLOCK_RECORD
  5
11A6
102
{ACAD_XDICTIONARY
360
11B0
102
}
330
1
100
AcDbSymbolTableRecord
100
AcDbBlockTableRecord
  2
A$C43E158E6
340
0
1001
ACAD
1000
DesignCenter Data
1002
{
1070
     1
1070
     1
1002
}
  0
BLOCK_RECORD
  5
1CDB
330
1
100
AcDbSymbolTableRecord
100
AcDbBlockTableRecord
  2
*D7
340
0
  0
ENDTAB
  0
ENDSEC
  0
SECTION
  2
BLOCKS
  0
BLOCK
  5
20
330
1F
100
AcDbEntity
  8
0
100
AcDbBlockBegin
  2
*Model_Space
 70
     0
 10
0.0
 20
0.0
 30
0.0
  3
*Model_Space
  1

  0
ENDBLK
  5
21
330
1F
100
AcDbEntity
  8
0
100
AcDbBlockEnd
  0
BLOCK
  5
1C
330
1B
100
AcDbEntity
 67
     1
  8
0
100
AcDbBlockBegin
  2
*Paper_Space
 70
     0
 10
0.0
 20
0.0
 30
0.0
  3
*Paper_Space
  1

  0
ENDBLK
  5
1D
330
1B
100
AcDbEntity
 67
     1
  8
0
100
AcDbBlockEnd
  0
BLOCK
  5
8BD
330
8BC
100
AcDbEntity
  8
0
100
AcDbBlockBegin
  2
MAR-STRZ
 70
     0
 10
0.0
 20
0.0
 30
0.0
  3
MAR-STRZ
  1

  0
LINE
  5
8BE
330
8BC
100
AcDbEntity
  8
0
100
AcDbLine
 10
0.0
 20
2.299999999999272
 30
0.0
 11
0.0
 21
-2.299999999999272
 31
0.0
  0
LINE
  5
8BF
330
8BC
100
AcDbEntity
  8
0
 62
    10
100
AcDbLine
 10
1.5
 20
1.5
 30
0.0
 11
-1.5
 21
-1.5
 31
0.0
  0
LINE
  5
8C0
330
8BC
100
AcDbEntity
  8
0
100
AcDbLine
 10
1.399999999999636
 20
0.0
 30
0.0
 11
-1.399999999999636
 21
0.0
 31
0.0
  0
ENDBLK
  5
8C1
330
8BC
100
AcDbEntity
  8
0
100
AcDbBlockEnd
  0
BLOCK
  5
CBC
330
B63
100
AcDbEntity
  8
0
100
AcDbBlockBegin
  2
A$C445009A0
 70
     0
 10
0.0
 20
0.0
 30
0.0
  3
A$C445009A0
  1

  0
LINE
  5
B64
330
B63
100
AcDbEntity
  8
0
100
AcDbLine
 10
0.6008327546430579
 20
0.0012842682727028
 30
0.0
 11
0.6015023151376902
 21
-0.0000000029747573
 31
0.0
  0
LINE
  5
B65
330
B63
100
AcDbEntity
  8
0
100
AcDbLine
 10
0.6399373764212655
 20
-0.0000000029747573
 30
0.0
 11
0.6406069369158942
 21
0.0012842682727028
 31
0.0
  0
LINE
  5
B66
330
B63
100
AcDbEntity
  8
0
100
AcDbLine
 10
0.6193159108380684
 20
0.0012842682727063
 30
0.0
 11
0.619315910838072
 21
1.141284268272706
 31
0.0
  0
LINE
  5
B67
330
B63
100
AcDbEntity
  8
0
100
AcDbLine
 10
0.5981027074024752
 20
0.0012842682727063
 30
0.0
 11
0.5981027074024752
 21
1.141284268272706
 31
0.0
  0
LINE
  5
B68
330
B63
100
AcDbEntity
  8
0
100
AcDbLine
 10
0.5580958388324718
 20
0.0708847184728159
 30
0.0
 11
0.5617560928703185
 21
0.0702032349985951
 31
0.0
  0
LINE
  5
B69
330
B63
100
AcDbEntity
  8
0
100
AcDbLine
 10
0.5617560928703185
 20
0.0702032349985951
 30
0.0
 11
0.5651669066443361
 21
0.0682052265485043
 31
0.0
  0
LINE
  5
B6A
330
B63
100
AcDbEntity
  8
0
100
AcDbLine
 10
0.5651669066443361
 20
0.0682052265485043
 30
0.0
 11
0.5680958388324698
 21
0.0650268540965451
 31
0.0
  0
LINE
  5
B6B
330
B63
100
AcDbEntity
  8
0
100
AcDbLine
 10
0.5680958388324698
 20
0.0650268540965451
 30
0.0
 11
0.5703432875463897
 21
0.0608847184728143
 31
0.0
  0
LINE
  5
B6C
330
B63
100
AcDbEntity
  8
0
100
AcDbLine
 10
0.5703432875463897
 20
0.0608847184728143
 30
0.0
 11
0.5717560928703165
 21
0.0560610993748663
 31
0.0
  0
LINE
  5
B6D
330
B63
100
AcDbEntity
  8
0
100
AcDbLine
 10
0.5717560928703165
 20
0.0560610993748663
 30
0.0
 11
0.5722379744562041
 21
0.0508847184728163
 31
0.0
  0
LINE
  5
B6E
330
B63
100
AcDbEntity
  8
0
100
AcDbLine
 10
0.5722379744562041
 20
0.0508847184728163
 30
0.0
 11
0.5717560928703165
 21
0.0457083375707663
 31
0.0
  0
LINE
  5
B6F
330
B63
100
AcDbEntity
  8
0
100
AcDbLine
 10
0.5717560928703165
 20
0.0457083375707663
 30
0.0
 11
0.5703432875463897
 21
0.0408847184728147
 31
0.0
  0
LINE
  5
B70
330
B63
100
AcDbEntity
  8
0
100
AcDbLine
 10
0.5703432875463897
 20
0.0408847184728147
 30
0.0
 11
0.5680958388324698
 21
0.036742582849084
 31
0.0
  0
LINE
  5
B71
330
B63
100
AcDbEntity
  8
0
100
AcDbLine
 10
0.5680958388324698
 20
0.036742582849084
 30
0.0
 11
0.5651669066443361
 21
0.0335642103971248
 31
0.0
  0
LINE
  5
B72
330
B63
100
AcDbEntity
  8
0
100
AcDbLine
 10
0.5651669066443361
 20
0.0335642103971248
 30
0.0
 11
0.5617560928703185
 21
0.031566201947034
 31
0.0
  0
LINE
  5
B73
330
B63
100
AcDbEntity
  8
0
100
AcDbLine
 10
0.5617560928703185
 20
0.031566201947034
 30
0.0
 11
0.5580958388324718
 21
0.0308847184728132
 31
0.0
  0
LINE
  5
B74
330
B63
100
AcDbEntity
  8
0
100
AcDbLine
 10
0.029888883715973
 20
0.0728405132250361
 30
0.0
 11
0.0335491377538162
 21
0.0721590297508152
 31
0.0
  0
LINE
  5
B75
330
B63
100
AcDbEntity
  8
0
100
AcDbLine
 10
0.0398888837159746
 20
0.0669826488487653
 30
0.0
 11
0.0421363324298909
 21
0.0628405132250345
 31
0.0
  0
LINE
  5
B76
330
B63
100
AcDbEntity
  8
0
100
AcDbLine
 10
0.0335491377538162
 20
0.0335219966992542
 30
0.0
 11
0.029888883715973
 21
0.0328405132250334
 31
0.0
  0
LINE
  5
B77
330
B63
100
AcDbEntity
  8
0
100
AcDbLine
 10
0.0335491377538162
 20
0.0721590297508152
 30
0.0
 11
0.0369599515278374
 21
0.0701610213007244
 31
0.0
  0
LINE
  5
B78
330
B63
100
AcDbEntity
  8
0
100
AcDbLine
 10
0.0369599515278374
 20
0.0701610213007244
 30
0.0
 11
0.0398888837159746
 21
0.0669826488487653
 31
0.0
  0
LINE
  5
B79
330
B63
100
AcDbEntity
  8
0
100
AcDbLine
 10
0.0421363324298909
 20
0.0628405132250345
 30
0.0
 11
0.0435491377538178
 21
0.0580168941270865
 31
0.0
  0
LINE
  5
B7A
330
B63
100
AcDbEntity
  8
0
100
AcDbLine
 10
0.0435491377538178
 20
0.0580168941270865
 30
0.0
 11
0.0440310193397053
 21
0.0528405132250365
 31
0.0
  0
LINE
  5
B7B
330
B63
100
AcDbEntity
  8
0
100
AcDbLine
 10
0.0440310193397053
 20
0.0528405132250365
 30
0.0
 11
0.0435491377538178
 21
0.0476641323229865
 31
0.0
  0
LINE
  5
B7C
330
B63
100
AcDbEntity
  8
0
100
AcDbLine
 10
0.0435491377538178
 20
0.0476641323229865
 30
0.0
 11
0.0421363324298909
 21
0.0428405132250349
 31
0.0
  0
LINE
  5
B7D
330
B63
100
AcDbEntity
  8
0
100
AcDbLine
 10
0.0421363324298909
 20
0.0428405132250349
 30
0.0
 11
0.0398888837159746
 21
0.0386983776013041
 31
0.0
  0
LINE
  5
B7E
330
B63
100
AcDbEntity
  8
0
100
AcDbLine
 10
0.0398888837159746
 20
0.0386983776013041
 30
0.0
 11
0.0369599515278374
 21
0.035520005149345
 31
0.0
  0
LINE
  5
B7F
330
B63
100
AcDbEntity
  8
0
100
AcDbLine
 10
0.0369599515278374
 20
0.035520005149345
 30
0.0
 11
0.0335491377538162
 21
0.0335219966992542
 31
0.0
  0
LINE
  5
B80
330
B63
100
AcDbEntity
  8
0
100
AcDbLine
 10
0.0298888837159694
 20
1.096840513225033
 30
0.0
 11
0.0335491377538162
 21
1.096159029750816
 31
0.0
  0
LINE
  5
B81
330
B63
100
AcDbEntity
  8
0
100
AcDbLine
 10
0.0335491377538162
 20
1.096159029750816
 30
0.0
 11
0.0369599515278374
 21
1.094161021300721
 31
0.0
  0
LINE
  5
B82
330
B63
100
AcDbEntity
  8
0
100
AcDbLine
 10
0.0369599515278374
 20
1.094161021300721
 30
0.0
 11
0.0398888837159746
 21
1.090982648848766
 31
0.0
  0
LINE
  5
B83
330
B63
100
AcDbEntity
  8
0
100
AcDbLine
 10
0.0398888837159746
 20
1.090982648848766
 30
0.0
 11
0.0421363324298874
 21
1.086840513225035
 31
0.0
  0
LINE
  5
B84
330
B63
100
AcDbEntity
  8
0
100
AcDbLine
 10
0.0421363324298874
 20
1.086840513225035
 30
0.0
 11
0.0435491377538142
 21
1.082016894127083
 31
0.0
  0
LINE
  5
B85
330
B63
100
AcDbEntity
  8
0
100
AcDbLine
 10
0.0435491377538142
 20
1.082016894127083
 30
0.0
 11
0.0440310193397053
 21
1.076840513225033
 31
0.0
  0
LINE
  5
B86
330
B63
100
AcDbEntity
  8
0
100
AcDbLine
 10
0.0440310193397053
 20
1.076840513225033
 30
0.0
 11
0.0435491377538142
 21
1.071664132322983
 31
0.0
  0
LINE
  5
B87
330
B63
100
AcDbEntity
  8
0
100
AcDbLine
 10
0.0435491377538142
 20
1.071664132322983
 30
0.0
 11
0.0421363324298874
 21
1.066840513225035
 31
0.0
  0
LINE
  5
B88
330
B63
100
AcDbEntity
  8
0
100
AcDbLine
 10
0.0421363324298874
 20
1.066840513225035
 30
0.0
 11
0.0398888837159746
 21
1.062698377601301
 31
0.0
  0
LINE
  5
B89
330
B63
100
AcDbEntity
  8
0
100
AcDbLine
 10
0.0398888837159746
 20
1.062698377601301
 30
0.0
 11
0.0369599515278374
 21
1.059520005149345
 31
0.0
  0
LINE
  5
B8A
330
B63
100
AcDbEntity
  8
0
100
AcDbLine
 10
0.0369599515278374
 20
1.059520005149345
 30
0.0
 11
0.0335491377538162
 21
1.057521996699251
 31
0.0
  0
LINE
  5
B8B
330
B63
100
AcDbEntity
  8
0
100
AcDbLine
 10
0.0335491377538162
 20
1.057521996699251
 30
0.0
 11
0.0298888837159694
 21
1.056840513225034
 31
0.0
  0
LINE
  5
B8C
330
B63
100
AcDbEntity
  8
0
100
AcDbLine
 10
0.5580958388324718
 20
1.108884718472816
 30
0.0
 11
0.5617560928703185
 21
1.108203234998595
 31
0.0
  0
LINE
  5
B8D
330
B63
100
AcDbEntity
  8
0
100
AcDbLine
 10
0.5617560928703185
 20
1.108203234998595
 30
0.0
 11
0.5651669066443361
 21
1.106205226548504
 31
0.0
  0
LINE
  5
B8E
330
B63
100
AcDbEntity
  8
0
100
AcDbLine
 10
0.5651669066443361
 20
1.106205226548504
 30
0.0
 11
0.5680958388324698
 21
1.103026854096545
 31
0.0
  0
LINE
  5
B8F
330
B63
100
AcDbEntity
  8
0
100
AcDbLine
 10
0.5680958388324698
 20
1.103026854096545
 30
0.0
 11
0.5703432875463861
 21
1.098884718472814
 31
0.0
  0
LINE
  5
B90
330
B63
100
AcDbEntity
  8
0
100
AcDbLine
 10
0.5703432875463861
 20
1.098884718472814
 30
0.0
 11
0.5717560928703165
 21
1.094061099374866
 31
0.0
  0
LINE
  5
B91
330
B63
100
AcDbEntity
  8
0
100
AcDbLine
 10
0.5717560928703165
 20
1.094061099374866
 30
0.0
 11
0.5722379744562041
 21
1.088884718472816
 31
0.0
  0
LINE
  5
B92
330
B63
100
AcDbEntity
  8
0
100
AcDbLine
 10
0.5722379744562041
 20
1.088884718472816
 30
0.0
 11
0.5717560928703165
 21
1.083708337570766
 31
0.0
  0
LINE
  5
B93
330
B63
100
AcDbEntity
  8
0
100
AcDbLine
 10
0.5717560928703165
 20
1.083708337570766
 30
0.0
 11
0.5703432875463861
 21
1.078884718472814
 31
0.0
  0
LINE
  5
B94
330
B63
100
AcDbEntity
  8
0
100
AcDbLine
 10
0.5703432875463861
 20
1.078884718472814
 30
0.0
 11
0.5680958388324698
 21
1.074742582849084
 31
0.0
  0
LINE
  5
B95
330
B63
100
AcDbEntity
  8
0
100
AcDbLine
 10
0.5680958388324698
 20
1.074742582849084
 30
0.0
 11
0.5651669066443361
 21
1.071564210397125
 31
0.0
  0
LINE
  5
B96
330
B63
100
AcDbEntity
  8
0
100
AcDbLine
 10
0.5651669066443361
 20
1.071564210397125
 30
0.0
 11
0.5617560928703185
 21
1.069566201947034
 31
0.0
  0
LINE
  5
B97
330
B63
100
AcDbEntity
  8
0
100
AcDbLine
 10
0.5617560928703185
 20
1.069566201947034
 30
0.0
 11
0.5580958388324718
 21
1.068884718472816
 31
0.0
  0
LINE
  5
B98
330
B63
100
AcDbEntity
  8
0
100
AcDbLine
 10
0.5510247710206074
 20
1.108884718472816
 30
0.0
 11
0.5546850250584541
 21
1.108203234998595
 31
0.0
  0
LINE
  5
B99
330
B63
100
AcDbEntity
  8
0
100
AcDbLine
 10
0.5546850250584541
 20
1.108203234998595
 30
0.0
 11
0.5580958388324718
 21
1.106205226548504
 31
0.0
  0
LINE
  5
B9A
330
B63
100
AcDbEntity
  8
0
100
AcDbLine
 10
0.5580958388324718
 20
1.106205226548504
 30
0.0
 11
0.5610247710206054
 21
1.103026854096545
 31
0.0
  0
LINE
  5
B9B
330
B63
100
AcDbEntity
  8
0
100
AcDbLine
 10
0.5610247710206054
 20
1.103026854096545
 30
0.0
 11
0.5632722197345217
 21
1.098884718472814
 31
0.0
  0
LINE
  5
B9C
330
B63
100
AcDbEntity
  8
0
100
AcDbLine
 10
0.5632722197345217
 20
1.098884718472814
 30
0.0
 11
0.5646850250584521
 21
1.094061099374866
 31
0.0
  0
LINE
  5
B9D
330
B63
100
AcDbEntity
  8
0
100
AcDbLine
 10
0.5646850250584521
 20
1.094061099374866
 30
0.0
 11
0.5651669066443397
 21
1.088884718472816
 31
0.0
  0
LINE
  5
B9E
330
B63
100
AcDbEntity
  8
0
100
AcDbLine
 10
0.5651669066443397
 20
1.088884718472816
 30
0.0
 11
0.5646850250584521
 21
1.083708337570766
 31
0.0
  0
LINE
  5
B9F
330
B63
100
AcDbEntity
  8
0
100
AcDbLine
 10
0.5646850250584521
 20
1.083708337570766
 30
0.0
 11
0.5632722197345217
 21
1.078884718472814
 31
0.0
  0
LINE
  5
BA0
330
B63
100
AcDbEntity
  8
0
100
AcDbLine
 10
0.5632722197345217
 20
1.078884718472814
 30
0.0
 11
0.5610247710206054
 21
1.074742582849084
 31
0.0
  0
LINE
  5
BA1
330
B63
100
AcDbEntity
  8
0
100
AcDbLine
 10
0.5610247710206054
 20
1.074742582849084
 30
0.0
 11
0.5580958388324718
 21
1.071564210397125
 31
0.0
  0
LINE
  5
BA2
330
B63
100
AcDbEntity
  8
0
100
AcDbLine
 10
0.5580958388324718
 20
1.071564210397125
 30
0.0
 11
0.5546850250584541
 21
1.069566201947034
 31
0.0
  0
LINE
  5
BA3
330
B63
100
AcDbEntity
  8
0
100
AcDbLine
 10
0.5546850250584541
 20
1.069566201947034
 30
0.0
 11
0.5510247710206074
 21
1.068884718472816
 31
0.0
  0
LINE
  5
BA4
330
B63
100
AcDbEntity
  8
0
100
AcDbLine
 10
0.5510247710206074
 20
1.068884718472816
 30
0.0
 11
0.5473645169827606
 21
1.069566201947034
 31
0.0
  0
LINE
  5
BA5
330
B63
100
AcDbEntity
  8
0
100
AcDbLine
 10
0.5473645169827606
 20
1.069566201947034
 30
0.0
 11
0.543953703208743
 21
1.071564210397125
 31
0.0
  0
LINE
  5
BA6
330
B63
100
AcDbEntity
  8
0
100
AcDbLine
 10
0.543953703208743
 20
1.071564210397125
 30
0.0
 11
0.5410247710206093
 21
1.074742582849084
 31
0.0
  0
LINE
  5
BA7
330
B63
100
AcDbEntity
  8
0
100
AcDbLine
 10
0.5410247710206093
 20
1.074742582849084
 30
0.0
 11
0.538777322306693
 21
1.078884718472814
 31
0.0
  0
LINE
  5
BA8
330
B63
100
AcDbEntity
  8
0
100
AcDbLine
 10
0.538777322306693
 20
1.078884718472814
 30
0.0
 11
0.5373645169827626
 21
1.083708337570766
 31
0.0
  0
LINE
  5
BA9
330
B63
100
AcDbEntity
  8
0
100
AcDbLine
 10
0.5373645169827626
 20
1.083708337570766
 30
0.0
 11
0.536882635396875
 21
1.088884718472816
 31
0.0
  0
LINE
  5
BAA
330
B63
100
AcDbEntity
  8
0
100
AcDbLine
 10
0.536882635396875
 20
1.088884718472816
 30
0.0
 11
0.5373645169827626
 21
1.094061099374866
 31
0.0
  0
LINE
  5
BAB
330
B63
100
AcDbEntity
  8
0
100
AcDbLine
 10
0.5373645169827626
 20
1.094061099374866
 30
0.0
 11
0.538777322306693
 21
1.098884718472814
 31
0.0
  0
LINE
  5
BAC
330
B63
100
AcDbEntity
  8
0
100
AcDbLine
 10
0.538777322306693
 20
1.098884718472814
 30
0.0
 11
0.5410247710206058
 21
1.103026854096545
 31
0.0
  0
LINE
  5
BAD
330
B63
100
AcDbEntity
  8
0
100
AcDbLine
 10
0.5410247710206058
 20
1.103026854096545
 30
0.0
 11
0.543953703208743
 21
1.106205226548504
 31
0.0
  0
LINE
  5
BAE
330
B63
100
AcDbEntity
  8
0
100
AcDbLine
 10
0.543953703208743
 20
1.106205226548504
 30
0.0
 11
0.5473645169827606
 21
1.108203234998595
 31
0.0
  0
LINE
  5
BAF
330
B63
100
AcDbEntity
  8
0
100
AcDbLine
 10
0.5473645169827606
 20
1.108203234998595
 30
0.0
 11
0.5510247710206074
 21
1.108884718472816
 31
0.0
  0
LINE
  5
BB0
330
B63
100
AcDbEntity
  8
0
100
AcDbLine
 10
0.5580958388324718
 20
1.108884718472816
 30
0.0
 11
0.5510247710206074
 21
1.108884718472816
 31
0.0
  0
LINE
  5
BB1
330
B63
100
AcDbEntity
  8
0
100
AcDbLine
 10
0.5580958388324718
 20
1.068884718472816
 30
0.0
 11
0.5510247710206074
 21
1.068884718472816
 31
0.0
  0
LINE
  5
BB2
330
B63
100
AcDbEntity
  8
0
100
AcDbLine
 10
0.5510247710206074
 20
0.0708847184728159
 30
0.0
 11
0.5546850250584541
 21
0.0702032349985951
 31
0.0
  0
LINE
  5
BB3
330
B63
100
AcDbEntity
  8
0
100
AcDbLine
 10
0.5546850250584541
 20
0.0702032349985951
 30
0.0
 11
0.5580958388324718
 21
0.0682052265485043
 31
0.0
  0
LINE
  5
BB4
330
B63
100
AcDbEntity
  8
0
100
AcDbLine
 10
0.5580958388324718
 20
0.0682052265485043
 30
0.0
 11
0.5610247710206054
 21
0.0650268540965451
 31
0.0
  0
LINE
  5
BB5
330
B63
100
AcDbEntity
  8
0
100
AcDbLine
 10
0.5610247710206054
 20
0.0650268540965451
 30
0.0
 11
0.5632722197345217
 21
0.0608847184728143
 31
0.0
  0
LINE
  5
BB6
330
B63
100
AcDbEntity
  8
0
100
AcDbLine
 10
0.5632722197345217
 20
0.0608847184728143
 30
0.0
 11
0.5646850250584521
 21
0.0560610993748663
 31
0.0
  0
LINE
  5
BB7
330
B63
100
AcDbEntity
  8
0
100
AcDbLine
 10
0.5646850250584521
 20
0.0560610993748663
 30
0.0
 11
0.5651669066443397
 21
0.0508847184728163
 31
0.0
  0
LINE
  5
BB8
330
B63
100
AcDbEntity
  8
0
100
AcDbLine
 10
0.5651669066443397
 20
0.0508847184728163
 30
0.0
 11
0.5646850250584521
 21
0.0457083375707663
 31
0.0
  0
LINE
  5
BB9
330
B63
100
AcDbEntity
  8
0
100
AcDbLine
 10
0.5646850250584521
 20
0.0457083375707663
 30
0.0
 11
0.5632722197345217
 21
0.0408847184728147
 31
0.0
  0
LINE
  5
BBA
330
B63
100
AcDbEntity
  8
0
100
AcDbLine
 10
0.5632722197345217
 20
0.0408847184728147
 30
0.0
 11
0.5610247710206054
 21
0.036742582849084
 31
0.0
  0
LINE
  5
BBB
330
B63
100
AcDbEntity
  8
0
100
AcDbLine
 10
0.5610247710206054
 20
0.036742582849084
 30
0.0
 11
0.5580958388324718
 21
0.0335642103971248
 31
0.0
  0
LINE
  5
BBC
330
B63
100
AcDbEntity
  8
0
100
AcDbLine
 10
0.5580958388324718
 20
0.0335642103971248
 30
0.0
 11
0.5546850250584541
 21
0.031566201947034
 31
0.0
  0
LINE
  5
BBD
330
B63
100
AcDbEntity
  8
0
100
AcDbLine
 10
0.5546850250584541
 20
0.031566201947034
 30
0.0
 11
0.5510247710206074
 21
0.0308847184728132
 31
0.0
  0
LINE
  5
BBE
330
B63
100
AcDbEntity
  8
0
100
AcDbLine
 10
0.5510247710206074
 20
0.0308847184728132
 30
0.0
 11
0.5473645169827642
 21
0.031566201947034
 31
0.0
  0
LINE
  5
BBF
330
B63
100
AcDbEntity
  8
0
100
AcDbLine
 10
0.5473645169827642
 20
0.031566201947034
 30
0.0
 11
0.543953703208743
 21
0.0335642103971248
 31
0.0
  0
LINE
  5
BC0
330
B63
100
AcDbEntity
  8
0
100
AcDbLine
 10
0.543953703208743
 20
0.0335642103971248
 30
0.0
 11
0.5410247710206093
 21
0.036742582849084
 31
0.0
  0
LINE
  5
BC1
330
B63
100
AcDbEntity
  8
0
100
AcDbLine
 10
0.5410247710206093
 20
0.036742582849084
 30
0.0
 11
0.538777322306693
 21
0.0408847184728147
 31
0.0
  0
LINE
  5
BC2
330
B63
100
AcDbEntity
  8
0
100
AcDbLine
 10
0.538777322306693
 20
0.0408847184728147
 30
0.0
 11
0.5373645169827626
 21
0.0457083375707663
 31
0.0
  0
LINE
  5
BC3
330
B63
100
AcDbEntity
  8
0
100
AcDbLine
 10
0.5373645169827626
 20
0.0457083375707663
 30
0.0
 11
0.536882635396875
 21
0.0508847184728163
 31
0.0
  0
LINE
  5
BC4
330
B63
100
AcDbEntity
  8
0
100
AcDbLine
 10
0.536882635396875
 20
0.0508847184728163
 30
0.0
 11
0.5373645169827626
 21
0.0560610993748663
 31
0.0
  0
LINE
  5
BC5
330
B63
100
AcDbEntity
  8
0
100
AcDbLine
 10
0.5373645169827626
 20
0.0560610993748663
 30
0.0
 11
0.538777322306693
 21
0.0608847184728143
 31
0.0
  0
LINE
  5
BC6
330
B63
100
AcDbEntity
  8
0
100
AcDbLine
 10
0.538777322306693
 20
0.0608847184728143
 30
0.0
 11
0.5410247710206093
 21
0.0650268540965451
 31
0.0
  0
LINE
  5
BC7
330
B63
100
AcDbEntity
  8
0
100
AcDbLine
 10
0.5410247710206093
 20
0.0650268540965451
 30
0.0
 11
0.543953703208743
 21
0.0682052265485043
 31
0.0
  0
LINE
  5
BC8
330
B63
100
AcDbEntity
  8
0
100
AcDbLine
 10
0.543953703208743
 20
0.0682052265485043
 30
0.0
 11
0.5473645169827642
 21
0.0702032349985951
 31
0.0
  0
LINE
  5
BC9
330
B63
100
AcDbEntity
  8
0
100
AcDbLine
 10
0.5473645169827642
 20
0.0702032349985951
 30
0.0
 11
0.5510247710206074
 21
0.0708847184728159
 31
0.0
  0
LINE
  5
BCA
330
B63
100
AcDbEntity
  8
0
100
AcDbLine
 10
0.5580958388324718
 20
0.0708847184728159
 30
0.0
 11
0.5510247710206074
 21
0.0708847184728159
 31
0.0
  0
LINE
  5
BCB
330
B63
100
AcDbEntity
  8
0
100
AcDbLine
 10
0.5580958388324718
 20
0.0308847184728132
 30
0.0
 11
0.5510247710206074
 21
0.0308847184728132
 31
0.0
  0
LINE
  5
BCC
330
B63
100
AcDbEntity
  8
0
100
AcDbLine
 10
0.0228178159041086
 20
0.0728405132250361
 30
0.0
 11
0.0264780699419518
 21
0.0721590297508152
 31
0.0
  0
LINE
  5
BCD
330
B63
100
AcDbEntity
  8
0
100
AcDbLine
 10
0.0264780699419518
 20
0.0721590297508152
 30
0.0
 11
0.029888883715973
 21
0.0701610213007244
 31
0.0
  0
LINE
  5
BCE
330
B63
100
AcDbEntity
  8
0
100
AcDbLine
 10
0.029888883715973
 20
0.0701610213007244
 30
0.0
 11
0.0328178159041102
 21
0.0669826488487653
 31
0.0
  0
LINE
  5
BCF
330
B63
100
AcDbEntity
  8
0
100
AcDbLine
 10
0.0328178159041102
 20
0.0669826488487653
 30
0.0
 11
0.0350652646180265
 21
0.0628405132250345
 31
0.0
  0
LINE
  5
BD0
330
B63
100
AcDbEntity
  8
0
100
AcDbLine
 10
0.0350652646180265
 20
0.0628405132250345
 30
0.0
 11
0.0364780699419534
 21
0.0580168941270865
 31
0.0
  0
LINE
  5
BD1
330
B63
100
AcDbEntity
  8
0
100
AcDbLine
 10
0.0364780699419534
 20
0.0580168941270865
 30
0.0
 11
0.0369599515278409
 21
0.0528405132250365
 31
0.0
  0
LINE
  5
BD2
330
B63
100
AcDbEntity
  8
0
100
AcDbLine
 10
0.0369599515278409
 20
0.0528405132250365
 30
0.0
 11
0.0364780699419534
 21
0.0476641323229865
 31
0.0
  0
LINE
  5
BD3
330
B63
100
AcDbEntity
  8
0
100
AcDbLine
 10
0.0364780699419534
 20
0.0476641323229865
 30
0.0
 11
0.0350652646180265
 21
0.0428405132250349
 31
0.0
  0
LINE
  5
BD4
330
B63
100
AcDbEntity
  8
0
100
AcDbLine
 10
0.0350652646180265
 20
0.0428405132250349
 30
0.0
 11
0.0328178159041102
 21
0.0386983776013041
 31
0.0
  0
LINE
  5
BD5
330
B63
100
AcDbEntity
  8
0
100
AcDbLine
 10
0.0328178159041102
 20
0.0386983776013041
 30
0.0
 11
0.029888883715973
 21
0.035520005149345
 31
0.0
  0
LINE
  5
BD6
330
B63
100
AcDbEntity
  8
0
100
AcDbLine
 10
0.029888883715973
 20
0.035520005149345
 30
0.0
 11
0.0264780699419518
 21
0.0335219966992542
 31
0.0
  0
LINE
  5
BD7
330
B63
100
AcDbEntity
  8
0
100
AcDbLine
 10
0.0264780699419518
 20
0.0335219966992542
 30
0.0
 11
0.0228178159041086
 21
0.0328405132250334
 31
0.0
  0
LINE
  5
BD8
330
B63
100
AcDbEntity
  8
0
100
AcDbLine
 10
0.0228178159041086
 20
0.0328405132250334
 30
0.0
 11
0.0191575618662654
 21
0.0335219966992542
 31
0.0
  0
LINE
  5
BD9
330
B63
100
AcDbEntity
  8
0
100
AcDbLine
 10
0.0191575618662654
 20
0.0335219966992542
 30
0.0
 11
0.0157467480922478
 21
0.035520005149345
 31
0.0
  0
LINE
  5
BDA
330
B63
100
AcDbEntity
  8
0
100
AcDbLine
 10
0.0157467480922478
 20
0.035520005149345
 30
0.0
 11
0.0128178159041106
 21
0.0386983776013041
 31
0.0
  0
LINE
  5
BDB
330
B63
100
AcDbEntity
  8
0
100
AcDbLine
 10
0.0128178159041106
 20
0.0386983776013041
 30
0.0
 11
0.0105703671901907
 21
0.0428405132250349
 31
0.0
  0
LINE
  5
BDC
330
B63
100
AcDbEntity
  8
0
100
AcDbLine
 10
0.0105703671901907
 20
0.0428405132250349
 30
0.0
 11
0.0091575618662603
 21
0.0476641323229865
 31
0.0
  0
LINE
  5
BDD
330
B63
100
AcDbEntity
  8
0
100
AcDbLine
 10
0.0091575618662603
 20
0.0476641323229865
 30
0.0
 11
0.0086756802803762
 21
0.0528405132250365
 31
0.0
  0
LINE
  5
BDE
330
B63
100
AcDbEntity
  8
0
100
AcDbLine
 10
0.0086756802803762
 20
0.0528405132250365
 30
0.0
 11
0.0091575618662603
 21
0.0580168941270865
 31
0.0
  0
LINE
  5
BDF
330
B63
100
AcDbEntity
  8
0
100
AcDbLine
 10
0.0091575618662603
 20
0.0580168941270865
 30
0.0
 11
0.0105703671901907
 21
0.0628405132250345
 31
0.0
  0
LINE
  5
BE0
330
B63
100
AcDbEntity
  8
0
100
AcDbLine
 10
0.0105703671901907
 20
0.0628405132250345
 30
0.0
 11
0.012817815904107
 21
0.0669826488487653
 31
0.0
  0
LINE
  5
BE1
330
B63
100
AcDbEntity
  8
0
100
AcDbLine
 10
0.012817815904107
 20
0.0669826488487653
 30
0.0
 11
0.0157467480922478
 21
0.0701610213007244
 31
0.0
  0
LINE
  5
BE2
330
B63
100
AcDbEntity
  8
0
100
AcDbLine
 10
0.0157467480922478
 20
0.0701610213007244
 30
0.0
 11
0.0191575618662654
 21
0.0721590297508152
 31
0.0
  0
LINE
  5
BE3
330
B63
100
AcDbEntity
  8
0
100
AcDbLine
 10
0.0191575618662654
 20
0.0721590297508152
 30
0.0
 11
0.0228178159041086
 21
0.0728405132250361
 31
0.0
  0
LINE
  5
BE4
330
B63
100
AcDbEntity
  8
0
100
AcDbLine
 10
0.029888883715973
 20
0.0728405132250361
 30
0.0
 11
0.0228178159041086
 21
0.0728405132250361
 31
0.0
  0
LINE
  5
BE5
330
B63
100
AcDbEntity
  8
0
100
AcDbLine
 10
0.029888883715973
 20
0.0328405132250334
 30
0.0
 11
0.0228178159041086
 21
0.0328405132250334
 31
0.0
  0
LINE
  5
BE6
330
B63
100
AcDbEntity
  8
0
100
AcDbLine
 10
0.0228178159041086
 20
1.096840513225033
 30
0.0
 11
0.0264780699419518
 21
1.096159029750816
 31
0.0
  0
LINE
  5
BE7
330
B63
100
AcDbEntity
  8
0
100
AcDbLine
 10
0.0264780699419518
 20
1.096159029750816
 30
0.0
 11
0.029888883715973
 21
1.094161021300721
 31
0.0
  0
LINE
  5
BE8
330
B63
100
AcDbEntity
  8
0
100
AcDbLine
 10
0.029888883715973
 20
1.094161021300721
 30
0.0
 11
0.0328178159041102
 21
1.090982648848766
 31
0.0
  0
LINE
  5
BE9
330
B63
100
AcDbEntity
  8
0
100
AcDbLine
 10
0.0328178159041102
 20
1.090982648848766
 30
0.0
 11
0.035065264618023
 21
1.086840513225035
 31
0.0
  0
LINE
  5
BEA
330
B63
100
AcDbEntity
  8
0
100
AcDbLine
 10
0.035065264618023
 20
1.086840513225035
 30
0.0
 11
0.0364780699419498
 21
1.082016894127083
 31
0.0
  0
LINE
  5
BEB
330
B63
100
AcDbEntity
  8
0
100
AcDbLine
 10
0.0364780699419498
 20
1.082016894127083
 30
0.0
 11
0.0369599515278409
 21
1.076840513225033
 31
0.0
  0
LINE
  5
BEC
330
B63
100
AcDbEntity
  8
0
100
AcDbLine
 10
0.0369599515278409
 20
1.076840513225033
 30
0.0
 11
0.0364780699419498
 21
1.071664132322983
 31
0.0
  0
LINE
  5
BED
330
B63
100
AcDbEntity
  8
0
100
AcDbLine
 10
0.0364780699419498
 20
1.071664132322983
 30
0.0
 11
0.035065264618023
 21
1.066840513225035
 31
0.0
  0
LINE
  5
BEE
330
B63
100
AcDbEntity
  8
0
100
AcDbLine
 10
0.035065264618023
 20
1.066840513225035
 30
0.0
 11
0.0328178159041102
 21
1.062698377601301
 31
0.0
  0
LINE
  5
BEF
330
B63
100
AcDbEntity
  8
0
100
AcDbLine
 10
0.0328178159041102
 20
1.062698377601301
 30
0.0
 11
0.029888883715973
 21
1.059520005149345
 31
0.0
  0
LINE
  5
BF0
330
B63
100
AcDbEntity
  8
0
100
AcDbLine
 10
0.029888883715973
 20
1.059520005149345
 30
0.0
 11
0.0264780699419518
 21
1.057521996699251
 31
0.0
  0
LINE
  5
BF1
330
B63
100
AcDbEntity
  8
0
100
AcDbLine
 10
0.0264780699419518
 20
1.057521996699251
 30
0.0
 11
0.0228178159041086
 21
1.056840513225034
 31
0.0
  0
LINE
  5
BF2
330
B63
100
AcDbEntity
  8
0
100
AcDbLine
 10
0.0228178159041086
 20
1.056840513225034
 30
0.0
 11
0.0191575618662618
 21
1.057521996699251
 31
0.0
  0
LINE
  5
BF3
330
B63
100
AcDbEntity
  8
0
100
AcDbLine
 10
0.0191575618662618
 20
1.057521996699251
 30
0.0
 11
0.0157467480922407
 21
1.059520005149345
 31
0.0
  0
LINE
  5
BF4
330
B63
100
AcDbEntity
  8
0
100
AcDbLine
 10
0.0157467480922407
 20
1.059520005149345
 30
0.0
 11
0.012817815904107
 21
1.062698377601301
 31
0.0
  0
LINE
  5
BF5
330
B63
100
AcDbEntity
  8
0
100
AcDbLine
 10
0.012817815904107
 20
1.062698377601301
 30
0.0
 11
0.0105703671901871
 21
1.066840513225032
 31
0.0
  0
LINE
  5
BF6
330
B63
100
AcDbEntity
  8
0
100
AcDbLine
 10
0.0105703671901871
 20
1.066840513225032
 30
0.0
 11
0.0091575618662603
 21
1.071664132322983
 31
0.0
  0
LINE
  5
BF7
330
B63
100
AcDbEntity
  8
0
100
AcDbLine
 10
0.0091575618662603
 20
1.071664132322983
 30
0.0
 11
0.0086756802803762
 21
1.076840513225033
 31
0.0
  0
LINE
  5
BF8
330
B63
100
AcDbEntity
  8
0
100
AcDbLine
 10
0.0086756802803762
 20
1.076840513225033
 30
0.0
 11
0.0091575618662603
 21
1.082016894127083
 31
0.0
  0
LINE
  5
BF9
330
B63
100
AcDbEntity
  8
0
100
AcDbLine
 10
0.0091575618662603
 20
1.082016894127083
 30
0.0
 11
0.0105703671901871
 21
1.086840513225035
 31
0.0
  0
LINE
  5
BFA
330
B63
100
AcDbEntity
  8
0
100
AcDbLine
 10
0.0105703671901871
 20
1.086840513225035
 30
0.0
 11
0.012817815904107
 21
1.090982648848766
 31
0.0
  0
LINE
  5
BFB
330
B63
100
AcDbEntity
  8
0
100
AcDbLine
 10
0.012817815904107
 20
1.090982648848766
 30
0.0
 11
0.0157467480922442
 21
1.094161021300721
 31
0.0
  0
LINE
  5
BFC
330
B63
100
AcDbEntity
  8
0
100
AcDbLine
 10
0.0157467480922442
 20
1.094161021300721
 30
0.0
 11
0.0191575618662618
 21
1.096159029750816
 31
0.0
  0
LINE
  5
BFD
330
B63
100
AcDbEntity
  8
0
100
AcDbLine
 10
0.0191575618662618
 20
1.096159029750816
 30
0.0
 11
0.0228178159041086
 21
1.096840513225033
 31
0.0
  0
LINE
  5
BFE
330
B63
100
AcDbEntity
  8
0
100
AcDbLine
 10
0.0298888837159694
 20
1.096840513225033
 30
0.0
 11
0.0228178159041086
 21
1.096840513225033
 31
0.0
  0
LINE
  5
BFF
330
B63
100
AcDbEntity
  8
0
100
AcDbLine
 10
0.0298888837159694
 20
1.056840513225034
 30
0.0
 11
0.0228178159041086
 21
1.056840513225034
 31
0.0
  0
LINE
  5
C00
330
B63
100
AcDbEntity
  8
0
100
AcDbLine
 10
0.6581305747246873
 20
0.0708847184728123
 30
0.0
 11
0.6545793962571694
 21
0.0702032349985951
 31
0.0
  0
LINE
  5
C01
330
B63
100
AcDbEntity
  8
0
100
AcDbLine
 10
0.6545793962571694
 20
0.0702032349985951
 30
0.0
 11
0.6512702247336151
 21
0.0682052265485007
 31
0.0
  0
LINE
  5
C02
330
B63
100
AcDbEntity
  8
0
100
AcDbLine
 10
0.6512702247336151
 20
0.0682052265485007
 30
0.0
 11
0.6484285747246901
 21
0.0650268540965451
 31
0.0
  0
LINE
  5
C03
330
B63
100
AcDbEntity
  8
0
100
AcDbLine
 10
0.6484285747246901
 20
0.0650268540965451
 30
0.0
 11
0.6462480999824436
 21
0.0608847184728143
 31
0.0
  0
LINE
  5
C04
330
B63
100
AcDbEntity
  8
0
100
AcDbLine
 10
0.6462480999824436
 20
0.0608847184728143
 30
0.0
 11
0.6448773962571686
 21
0.0560610993748627
 31
0.0
  0
LINE
  5
C05
330
B63
100
AcDbEntity
  8
0
100
AcDbLine
 10
0.6448773962571686
 20
0.0560610993748627
 30
0.0
 11
0.6444098747425429
 21
0.0508847184728127
 31
0.0
  0
LINE
  5
C06
330
B63
100
AcDbEntity
  8
0
100
AcDbLine
 10
0.6444098747425429
 20
0.0508847184728127
 30
0.0
 11
0.6448773962571686
 21
0.0457083375707628
 31
0.0
  0
LINE
  5
C07
330
B63
100
AcDbEntity
  8
0
100
AcDbLine
 10
0.6448773962571686
 20
0.0457083375707628
 30
0.0
 11
0.6462480999824436
 21
0.0408847184728147
 31
0.0
  0
LINE
  5
C08
330
B63
100
AcDbEntity
  8
0
100
AcDbLine
 10
0.6462480999824436
 20
0.0408847184728147
 30
0.0
 11
0.6484285747246901
 21
0.0367425828490804
 31
0.0
  0
LINE
  5
C09
330
B63
100
AcDbEntity
  8
0
100
AcDbLine
 10
0.6484285747246901
 20
0.0367425828490804
 30
0.0
 11
0.6512702247336151
 21
0.0335642103971248
 31
0.0
  0
LINE
  5
C0A
330
B63
100
AcDbEntity
  8
0
100
AcDbLine
 10
0.6512702247336151
 20
0.0335642103971248
 30
0.0
 11
0.6545793962571694
 21
0.0315662019470304
 31
0.0
  0
LINE
  5
C0B
330
B63
100
AcDbEntity
  8
0
100
AcDbLine
 10
0.6545793962571694
 20
0.0315662019470304
 30
0.0
 11
0.6581305747246873
 21
0.0308847184728132
 31
0.0
  0
LINE
  5
C0C
330
B63
100
AcDbEntity
  8
0
100
AcDbLine
 10
1.170596962578713
 20
0.0728405132250325
 30
0.0
 11
1.167045784111195
 21
0.0721590297508152
 31
0.0
  0
LINE
  5
C0D
330
B63
100
AcDbEntity
  8
0
100
AcDbLine
 10
1.160894962578712
 20
0.0669826488487653
 30
0.0
 11
1.158714487836473
 21
0.0628405132250345
 31
0.0
  0
LINE
  5
C0E
330
B63
100
AcDbEntity
  8
0
100
AcDbLine
 10
1.167045784111195
 20
0.0335219966992506
 30
0.0
 11
1.170596962578713
 21
0.0328405132250334
 31
0.0
  0
LINE
  5
C0F
330
B63
100
AcDbEntity
  8
0
100
AcDbLine
 10
1.167045784111195
 20
0.0721590297508152
 30
0.0
 11
1.163736612587641
 21
0.0701610213007209
 31
0.0
  0
LINE
  5
C10
330
B63
100
AcDbEntity
  8
0
100
AcDbLine
 10
1.163736612587641
 20
0.0701610213007209
 30
0.0
 11
1.160894962578712
 21
0.0669826488487653
 31
0.0
  0
LINE
  5
C11
330
B63
100
AcDbEntity
  8
0
100
AcDbLine
 10
1.158714487836473
 20
0.0628405132250345
 30
0.0
 11
1.157343784111198
 21
0.0580168941270829
 31
0.0
  0
LINE
  5
C12
330
B63
100
AcDbEntity
  8
0
100
AcDbLine
 10
1.157343784111198
 20
0.0580168941270829
 30
0.0
 11
1.156876262596568
 21
0.0528405132250329
 31
0.0
  0
LINE
  5
C13
330
B63
100
AcDbEntity
  8
0
100
AcDbLine
 10
1.156876262596568
 20
0.0528405132250329
 30
0.0
 11
1.157343784111198
 21
0.047664132322983
 31
0.0
  0
LINE
  5
C14
330
B63
100
AcDbEntity
  8
0
100
AcDbLine
 10
1.157343784111198
 20
0.047664132322983
 30
0.0
 11
1.158714487836473
 21
0.0428405132250349
 31
0.0
  0
LINE
  5
C15
330
B63
100
AcDbEntity
  8
0
100
AcDbLine
 10
1.158714487836473
 20
0.0428405132250349
 30
0.0
 11
1.160894962578712
 21
0.0386983776013006
 31
0.0
  0
LINE
  5
C16
330
B63
100
AcDbEntity
  8
0
100
AcDbLine
 10
1.160894962578712
 20
0.0386983776013006
 30
0.0
 11
1.163736612587641
 21
0.035520005149345
 31
0.0
  0
LINE
  5
C17
330
B63
100
AcDbEntity
  8
0
100
AcDbLine
 10
1.163736612587641
 20
0.035520005149345
 30
0.0
 11
1.167045784111195
 21
0.0335219966992506
 31
0.0
  0
LINE
  5
C18
330
B63
100
AcDbEntity
  8
0
100
AcDbLine
 10
1.170596962578716
 20
1.096840513225033
 30
0.0
 11
1.167045784111202
 21
1.096159029750812
 31
0.0
  0
LINE
  5
C19
330
B63
100
AcDbEntity
  8
0
100
AcDbLine
 10
1.167045784111202
 20
1.096159029750812
 30
0.0
 11
1.163736612587644
 21
1.094161021300721
 31
0.0
  0
LINE
  5
C1A
330
B63
100
AcDbEntity
  8
0
100
AcDbLine
 10
1.163736612587644
 20
1.094161021300721
 30
0.0
 11
1.160894962578716
 21
1.090982648848762
 31
0.0
  0
LINE
  5
C1B
330
B63
100
AcDbEntity
  8
0
100
AcDbLine
 10
1.160894962578716
 20
1.090982648848762
 30
0.0
 11
1.158714487836476
 21
1.086840513225035
 31
0.0
  0
LINE
  5
C1C
330
B63
100
AcDbEntity
  8
0
100
AcDbLine
 10
1.158714487836476
 20
1.086840513225035
 30
0.0
 11
1.157343784111198
 21
1.082016894127083
 31
0.0
  0
LINE
  5
C1D
330
B63
100
AcDbEntity
  8
0
100
AcDbLine
 10
1.157343784111198
 20
1.082016894127083
 30
0.0
 11
1.156876262596568
 21
1.076840513225033
 31
0.0
  0
LINE
  5
C1E
330
B63
100
AcDbEntity
  8
0
100
AcDbLine
 10
1.156876262596568
 20
1.076840513225033
 30
0.0
 11
1.157343784111198
 21
1.071664132322983
 31
0.0
  0
LINE
  5
C1F
330
B63
100
AcDbEntity
  8
0
100
AcDbLine
 10
1.157343784111198
 20
1.071664132322983
 30
0.0
 11
1.158714487836476
 21
1.066840513225032
 31
0.0
  0
LINE
  5
C20
330
B63
100
AcDbEntity
  8
0
100
AcDbLine
 10
1.158714487836476
 20
1.066840513225032
 30
0.0
 11
1.160894962578716
 21
1.062698377601301
 31
0.0
  0
LINE
  5
C21
330
B63
100
AcDbEntity
  8
0
100
AcDbLine
 10
1.160894962578716
 20
1.062698377601301
 30
0.0
 11
1.163736612587644
 21
1.059520005149342
 31
0.0
  0
LINE
  5
C22
330
B63
100
AcDbEntity
  8
0
100
AcDbLine
 10
1.163736612587644
 20
1.059520005149342
 30
0.0
 11
1.167045784111202
 21
1.057521996699251
 31
0.0
  0
LINE
  5
C23
330
B63
100
AcDbEntity
  8
0
100
AcDbLine
 10
1.167045784111202
 20
1.057521996699251
 30
0.0
 11
1.170596962578716
 21
1.056840513225034
 31
0.0
  0
LINE
  5
C24
330
B63
100
AcDbEntity
  8
0
100
AcDbLine
 10
0.6581305747246873
 20
1.108884718472812
 30
0.0
 11
0.6545793962571694
 21
1.108203234998595
 31
0.0
  0
LINE
  5
C25
330
B63
100
AcDbEntity
  8
0
100
AcDbLine
 10
0.6545793962571694
 20
1.108203234998595
 30
0.0
 11
0.6512702247336187
 21
1.106205226548504
 31
0.0
  0
LINE
  5
C26
330
B63
100
AcDbEntity
  8
0
100
AcDbLine
 10
0.6512702247336187
 20
1.106205226548504
 30
0.0
 11
0.6484285747246901
 21
1.103026854096545
 31
0.0
  0
LINE
  5
C27
330
B63
100
AcDbEntity
  8
0
100
AcDbLine
 10
0.6484285747246901
 20
1.103026854096545
 30
0.0
 11
0.6462480999824472
 21
1.098884718472814
 31
0.0
  0
LINE
  5
C28
330
B63
100
AcDbEntity
  8
0
100
AcDbLine
 10
0.6462480999824472
 20
1.098884718472814
 30
0.0
 11
0.6448773962571721
 21
1.094061099374862
 31
0.0
  0
LINE
  5
C29
330
B63
100
AcDbEntity
  8
0
100
AcDbLine
 10
0.6448773962571721
 20
1.094061099374862
 30
0.0
 11
0.6444098747425429
 21
1.088884718472812
 31
0.0
  0
LINE
  5
C2A
330
B63
100
AcDbEntity
  8
0
100
AcDbLine
 10
0.6444098747425429
 20
1.088884718472812
 30
0.0
 11
0.6448773962571721
 21
1.083708337570763
 31
0.0
  0
LINE
  5
C2B
330
B63
100
AcDbEntity
  8
0
100
AcDbLine
 10
0.6448773962571721
 20
1.083708337570763
 30
0.0
 11
0.6462480999824472
 21
1.078884718472814
 31
0.0
  0
LINE
  5
C2C
330
B63
100
AcDbEntity
  8
0
100
AcDbLine
 10
0.6462480999824472
 20
1.078884718472814
 30
0.0
 11
0.6484285747246901
 21
1.074742582849084
 31
0.0
  0
LINE
  5
C2D
330
B63
100
AcDbEntity
  8
0
100
AcDbLine
 10
0.6484285747246901
 20
1.074742582849084
 30
0.0
 11
0.6512702247336187
 21
1.071564210397125
 31
0.0
  0
LINE
  5
C2E
330
B63
100
AcDbEntity
  8
0
100
AcDbLine
 10
0.6512702247336187
 20
1.071564210397125
 30
0.0
 11
0.6545793962571694
 21
1.069566201947034
 31
0.0
  0
LINE
  5
C2F
330
B63
100
AcDbEntity
  8
0
100
AcDbLine
 10
0.6545793962571694
 20
1.069566201947034
 30
0.0
 11
0.6581305747246873
 21
1.068884718472813
 31
0.0
  0
LINE
  5
C30
330
B63
100
AcDbEntity
  8
0
100
AcDbLine
 10
0.6649909247157595
 20
1.108884718472812
 30
0.0
 11
0.6614397462482416
 21
1.108203234998595
 31
0.0
  0
LINE
  5
C31
330
B63
100
AcDbEntity
  8
0
100
AcDbLine
 10
0.6614397462482416
 20
1.108203234998595
 30
0.0
 11
0.6581305747246909
 21
1.106205226548504
 31
0.0
  0
LINE
  5
C32
330
B63
100
AcDbEntity
  8
0
100
AcDbLine
 10
0.6581305747246909
 20
1.106205226548504
 30
0.0
 11
0.6552889247157588
 21
1.103026854096545
 31
0.0
  0
LINE
  5
C33
330
B63
100
AcDbEntity
  8
0
100
AcDbLine
 10
0.6552889247157588
 20
1.103026854096545
 30
0.0
 11
0.6531084499735158
 21
1.098884718472814
 31
0.0
  0
LINE
  5
C34
330
B63
100
AcDbEntity
  8
0
100
AcDbLine
 10
0.6531084499735158
 20
1.098884718472814
 30
0.0
 11
0.6517377462482408
 21
1.094061099374862
 31
0.0
  0
LINE
  5
C35
330
B63
100
AcDbEntity
  8
0
100
AcDbLine
 10
0.6517377462482408
 20
1.094061099374862
 30
0.0
 11
0.6512702247336151
 21
1.088884718472812
 31
0.0
  0
LINE
  5
C36
330
B63
100
AcDbEntity
  8
0
100
AcDbLine
 10
0.6512702247336151
 20
1.088884718472812
 30
0.0
 11
0.6517377462482408
 21
1.083708337570763
 31
0.0
  0
LINE
  5
C37
330
B63
100
AcDbEntity
  8
0
100
AcDbLine
 10
0.6517377462482408
 20
1.083708337570763
 30
0.0
 11
0.6531084499735158
 21
1.078884718472814
 31
0.0
  0
LINE
  5
C38
330
B63
100
AcDbEntity
  8
0
100
AcDbLine
 10
0.6531084499735158
 20
1.078884718472814
 30
0.0
 11
0.6552889247157588
 21
1.074742582849084
 31
0.0
  0
LINE
  5
C39
330
B63
100
AcDbEntity
  8
0
100
AcDbLine
 10
0.6552889247157588
 20
1.074742582849084
 30
0.0
 11
0.6581305747246909
 21
1.071564210397125
 31
0.0
  0
LINE
  5
C3A
330
B63
100
AcDbEntity
  8
0
100
AcDbLine
 10
0.6581305747246909
 20
1.071564210397125
 30
0.0
 11
0.6614397462482416
 21
1.069566201947034
 31
0.0
  0
LINE
  5
C3B
330
B63
100
AcDbEntity
  8
0
100
AcDbLine
 10
0.6614397462482416
 20
1.069566201947034
 30
0.0
 11
0.6649909247157595
 21
1.068884718472813
 31
0.0
  0
LINE
  5
C3C
330
B63
100
AcDbEntity
  8
0
100
AcDbLine
 10
0.6649909247157595
 20
1.068884718472813
 30
0.0
 11
0.6685421031832775
 21
1.069566201947034
 31
0.0
  0
LINE
  5
C3D
330
B63
100
AcDbEntity
  8
0
100
AcDbLine
 10
0.6685421031832775
 20
1.069566201947034
 30
0.0
 11
0.6718512747068282
 21
1.071564210397125
 31
0.0
  0
LINE
  5
C3E
330
B63
100
AcDbEntity
  8
0
100
AcDbLine
 10
0.6718512747068282
 20
1.071564210397125
 30
0.0
 11
0.6746929247157567
 21
1.074742582849084
 31
0.0
  0
LINE
  5
C3F
330
B63
100
AcDbEntity
  8
0
100
AcDbLine
 10
0.6746929247157567
 20
1.074742582849084
 30
0.0
 11
0.6768733994579997
 21
1.078884718472814
 31
0.0
  0
LINE
  5
C40
330
B63
100
AcDbEntity
  8
0
100
AcDbLine
 10
0.6768733994579997
 20
1.078884718472814
 30
0.0
 11
0.6782441031832783
 21
1.083708337570763
 31
0.0
  0
LINE
  5
C41
330
B63
100
AcDbEntity
  8
0
100
AcDbLine
 10
0.6782441031832783
 20
1.083708337570763
 30
0.0
 11
0.678711624697904
 21
1.088884718472812
 31
0.0
  0
LINE
  5
C42
330
B63
100
AcDbEntity
  8
0
100
AcDbLine
 10
0.678711624697904
 20
1.088884718472812
 30
0.0
 11
0.6782441031832783
 21
1.094061099374862
 31
0.0
  0
LINE
  5
C43
330
B63
100
AcDbEntity
  8
0
100
AcDbLine
 10
0.6782441031832783
 20
1.094061099374862
 30
0.0
 11
0.6768733994579997
 21
1.098884718472814
 31
0.0
  0
LINE
  5
C44
330
B63
100
AcDbEntity
  8
0
100
AcDbLine
 10
0.6768733994579997
 20
1.098884718472814
 30
0.0
 11
0.6746929247157603
 21
1.103026854096545
 31
0.0
  0
LINE
  5
C45
330
B63
100
AcDbEntity
  8
0
100
AcDbLine
 10
0.6746929247157603
 20
1.103026854096545
 30
0.0
 11
0.6718512747068282
 21
1.106205226548504
 31
0.0
  0
LINE
  5
C46
330
B63
100
AcDbEntity
  8
0
100
AcDbLine
 10
0.6718512747068282
 20
1.106205226548504
 30
0.0
 11
0.6685421031832775
 21
1.108203234998595
 31
0.0
  0
LINE
  5
C47
330
B63
100
AcDbEntity
  8
0
100
AcDbLine
 10
0.6685421031832775
 20
1.108203234998595
 30
0.0
 11
0.6649909247157595
 21
1.108884718472812
 31
0.0
  0
LINE
  5
C48
330
B63
100
AcDbEntity
  8
0
100
AcDbLine
 10
0.6581305747246873
 20
1.108884718472812
 30
0.0
 11
0.6649909247157595
 21
1.108884718472812
 31
0.0
  0
LINE
  5
C49
330
B63
100
AcDbEntity
  8
0
100
AcDbLine
 10
0.6581305747246873
 20
1.068884718472813
 30
0.0
 11
0.6649909247157595
 21
1.068884718472813
 31
0.0
  0
LINE
  5
C4A
330
B63
100
AcDbEntity
  8
0
100
AcDbLine
 10
0.6649909247157595
 20
0.0708847184728123
 30
0.0
 11
0.6614397462482416
 21
0.0702032349985951
 31
0.0
  0
LINE
  5
C4B
330
B63
100
AcDbEntity
  8
0
100
AcDbLine
 10
0.6614397462482416
 20
0.0702032349985951
 30
0.0
 11
0.6581305747246873
 21
0.0682052265485007
 31
0.0
  0
LINE
  5
C4C
330
B63
100
AcDbEntity
  8
0
100
AcDbLine
 10
0.6581305747246873
 20
0.0682052265485007
 30
0.0
 11
0.6552889247157588
 21
0.0650268540965451
 31
0.0
  0
LINE
  5
C4D
330
B63
100
AcDbEntity
  8
0
100
AcDbLine
 10
0.6552889247157588
 20
0.0650268540965451
 30
0.0
 11
0.6531084499735158
 21
0.0608847184728143
 31
0.0
  0
LINE
  5
C4E
330
B63
100
AcDbEntity
  8
0
100
AcDbLine
 10
0.6531084499735158
 20
0.0608847184728143
 30
0.0
 11
0.6517377462482408
 21
0.0560610993748627
 31
0.0
  0
LINE
  5
C4F
330
B63
100
AcDbEntity
  8
0
100
AcDbLine
 10
0.6517377462482408
 20
0.0560610993748627
 30
0.0
 11
0.6512702247336151
 21
0.0508847184728127
 31
0.0
  0
LINE
  5
C50
330
B63
100
AcDbEntity
  8
0
100
AcDbLine
 10
0.6512702247336151
 20
0.0508847184728127
 30
0.0
 11
0.6517377462482408
 21
0.0457083375707628
 31
0.0
  0
LINE
  5
C51
330
B63
100
AcDbEntity
  8
0
100
AcDbLine
 10
0.6517377462482408
 20
0.0457083375707628
 30
0.0
 11
0.6531084499735158
 21
0.0408847184728147
 31
0.0
  0
LINE
  5
C52
330
B63
100
AcDbEntity
  8
0
100
AcDbLine
 10
0.6531084499735158
 20
0.0408847184728147
 30
0.0
 11
0.6552889247157588
 21
0.0367425828490804
 31
0.0
  0
LINE
  5
C53
330
B63
100
AcDbEntity
  8
0
100
AcDbLine
 10
0.6552889247157588
 20
0.0367425828490804
 30
0.0
 11
0.6581305747246873
 21
0.0335642103971248
 31
0.0
  0
LINE
  5
C54
330
B63
100
AcDbEntity
  8
0
100
AcDbLine
 10
0.6581305747246873
 20
0.0335642103971248
 30
0.0
 11
0.6614397462482416
 21
0.0315662019470304
 31
0.0
  0
LINE
  5
C55
330
B63
100
AcDbEntity
  8
0
100
AcDbLine
 10
0.6614397462482416
 20
0.0315662019470304
 30
0.0
 11
0.6649909247157595
 21
0.0308847184728132
 31
0.0
  0
LINE
  5
C56
330
B63
100
AcDbEntity
  8
0
100
AcDbLine
 10
0.6649909247157595
 20
0.0308847184728132
 30
0.0
 11
0.6685421031832739
 21
0.0315662019470304
 31
0.0
  0
LINE
  5
C57
330
B63
100
AcDbEntity
  8
0
100
AcDbLine
 10
0.6685421031832739
 20
0.0315662019470304
 30
0.0
 11
0.6718512747068246
 21
0.0335642103971248
 31
0.0
  0
LINE
  5
C58
330
B63
100
AcDbEntity
  8
0
100
AcDbLine
 10
0.6718512747068246
 20
0.0335642103971248
 30
0.0
 11
0.6746929247157567
 21
0.0367425828490804
 31
0.0
  0
LINE
  5
C59
330
B63
100
AcDbEntity
  8
0
100
AcDbLine
 10
0.6746929247157567
 20
0.0367425828490804
 30
0.0
 11
0.6768733994579997
 21
0.0408847184728112
 31
0.0
  0
LINE
  5
C5A
330
B63
100
AcDbEntity
  8
0
100
AcDbLine
 10
0.6768733994579997
 20
0.0408847184728112
 30
0.0
 11
0.6782441031832747
 21
0.0457083375707628
 31
0.0
  0
LINE
  5
C5B
330
B63
100
AcDbEntity
  8
0
100
AcDbLine
 10
0.6782441031832747
 20
0.0457083375707628
 30
0.0
 11
0.678711624697904
 21
0.0508847184728127
 31
0.0
  0
LINE
  5
C5C
330
B63
100
AcDbEntity
  8
0
100
AcDbLine
 10
0.678711624697904
 20
0.0508847184728127
 30
0.0
 11
0.6782441031832747
 21
0.0560610993748627
 31
0.0
  0
LINE
  5
C5D
330
B63
100
AcDbEntity
  8
0
100
AcDbLine
 10
0.6782441031832747
 20
0.0560610993748627
 30
0.0
 11
0.6768733994579997
 21
0.0608847184728143
 31
0.0
  0
LINE
  5
C5E
330
B63
100
AcDbEntity
  8
0
100
AcDbLine
 10
0.6768733994579997
 20
0.0608847184728143
 30
0.0
 11
0.6746929247157567
 21
0.0650268540965451
 31
0.0
  0
LINE
  5
C5F
330
B63
100
AcDbEntity
  8
0
100
AcDbLine
 10
0.6746929247157567
 20
0.0650268540965451
 30
0.0
 11
0.6718512747068246
 21
0.0682052265485007
 31
0.0
  0
LINE
  5
C60
330
B63
100
AcDbEntity
  8
0
100
AcDbLine
 10
0.6718512747068246
 20
0.0682052265485007
 30
0.0
 11
0.6685421031832739
 21
0.0702032349985951
 31
0.0
  0
LINE
  5
C61
330
B63
100
AcDbEntity
  8
0
100
AcDbLine
 10
0.6685421031832739
 20
0.0702032349985951
 30
0.0
 11
0.6649909247157595
 21
0.0708847184728123
 31
0.0
  0
LINE
  5
C62
330
B63
100
AcDbEntity
  8
0
100
AcDbLine
 10
0.6581305747246873
 20
0.0708847184728123
 30
0.0
 11
0.6649909247157595
 21
0.0708847184728123
 31
0.0
  0
LINE
  5
C63
330
B63
100
AcDbEntity
  8
0
100
AcDbLine
 10
0.6581305747246873
 20
0.0308847184728132
 30
0.0
 11
0.6649909247157595
 21
0.0308847184728132
 31
0.0
  0
LINE
  5
C64
330
B63
100
AcDbEntity
  8
0
100
AcDbLine
 10
1.177457312569785
 20
0.0728405132250325
 30
0.0
 11
1.173906134102267
 21
0.0721590297508152
 31
0.0
  0
LINE
  5
C65
330
B63
100
AcDbEntity
  8
0
100
AcDbLine
 10
1.173906134102267
 20
0.0721590297508152
 30
0.0
 11
1.170596962578713
 21
0.0701610213007209
 31
0.0
  0
LINE
  5
C66
330
B63
100
AcDbEntity
  8
0
100
AcDbLine
 10
1.170596962578713
 20
0.0701610213007209
 30
0.0
 11
1.167755312569784
 21
0.0669826488487653
 31
0.0
  0
LINE
  5
C67
330
B63
100
AcDbEntity
  8
0
100
AcDbLine
 10
1.167755312569784
 20
0.0669826488487653
 30
0.0
 11
1.165574837827541
 21
0.0628405132250345
 31
0.0
  0
LINE
  5
C68
330
B63
100
AcDbEntity
  8
0
100
AcDbLine
 10
1.165574837827541
 20
0.0628405132250345
 30
0.0
 11
1.16420413410227
 21
0.0580168941270829
 31
0.0
  0
LINE
  5
C69
330
B63
100
AcDbEntity
  8
0
100
AcDbLine
 10
1.16420413410227
 20
0.0580168941270829
 30
0.0
 11
1.163736612587641
 21
0.0528405132250329
 31
0.0
  0
LINE
  5
C6A
330
B63
100
AcDbEntity
  8
0
100
AcDbLine
 10
1.163736612587641
 20
0.0528405132250329
 30
0.0
 11
1.16420413410227
 21
0.047664132322983
 31
0.0
  0
LINE
  5
C6B
330
B63
100
AcDbEntity
  8
0
100
AcDbLine
 10
1.16420413410227
 20
0.047664132322983
 30
0.0
 11
1.165574837827541
 21
0.0428405132250349
 31
0.0
  0
LINE
  5
C6C
330
B63
100
AcDbEntity
  8
0
100
AcDbLine
 10
1.165574837827541
 20
0.0428405132250349
 30
0.0
 11
1.167755312569784
 21
0.0386983776013006
 31
0.0
  0
LINE
  5
C6D
330
B63
100
AcDbEntity
  8
0
100
AcDbLine
 10
1.167755312569784
 20
0.0386983776013006
 30
0.0
 11
1.170596962578713
 21
0.035520005149345
 31
0.0
  0
LINE
  5
C6E
330
B63
100
AcDbEntity
  8
0
100
AcDbLine
 10
1.170596962578713
 20
0.035520005149345
 30
0.0
 11
1.173906134102267
 21
0.0335219966992506
 31
0.0
  0
LINE
  5
C6F
330
B63
100
AcDbEntity
  8
0
100
AcDbLine
 10
1.173906134102267
 20
0.0335219966992506
 30
0.0
 11
1.177457312569785
 21
0.0328405132250334
 31
0.0
  0
LINE
  5
C70
330
B63
100
AcDbEntity
  8
0
100
AcDbLine
 10
1.177457312569785
 20
0.0328405132250334
 30
0.0
 11
1.181008491037303
 21
0.0335219966992506
 31
0.0
  0
LINE
  5
C71
330
B63
100
AcDbEntity
  8
0
100
AcDbLine
 10
1.181008491037303
 20
0.0335219966992506
 30
0.0
 11
1.184317662560854
 21
0.035520005149345
 31
0.0
  0
LINE
  5
C72
330
B63
100
AcDbEntity
  8
0
100
AcDbLine
 10
1.184317662560854
 20
0.035520005149345
 30
0.0
 11
1.187159312569782
 21
0.0386983776013006
 31
0.0
  0
LINE
  5
C73
330
B63
100
AcDbEntity
  8
0
100
AcDbLine
 10
1.187159312569782
 20
0.0386983776013006
 30
0.0
 11
1.189339787312029
 21
0.0428405132250314
 31
0.0
  0
LINE
  5
C74
330
B63
100
AcDbEntity
  8
0
100
AcDbLine
 10
1.189339787312029
 20
0.0428405132250314
 30
0.0
 11
1.190710491037307
 21
0.047664132322983
 31
0.0
  0
LINE
  5
C75
330
B63
100
AcDbEntity
  8
0
100
AcDbLine
 10
1.190710491037307
 20
0.047664132322983
 30
0.0
 11
1.19117801255193
 21
0.0528405132250329
 31
0.0
  0
LINE
  5
C76
330
B63
100
AcDbEntity
  8
0
100
AcDbLine
 10
1.19117801255193
 20
0.0528405132250329
 30
0.0
 11
1.190710491037307
 21
0.0580168941270829
 31
0.0
  0
LINE
  5
C77
330
B63
100
AcDbEntity
  8
0
100
AcDbLine
 10
1.190710491037307
 20
0.0580168941270829
 30
0.0
 11
1.189339787312029
 21
0.0628405132250309
 31
0.0
  0
LINE
  5
C78
330
B63
100
AcDbEntity
  8
0
100
AcDbLine
 10
1.189339787312029
 20
0.0628405132250309
 30
0.0
 11
1.187159312569789
 21
0.0669826488487653
 31
0.0
  0
LINE
  5
C79
330
B63
100
AcDbEntity
  8
0
100
AcDbLine
 10
1.187159312569789
 20
0.0669826488487653
 30
0.0
 11
1.184317662560854
 21
0.0701610213007209
 31
0.0
  0
LINE
  5
C7A
330
B63
100
AcDbEntity
  8
0
100
AcDbLine
 10
1.184317662560854
 20
0.0701610213007209
 30
0.0
 11
1.181008491037303
 21
0.0721590297508152
 31
0.0
  0
LINE
  5
C7B
330
B63
100
AcDbEntity
  8
0
100
AcDbLine
 10
1.181008491037303
 20
0.0721590297508152
 30
0.0
 11
1.177457312569785
 21
0.0728405132250325
 31
0.0
  0
LINE
  5
C7C
330
B63
100
AcDbEntity
  8
0
100
AcDbLine
 10
1.170596962578713
 20
0.0728405132250325
 30
0.0
 11
1.177457312569785
 21
0.0728405132250325
 31
0.0
  0
LINE
  5
C7D
330
B63
100
AcDbEntity
  8
0
100
AcDbLine
 10
1.170596962578713
 20
0.0328405132250334
 30
0.0
 11
1.177457312569785
 21
0.0328405132250334
 31
0.0
  0
LINE
  5
C7E
330
B63
100
AcDbEntity
  8
0
100
AcDbLine
 10
1.177457312569785
 20
1.096840513225033
 30
0.0
 11
1.173906134102271
 21
1.096159029750812
 31
0.0
  0
LINE
  5
C7F
330
B63
100
AcDbEntity
  8
0
100
AcDbLine
 10
1.173906134102271
 20
1.096159029750812
 30
0.0
 11
1.170596962578716
 21
1.094161021300721
 31
0.0
  0
LINE
  5
C80
330
B63
100
AcDbEntity
  8
0
100
AcDbLine
 10
1.170596962578716
 20
1.094161021300721
 30
0.0
 11
1.167755312569788
 21
1.090982648848762
 31
0.0
  0
LINE
  5
C81
330
B63
100
AcDbEntity
  8
0
100
AcDbLine
 10
1.167755312569788
 20
1.090982648848762
 30
0.0
 11
1.165574837827545
 21
1.086840513225035
 31
0.0
  0
LINE
  5
C82
330
B63
100
AcDbEntity
  8
0
100
AcDbLine
 10
1.165574837827545
 20
1.086840513225035
 30
0.0
 11
1.16420413410227
 21
1.082016894127083
 31
0.0
  0
LINE
  5
C83
330
B63
100
AcDbEntity
  8
0
100
AcDbLine
 10
1.16420413410227
 20
1.082016894127083
 30
0.0
 11
1.163736612587641
 21
1.076840513225033
 31
0.0
  0
LINE
  5
C84
330
B63
100
AcDbEntity
  8
0
100
AcDbLine
 10
1.163736612587641
 20
1.076840513225033
 30
0.0
 11
1.16420413410227
 21
1.071664132322983
 31
0.0
  0
LINE
  5
C85
330
B63
100
AcDbEntity
  8
0
100
AcDbLine
 10
1.16420413410227
 20
1.071664132322983
 30
0.0
 11
1.165574837827545
 21
1.066840513225032
 31
0.0
  0
LINE
  5
C86
330
B63
100
AcDbEntity
  8
0
100
AcDbLine
 10
1.165574837827545
 20
1.066840513225032
 30
0.0
 11
1.167755312569788
 21
1.062698377601301
 31
0.0
  0
LINE
  5
C87
330
B63
100
AcDbEntity
  8
0
100
AcDbLine
 10
1.167755312569788
 20
1.062698377601301
 30
0.0
 11
1.170596962578716
 21
1.059520005149342
 31
0.0
  0
LINE
  5
C88
330
B63
100
AcDbEntity
  8
0
100
AcDbLine
 10
1.170596962578716
 20
1.059520005149342
 30
0.0
 11
1.173906134102271
 21
1.057521996699251
 31
0.0
  0
LINE
  5
C89
330
B63
100
AcDbEntity
  8
0
100
AcDbLine
 10
1.173906134102271
 20
1.057521996699251
 30
0.0
 11
1.177457312569785
 21
1.056840513225034
 31
0.0
  0
LINE
  5
C8A
330
B63
100
AcDbEntity
  8
0
100
AcDbLine
 10
1.177457312569785
 20
1.056840513225034
 30
0.0
 11
1.181008491037303
 21
1.057521996699251
 31
0.0
  0
LINE
  5
C8B
330
B63
100
AcDbEntity
  8
0
100
AcDbLine
 10
1.181008491037303
 20
1.057521996699251
 30
0.0
 11
1.184317662560857
 21
1.059520005149342
 31
0.0
  0
LINE
  5
C8C
330
B63
100
AcDbEntity
  8
0
100
AcDbLine
 10
1.184317662560857
 20
1.059520005149342
 30
0.0
 11
1.187159312569786
 21
1.062698377601301
 31
0.0
  0
LINE
  5
C8D
330
B63
100
AcDbEntity
  8
0
100
AcDbLine
 10
1.187159312569786
 20
1.062698377601301
 30
0.0
 11
1.189339787312029
 21
1.066840513225032
 31
0.0
  0
LINE
  5
C8E
330
B63
100
AcDbEntity
  8
0
100
AcDbLine
 10
1.189339787312029
 20
1.066840513225032
 30
0.0
 11
1.190710491037307
 21
1.071664132322983
 31
0.0
  0
LINE
  5
C8F
330
B63
100
AcDbEntity
  8
0
100
AcDbLine
 10
1.190710491037307
 20
1.071664132322983
 30
0.0
 11
1.191178012551933
 21
1.076840513225033
 31
0.0
  0
LINE
  5
C90
330
B63
100
AcDbEntity
  8
0
100
AcDbLine
 10
1.191178012551933
 20
1.076840513225033
 30
0.0
 11
1.190710491037307
 21
1.082016894127083
 31
0.0
  0
LINE
  5
C91
330
B63
100
AcDbEntity
  8
0
100
AcDbLine
 10
1.190710491037307
 20
1.082016894127083
 30
0.0
 11
1.189339787312029
 21
1.086840513225031
 31
0.0
  0
LINE
  5
C92
330
B63
100
AcDbEntity
  8
0
100
AcDbLine
 10
1.189339787312029
 20
1.086840513225031
 30
0.0
 11
1.187159312569789
 21
1.090982648848762
 31
0.0
  0
LINE
  5
C93
330
B63
100
AcDbEntity
  8
0
100
AcDbLine
 10
1.187159312569789
 20
1.090982648848762
 30
0.0
 11
1.184317662560857
 21
1.094161021300721
 31
0.0
  0
LINE
  5
C94
330
B63
100
AcDbEntity
  8
0
100
AcDbLine
 10
1.184317662560857
 20
1.094161021300721
 30
0.0
 11
1.181008491037303
 21
1.096159029750812
 31
0.0
  0
LINE
  5
C95
330
B63
100
AcDbEntity
  8
0
100
AcDbLine
 10
1.181008491037303
 20
1.096159029750812
 30
0.0
 11
1.177457312569785
 21
1.096840513225033
 31
0.0
  0
LINE
  5
C96
330
B63
100
AcDbEntity
  8
0
100
AcDbLine
 10
1.170596962578716
 20
1.096840513225033
 30
0.0
 11
1.177457312569785
 21
1.096840513225033
 31
0.0
  0
LINE
  5
C97
330
B63
100
AcDbEntity
  8
0
100
AcDbLine
 10
1.170596962578716
 20
1.056840513225034
 30
0.0
 11
1.177457312569785
 21
1.056840513225034
 31
0.0
  0
LINE
  5
C98
330
B63
100
AcDbEntity
  8
0
100
AcDbLine
 10
0.619315910838072
 20
1.141284268272706
 30
0.0
 11
0.602136068942528
 21
1.141284268272706
 31
0.0
  0
LINE
  5
C99
330
B63
100
AcDbEntity
  8
0
100
AcDbLine
 10
-0.000000027930259
 20
1.141284268272706
 30
0.0
 11
-0.000000027930259
 21
0.9795658920594272
 31
0.0
  0
LINE
  5
C9A
330
B63
100
AcDbEntity
  8
0
100
AcDbLine
 10
0.6193159108380684
 20
0.0012842682727063
 30
0.0
 11
0.6008327546430579
 21
0.0012842682727028
 31
0.0
  0
LINE
  5
C9B
330
B63
100
AcDbEntity
  8
0
100
AcDbLine
 10
0.6406069369158942
 20
0.0012842682727028
 30
0.0
 11
0.6193159108380684
 21
0.0012842682727063
 31
0.0
  0
LINE
  5
C9C
330
B63
100
AcDbEntity
  8
0
100
AcDbLine
 10
1.199595184657887
 20
1.141284268272706
 30
0.0
 11
1.199595184657887
 21
0.6119043039360515
 31
0.0
  0
LINE
  5
C9D
330
B63
100
AcDbEntity
  8
0
100
AcDbLine
 10
0.0238678673169162
 20
0.0012842682727063
 30
0.0
 11
0.5935421533105405
 21
0.0012842682727063
 31
0.0
  0
LINE
  5
C9E
330
B63
100
AcDbEntity
  8
0
100
AcDbLine
 10
0.5935421533105405
 20
0.0012842682727063
 30
0.0
 11
0.5981027074024752
 21
0.0012842682727063
 31
0.0
  0
LINE
  5
C9F
330
B63
100
AcDbEntity
  8
0
100
AcDbLine
 10
-0.000000027930259
 20
0.9795658920594272
 30
0.0
 11
-0.000000027930259
 21
0.9424760407529406
 31
0.0
  0
LINE
  5
CA0
330
B63
100
AcDbEntity
  8
0
100
AcDbLine
 10
0.5981027074024752
 20
1.141284268272706
 30
0.0
 11
0.593542153310537
 21
1.141284268272706
 31
0.0
  0
LINE
  5
CA1
330
B63
100
AcDbEntity
  8
0
100
AcDbLine
 10
0.593542153310537
 20
1.141284268272706
 30
0.0
 11
0.0238678673169233
 21
1.141284268272706
 31
0.0
  0
LINE
  5
CA2
330
B63
100
AcDbEntity
  8
0
100
AcDbLine
 10
0.6510560611211354
 20
1.141284268272706
 30
0.0
 11
1.176438552689067
 21
1.141284268272706
 31
0.0
  0
LINE
  5
CA3
330
B63
100
AcDbEntity
  8
0
100
AcDbLine
 10
0.6478975382484187
 20
0.0012842682727028
 30
0.0
 11
0.6406069369158942
 21
0.0012842682727028
 31
0.0
  0
LINE
  5
CA4
330
B63
100
AcDbEntity
  8
0
100
AcDbLine
 10
1.199595184657887
 20
0.6119043039360515
 30
0.0
 11
1.199595184657887
 21
0.5919043039360519
 31
0.0
  0
LINE
  5
CA5
330
B63
100
AcDbEntity
  8
0
100
AcDbLine
 10
1.199595184657887
 20
0.5919043039360519
 30
0.0
 11
1.199595184657891
 21
0.0012842682727063
 31
0.0
  0
LINE
  5
CA6
330
B63
100
AcDbEntity
  8
0
100
AcDbLine
 10
0.619315910838072
 20
1.141284268272706
 30
0.0
 11
0.6393036226164242
 21
1.141284268272706
 31
0.0
  0
LINE
  5
CA7
330
B63
100
AcDbEntity
  8
0
100
AcDbLine
 10
0.6510560611211318
 20
0.0012842682727028
 30
0.0
 11
0.6478975382484187
 21
0.0012842682727028
 31
0.0
  0
LINE
  5
CA8
330
B63
100
AcDbEntity
  8
0
100
AcDbLine
 10
0.6393036226164242
 20
1.141284268272706
 30
0.0
 11
0.6478975382484152
 21
1.141284268272706
 31
0.0
  0
LINE
  5
CA9
330
B63
100
AcDbEntity
  8
0
100
AcDbLine
 10
0.6478975382484152
 20
1.141284268272706
 30
0.0
 11
0.6510560611211354
 21
1.141284268272706
 31
0.0
  0
LINE
  5
CAA
330
B63
100
AcDbEntity
  8
0
100
AcDbLine
 10
-0.000000027930259
 20
0.9424760407529406
 30
0.0
 11
-0.000000027930259
 21
0.9127326949117255
 31
0.0
  0
LINE
  5
CAB
330
B63
100
AcDbEntity
  8
0
100
AcDbLine
 10
1.176438552689077
 20
0.0012842682727063
 30
0.0
 11
0.6510560611211318
 21
0.0012842682727028
 31
0.0
  0
LINE
  5
CAC
330
B63
100
AcDbEntity
  8
0
100
AcDbLine
 10
-0.000000027930259
 20
0.9127326949117255
 30
0.0
 11
-0.000000027930259
 21
0.877604367832327
 31
0.0
  0
LINE
  5
CAD
330
B63
100
AcDbEntity
  8
0
100
AcDbLine
 10
-0.000000027930259
 20
0.877604367832327
 30
0.0
 11
-0.000000027930259
 21
0.8756428436052177
 31
0.0
  0
LINE
  5
CAE
330
B63
100
AcDbEntity
  8
0
100
AcDbLine
 10
-0.000000027930259
 20
0.8756428436052177
 30
0.0
 11
-0.0000000279302625
 21
0.2795658920594279
 31
0.0
  0
LINE
  5
CAF
330
B63
100
AcDbEntity
  8
0
100
AcDbLine
 10
-0.0000000279302625
 20
0.1756428436052184
 30
0.0
 11
-0.0000000279302625
 21
0.0012842682727063
 31
0.0
  0
LINE
  5
CB0
330
B63
100
AcDbEntity
  8
0
100
AcDbLine
 10
-0.0000000279302625
 20
0.0012842682727063
 30
0.0
 11
0.0238678673169162
 21
0.0012842682727063
 31
0.0
  0
LINE
  5
CB1
330
B63
100
AcDbEntity
  8
0
100
AcDbLine
 10
-0.000000027930259
 20
1.141284268272706
 30
0.0
 11
0.0238678673169233
 21
1.141284268272706
 31
0.0
  0
LINE
  5
CB2
330
B63
100
AcDbEntity
  8
0
100
AcDbLine
 10
0.602136068942528
 20
1.141284268272706
 30
0.0
 11
0.5981027074024752
 21
1.141284268272706
 31
0.0
  0
LINE
  5
CB3
330
B63
100
AcDbEntity
  8
0
100
AcDbLine
 10
1.199595184657887
 20
1.141284268272706
 30
0.0
 11
1.176438552689067
 21
1.141284268272706
 31
0.0
  0
LINE
  5
CB4
330
B63
100
AcDbEntity
  8
0
100
AcDbLine
 10
1.199595184657891
 20
0.0012842682727063
 30
0.0
 11
1.176438552689077
 21
0.0012842682727063
 31
0.0
  0
LINE
  5
CB5
330
B63
100
AcDbEntity
  8
0
100
AcDbLine
 10
0.6008327546430579
 20
0.0012842682727028
 30
0.0
 11
0.5981027074024752
 21
0.0012842682727063
 31
0.0
  0
LINE
  5
CB6
330
B63
100
AcDbEntity
  8
0
100
AcDbLine
 10
-0.0000000279302554
 20
0.177461984419641
 30
0.0
 11
-0.0000000279302554
 21
0.2145518357261276
 31
0.0
  0
LINE
  5
CB7
330
B63
100
AcDbEntity
  8
0
100
AcDbLine
 10
-0.0000000279302554
 20
0.2145518357261276
 30
0.0
 11
-0.0000000279302554
 21
0.2442951815673426
 31
0.0
  0
LINE
  5
CB8
330
B63
100
AcDbEntity
  8
0
100
AcDbLine
 10
-0.0000000279302554
 20
0.2442951815673426
 30
0.0
 11
-0.0000000279302554
 21
0.2794235086467411
 31
0.0
  0
LINE
  5
CB9
330
B63
100
AcDbEntity
  8
0
100
AcDbLine
 10
-0.0000000279302554
 20
0.2794235086467411
 30
0.0
 11
-0.0000000279302554
 21
0.2813850328738505
 31
0.0
  0
ENDBLK
  5
CBD
330
B63
100
AcDbEntity
  8
0
100
AcDbBlockEnd
  0
BLOCK
  5
1167
330
115A
100
AcDbEntity
  8
0
100
AcDbBlockBegin
  2
A$C7305598A
 70
     0
 10
0.0
 20
0.0
 30
0.0
  3
A$C7305598A
  1

  0
LINE
  5
115B
330
115A
100
AcDbEntity
  8
0
100
AcDbLine
 10
0.6444246643894811
 20
0.1999999997088952
 30
0.0
 11
0.0747503783958674
 21
0.1999999997088952
 31
0.0
  0
LINE
  5
115C
330
115A
100
AcDbEntity
  8
0
100
AcDbLine
 10
0.7019385722000795
 20
0.1999999997088952
 30
0.0
 11
1.227321063768011
 21
0.1999999997088952
 31
0.0
  0
LINE
  5
115D
330
115A
100
AcDbEntity
  8
0
100
AcDbLine
 10
0.0508824831486852
 20
0.1999999997088952
 30
0.0
 11
0.0747503783958674
 21
0.1999999997088952
 31
0.0
  0
LINE
  5
115E
330
115A
100
AcDbEntity
  8
0
100
AcDbLine
 10
1.250477695736831
 20
0.1999999997088952
 30
0.0
 11
1.227321063768011
 21
0.1999999997088952
 31
0.0
  0
LINE
  5
115F
330
115A
100
AcDbEntity
  8
0
100
AcDbLine
 10
0.6701984219170161
 20
0.0999999997088956
 30
0.0
 11
1.250477695736832
 21
0.0999999997088868
 31
0.0
  0
ARC
  5
1160
330
115A
100
AcDbEntity
  8
0
100
AcDbCircle
 10
1.25135253165827
 20
0.149999999708891
 30
0.0
 40
0.0500076527932462
100
AcDbArc
 50
268.9976141588701
 51
91.00238584113085
  0
ARC
  5
1161
330
115A
100
AcDbEntity
  8
0
100
AcDbCircle
 10
1.251352531658301
 20
0.0499999997088816
 30
0.0
 40
0.0500076527932462
100
AcDbArc
 50
268.9976141588701
 51
91.00238584113091
  0
LINE
  5
1162
330
115A
100
AcDbEntity
  8
0
100
AcDbLine
 10
0.6311617569685329
 20
0.099999999708877
 30
0.0
 11
0.0508824831487163
 21
0.0999999997088859
 31
0.0
  0
ARC
  5
1163
330
115A
100
AcDbEntity
  8
0
100
AcDbCircle
 10
0.0500076472272788
 20
0.0499999997088816
 30
0.0
 40
0.0500076527932462
100
AcDbArc
 50
88.99761415887006
 51
271.0023858411308
  0
ARC
  5
1164
330
115A
100
AcDbEntity
  8
0
100
AcDbCircle
 10
0.0500076472272477
 20
0.149999999708891
 30
0.0
 40
0.0500076527932462
100
AcDbArc
 50
88.99761415887006
 51
271.0023858411308
  0
ENDBLK
  5
1168
330
115A
100
AcDbEntity
  8
0
100
AcDbBlockEnd
  0
BLOCK
  5
11B2
330
11A6
100
AcDbEntity
  8
0
100
AcDbBlockBegin
  2
A$C43E158E6
 70
     0
 10
0.0
 20
0.0
 30
0.0
  3
A$C43E158E6
  1

  0
LINE
  5
11A7
330
11A6
100
AcDbEntity
  8
0
100
AcDbLine
 10
0.6444246643894811
 20
0.0999999917373078
 30
0.0
 11
0.0747503783958674
 21
0.0999999917373078
 31
0.0
  0
LINE
  5
11A8
330
11A6
100
AcDbEntity
  8
0
100
AcDbLine
 10
0.7019385722000795
 20
0.0999999917373078
 30
0.0
 11
1.227321063768011
 21
0.0999999917373078
 31
0.0
  0
LINE
  5
11A9
330
11A6
100
AcDbEntity
  8
0
100
AcDbLine
 10
0.6701984219170161
 20
0.0999999917373078
 30
0.0
 11
0.6901861336953683
 21
0.0999999917373078
 31
0.0
  0
LINE
  5
11AA
330
11A6
100
AcDbEntity
  8
0
100
AcDbLine
 10
0.6901861336953683
 20
0.0999999917373078
 30
0.0
 11
0.6987800493273593
 21
0.0999999917373078
 31
0.0
  0
LINE
  5
11AB
330
11A6
100
AcDbEntity
  8
0
100
AcDbLine
 10
0.6987800493273593
 20
0.0999999917373078
 30
0.0
 11
0.7019385722000795
 21
0.0999999917373078
 31
0.0
  0
LINE
  5
11AC
330
11A6
100
AcDbEntity
  8
0
100
AcDbLine
 10
0.0508824831486852
 20
0.0999999917373078
 30
0.0
 11
0.0747503783958674
 21
0.0999999917373078
 31
0.0
  0
LINE
  5
11AD
330
11A6
100
AcDbEntity
  8
0
100
AcDbLine
 10
1.250477695736831
 20
0.0999999917373078
 30
0.0
 11
1.227321063768011
 21
0.0999999917373078
 31
0.0
  0
ARC
  5
11AE
330
11A6
100
AcDbEntity
  8
0
100
AcDbCircle
 10
1.25135253165827
 20
0.0499999917373035
 30
0.0
 40
0.0500076527932462
100
AcDbArc
 50
268.9976141588701
 51
91.00238584113085
  0
ARC
  5
11AF
330
11A6
100
AcDbEntity
  8
0
100
AcDbCircle
 10
0.0500076472272477
 20
0.0499999917373035
 30
0.0
 40
0.0500076527932462
100
AcDbArc
 50
88.99761415887006
 51
271.0023858411308
  0
ENDBLK
  5
11B3
330
11A6
100
AcDbEntity
  8
0
100
AcDbBlockEnd
  0
BLOCK
  5
1CDC
330
1CDB
100
AcDbEntity
  8
0
100
AcDbBlockBegin
  2
*D7
 70
     1
 10
0.0
 20
0.0
 30
0.0
  3
*D7
  1

  0
LINE
  5
1CE6
330
1CDB
100
AcDbEntity
  8
WYMIAR
370
    -2
100
AcDbLine
 10
-5.016022723365106
 20
10.76579286645492
 30
0.0
 11
-1.13602272336511
 21
10.76579286645492
 31
0.0
  0
INSERT
  5
1CE7
330
1CDB
100
AcDbEntity
  8
WYMIAR
370
    -2
100
AcDbBlockReference
  2
MAR-STRZ
 10
-5.076022723365105
 20
10.76579286645492
 30
0.0
 41
0.06
 42
0.06
 43
0.06
 50
180.0
  0
INSERT
  5
1CE8
330
1CDB
100
AcDbEntity
  8
WYMIAR
370
    -2
100
AcDbBlockReference
  2
MAR-STRZ
 10
-1.07602272336511
 20
10.76579286645492
 30
0.0
 41
0.06
 42
0.06
 43
0.06
  0
MTEXT
  5
1CE9
330
1CDB
100
AcDbEntity
  8
WYMIAR
100
AcDbMText
 10
-3.076022723365108
 20
10.97807208723414
 30
0.0
 40
0.18
 41
0.0
 71
     5
 72
     1
  1
\A1;4.00
  7
AR 01 SWIS
 73
     1
 44
1.0
  0
POINT
  5
1CEA
330
1CDB
100
AcDbEntity
  8
Defpoints
 62
     0
100
AcDbPoint
 10
-5.076022723365105
 20
10.01796570756746
 30
0.0
  0
POINT
  5
1CEB
330
1CDB
100
AcDbEntity
  8
Defpoints
 62
     0
100
AcDbPoint
 10
-1.07602272336511
 20
10.01796570756746
 30
0.0
  0
POINT
  5
1CEC
330
1CDB
100
AcDbEntity
  8
Defpoints
 62
     0
100
AcDbPoint
 10
-1.07602272336511
 20
10.76579286645492
 30
0.0
  0
ENDBLK
  5
1CDD
330
1CDB
100
AcDbEntity
  8
0
100
AcDbBlockEnd
  0
ENDSEC
  0
SECTION
  2
ENTITIES
  0
LINE
  5
1AC0
330
1F
100
AcDbEntity
  8
0
100
AcDbLine
 10
-2.576022723365106
 20
6.851533230223619
 30
0.0
 11
-2.576022723365106
 21
6.751533230223619
 31
0.0
  0
LINE
  5
1AC1
330
1F
100
AcDbEntity
  8
0
100
AcDbLine
 10
-2.576022723365106
 20
6.751533230223619
 30
0.0
 11
-2.676022723365106
 21
6.751533230223619
 31
0.0
  0
LINE
  5
1AC2
330
1F
100
AcDbEntity
  8
0
100
AcDbLine
 10
-2.676022723365106
 20
6.751533230223619
 30
0.0
 11
-2.676022723365107
 21
6.851533230223618
 31
0.0
  0
LINE
  5
1AC3
330
1F
100
AcDbEntity
  8
0
100
AcDbLine
 10
-2.676022723365107
 20
6.851533230223618
 30
0.0
 11
-2.576022723365106
 21
6.851533230223619
 31
0.0
  0
LINE
  5
1AC5
330
1F
100
AcDbEntity
  8
0
100
AcDbLine
 10
-3.476022723365106
 20
6.851533230223618
 30
0.0
 11
-3.576022723365106
 21
6.851533230223618
 31
0.0
  0
LINE
  5
1AC6
330
1F
100
AcDbEntity
  8
0
100
AcDbLine
 10
-3.576022723365106
 20
6.851533230223618
 30
0.0
 11
-3.576022723365106
 21
6.751533230223619
 31
0.0
  0
LINE
  5
1AC7
330
1F
100
AcDbEntity
  8
0
100
AcDbLine
 10
-3.576022723365106
 20
6.751533230223619
 30
0.0
 11
-3.476022723365106
 21
6.751533230223619
 31
0.0
  0
LINE
  5
1AC8
330
1F
100
AcDbEntity
  8
0
100
AcDbLine
 10
-3.476022723365106
 20
6.751533230223619
 30
0.0
 11
-3.476022723365106
 21
6.851533230223618
 31
0.0
  0
LINE
  5
1AC9
330
1F
100
AcDbEntity
  8
0
100
AcDbLine
 10
-3.476022723365106
 20
6.751533230223619
 30
0.0
 11
-3.476022723365106
 21
6.721533230223618
 31
0.0
  0
LINE
  5
1ACA
330
1F
100
AcDbEntity
  8
0
100
AcDbLine
 10
-3.476022723365106
 20
6.721533230223618
 30
0.0
 11
-3.376022723365106
 21
6.721533230223618
 31
0.0
  0
LINE
  5
1ACB
330
1F
100
AcDbEntity
  8
0
100
AcDbLine
 10
-3.376022723365106
 20
6.721533230223618
 30
0.0
 11
-3.376022723365105
 21
8.517965707567464
 31
0.0
  0
LINE
  5
1ACC
330
1F
100
AcDbEntity
  8
0
100
AcDbLine
 10
-3.376022723365105
 20
8.517965707567464
 30
0.0
 11
-3.476022723365105
 21
8.517965707567464
 31
0.0
  0
LINE
  5
1ACD
330
1F
100
AcDbEntity
  8
0
100
AcDbLine
 10
-3.476022723365105
 20
8.517965707567464
 30
0.0
 11
-3.476022723365106
 21
6.851533230223618
 31
0.0
  0
LINE
  5
1ADA
330
1F
100
AcDbEntity
  8
0
100
AcDbLine
 10
-2.776022723365107
 20
6.751533230223619
 30
0.0
 11
-2.776022723365107
 21
6.851533230223618
 31
0.0
  0
LINE
  5
1ADB
330
1F
100
AcDbEntity
  8
0
100
AcDbLine
 10
-2.776022723365107
 20
6.751533230223619
 30
0.0
 11
-2.776022723365107
 21
6.721533230223618
 31
0.0
  0
LINE
  5
1ADC
330
1F
100
AcDbEntity
  8
0
100
AcDbLine
 10
-2.776022723365107
 20
6.721533230223618
 30
0.0
 11
-2.676022723365107
 21
6.721533230223618
 31
0.0
  0
LINE
  5
1ADD
330
1F
100
AcDbEntity
  8
0
100
AcDbLine
 10
-2.676022723365107
 20
6.721533230223618
 30
0.0
 11
-2.676022723365105
 21
8.517965707567464
 31
0.0
  0
LINE
  5
1ADE
330
1F
100
AcDbEntity
  8
0
100
AcDbLine
 10
-2.676022723365105
 20
8.517965707567464
 30
0.0
 11
-2.776022723365105
 21
8.517965707567464
 31
0.0
  0
LINE
  5
1ADF
330
1F
100
AcDbEntity
  8
0
100
AcDbLine
 10
-2.776022723365105
 20
8.517965707567464
 30
0.0
 11
-2.776022723365107
 21
6.851533230223618
 31
0.0
  0
LINE
  5
1AE0
330
1F
100
AcDbEntity
  8
0
100
AcDbLine
 10
-2.676022723365106
 20
6.751533230223619
 30
0.0
 11
-2.676022723365107
 21
6.721533230223618
 31
0.0
  0
LINE
  5
1AE1
330
1F
100
AcDbEntity
  8
0
100
AcDbLine
 10
-2.676022723365107
 20
6.851533230223618
 30
0.0
 11
-2.666022723365107
 21
6.851533230223618
 31
0.0
  0
LINE
  5
1AE4
330
1F
100
AcDbEntity
  8
0
100
AcDbLine
 10
-2.776022723365107
 20
6.751533230223619
 30
0.0
 11
-2.776022723365107
 21
7.551533230223618
 31
0.0
  0
LINE
  5
1AE5
330
1F
100
AcDbEntity
  8
0
100
AcDbLine
 10
-2.876204411272008
 20
7.551533230223618
 30
0.0
 11
-3.277297299919335
 21
7.551533230223618
 31
0.0
  0
LINE
  5
1AE7
330
1F
100
AcDbEntity
  8
0
100
AcDbLine
 10
-3.476022723365106
 20
7.551533230223617
 30
0.0
 11
-3.476022723365106
 21
7.451533230223618
 31
0.0
  0
LINE
  5
1AE8
330
1F
100
AcDbEntity
  8
0
100
AcDbLine
 10
-3.476022723365106
 20
7.451533230223618
 30
0.0
 11
-3.576022723365106
 21
7.451533230223618
 31
0.0
  0
LINE
  5
1AE9
330
1F
100
AcDbEntity
  8
0
100
AcDbLine
 10
-3.576022723365106
 20
7.451533230223618
 30
0.0
 11
-3.576022723365106
 21
6.851533230223618
 31
0.0
  0
LINE
  5
1AEB
330
1F
100
AcDbEntity
  8
0
100
AcDbLine
 10
-2.67602272336511
 20
7.551533230223628
 30
0.0
 11
-2.67602272336511
 21
7.451533230223629
 31
0.0
  0
LINE
  5
1AEC
330
1F
100
AcDbEntity
  8
0
100
AcDbLine
 10
-2.67602272336511
 20
7.451533230223629
 30
0.0
 11
-2.57602272336511
 21
7.451533230223629
 31
0.0
  0
LINE
  5
1AED
330
1F
100
AcDbEntity
  8
0
100
AcDbLine
 10
-2.57602272336511
 20
7.451533230223629
 30
0.0
 11
-2.576022723365106
 21
6.851533230223619
 31
0.0
  0
LINE
  5
1AEE
330
1F
100
AcDbEntity
  8
0
100
AcDbLine
 10
-3.576022723365106
 20
6.851533230223618
 30
0.0
 11
-3.576022723365106
 21
6.871533230223618
 31
0.0
  0
LINE
  5
1AEF
330
1F
100
AcDbEntity
  8
0
100
AcDbLine
 10
-3.576022723365106
 20
6.871533230223618
 30
0.0
 11
-3.476022723365107
 21
6.871533230223617
 31
0.0
  0
LINE
  5
1AF0
330
1F
100
AcDbEntity
  8
0
100
AcDbLine
 10
-2.576022723365106
 20
6.871533230223616
 30
0.0
 11
-2.576022723365106
 21
6.991533230223616
 31
0.0
  0
LINE
  5
1AF1
330
1F
100
AcDbEntity
  8
0
100
AcDbLine
 10
-2.576022723365106
 20
6.991533230223616
 30
0.0
 11
-2.676022723365106
 21
6.991533230223616
 31
0.0
  0
LINE
  5
1AF2
330
1F
100
AcDbEntity
  8
0
100
AcDbLine
 10
-3.576022723365106
 20
6.991533230223616
 30
0.0
 11
-3.576022723365106
 21
7.111533230223616
 31
0.0
  0
LINE
  5
1AF3
330
1F
100
AcDbEntity
  8
0
100
AcDbLine
 10
-3.576022723365106
 20
7.111533230223616
 30
0.0
 11
-3.476022723365106
 21
7.111533230223616
 31
0.0
  0
LINE
  5
1AF4
330
1F
100
AcDbEntity
  8
0
100
AcDbLine
 10
-2.576022723365108
 20
7.111533230223611
 30
0.0
 11
-2.576022723365108
 21
7.231533230223611
 31
0.0
  0
LINE
  5
1AF5
330
1F
100
AcDbEntity
  8
0
100
AcDbLine
 10
-2.576022723365108
 20
7.231533230223611
 30
0.0
 11
-2.676022723365106
 21
7.231533230223611
 31
0.0
  0
LINE
  5
1AF6
330
1F
100
AcDbEntity
  8
0
100
AcDbLine
 10
-3.576022723365107
 20
7.231533230223613
 30
0.0
 11
-3.576022723365107
 21
7.351533230223613
 31
0.0
  0
LINE
  5
1AF7
330
1F
100
AcDbEntity
  8
0
100
AcDbLine
 10
-3.576022723365107
 20
7.351533230223613
 30
0.0
 11
-3.476022723365106
 21
7.351533230223614
 31
0.0
  0
LINE
  5
1AF8
330
1F
100
AcDbEntity
  8
0
100
AcDbLine
 10
-3.376022723365105
 20
7.451533230223618
 30
0.0
 11
-3.326022711847985
 21
7.451533230223618
 31
0.0
  0
LINE
  5
1AF9
330
1F
100
AcDbEntity
  8
0
100
AcDbLine
 10
-2.676022723365106
 20
7.351533230223616
 30
0.0
 11
-2.57602272336511
 21
7.351533230223616
 31
0.0
  0
LINE
  5
1AFA
330
1F
100
AcDbEntity
  8
0
100
AcDbLine
 10
-2.776022723365107
 20
7.231533230223613
 30
0.0
 11
-2.827478999988553
 21
7.231533230223613
 31
0.0
  0
LINE
  5
1AFB
330
1F
100
AcDbEntity
  8
0
100
AcDbLine
 10
-2.676022723365106
 20
7.111533230223612
 30
0.0
 11
-2.576022723365108
 21
7.111533230223611
 31
0.0
  0
LINE
  5
1AFC
330
1F
100
AcDbEntity
  8
0
100
AcDbLine
 10
-2.776022723365107
 20
6.991533230223616
 30
0.0
 11
-3.376022723365106
 21
6.991533230223616
 31
0.0
  0
LINE
  5
1AFD
330
1F
100
AcDbEntity
  8
0
100
AcDbLine
 10
-2.676022723365106
 20
6.871533230223615
 30
0.0
 11
-2.576022723365106
 21
6.871533230223616
 31
0.0
  0
LINE
  5
1AFE
330
1F
100
AcDbEntity
  8
0
100
AcDbLine
 10
-3.376022723365105
 20
7.351533230223614
 30
0.0
 11
-3.326022711847985
 21
7.351533230223615
 31
0.0
  0
LINE
  5
1AFF
330
1F
100
AcDbEntity
  8
0
100
AcDbLine
 10
-3.476022723365106
 20
7.231533230223612
 30
0.0
 11
-3.576022723365107
 21
7.231533230223613
 31
0.0
  0
LINE
  5
1B00
330
1F
100
AcDbEntity
  8
0
100
AcDbLine
 10
-3.376022723365106
 20
7.111533230223615
 30
0.0
 11
-3.326022711847985
 21
7.111533230223615
 31
0.0
  0
LINE
  5
1B01
330
1F
100
AcDbEntity
  8
0
100
AcDbLine
 10
-3.476022723365106
 20
6.991533230223616
 30
0.0
 11
-3.576022723365106
 21
6.991533230223616
 31
0.0
  0
LINE
  5
1B02
330
1F
100
AcDbEntity
  8
0
100
AcDbLine
 10
-3.376022723365106
 20
6.871533230223617
 30
0.0
 11
-2.776022723365107
 21
6.871533230223617
 31
0.0
  0
LINE
  5
1B0B
330
1F
100
AcDbEntity
  8
0
100
AcDbLine
 10
-2.786022723365105
 20
8.034128347020983
 30
0.0
 11
-3.366022723365106
 21
8.034128347020985
 31
0.0
  0
LINE
  5
1B0C
330
1F
100
AcDbEntity
  8
0
100
AcDbLine
 10
-2.786022723365105
 20
8.082008347020982
 30
0.0
 11
-3.366022723365106
 21
8.082008347020982
 31
0.0
  0
LINE
  5
1B15
330
1F
100
AcDbEntity
  8
0
100
AcDbLine
 10
-2.786022723365105
 20
7.774842939645368
 30
0.0
 11
-3.366022723365106
 21
7.774842939645369
 31
0.0
  0
LINE
  5
1B16
330
1F
100
AcDbEntity
  8
0
100
AcDbLine
 10
-2.786022723365106
 20
7.822722939645367
 30
0.0
 11
-3.366022723365106
 21
7.822722939645366
 31
0.0
  0
LINE
  5
1B32
330
1F
100
AcDbEntity
  8
0
100
AcDbLine
 10
-2.877478999988554
 20
7.540315641567483
 30
0.0
 11
-2.877478999988554
 21
7.040315641567483
 31
0.0
  0
ARC
  5
1B33
330
1F
100
AcDbEntity
  8
0
100
AcDbCircle
 10
-2.827478999988554
 20
7.540315641567483
 30
0.0
 40
0.05
100
AcDbArc
 50
90.0
 51
180.0
  0
LINE
  5
1B34
330
1F
100
AcDbEntity
  8
0
100
AcDbLine
 10
-2.827478999988554
 20
6.990315641567483
 30
0.0
 11
-2.777478999988554
 21
6.990315641567482
 31
0.0
  0
ARC
  5
1B35
330
1F
100
AcDbEntity
  8
0
100
AcDbCircle
 10
-2.827478999988554
 20
7.040315641567483
 30
0.0
 40
0.05
100
AcDbArc
 50
180.0
 51
270.0
  0
LINE
  5
1B36
330
1F
100
AcDbEntity
  8
0
100
AcDbLine
 10
-2.777478999988554
 20
7.590315641567482
 30
0.0
 11
-2.827478999988554
 21
7.590315641567483
 31
0.0
  0
LINE
  5
1B37
330
1F
100
AcDbEntity
  8
0
100
AcDbLine
 10
-2.827478999988554
 20
7.490315641567482
 30
0.0
 11
-2.827478999988554
 21
7.090315641567481
 31
0.0
  0
ARC
  5
1B38
330
1F
100
AcDbEntity
  8
0
100
AcDbCircle
 10
-2.777478999988554
 20
7.490315641567482
 30
0.0
 40
0.05
100
AcDbArc
 50
89.99999999999898
 51
180.0
  0
ARC
  5
1B39
330
1F
100
AcDbEntity
  8
0
100
AcDbCircle
 10
-2.777478999988554
 20
7.090315641567481
 30
0.0
 40
0.05
100
AcDbArc
 50
180.0
 51
269.999999999999
  0
LINE
  5
1B50
330
1F
100
AcDbEntity
  8
0
100
AcDbLine
 10
-3.276022711847985
 20
7.540315644369997
 30
0.0
 11
-3.276022711847985
 21
7.040315644369997
 31
0.0
  0
ARC
  5
1B51
330
1F
100
AcDbEntity
  8
0
100
AcDbCircle
 10
-3.326022711847985
 20
7.540315644369997
 30
0.0
 40
0.05
100
AcDbArc
 50
0.0
 51
90.0
  0
LINE
  5
1B52
330
1F
100
AcDbEntity
  8
0
100
AcDbLine
 10
-3.326022711847985
 20
6.990315644369997
 30
0.0
 11
-3.376022711847985
 21
6.990315644369996
 31
0.0
  0
ARC
  5
1B53
330
1F
100
AcDbEntity
  8
0
100
AcDbCircle
 10
-3.326022711847985
 20
7.040315644369997
 30
0.0
 40
0.05
100
AcDbArc
 50
270.0
 51
0.0
  0
LINE
  5
1B54
330
1F
100
AcDbEntity
  8
0
100
AcDbLine
 10
-3.376022711847985
 20
7.590315644369995
 30
0.0
 11
-3.326022711847985
 21
7.590315644369996
 31
0.0
  0
LINE
  5
1B55
330
1F
100
AcDbEntity
  8
0
100
AcDbLine
 10
-3.326022711847985
 20
7.490315644369996
 30
0.0
 11
-3.326022711847985
 21
7.090315644369995
 31
0.0
  0
ARC
  5
1B56
330
1F
100
AcDbEntity
  8
0
100
AcDbCircle
 10
-3.376022711847985
 20
7.490315644369996
 30
0.0
 40
0.05
100
AcDbArc
 50
0.0
 51
90.00000000000101
  0
ARC
  5
1B57
330
1F
100
AcDbEntity
  8
0
100
AcDbCircle
 10
-3.376022711847985
 20
7.090315644369995
 30
0.0
 40
0.05
100
AcDbArc
 50
270.000000000001
 51
0.0
  0
LINE
  5
1B68
330
1F
100
AcDbEntity
  8
0
100
AcDbLine
 10
-3.276022711847985
 20
7.451533230223618
 30
0.0
 11
-2.877478999988554
 21
7.451533230223615
 31
0.0
  0
LINE
  5
1B69
330
1F
100
AcDbEntity
  8
0
100
AcDbLine
 10
-3.276022711847985
 20
7.351533230223614
 30
0.0
 11
-2.877478999988554
 21
7.351533230223615
 31
0.0
  0
LINE
  5
1B6A
330
1F
100
AcDbEntity
  8
0
100
AcDbLine
 10
-3.326022711847985
 20
7.231533230223612
 30
0.0
 11
-3.376022723365105
 21
7.231533230223614
 31
0.0
  0
LINE
  5
1B6B
330
1F
100
AcDbEntity
  8
0
100
AcDbLine
 10
-3.276022711847985
 20
7.111533230223615
 30
0.0
 11
-2.877478999988554
 21
7.111533230223613
 31
0.0
  0
LINE
  5
1B6C
330
1F
100
AcDbEntity
  8
0
100
AcDbLine
 10
-2.827478999988554
 20
7.451533230223617
 30
0.0
 11
-2.776022723365105
 21
7.451533230223615
 31
0.0
  0
LINE
  5
1B6D
330
1F
100
AcDbEntity
  8
0
100
AcDbLine
 10
-2.827478999988554
 20
7.351533230223615
 30
0.0
 11
-2.776022723365106
 21
7.351533230223616
 31
0.0
  0
LINE
  5
1B6E
330
1F
100
AcDbEntity
  8
0
100
AcDbLine
 10
-2.877478999988554
 20
7.231533230223613
 30
0.0
 11
-3.276022711847985
 21
7.231533230223612
 31
0.0
  0
LINE
  5
1B6F
330
1F
100
AcDbEntity
  8
0
100
AcDbLine
 10
-2.827478999988553
 20
7.111533230223613
 30
0.0
 11
-2.776022723365107
 21
7.111533230223613
 31
0.0
  0
LINE
  5
1B70
330
1F
100
AcDbEntity
  8
0
100
AcDbLine
 10
-3.376022723365105
 20
8.082008347020982
 30
0.0
 11
-3.376022723365105
 21
8.182008347020982
 31
0.0
  0
LINE
  5
1B71
330
1F
100
AcDbEntity
  8
0
100
AcDbLine
 10
-3.376022723365105
 20
8.182008347020982
 30
0.0
 11
-3.366022723365106
 21
8.182008347020982
 31
0.0
  0
LINE
  5
1B72
330
1F
100
AcDbEntity
  8
0
100
AcDbLine
 10
-3.366022723365106
 20
8.182008347020982
 30
0.0
 11
-3.366022723365106
 21
7.774842939645366
 31
0.0
  0
LINE
  5
1B73
330
1F
100
AcDbEntity
  8
0
100
AcDbLine
 10
-3.366022723365106
 20
7.774842939645366
 30
0.0
 11
-3.366022723365106
 21
7.674842939645366
 31
0.0
  0
LINE
  5
1B74
330
1F
100
AcDbEntity
  8
0
100
AcDbLine
 10
-3.366022723365106
 20
7.674842939645366
 30
0.0
 11
-3.376022723365105
 21
7.674842939645356
 31
0.0
  0
LINE
  5
1B75
330
1F
100
AcDbEntity
  8
0
100
AcDbLine
 10
-2.776022723365105
 20
8.08200834702098
 30
0.0
 11
-2.776022723365105
 21
8.18200834702098
 31
0.0
  0
LINE
  5
1B76
330
1F
100
AcDbEntity
  8
0
100
AcDbLine
 10
-2.776022723365105
 20
8.18200834702098
 30
0.0
 11
-2.786022723365105
 21
8.18200834702098
 31
0.0
  0
LINE
  5
1B77
330
1F
100
AcDbEntity
  8
0
100
AcDbLine
 10
-2.786022723365105
 20
8.18200834702098
 30
0.0
 11
-2.786022723365105
 21
7.674842939645365
 31
0.0
  0
LINE
  5
1B78
330
1F
100
AcDbEntity
  8
0
100
AcDbLine
 10
-2.786022723365105
 20
7.674842939645365
 30
0.0
 11
-2.776022723365105
 21
7.674842939645365
 31
0.0
  0
LINE
  5
1B81
330
1F
100
AcDbEntity
  8
0
100
AcDbLine
 10
-2.796022732412376
 20
6.7815406118918
 30
0.0
 11
-3.376022732412377
 21
6.7815406118918
 31
0.0
  0
LINE
  5
1B82
330
1F
100
AcDbEntity
  8
0
100
AcDbLine
 10
-2.796022732412376
 20
6.829420611891799
 30
0.0
 11
-3.376022732412377
 21
6.829420611891798
 31
0.0
  0
LINE
  5
1B83
330
1F
100
AcDbEntity
  8
0
100
AcDbLine
 10
-2.796022732412376
 20
6.7815406118918
 30
0.0
 11
-2.776022723365107
 21
6.7815406118918
 31
0.0
  0
LINE
  5
1B84
330
1F
100
AcDbEntity
  8
0
100
AcDbLine
 10
-2.776022723365107
 20
6.7815406118918
 30
0.0
 11
-2.776022723365107
 21
6.829420611891799
 31
0.0
  0
LINE
  5
1B85
330
1F
100
AcDbEntity
  8
0
100
AcDbLine
 10
-2.776022723365107
 20
6.829420611891799
 30
0.0
 11
-2.796022732412376
 21
6.829420611891799
 31
0.0
  0
LINE
  5
1C1F
330
1F
100
AcDbEntity
  8
0
100
AcDbLine
 10
-3.360240728470328
 20
4.827093658707255
 30
0.0
 11
-3.361024434465685
 21
4.832787331649473
 31
0.0
  0
LINE
  5
1C20
330
1F
100
AcDbEntity
  8
0
100
AcDbLine
 10
-3.357943018752722
 20
4.821788000166801
 30
0.0
 11
-3.360240728470328
 21
4.827093658707255
 31
0.0
  0
LINE
  5
1C21
330
1F
100
AcDbEntity
  8
0
100
AcDbLine
 10
-3.354287890432972
 20
4.817231927889643
 30
0.0
 11
-3.357943018752722
 21
4.821788000166801
 31
0.0
  0
LINE
  5
1C22
330
1F
100
AcDbEntity
  8
0
100
AcDbLine
 10
-3.349524434465683
 20
4.813735930672198
 30
0.0
 11
-3.354287890432972
 21
4.817231927889643
 31
0.0
  0
LINE
  5
1C23
330
1F
100
AcDbEntity
  8
0
100
AcDbLine
 10
-3.343977272503041
 20
4.811538254947421
 30
0.0
 11
-3.349524434465683
 21
4.813735930672198
 31
0.0
  0
LINE
  5
1C24
330
1F
100
AcDbEntity
  8
0
100
AcDbLine
 10
-3.338024434465681
 20
4.810788668684136
 30
0.0
 11
-3.343977272503041
 21
4.811538254947421
 31
0.0
  0
LINE
  5
1C25
330
1F
100
AcDbEntity
  8
0
100
AcDbLine
 10
-3.332071596428326
 20
4.811538254947421
 30
0.0
 11
-3.338024434465681
 21
4.810788668684136
 31
0.0
  0
LINE
  5
1C26
330
1F
100
AcDbEntity
  8
0
100
AcDbLine
 10
-3.326524434465683
 20
4.813735930672198
 30
0.0
 11
-3.332071596428326
 21
4.811538254947421
 31
0.0
  0
LINE
  5
1C27
330
1F
100
AcDbEntity
  8
0
100
AcDbLine
 10
-3.321760978498391
 20
4.817231927889643
 30
0.0
 11
-3.326524434465683
 21
4.813735930672198
 31
0.0
  0
LINE
  5
1C28
330
1F
100
AcDbEntity
  8
0
100
AcDbLine
 10
-3.318105850178637
 20
4.821788000166801
 30
0.0
 11
-3.321760978498391
 21
4.817231927889643
 31
0.0
  0
LINE
  5
1C29
330
1F
100
AcDbEntity
  8
0
100
AcDbLine
 10
-3.315808140461031
 20
4.827093658707255
 30
0.0
 11
-3.318105850178637
 21
4.821788000166801
 31
0.0
  0
LINE
  5
1C2A
330
1F
100
AcDbEntity
  8
0
100
AcDbLine
 10
-3.315024434465682
 20
4.832787331649473
 30
0.0
 11
-3.315808140461031
 21
4.827093658707255
 31
0.0
  0
LINE
  5
1C2B
330
1F
100
AcDbEntity
  8
0
100
AcDbLine
 10
-2.841015347947804
 20
4.851529029013672
 30
0.0
 11
-3.315024434465682
 21
4.85183139683912
 31
0.0
  0
LINE
  5
1C2C
330
1F
100
AcDbEntity
  8
0
100
AcDbLine
 10
-3.360240728470328
 20
5.132036359499211
 30
0.0
 11
-3.361024434465685
 21
5.132627705582618
 31
0.0
  0
LINE
  5
1C2D
330
1F
100
AcDbEntity
  8
0
100
AcDbLine
 10
-3.357943018752722
 20
5.131485312674144
 30
0.0
 11
-3.360240728470328
 21
5.132036359499211
 31
0.0
  0
LINE
  5
1C2E
330
1F
100
AcDbEntity
  8
0
100
AcDbLine
 10
-3.354684613023772
 20
5.131063477931616
 30
0.0
 11
-3.357943018752722
 21
5.131485312674144
 31
0.0
  0
LINE
  5
1C2F
330
1F
100
AcDbEntity
  8
0
100
AcDbLine
 10
-3.318105850178637
 20
5.131485312674144
 30
0.0
 11
-3.321364255907591
 21
5.131063477931616
 31
0.0
  0
LINE
  5
1C30
330
1F
100
AcDbEntity
  8
0
100
AcDbLine
 10
-3.315808140461031
 20
5.132036359499211
 30
0.0
 11
-3.318105850178637
 21
5.131485312674144
 31
0.0
  0
LINE
  5
1C31
330
1F
100
AcDbEntity
  8
0
100
AcDbLine
 10
-3.315024434465682
 20
5.132627705582618
 30
0.0
 11
-3.315808140461031
 21
5.132036359499211
 31
0.0
  0
LINE
  5
1C32
330
1F
100
AcDbEntity
  8
0
100
AcDbLine
 10
-2.841015347947807
 20
5.13457422225914
 30
0.0
 11
-3.315024434465682
 21
5.13460562624584
 31
0.0
  0
LINE
  5
1C33
330
1F
100
AcDbEntity
  8
0
100
AcDbLine
 10
-3.360240728470328
 20
6.558838617420283
 30
0.0
 11
-3.361024434465681
 21
6.560834187458498
 31
0.0
  0
LINE
  5
1C34
330
1F
100
AcDbEntity
  8
0
100
AcDbLine
 10
-3.357943018752722
 20
6.556979042182343
 30
0.0
 11
-3.360240728470328
 21
6.558838617420283
 31
0.0
  0
LINE
  5
1C35
330
1F
100
AcDbEntity
  8
0
100
AcDbLine
 10
-3.354684613023772
 20
6.555555508997821
 30
0.0
 11
-3.357943018752722
 21
6.556979042182343
 31
0.0
  0
LINE
  5
1C36
330
1F
100
AcDbEntity
  8
0
100
AcDbLine
 10
-3.318105850178637
 20
6.556979042182343
 30
0.0
 11
-3.321364255907591
 21
6.555555508997821
 31
0.0
  0
LINE
  5
1C37
330
1F
100
AcDbEntity
  8
0
100
AcDbLine
 10
-3.315808140461031
 20
6.558838617420283
 30
0.0
 11
-3.318105850178637
 21
6.556979042182343
 31
0.0
  0
LINE
  5
1C38
330
1F
100
AcDbEntity
  8
0
100
AcDbLine
 10
-3.315024434465682
 20
6.560834187458498
 30
0.0
 11
-3.315808140461031
 21
6.558838617420283
 31
0.0
  0
LINE
  5
1C39
330
1F
100
AcDbEntity
  8
0
100
AcDbLine
 10
-2.841024434465682
 20
6.567402949252796
 30
0.0
 11
-3.315024434465682
 21
6.567508923834109
 31
0.0
  0
LINE
  5
1C3A
330
1F
100
AcDbEntity
  8
0
100
AcDbLine
 10
-3.361024434465681
 20
6.560834187458498
 30
0.0
 11
-3.361024434465681
 21
6.718274380377428
 31
0.0
  0
LINE
  5
1C3B
330
1F
100
AcDbEntity
  8
0
100
AcDbLine
 10
-3.324422216721346
 20
6.555413402501203
 30
0.0
 11
-3.326288703437976
 21
6.55207759826162
 31
0.0
  0
LINE
  5
1C3C
330
1F
100
AcDbEntity
  8
0
100
AcDbLine
 10
-3.352514693058731
 20
6.558727616067807
 30
0.0
 11
-3.352566170266092
 21
6.562549750639648
 31
0.0
  0
LINE
  5
1C3D
330
1F
100
AcDbEntity
  8
0
100
AcDbLine
 10
-3.351475728674534
 20
6.555049040854965
 30
0.0
 11
-3.352514693058731
 21
6.558727616067807
 31
0.0
  0
LINE
  5
1C3E
330
1F
100
AcDbEntity
  8
0
100
AcDbLine
 10
-3.328954960829927
 20
6.549338541104861
 30
0.0
 11
-3.332239287862146
 21
6.547382893249645
 31
0.0
  0
LINE
  5
1C3F
330
1F
100
AcDbEntity
  8
0
100
AcDbLine
 10
-3.326288703437976
 20
6.55207759826162
 30
0.0
 11
-3.328954960829927
 21
6.549338541104861
 31
0.0
  0
LINE
  5
1C40
330
1F
100
AcDbEntity
  8
0
100
AcDbLine
 10
-3.346781023662559
 20
6.549098456430796
 30
0.0
 11
-3.349520080819319
 21
6.55176471382275
 31
0.0
  0
LINE
  5
1C41
330
1F
100
AcDbEntity
  8
0
100
AcDbLine
 10
-3.34344521942298
 20
6.547231969714163
 30
0.0
 11
-3.346781023662559
 21
6.549098456430796
 31
0.0
  0
LINE
  5
1C42
330
1F
100
AcDbEntity
  8
0
100
AcDbLine
 10
-3.339739997646832
 20
6.546292451658088
 30
0.0
 11
-3.34344521942298
 21
6.547231969714163
 31
0.0
  0
LINE
  5
1C43
330
1F
100
AcDbEntity
  8
0
100
AcDbLine
 10
-3.335917863074987
 20
6.546343928865448
 30
0.0
 11
-3.339739997646832
 21
6.546292451658088
 31
0.0
  0
LINE
  5
1C44
330
1F
100
AcDbEntity
  8
0
100
AcDbLine
 10
-3.332239287862146
 20
6.547382893249645
 30
0.0
 11
-3.335917863074987
 21
6.546343928865448
 31
0.0
  0
LINE
  5
1C45
330
1F
100
AcDbEntity
  8
0
100
AcDbLine
 10
-3.351572652250796
 20
6.554367581146054
 30
0.0
 11
-3.350900449767243
 21
6.554082913920995
 31
0.0
  0
LINE
  5
1C46
330
1F
100
AcDbEntity
  8
0
100
AcDbLine
 10
-3.353661451056938
 20
6.556083841548987
 30
0.0
 11
-3.351572652250796
 21
6.554367581146054
 31
0.0
  0
LINE
  5
1C47
330
1F
100
AcDbEntity
  8
0
100
AcDbLine
 10
-3.354684613023772
 20
6.558123830175338
 30
0.0
 11
-3.353661451056938
 21
6.556083841548987
 31
0.0
  0
LINE
  5
1C48
330
1F
100
AcDbEntity
  8
0
100
AcDbLine
 10
-3.354572411354117
 20
6.560348525171457
 30
0.0
 11
-3.354684613023772
 21
6.558123830175338
 31
0.0
  0
LINE
  5
1C49
330
1F
100
AcDbEntity
  8
0
100
AcDbLine
 10
-3.353332492406346
 20
6.562606317249843
 30
0.0
 11
-3.354572411354117
 21
6.560348525171457
 31
0.0
  0
LINE
  5
1C4A
330
1F
100
AcDbEntity
  8
0
100
AcDbLine
 10
-3.352566170266092
 20
6.563323597250894
 30
0.0
 11
-3.353332492406346
 21
6.562606317249843
 31
0.0
  0
LINE
  5
1C4B
330
1F
100
AcDbEntity
  8
0
100
AcDbLine
 10
-3.321364255907591
 20
6.563544544741665
 30
0.0
 11
-3.322387417874425
 21
6.565584533368015
 31
0.0
  0
LINE
  5
1C4C
330
1F
100
AcDbEntity
  8
0
100
AcDbLine
 10
-3.321476457577242
 20
6.561319849745546
 30
0.0
 11
-3.321364255907591
 21
6.563544544741665
 31
0.0
  0
LINE
  5
1C4D
330
1F
100
AcDbEntity
  8
0
100
AcDbLine
 10
-3.322387417874425
 20
6.565584533368015
 30
0.0
 11
-3.323482698665268
 21
6.566484470234071
 31
0.0
  0
LINE
  5
1C4E
330
1F
100
AcDbEntity
  8
0
100
AcDbLine
 10
-3.322716376525013
 20
6.559062057667157
 30
0.0
 11
-3.321476457577242
 21
6.561319849745546
 31
0.0
  0
LINE
  5
1C4F
330
1F
100
AcDbEntity
  8
0
100
AcDbLine
 10
-3.323739983394217
 20
6.558103958327924
 30
0.0
 11
-3.322716376525013
 21
6.559062057667157
 31
0.0
  0
LINE
  5
1C50
330
1F
100
AcDbEntity
  8
0
100
AcDbLine
 10
-3.315024434465682
 20
5.132627705582618
 30
0.0
 11
-3.315024434465682
 21
5.13460562624584
 31
0.0
  0
LINE
  5
1C51
330
1F
100
AcDbEntity
  8
0
100
AcDbLine
 10
-3.315024434465682
 20
6.560834187458498
 30
0.0
 11
-3.315024434465682
 21
6.567508923834109
 31
0.0
  0
LINE
  5
1C52
330
1F
100
AcDbEntity
  8
0
100
AcDbLine
 10
-3.315024434465682
 20
6.567508923834109
 30
0.0
 11
-3.315024434465682
 21
6.718274380377428
 31
0.0
  0
LINE
  5
1C53
330
1F
100
AcDbEntity
  8
0
100
AcDbLine
 10
-3.352566170266092
 20
6.562549750639648
 30
0.0
 11
-3.352566170266092
 21
6.563323597250894
 31
0.0
  0
LINE
  5
1C54
330
1F
100
AcDbEntity
  8
0
100
AcDbLine
 10
-3.323482698665268
 20
6.559118624277354
 30
0.0
 11
-3.323739983394217
 21
6.558103958327924
 31
0.0
  0
LINE
  5
1C55
330
1F
100
AcDbEntity
  8
0
100
AcDbLine
 10
-3.323739983394217
 20
6.558103958327924
 30
0.0
 11
-3.324422216721346
 21
6.555413402501203
 31
0.0
  0
LINE
  5
1C56
330
1F
100
AcDbEntity
  8
0
100
AcDbLine
 10
-3.349520080819319
 20
6.55176471382275
 30
0.0
 11
-3.350900449767243
 21
6.554082913920995
 31
0.0
  0
LINE
  5
1C57
330
1F
100
AcDbEntity
  8
0
100
AcDbLine
 10
-3.350900449767243
 20
6.554082913920995
 30
0.0
 11
-3.351475728674534
 21
6.555049040854965
 31
0.0
  0
LINE
  5
1C58
330
1F
100
AcDbEntity
  8
0
100
AcDbLine
 10
-3.323482698665268
 20
6.559118624277354
 30
0.0
 11
-3.323482698665268
 21
6.566484470234071
 31
0.0
  0
LINE
  5
1C59
330
1F
100
AcDbEntity
  8
0
100
AcDbLine
 10
-3.354684613023772
 20
5.131063477931616
 30
0.0
 11
-3.354684613023772
 21
4.832787331649473
 31
0.0
  0
LINE
  5
1C5A
330
1F
100
AcDbEntity
  8
0
100
AcDbLine
 10
-3.321364255907591
 20
6.555555508997821
 30
0.0
 11
-3.321364255907591
 21
6.563544544741665
 31
0.0
  0
LINE
  5
1C5B
330
1F
100
AcDbEntity
  8
0
100
AcDbLine
 10
-3.354684613023772
 20
6.558123830175338
 30
0.0
 11
-3.354684613023772
 21
6.555555508997821
 31
0.0
  0
LINE
  5
1C5C
330
1F
100
AcDbEntity
  8
0
100
AcDbLine
 10
-3.354684613023772
 20
6.288168824968616
 30
0.0
 11
-3.354684613023772
 21
5.131063477931616
 31
0.0
  0
LINE
  5
1C5D
330
1F
100
AcDbEntity
  8
0
100
AcDbLine
 10
-3.321364255907591
 20
4.831734871637042
 30
0.0
 11
-3.321364255907591
 21
5.131063477931616
 31
0.0
  0
LINE
  5
1C5E
330
1F
100
AcDbEntity
  8
0
100
AcDbLine
 10
-3.321364255907591
 20
5.131063477931616
 30
0.0
 11
-3.321364255907591
 21
6.288168824968616
 31
0.0
  0
LINE
  5
1C5F
330
1F
100
AcDbEntity
  8
0
100
AcDbLine
 10
-3.315024434465682
 20
4.85183139683912
 30
0.0
 11
-3.315024434465682
 21
4.832787331649473
 31
0.0
  0
LINE
  5
1C60
330
1F
100
AcDbEntity
  8
0
100
AcDbLine
 10
-3.361024434465685
 20
5.132627705582618
 30
0.0
 11
-3.361024434465685
 21
4.832787331649473
 31
0.0
  0
LINE
  5
1C61
330
1F
100
AcDbEntity
  8
0
100
AcDbLine
 10
-3.315024434465682
 20
5.132627705582618
 30
0.0
 11
-3.315024434465682
 21
4.85183139683912
 31
0.0
  0
LINE
  5
1C62
330
1F
100
AcDbEntity
  8
0
100
AcDbLine
 10
-3.315024434465682
 20
6.293447503429293
 30
0.0
 11
-3.315024434465682
 21
5.13460562624584
 31
0.0
  0
LINE
  5
1C63
330
1F
100
AcDbEntity
  8
0
100
AcDbLine
 10
-3.361024434465681
 20
6.293447503429293
 30
0.0
 11
-3.361024434465685
 21
5.132627705582618
 31
0.0
  0
LINE
  5
1C64
330
1F
100
AcDbEntity
  8
0
100
AcDbLine
 10
-3.352566170266092
 20
6.718274380377428
 30
0.0
 11
-3.352566170266092
 21
6.563323597250894
 31
0.0
  0
LINE
  5
1C65
330
1F
100
AcDbEntity
  8
0
100
AcDbLine
 10
-3.323482698665268
 20
6.718274380377428
 30
0.0
 11
-3.323482698665268
 21
6.566484470234071
 31
0.0
  0
ARC
  5
1C66
330
1F
100
AcDbEntity
  8
0
100
AcDbCircle
 10
-3.337941296452699
 20
4.834893209514092
 30
0.0
 40
0.0168752295208051
100
AcDbArc
 50
187.1686902151657
 51
349.2130127358568
  0
LINE
  5
1C67
330
1F
100
AcDbEntity
  8
0
100
AcDbLine
 10
-2.840231641952454
 20
4.827093658707255
 30
0.0
 11
-2.841015347947807
 21
4.832787331649473
 31
0.0
  0
LINE
  5
1C68
330
1F
100
AcDbEntity
  8
0
100
AcDbLine
 10
-2.837933932234848
 20
4.821788000166801
 30
0.0
 11
-2.840231641952454
 21
4.827093658707255
 31
0.0
  0
LINE
  5
1C69
330
1F
100
AcDbEntity
  8
0
100
AcDbLine
 10
-2.834278803915095
 20
4.817231927889647
 30
0.0
 11
-2.837933932234848
 21
4.821788000166801
 31
0.0
  0
LINE
  5
1C6A
330
1F
100
AcDbEntity
  8
0
100
AcDbLine
 10
-2.829515347947809
 20
4.813735930672198
 30
0.0
 11
-2.834278803915095
 21
4.817231927889647
 31
0.0
  0
LINE
  5
1C6B
330
1F
100
AcDbEntity
  8
0
100
AcDbLine
 10
-2.823968185985167
 20
4.811538254947421
 30
0.0
 11
-2.829515347947809
 21
4.813735930672198
 31
0.0
  0
LINE
  5
1C6C
330
1F
100
AcDbEntity
  8
0
100
AcDbLine
 10
-2.818015347947808
 20
4.810788668684136
 30
0.0
 11
-2.823968185985167
 21
4.811538254947421
 31
0.0
  0
LINE
  5
1C6D
330
1F
100
AcDbEntity
  8
0
100
AcDbLine
 10
-2.812062509910449
 20
4.811538254947421
 30
0.0
 11
-2.818015347947808
 21
4.810788668684136
 31
0.0
  0
LINE
  5
1C6E
330
1F
100
AcDbEntity
  8
0
100
AcDbLine
 10
-2.80651534794781
 20
4.813735930672198
 30
0.0
 11
-2.812062509910449
 21
4.811538254947421
 31
0.0
  0
LINE
  5
1C6F
330
1F
100
AcDbEntity
  8
0
100
AcDbLine
 10
-2.801751891980517
 20
4.817231927889647
 30
0.0
 11
-2.80651534794781
 21
4.813735930672198
 31
0.0
  0
LINE
  5
1C70
330
1F
100
AcDbEntity
  8
0
100
AcDbLine
 10
-2.798096763660764
 20
4.821788000166801
 30
0.0
 11
-2.801751891980517
 21
4.817231927889647
 31
0.0
  0
LINE
  5
1C71
330
1F
100
AcDbEntity
  8
0
100
AcDbLine
 10
-2.795799053943158
 20
4.827093658707255
 30
0.0
 11
-2.798096763660764
 21
4.821788000166801
 31
0.0
  0
LINE
  5
1C72
330
1F
100
AcDbEntity
  8
0
100
AcDbLine
 10
-2.795015347947808
 20
4.832787331649473
 30
0.0
 11
-2.795799053943158
 21
4.827093658707255
 31
0.0
  0
LINE
  5
1C73
330
1F
100
AcDbEntity
  8
0
100
AcDbLine
 10
-2.840231641952454
 20
5.132036359499211
 30
0.0
 11
-2.841015347947807
 21
5.132627705582618
 31
0.0
  0
LINE
  5
1C74
330
1F
100
AcDbEntity
  8
0
100
AcDbLine
 10
-2.837933932234848
 20
5.131485312674144
 30
0.0
 11
-2.840231641952454
 21
5.132036359499211
 31
0.0
  0
LINE
  5
1C75
330
1F
100
AcDbEntity
  8
0
100
AcDbLine
 10
-2.834675526505895
 20
5.131063477931616
 30
0.0
 11
-2.837933932234848
 21
5.131485312674144
 31
0.0
  0
LINE
  5
1C76
330
1F
100
AcDbEntity
  8
0
100
AcDbLine
 10
-2.798096763660764
 20
5.131485312674144
 30
0.0
 11
-2.801355169389713
 21
5.131063477931616
 31
0.0
  0
LINE
  5
1C77
330
1F
100
AcDbEntity
  8
0
100
AcDbLine
 10
-2.795799053943158
 20
5.132036359499211
 30
0.0
 11
-2.798096763660764
 21
5.131485312674144
 31
0.0
  0
LINE
  5
1C78
330
1F
100
AcDbEntity
  8
0
100
AcDbLine
 10
-2.795015347947808
 20
5.132627705582618
 30
0.0
 11
-2.795799053943158
 21
5.132036359499211
 31
0.0
  0
LINE
  5
1C79
330
1F
100
AcDbEntity
  8
0
100
AcDbLine
 10
-2.840231641952451
 20
6.558838617420283
 30
0.0
 11
-2.841015347947804
 21
6.560834187458498
 31
0.0
  0
LINE
  5
1C7A
330
1F
100
AcDbEntity
  8
0
100
AcDbLine
 10
-2.837933932234845
 20
6.556979042182343
 30
0.0
 11
-2.840231641952451
 21
6.558838617420283
 31
0.0
  0
LINE
  5
1C7B
330
1F
100
AcDbEntity
  8
0
100
AcDbLine
 10
-2.834675526505895
 20
6.555555508997821
 30
0.0
 11
-2.837933932234845
 21
6.556979042182343
 31
0.0
  0
LINE
  5
1C7C
330
1F
100
AcDbEntity
  8
0
100
AcDbLine
 10
-2.79809676366076
 20
6.556979042182343
 30
0.0
 11
-2.801355169389713
 21
6.555555508997821
 31
0.0
  0
LINE
  5
1C7D
330
1F
100
AcDbEntity
  8
0
100
AcDbLine
 10
-2.795799053943158
 20
6.558838617420283
 30
0.0
 11
-2.79809676366076
 21
6.556979042182343
 31
0.0
  0
LINE
  5
1C7E
330
1F
100
AcDbEntity
  8
0
100
AcDbLine
 10
-2.795015347947805
 20
6.560834187458498
 30
0.0
 11
-2.795799053943158
 21
6.558838617420283
 31
0.0
  0
LINE
  5
1C7F
330
1F
100
AcDbEntity
  8
0
100
AcDbLine
 10
-2.841015347947804
 20
6.560834187458498
 30
0.0
 11
-2.841015347947804
 21
6.718274380377428
 31
0.0
  0
LINE
  5
1C80
330
1F
100
AcDbEntity
  8
0
100
AcDbLine
 10
-2.804413130203473
 20
6.555413402501203
 30
0.0
 11
-2.806279616920098
 21
6.55207759826162
 31
0.0
  0
LINE
  5
1C81
330
1F
100
AcDbEntity
  8
0
100
AcDbLine
 10
-2.832505606540857
 20
6.558727616067807
 30
0.0
 11
-2.832557083748218
 21
6.562549750639648
 31
0.0
  0
LINE
  5
1C82
330
1F
100
AcDbEntity
  8
0
100
AcDbLine
 10
-2.83146664215666
 20
6.555049040854965
 30
0.0
 11
-2.832505606540857
 21
6.558727616067807
 31
0.0
  0
LINE
  5
1C83
330
1F
100
AcDbEntity
  8
0
100
AcDbLine
 10
-2.808945874312053
 20
6.549338541104861
 30
0.0
 11
-2.812230201344268
 21
6.547382893249645
 31
0.0
  0
LINE
  5
1C84
330
1F
100
AcDbEntity
  8
0
100
AcDbLine
 10
-2.806279616920098
 20
6.55207759826162
 30
0.0
 11
-2.808945874312053
 21
6.549338541104861
 31
0.0
  0
LINE
  5
1C85
330
1F
100
AcDbEntity
  8
0
100
AcDbLine
 10
-2.826771937144686
 20
6.549098456430796
 30
0.0
 11
-2.829510994301445
 21
6.55176471382275
 31
0.0
  0
LINE
  5
1C86
330
1F
100
AcDbEntity
  8
0
100
AcDbLine
 10
-2.823436132905102
 20
6.547231969714163
 30
0.0
 11
-2.826771937144686
 21
6.549098456430796
 31
0.0
  0
LINE
  5
1C87
330
1F
100
AcDbEntity
  8
0
100
AcDbLine
 10
-2.819730911128955
 20
6.546292451658088
 30
0.0
 11
-2.823436132905102
 21
6.547231969714163
 31
0.0
  0
LINE
  5
1C88
330
1F
100
AcDbEntity
  8
0
100
AcDbLine
 10
-2.81590877655711
 20
6.546343928865448
 30
0.0
 11
-2.819730911128955
 21
6.546292451658088
 31
0.0
  0
LINE
  5
1C89
330
1F
100
AcDbEntity
  8
0
100
AcDbLine
 10
-2.812230201344268
 20
6.547382893249645
 30
0.0
 11
-2.81590877655711
 21
6.546343928865448
 31
0.0
  0
LINE
  5
1C8A
330
1F
100
AcDbEntity
  8
0
100
AcDbLine
 10
-2.831563565732922
 20
6.554367581146054
 30
0.0
 11
-2.830891363249365
 21
6.554082913920995
 31
0.0
  0
LINE
  5
1C8B
330
1F
100
AcDbEntity
  8
0
100
AcDbLine
 10
-2.83365236453906
 20
6.556083841548987
 30
0.0
 11
-2.831563565732922
 21
6.554367581146054
 31
0.0
  0
LINE
  5
1C8C
330
1F
100
AcDbEntity
  8
0
100
AcDbLine
 10
-2.834675526505895
 20
6.558123830175338
 30
0.0
 11
-2.83365236453906
 21
6.556083841548987
 31
0.0
  0
LINE
  5
1C8D
330
1F
100
AcDbEntity
  8
0
100
AcDbLine
 10
-2.834563324836244
 20
6.560348525171457
 30
0.0
 11
-2.834675526505895
 21
6.558123830175338
 31
0.0
  0
LINE
  5
1C8E
330
1F
100
AcDbEntity
  8
0
100
AcDbLine
 10
-2.833323405888473
 20
6.562606317249843
 30
0.0
 11
-2.834563324836244
 21
6.560348525171457
 31
0.0
  0
LINE
  5
1C8F
330
1F
100
AcDbEntity
  8
0
100
AcDbLine
 10
-2.832557083748218
 20
6.563323597250894
 30
0.0
 11
-2.833323405888473
 21
6.562606317249843
 31
0.0
  0
LINE
  5
1C90
330
1F
100
AcDbEntity
  8
0
100
AcDbLine
 10
-2.801355169389713
 20
6.563544544741665
 30
0.0
 11
-2.802378331356552
 21
6.565584533368015
 31
0.0
  0
LINE
  5
1C91
330
1F
100
AcDbEntity
  8
0
100
AcDbLine
 10
-2.801467371059365
 20
6.561319849745546
 30
0.0
 11
-2.801355169389713
 21
6.563544544741665
 31
0.0
  0
LINE
  5
1C92
330
1F
100
AcDbEntity
  8
0
100
AcDbLine
 10
-2.802378331356552
 20
6.565584533368015
 30
0.0
 11
-2.80347361214739
 21
6.566484470234071
 31
0.0
  0
LINE
  5
1C93
330
1F
100
AcDbEntity
  8
0
100
AcDbLine
 10
-2.802707290007136
 20
6.559062057667157
 30
0.0
 11
-2.801467371059365
 21
6.561319849745546
 31
0.0
  0
LINE
  5
1C94
330
1F
100
AcDbEntity
  8
0
100
AcDbLine
 10
-2.80373089687634
 20
6.558103958327924
 30
0.0
 11
-2.802707290007136
 21
6.559062057667157
 31
0.0
  0
LINE
  5
1C95
330
1F
100
AcDbEntity
  8
0
100
AcDbLine
 10
-2.795015347947808
 20
5.132627705582618
 30
0.0
 11
-2.795015347947808
 21
5.134605626245837
 31
0.0
  0
LINE
  5
1C96
330
1F
100
AcDbEntity
  8
0
100
AcDbLine
 10
-2.795015347947805
 20
6.560834187458498
 30
0.0
 11
-2.795015347947805
 21
6.567508923834109
 31
0.0
  0
LINE
  5
1C97
330
1F
100
AcDbEntity
  8
0
100
AcDbLine
 10
-2.795015347947805
 20
6.567508923834109
 30
0.0
 11
-2.795015347947805
 21
6.718274380377428
 31
0.0
  0
LINE
  5
1C98
330
1F
100
AcDbEntity
  8
0
100
AcDbLine
 10
-2.832557083748218
 20
6.562549750639648
 30
0.0
 11
-2.832557083748218
 21
6.563323597250894
 31
0.0
  0
LINE
  5
1C99
330
1F
100
AcDbEntity
  8
0
100
AcDbLine
 10
-2.80347361214739
 20
6.559118624277354
 30
0.0
 11
-2.80373089687634
 21
6.558103958327924
 31
0.0
  0
LINE
  5
1C9A
330
1F
100
AcDbEntity
  8
0
100
AcDbLine
 10
-2.80373089687634
 20
6.558103958327924
 30
0.0
 11
-2.804413130203473
 21
6.555413402501203
 31
0.0
  0
LINE
  5
1C9B
330
1F
100
AcDbEntity
  8
0
100
AcDbLine
 10
-2.829510994301445
 20
6.55176471382275
 30
0.0
 11
-2.830891363249365
 21
6.554082913920995
 31
0.0
  0
LINE
  5
1C9C
330
1F
100
AcDbEntity
  8
0
100
AcDbLine
 10
-2.830891363249365
 20
6.554082913920995
 30
0.0
 11
-2.83146664215666
 21
6.555049040854965
 31
0.0
  0
LINE
  5
1C9D
330
1F
100
AcDbEntity
  8
0
100
AcDbLine
 10
-2.80347361214739
 20
6.559118624277354
 30
0.0
 11
-2.80347361214739
 21
6.566484470234071
 31
0.0
  0
LINE
  5
1C9E
330
1F
100
AcDbEntity
  8
0
100
AcDbLine
 10
-2.834675526505895
 20
5.131063477931616
 30
0.0
 11
-2.834675526505895
 21
4.832787331649473
 31
0.0
  0
LINE
  5
1C9F
330
1F
100
AcDbEntity
  8
0
100
AcDbLine
 10
-2.801355169389713
 20
6.555555508997821
 30
0.0
 11
-2.801355169389713
 21
6.563544544741665
 31
0.0
  0
LINE
  5
1CA0
330
1F
100
AcDbEntity
  8
0
100
AcDbLine
 10
-2.834675526505895
 20
6.558123830175338
 30
0.0
 11
-2.834675526505895
 21
6.555555508997821
 31
0.0
  0
LINE
  5
1CA1
330
1F
100
AcDbEntity
  8
0
100
AcDbLine
 10
-2.834675526505895
 20
6.288168824968616
 30
0.0
 11
-2.834675526505895
 21
5.131063477931616
 31
0.0
  0
LINE
  5
1CA2
330
1F
100
AcDbEntity
  8
0
100
AcDbLine
 10
-2.801355169389713
 20
4.831734871637042
 30
0.0
 11
-2.801355169389713
 21
5.131063477931616
 31
0.0
  0
LINE
  5
1CA3
330
1F
100
AcDbEntity
  8
0
100
AcDbLine
 10
-2.801355169389713
 20
5.131063477931616
 30
0.0
 11
-2.801355169389713
 21
6.288168824968616
 31
0.0
  0
LINE
  5
1CA4
330
1F
100
AcDbEntity
  8
0
100
AcDbLine
 10
-2.795015347947808
 20
4.85183139683912
 30
0.0
 11
-2.795015347947808
 21
4.832787331649473
 31
0.0
  0
LINE
  5
1CA5
330
1F
100
AcDbEntity
  8
0
100
AcDbLine
 10
-2.841015347947807
 20
5.132627705582618
 30
0.0
 11
-2.841015347947807
 21
4.832787331649473
 31
0.0
  0
LINE
  5
1CA6
330
1F
100
AcDbEntity
  8
0
100
AcDbLine
 10
-2.795015347947808
 20
5.132627705582618
 30
0.0
 11
-2.795015347947808
 21
4.85183139683912
 31
0.0
  0
LINE
  5
1CA7
330
1F
100
AcDbEntity
  8
0
100
AcDbLine
 10
-2.795015347947805
 20
6.293447503429293
 30
0.0
 11
-2.795015347947808
 21
5.134605626245837
 31
0.0
  0
LINE
  5
1CA8
330
1F
100
AcDbEntity
  8
0
100
AcDbLine
 10
-2.841015347947804
 20
6.293447503429293
 30
0.0
 11
-2.841015347947807
 21
5.132627705582618
 31
0.0
  0
LINE
  5
1CA9
330
1F
100
AcDbEntity
  8
0
100
AcDbLine
 10
-2.832557083748218
 20
6.718274380377428
 30
0.0
 11
-2.832557083748218
 21
6.563323597250894
 31
0.0
  0
LINE
  5
1CAA
330
1F
100
AcDbEntity
  8
0
100
AcDbLine
 10
-2.80347361214739
 20
6.718274380377428
 30
0.0
 11
-2.80347361214739
 21
6.566484470234071
 31
0.0
  0
ARC
  5
1CAB
330
1F
100
AcDbEntity
  8
0
100
AcDbCircle
 10
-2.817932209934825
 20
4.834893209514095
 30
0.0
 40
0.0168752295208051
100
AcDbArc
 50
187.1686902151657
 51
349.2130127358568
  0
LINE
  5
1CAE
330
1F
100
AcDbEntity
  8
0
100
AcDbLine
 10
-3.470971268238043
 20
6.718274380385439
 30
0.0
 11
-3.315024434465682
 21
6.718274380377428
 31
0.0
  0
LINE
  5
1CB0
330
1F
100
AcDbEntity
  8
0
100
AcDbLine
 10
-2.841015347947804
 20
6.718274380377428
 30
0.0
 11
-2.678649287946152
 21
6.718274380376049
 31
0.0
  0
LINE
  5
1CB2
330
1F
100
AcDbEntity
  8
0
100
AcDbLine
 10
-3.315024434465682
 20
6.718274380377428
 30
0.0
 11
-3.315427785014431
 21
6.751533230223619
 31
0.0
  0
LINE
  5
1CB3
330
1F
100
AcDbEntity
  8
0
100
AcDbLine
 10
-2.841015347947804
 20
6.718274380377428
 30
0.0
 11
-2.841015347947353
 21
6.751533230223619
 31
0.0
  0
LINE
  5
1CB4
330
1F
100
AcDbEntity
  8
0
100
AcDbLine
 10
-3.470971268238043
 20
6.718274380385439
 30
0.0
 11
-3.476022723365106
 21
6.721533230223618
 31
0.0
  0
LINE
  5
1CB5
330
1F
100
AcDbEntity
  8
0
100
AcDbLine
 10
-2.678649287946152
 20
6.718274380376049
 30
0.0
 11
-2.676022723365107
 21
6.721533230223618
 31
0.0
  0
LINE
  5
1CB6
330
1F
100
AcDbEntity
  8
0
100
AcDbLine
 10
-3.315427785014431
 20
6.751533230223619
 30
0.0
 11
-2.841015347947353
 21
6.751533230223619
 31
0.0
  0
LINE
  5
1CD8
330
1F
100
AcDbEntity
  8
STREFA BEZPIECZEŃSTWA
100
AcDbLine
 10
-5.076022723365111
 20
2.644703804002308
 30
0.0
 11
-1.076022723365107
 21
2.644703804002308
 31
0.0
  0
LINE
  5
1CD9
102
{ACAD_REACTORS
330
1CED
102
}
330
1F
100
AcDbEntity
  8
STREFA BEZPIECZEŃSTWA
100
AcDbLine
 10
-5.076022723365105
 20
10.01796570756746
 30
0.0
 11
-1.07602272336511
 21
10.01796570756746
 31
0.0
  0
DIMENSION
  5
1CDA
102
{ACAD_XDICTIONARY
360
1CE5
102
}
102
{ACAD_REACTORS
330
1CED
102
}
330
1F
100
AcDbEntity
  8
WYMIAR
100
AcDbDimension
  2
*D7
 10
-1.07602272336511
 20
10.76579286645492
 30
0.0
 11
-3.076022723365108
 21
10.97807208723414
 31
0.0
 70
    32
 71
     5
 42
3.999999999999995
  3
AR SKALA 1-50
100
AcDbAlignedDimension
 13
-5.076022723365105
 23
10.01796570756746
 33
0.0
 14
-1.07602272336511
 24
10.01796570756746
 34
0.0
100
AcDbRotatedDimension
  0
LINE
  5
1D48
330
1F
100
AcDbEntity
  8
STREFA BEZPIECZEŃSTWA
100
AcDbLine
 10
-1.076022723365107
 20
2.644703804002308
 30
0.0
 11
-1.07602272336511
 21
10.01796570756746
 31
0.0
  0
LINE
  5
1D49
330
1F
100
AcDbEntity
  8
STREFA BEZPIECZEŃSTWA
100
AcDbLine
 10
-5.076022723365105
 20
10.01796570756746
 30
0.0
 11
-5.076022723365111
 21
2.644703804002308
 31
0.0
  0
LINE
  5
1D4A
330
1F
100
AcDbEntity
  8
0
100
AcDbLine
 10
-3.361024434465681
 20
6.293447503429293
 30
0.0
 11
-3.361024434465681
 21
6.560834187458498
 31
0.0
  0
LINE
  5
1D4B
330
1F
100
AcDbEntity
  8
0
100
AcDbLine
 10
-3.315024434465682
 20
6.293447503429293
 30
0.0
 11
-3.315024434465682
 21
6.560834187458498
 31
0.0
  0
LINE
  5
1D4E
330
1F
100
AcDbEntity
  8
0
100
AcDbLine
 10
-3.354684613023772
 20
6.288168824968616
 30
0.0
 11
-3.354684613023772
 21
6.555555508997821
 31
0.0
  0
LINE
  5
1D4F
330
1F
100
AcDbEntity
  8
0
100
AcDbLine
 10
-3.321364255907591
 20
6.288168824968616
 30
0.0
 11
-3.321364255907591
 21
6.563544544741665
 31
0.0
  0
LINE
  5
1D50
330
1F
100
AcDbEntity
  8
0
100
AcDbLine
 10
-2.795015347947805
 20
6.293447503429293
 30
0.0
 11
-2.795015347947805
 21
6.560834187458498
 31
0.0
  0
LINE
  5
1D51
330
1F
100
AcDbEntity
  8
0
100
AcDbLine
 10
-2.841015347947804
 20
6.293447503429293
 30
0.0
 11
-2.841024434465682
 21
6.567402949252796
 31
0.0
  0
LINE
  5
1D52
330
1F
100
AcDbEntity
  8
0
100
AcDbLine
 10
-2.801355169389713
 20
6.288168824968616
 30
0.0
 11
-2.801355169389713
 21
6.555555508997821
 31
0.0
  0
LINE
  5
1D53
330
1F
100
AcDbEntity
  8
0
100
AcDbLine
 10
-2.834675526505895
 20
6.288168824968616
 30
0.0
 11
-2.834675526505895
 21
6.555555508997821
 31
0.0
  0
LINE
  5
1D64
330
1F
100
AcDbEntity
  8
WYMIAR
100
AcDbLine
 10
-6.176980095547732
 20
9.957965707567463
 30
0.0
 11
-6.176980095547733
 21
2.704703804002308
 31
0.0
  0
INSERT
  5
1D65
330
1F
100
AcDbEntity
  8
WYMIAR
100
AcDbBlockReference
  2
MAR-STRZ
 10
-6.176980095547731
 20
10.01796570756746
 30
0.0
 41
0.06
 42
0.06
 43
0.06
 50
90.0
  0
INSERT
  5
1D66
330
1F
100
AcDbEntity
  8
WYMIAR
100
AcDbBlockReference
  2
MAR-STRZ
 10
-6.176980095547733
 20
2.644703804002308
 30
0.0
 41
0.06
 42
0.06
 43
0.06
 50
270.0
  0
MTEXT
  5
1D67
330
1F
100
AcDbEntity
  8
WYMIAR
100
AcDbMText
 10
-6.389259316326954
 20
6.331334755784884
 30
0.0
 40
0.18
 41
0.0
 71
     5
 72
     1
  1
\A1;7.35
  7
AR 01 SWIS
 11
0.0000000000000001
 21
1.0
 31
0.0
 73
     1
 44
1.0
  0
VIEWPORT
  5
7CA
330
1B
100
AcDbEntity
 67
     1
  8
0
100
AcDbViewport
 10
138.0889810446011
 20
124.9254243489861
 30
0.0
 40
1112.083579784094
 41
524.6895164984656
 68
     2
 69
     1
 12
138.0889810446011
 22
124.9254243489861
 13
0.0
 23
0.0
 14
10.0
 24
10.0
 15
10.0
 25
10.0
 16
0.0
 26
0.0
 36
1.0
 17
0.0
 27
0.0
 37
0.0
 42
50.0
 43
0.0
 44
0.0
 45
524.6895164984656
 50
0.0
 51
0.0
 72
   100
 90
   819232
  1

281
     0
 71
     1
 74
     0
110
0.0
120
0.0
130
0.0
111
1.0
121
0.0
131
0.0
112
0.0
122
1.0
132
0.0
 79
     0
146
0.0
170
     0
  0
VIEWPORT
  5
99A
330
1B
100
AcDbEntity
 67
     1
  8
Defpoints
100
AcDbViewport
 10
151.5855934681565
 20
104.8621726199724
 30
0.0
 40
290.0480970456033
 41
203.1599664902751
 68
     1
 69
     2
 12
-5.219021713875908
 22
6.458200460398485
 13
0.0
 23
0.0
 14
0.5
 24
0.5
 15
0.5
 25
0.5
 16
0.0
 26
0.0
 36
1.0
 17
0.0
 27
0.0
 37
-1000.0
 42
50.0
 43
4.148984367261674
 44
9.217858496371269
 45
9.801862412233033
 50
0.0
 51
0.0
 72
   100
 90
   819296
  1

281
     0
 71
     1
 74
     0
110
0.0
120
0.0
130
0.0
111
1.0
121
0.0
131
0.0
112
0.0
122
1.0
132
0.0
 79
     0
146
0.0
170
     0
  0
ENDSEC
  0
SECTION
  2
OBJECTS
  0
DICTIONARY
  5
C
330
0
100
AcDbDictionary
281
     1
  3
ACAD_COLOR
350
4B9
  3
ACAD_GROUP
350
D
  3
ACAD_LAYOUT
350
1A
  3
ACAD_MATERIAL
350
3B
  3
ACAD_MLEADERSTYLE
350
489
  3
ACAD_MLINESTYLE
350
17
  3
ACAD_PLOTSETTINGS
350
19
  3
ACAD_PLOTSTYLENAME
350
E
  3
ACAD_SCALELIST
350
B23
  3
ACAD_TABLESTYLE
350
4BA
  3
ACAD_VISUALSTYLE
350
2A
  3
ACDB_RECOMPOSE_DATA
350
B54
  3
AcDbVariableDictionary
350
487
  0
DICTIONARY
  5
84C
330
8
100
AcDbDictionary
280
     1
281
     1
  0
DICTIONARY
  5
7D1
330
2
100
AcDbDictionary
280
     1
281
     1
  3
ACAD_LAYERFILTERS
360
1354
  3
ACAD_LAYERSTATES
360
7D2
  3
ACLYDICTIONARY
360
1353
  0
DICTIONARY
  5
B4C
330
10
100
AcDbDictionary
280
     1
281
     1
  3
ADSK_XREC_LAYER_RECONCILED
360
B4D
  0
DICTIONARY
  5
B4E
330
87B
100
AcDbDictionary
280
     1
281
     1
  3
ADSK_XREC_LAYER_RECONCILED
360
B4F
  0
DICTIONARY
  5
B50
330
87D
100
AcDbDictionary
280
     1
281
     1
  3
ADSK_XREC_LAYER_RECONCILED
360
B51
  0
DICTIONARY
  5
5F8
330
1F
100
AcDbDictionary
280
     1
281
     1
  3
ACAD_SORTENTS
360
5F9
  0
DICTIONARY
  5
CBA
330
B63
100
AcDbDictionary
280
     1
281
     1
  3
ACAD_SORTENTS
360
CBB
  0
DICTIONARY
  5
1165
330
115A
100
AcDbDictionary
280
     1
281
     1
  3
ACAD_SORTENTS
360
1166
  0
DICTIONARY
  5
11B0
330
11A6
100
AcDbDictionary
280
     1
281
     1
  3
ACAD_SORTENTS
360
11B1
  0
DICTIONARY
  5
1CE5
330
1CDA
100
AcDbDictionary
280
     1
281
     1
  3
ACAD_DIMASSOC
360
1CED
  0
DICTIONARY
  5
4B9
102
{ACAD_REACTORS
330
C
102
}
330
C
100
AcDbDictionary
281
     1
  0
DICTIONARY
  5
D
102
{ACAD_REACTORS
330
C
102
}
330
C
100
AcDbDictionary
281
     1
  0
DICTIONARY
  5
1A
102
{ACAD_REACTORS
330
C
102
}
330
C
100
AcDbDictionary
281
     1
  3
Layout1
350
1E
  3
Model
350
22
  0
DICTIONARY
  5
3B
102
{ACAD_REACTORS
330
C
102
}
330
C
100
AcDbDictionary
281
     1
  3
ByBlock
350
3D
  3
ByLayer
350
3C
  3
Global
350
3E
  0
DICTIONARY
  5
489
102
{ACAD_REACTORS
330
C
102
}
330
C
100
AcDbDictionary
281
     1
  3
Standard
350
B45
  0
DICTIONARY
  5
17
102
{ACAD_REACTORS
330
C
102
}
330
C
100
AcDbDictionary
281
     1
  3
Standard
350
18
  0
DICTIONARY
  5
19
102
{ACAD_REACTORS
330
C
102
}
330
C
100
AcDbDictionary
281
     1
  0
ACDBDICTIONARYWDFLT
  5
E
102
{ACAD_REACTORS
330
C
102
}
330
C
100
AcDbDictionary
281
     1
  3
Normal
350
F
100
AcDbDictionaryWithDefault
340
F
  0
DICTIONARY
  5
B23
102
{ACAD_REACTORS
330
C
102
}
330
C
100
AcDbDictionary
281
     1
  3
A0
350
B24
  3
A1
350
B25
  3
A2
350
B26
  3
A3
350
B27
  3
A4
350
B28
  3
A5
350
B29
  3
A6
350
B2A
  3
A7
350
B2B
  3
A8
350
B2C
  3
A9
350
B2D
  3
B0
350
B2E
  3
B1
350
B2F
  3
B2
350
B30
  3
B3
350
B31
  3
B4
350
B32
  3
B5
350
B33
  3
B6
350
B34
  3
B7
350
B35
  3
B8
350
B36
  3
B9
350
B37
  3
C0
350
B38
  3
C1
350
B39
  3
C2
350
B3A
  3
C3
350
B3B
  3
C4
350
B3C
  3
C5
350
B3D
  3
C6
350
B3E
  3
C7
350
B3F
  3
C8
350
B40
  3
C9
350
B41
  3
D0
350
B42
  3
D1
350
B43
  3
D2
350
B44
  0
DICTIONARY
  5
4BA
102
{ACAD_REACTORS
330
C
102
}
330
C
100
AcDbDictionary
281
     1
  3
Standard
350
4BB
  0
DICTIONARY
  5
2A
102
{ACAD_REACTORS
330
C
102
}
330
C
100
AcDbDictionary
281
     1
  3
2dWireframe
350
2F
  3
3D Hidden
350
A48
  3
3dWireframe
350
A47
  3
Basic
350
32
  3
Brighten
350
36
  3
ColorChange
350
3A
  3
Conceptual
350
A49
  3
Dim
350
35
  3
Facepattern
350
39
  3
Flat
350
2B
  3
FlatWithEdges
350
2C
  3
Gouraud
350
2D
  3
GouraudWithEdges
350
2E
  3
Linepattern
350
38
  3
Realistic
350
A4A
  3
Thicken
350
37
  0
XRECORD
  5
B54
102
{ACAD_REACTORS
330
C
102
}
330
C
100
AcDbXrecord
280
     1
 90
        1
330
4BB
  0
DICTIONARY
  5
487
102
{ACAD_REACTORS
330
C
102
}
330
C
100
AcDbDictionary
281
     1
  3
CANNOSCALE
350
B57
  3
CMLEADERSTYLE
350
B55
  3
CTABLESTYLE
350
5FE
  3
DIMASSOC
350
48A
  3
HIDETEXT
350
48B
  3
INDEXCTL
350
86B
  3
LIGHTINGUNITS
350
B58
  3
MSLTSCALE
350
B56
  3
SORTENTS
350
86A
  0
DICTIONARY
  5
1354
102
{ACAD_REACTORS
330
7D1
102
}
330
7D1
100
AcDbDictionary
281
     1
  0
DICTIONARY
  5
7D2
102
{ACAD_REACTORS
330
7D1
102
}
330
7D1
100
AcDbDictionary
281
     1
  0
DICTIONARY
  5
1353
102
{ACAD_REACTORS
330
7D1
102
}
330
7D1
100
AcDbDictionary
281
     1
1001
ACAD
1000
<All
  0
XRECORD
  5
B4D
102
{ACAD_REACTORS
330
B4C
102
}
330
B4C
100
AcDbXrecord
280
     1
290
     1
  0
XRECORD
  5
B4F
102
{ACAD_REACTORS
330
B4E
102
}
330
B4E
100
AcDbXrecord
280
     1
290
     1
  0
XRECORD
  5
B51
102
{ACAD_REACTORS
330
B50
102
}
330
B50
100
AcDbXrecord
280
     1
290
     1
  0
SORTENTSTABLE
  5
5F9
102
{ACAD_REACTORS
330
5F8
102
}
330
5F8
100
AcDbSortentsTable
330
1F
331
1ADE
  5
1ADE
331
1B15
  5
1B1E
331
1C53
  5
1C53
331
1C92
  5
1C92
331
1B35
  5
1B3D
331
1C24
  5
1C24
331
1C5B
  5
1C5B
331
1C9A
  5
1C9A
331
1CA2
  5
1CA2
331
1AEE
  5
1AEE
331
1C2C
  5
1C2C
331
1C63
  5
1C63
331
1CAA
  5
1CAA
331
1B55
  5
1B6D
331
1AF6
  5
1B02
331
1C34
  5
1C34
331
1C6B
  5
1C6B
331
1CB2
  5
1CB2
331
1B6D
  5
1B16
331
1AFE
  5
1B0C
331
1C3C
  5
1C3C
331
1C73
  5
1C73
331
1B75
  5
1B75
331
1C44
  5
1C44
331
1C7B
  5
1C7B
331
1AC7
  5
1AC7
331
1C4C
  5
1C4C
331
1C83
  5
1C83
331
1B85
  5
1B85
331
1C8B
  5
1C8B
331
1D4B
  5
1D51
331
1D53
  5
1D66
331
1ADF
  5
1ADF
331
1B16
  5
1B1F
331
1C54
  5
1C54
331
1C93
  5
1C93
331
1B36
  5
1B3E
331
1AE7
  5
1AE7
331
1C25
  5
1C25
331
1C5C
  5
1C5C
331
1C9B
  5
1C9B
331
1CA3
  5
1CA3
331
1AEF
  5
1AEF
331
1C2D
  5
1C2D
331
1C64
  5
1C64
331
1CAB
  5
1CAB
331
1B56
  5
1B6E
331
1AF7
  5
1B0B
331
1C35
  5
1C35
331
1C6C
  5
1C6C
331
1CB3
  5
1CB3
331
1B6E
  5
1AFF
331
1AFF
  5
1B01
331
1C3D
  5
1C3D
331
1C74
  5
1C74
331
1B76
  5
1B76
331
1AC0
  5
1AC0
331
1C45
  5
1C45
331
1C7C
  5
1C7C
331
1AC8
  5
1AC8
331
1C4D
  5
1C4D
331
1C84
  5
1C84
331
1C8C
  5
1C8C
331
1AE0
  5
1AE0
331
1C55
  5
1C55
331
1C94
  5
1C94
331
1B37
  5
1B3F
331
1AE8
  5
1AE8
331
1C26
  5
1C26
331
1C5D
  5
1C5D
331
1C9C
  5
1C9C
331
1CA4
  5
1CA4
331
1AF0
  5
1AF2
331
1C2E
  5
1C2E
331
1C65
  5
1C65
331
1B57
  5
1B6F
331
1C36
  5
1C36
331
1C6D
  5
1C6D
331
1D64
  5
1D48
331
1AF8
  5
1B18
331
1CB4
  5
1CB4
331
1B6F
  5
1AFA
331
1B00
  5
1AF8
331
1C3E
  5
1C3E
331
1C75
  5
1C75
331
1B77
  5
1B77
331
1AC1
  5
1AC1
331
1C46
  5
1C46
331
1C7D
  5
1C7D
331
1AC9
  5
1AC9
331
1C4E
  5
1C4E
331
1C85
  5
1C85
331
1C8D
  5
1C8D
331
1AE1
  5
1AE1
331
1C1F
  5
1C1F
331
1C56
  5
1C56
331
1C95
  5
1C95
331
1B38
  5
1B40
331
1AE9
  5
1AE9
331
1C27
  5
1C27
331
1C5E
  5
1C5E
331
1C9D
  5
1C9D
331
1CA5
  5
1CA5
331
1B50
  5
1B68
331
1AF1
  5
1AF3
331
1C2F
  5
1C2F
331
1C66
  5
1C66
331
1C37
  5
1C37
331
1C6E
  5
1C6E
331
1D65
  5
1D49
331
1B68
  5
1B19
331
1AF9
  5
1B17
331
1CB5
  5
1CB5
331
1B70
  5
1B70
331
1B01
  5
1AF5
331
1C3F
  5
1C3F
331
1C76
  5
1C76
331
1C47
  5
1C47
331
1C7E
  5
1C7E
331
1AC2
  5
1AC2
331
1B78
  5
1B78
331
1ACA
  5
1ACA
331
1C4F
  5
1C4F
331
1C86
  5
1C86
331
1C8E
  5
1C8E
331
1D4E
  5
1D52
331
1ADA
  5
1ADA
331
1C20
  5
1C20
331
1C57
  5
1C57
331
1C96
  5
1C96
331
1C28
  5
1C28
331
1C5F
  5
1C5F
331
1C9E
  5
1C9E
331
1B39
  5
1B41
331
1CA6
  5
1CA6
331
1C30
  5
1C30
331
1C67
  5
1C67
331
1AF2
  5
1AF6
331
1B51
  5
1B69
331
1CAE
  5
1CAE
331
1C6F
  5
1C6F
331
1D66
  5
1D4A
331
1C38
  5
1C38
331
1AFA
  5
1AFE
331
1B69
  5
1B15
331
1CB6
  5
1CB6
331
1C40
  5
1C40
331
1C77
  5
1C77
331
1B71
  5
1B71
331
1B02
  5
1AF0
331
1C48
  5
1C48
331
1C7F
  5
1C7F
331
1AC3
  5
1AC3
331
1C87
  5
1C87
331
1B81
  5
1B81
331
1ACB
  5
1ACB
331
1C8F
  5
1C8F
331
1D4F
  5
1D53
331
1C50
  5
1C50
331
1ADB
  5
1ADB
331
1B32
  5
1B3A
331
1C21
  5
1C21
331
1C58
  5
1C58
331
1C97
  5
1C97
331
1AEB
  5
1AEB
331
1C29
  5
1C29
331
1C60
  5
1C60
331
1C9F
  5
1C9F
331
1CA7
  5
1CA7
331
1B52
  5
1B6A
331
1AF3
  5
1AF7
331
1C31
  5
1C31
331
1C68
  5
1C68
331
1D67
  5
1D4B
331
1CD8
  5
1CD8
331
1B6A
  5
1B00
331
1AFB
  5
1AFB
331
1C39
  5
1C39
331
1C70
  5
1C70
331
1B72
  5
1B72
331
1C41
  5
1C41
331
1C78
  5
1C78
331
1B0B
  5
1B1B
331
1C49
  5
1C49
331
1C80
  5
1C80
331
1B82
  5
1B82
331
1ACC
  5
1ACC
331
1C88
  5
1C88
331
1D48
  5
1D4E
331
1D50
  5
1D63
331
1ADC
  5
1ADC
331
1C51
  5
1C51
331
1C90
  5
1C90
331
1B33
  5
1B3B
331
1AE4
  5
1AE4
331
1C22
  5
1C22
331
1C59
  5
1C59
331
1C98
  5
1C98
331
1CA0
  5
1CA0
331
1AEC
  5
1AEC
331
1C2A
  5
1C2A
331
1C61
  5
1C61
331
1CA8
  5
1CA8
331
1B53
  5
1B6B
331
1AF4
  5
1AFC
331
1C32
  5
1C32
331
1C69
  5
1C69
331
1CD9
  5
1CD9
331
1CB0
  5
1CB0
331
1B6B
  5
1AF9
331
1AFC
  5
1AF4
331
1C3A
  5
1C3A
331
1C71
  5
1C71
331
1B73
  5
1B73
331
1C42
  5
1C42
331
1C79
  5
1C79
331
1B0C
  5
1B1C
331
1AC5
  5
1AC5
331
1C4A
  5
1C4A
331
1C81
  5
1C81
331
1B83
  5
1B83
331
1ACD
  5
1ACD
331
1C89
  5
1C89
331
1D49
  5
1D4F
331
1D51
  5
1D64
331
1ADD
  5
1ADD
331
1C52
  5
1C52
331
1C91
  5
1C91
331
1B34
  5
1B3C
331
1AE5
  5
1AE5
331
1C23
  5
1C23
331
1C5A
  5
1C5A
331
1C99
  5
1C99
331
1CA1
  5
1CA1
331
1AED
  5
1AED
331
1C2B
  5
1C2B
331
1C62
  5
1C62
331
1CA9
  5
1CA9
331
1B54
  5
1B6C
331
1AF5
  5
1AFD
331
1C33
  5
1C33
331
1C6A
  5
1C6A
331
1CDA
  5
1CDA
331
1B6C
  5
1B1A
331
1AFD
  5
1AF1
331
1C3B
  5
1C3B
331
1C72
  5
1C72
331
1B74
  5
1B74
331
1C43
  5
1C43
331
1C7A
  5
1C7A
331
1AC6
  5
1AC6
331
1C4B
  5
1C4B
331
1C82
  5
1C82
331
1B84
  5
1B84
331
1C8A
  5
1C8A
331
1D4A
  5
1D50
331
1D52
  5
1D65
  0
SORTENTSTABLE
  5
CBB
102
{ACAD_REACTORS
330
CBA
102
}
330
CBA
100
AcDbSortentsTable
330
B63
  0
SORTENTSTABLE
  5
1166
102
{ACAD_REACTORS
330
1165
102
}
330
1165
100
AcDbSortentsTable
330
115A
  0
SORTENTSTABLE
  5
11B1
102
{ACAD_REACTORS
330
11B0
102
}
330
11B0
100
AcDbSortentsTable
330
11A6
  0
DIMASSOC
  5
1CED
102
{ACAD_REACTORS
330
1CE5
102
}
330
1CE5
100
AcDbDimAssoc
330
1CDA
 90
        3
 70
     0
 71
     0
  1
AcDbOsnapPointRef
 72
    13
331
1CD9
 73
     2
 91
        0
 40
0.0
 10
0.0
 20
0.0
 30
2.000000000000000E+50
 75
     0
  1
AcDbOsnapPointRef
 72
     1
331
1CD9
 73
     2
 91
        0
 40
1.0
 10
0.0
 20
0.0
 30
2.000000000000000E+50
 75
     0
  0
LAYOUT
  5
1E
102
{ACAD_XDICTIONARY
360
7D4
102
}
102
{ACAD_REACTORS
330
1A
102
}
330
1A
100
AcDbPlotSettings
  1

  2
Bullzip PDF Printer
  4
A4
  6

 40
3.174999952316284
 41
3.174999952316284
 42
3.175003051757812
 43
3.17498779296875
 44
209.8886566162109
 45
297.0530090332031
 46
0.0
 47
0.0
 48
6.561544945354853
 49
3.282189374834842
140
296.6096419909582
141
206.4421558651099
142
1.0
143
1.0
 70
   672
 72
     1
 73
     1
 74
     4
  7
RINTAL 1.10.ctb
 75
    16
147
25.4
 76
     0
 77
     2
 78
   300
148
-6.561544945354853
149
-3.282189374834842
100
AcDbLayout
  1
Layout1
 70
     0
 71
     1
 10
3.386557152386103
 20
0.1071894225185588
 11
300.4395661855892
 21
209.9958460387295
 12
0.0
 22
0.0
 32
0.0
 14
6.561544945354853
 24
3.282189374834842
 34
0.0
 15
296.6096419909582
 25
206.4421558651099
 35
0.0
146
0.0
 13
0.0
 23
0.0
 33
0.0
 16
1.0
 26
0.0
 36
0.0
 17
0.0
 27
1.0
 37
0.0
 76
     0
330
1B
331
99A
1001
ACAD_PSEXT
1000
Bullzip PDF Printer
1000
Bullzip PDF Printer
1000
BULLZIP
1000
Bullzip PDF Printer 7.1.0.1218
1070
     0
  0
LAYOUT
  5
22
102
{ACAD_REACTORS
330
1A
102
}
330
1A
100
AcDbPlotSettings
  1

  2
none_device
  4
Letter_(8.50_x_11.00_Inches)
  6

 40
6.349999904632568
 41
6.349999904632568
 42
6.350006103515625
 43
6.350006103515625
 44
215.8999938964844
 45
279.3999938964844
 46
0.0
 47
0.0
 48
0.0
 49
0.0
140
0.0
141
0.0
142
1.0
143
1.949379259054547
 70
 11952
 72
     0
 73
     1
 74
     0
  7

 75
     0
147
0.5129838102848195
 76
     0
 77
     2
 78
   300
148
140.6779445779101
149
-18.22632186469054
100
AcDbLayout
  1
Model
 70
     1
 71
     0
 10
0.0
 20
0.0
 11
12.0
 21
9.0
 12
0.0
 22
0.0
 32
0.0
 14
1.000000000000000E+20
 24
1.000000000000000E+20
 34
1.000000000000000E+20
 15
-1.000000000000000E+20
 25
-1.000000000000000E+20
 35
-1.000000000000000E+20
146
0.0
 13
0.0
 23
0.0
 33
0.0
 16
1.0
 26
0.0
 36
0.0
 17
0.0
 27
1.0
 37
0.0
 76
     0
330
1F
331
29
1001
ACAD_PSEXT
1000
Brak
1000
Brak
1000
Nie można zastosować.
1000
Arkusz nie zostanie wydrukowany dopóki nie wybrano konfiguracji plotera.
1070
     0
  0
MATERIAL
  5
3D
102
{ACAD_XDICTIONARY
360
1D9F
102
}
102
{ACAD_REACTORS
330
3B
102
}
330
3B
100
AcDbMaterial
  1
ByBlock
 73
     1
 78
     1
172
     1
176
     1
270
     1
274
     1
  0
MATERIAL
  5
3C
102
{ACAD_XDICTIONARY
360
1D9D
102
}
102
{ACAD_REACTORS
330
3B
102
}
330
3B
100
AcDbMaterial
  1
ByLayer
 73
     1
 78
     1
172
     1
176
     1
270
     1
274
     1
  0
MATERIAL
  5
3E
102
{ACAD_XDICTIONARY
360
1DA1
102
}
102
{ACAD_REACTORS
330
3B
102
}
330
3B
100
AcDbMaterial
  1
Global
 73
     1
 78
     1
172
     1
176
     1
270
     1
274
     1
  0
MLEADERSTYLE
  5
B45
102
{ACAD_REACTORS
330
489
102
}
330
489
100
AcDbMLeaderStyle
170
     2
171
     1
172
     0
 90
        2
 40
0.0
 41
0.0
173
     1
 91
-1056964608
340
14
 92
       -2
290
     1
 42
0.09
291
     1
 43
0.36
  3
Standard
 44
0.18
300

342
11
174
     1
178
     6
175
     1
176
     0
 93
-1056964608
 45
0.18
292
     0
297
     0
 46
0.18
 94
-1056964608
 47
1.0
 49
1.0
140
1.0
293
     1
141
0.0
294
     1
177
     0
142
1.0
295
     0
296
     0
143
0.125
1001
ACAD_MLEADERVER
1070
     2
  0
MLINESTYLE
  5
18
102
{ACAD_REACTORS
330
17
102
}
330
17
100
AcDbMlineStyle
  2
STANDARD
 70
     0
  3

 62
   256
 51
90.0
 52
90.0
 71
     2
 49
0.5
 62
   256
  6
BYLAYER
 49
-0.5
 62
   256
  6
BYLAYER
  0
ACDBPLACEHOLDER
  5
F
102
{ACAD_REACTORS
330
E
102
}
330
E
  0
SCALE
  5
B24
102
{ACAD_REACTORS
330
B23
102
}
330
B23
100
AcDbScale
 70
     0
300
1:1
140
1.0
141
1.0
290
     1
  0
SCALE
  5
B25
102
{ACAD_REACTORS
330
B23
102
}
330
B23
100
AcDbScale
 70
     0
300
1:2
140
1.0
141
2.0
290
     0
  0
SCALE
  5
B26
102
{ACAD_REACTORS
330
B23
102
}
330
B23
100
AcDbScale
 70
     0
300
1:4
140
1.0
141
4.0
290
     0
  0
SCALE
  5
B27
102
{ACAD_REACTORS
330
B23
102
}
330
B23
100
AcDbScale
 70
     0
300
1:5
140
1.0
141
5.0
290
     0
  0
SCALE
  5
B28
102
{ACAD_REACTORS
330
B23
102
}
330
B23
100
AcDbScale
 70
     0
300
1:8
140
1.0
141
8.0
290
     0
  0
SCALE
  5
B29
102
{ACAD_REACTORS
330
B23
102
}
330
B23
100
AcDbScale
 70
     0
300
1:10
140
1.0
141
10.0
290
     0
  0
SCALE
  5
B2A
102
{ACAD_REACTORS
330
B23
102
}
330
B23
100
AcDbScale
 70
     0
300
1:16
140
1.0
141
16.0
290
     0
  0
SCALE
  5
B2B
102
{ACAD_REACTORS
330
B23
102
}
330
B23
100
AcDbScale
 70
     0
300
1:20
140
1.0
141
20.0
290
     0
  0
SCALE
  5
B2C
102
{ACAD_REACTORS
330
B23
102
}
330
B23
100
AcDbScale
 70
     0
300
1:30
140
1.0
141
30.0
290
     0
  0
SCALE
  5
B2D
102
{ACAD_REACTORS
330
B23
102
}
330
B23
100
AcDbScale
 70
     0
300
1:40
140
1.0
141
40.0
290
     0
  0
SCALE
  5
B2E
102
{ACAD_REACTORS
330
B23
102
}
330
B23
100
AcDbScale
 70
     0
300
1:50
140
1.0
141
50.0
290
     0
  0
SCALE
  5
B2F
102
{ACAD_REACTORS
330
B23
102
}
330
B23
100
AcDbScale
 70
     0
300
1:100
140
1.0
141
100.0
290
     0
  0
SCALE
  5
B30
102
{ACAD_REACTORS
330
B23
102
}
330
B23
100
AcDbScale
 70
     0
300
2:1
140
2.0
141
1.0
290
     0
  0
SCALE
  5
B31
102
{ACAD_REACTORS
330
B23
102
}
330
B23
100
AcDbScale
 70
     0
300
4:1
140
4.0
141
1.0
290
     0
  0
SCALE
  5
B32
102
{ACAD_REACTORS
330
B23
102
}
330
B23
100
AcDbScale
 70
     0
300
8:1
140
8.0
141
1.0
290
     0
  0
SCALE
  5
B33
102
{ACAD_REACTORS
330
B23
102
}
330
B23
100
AcDbScale
 70
     0
300
10:1
140
10.0
141
1.0
290
     0
  0
SCALE
  5
B34
102
{ACAD_REACTORS
330
B23
102
}
330
B23
100
AcDbScale
 70
     0
300
100:1
140
100.0
141
1.0
290
     0
  0
SCALE
  5
B35
102
{ACAD_REACTORS
330
B23
102
}
330
B23
100
AcDbScale
 70
     0
300
1/128" = 1'-0"
140
0.0078125
141
12.0
290
     0
  0
SCALE
  5
B36
102
{ACAD_REACTORS
330
B23
102
}
330
B23
100
AcDbScale
 70
     0
300
1/64" = 1'-0"
140
0.015625
141
12.0
290
     0
  0
SCALE
  5
B37
102
{ACAD_REACTORS
330
B23
102
}
330
B23
100
AcDbScale
 70
     0
300
1/32" = 1'-0"
140
0.03125
141
12.0
290
     0
  0
SCALE
  5
B38
102
{ACAD_REACTORS
330
B23
102
}
330
B23
100
AcDbScale
 70
     0
300
1/16" = 1'-0"
140
0.0625
141
12.0
290
     0
  0
SCALE
  5
B39
102
{ACAD_REACTORS
330
B23
102
}
330
B23
100
AcDbScale
 70
     0
300
3/32" = 1'-0"
140
0.09375
141
12.0
290
     0
  0
SCALE
  5
B3A
102
{ACAD_REACTORS
330
B23
102
}
330
B23
100
AcDbScale
 70
     0
300
1/8" = 1'-0"
140
0.125
141
12.0
290
     0
  0
SCALE
  5
B3B
102
{ACAD_REACTORS
330
B23
102
}
330
B23
100
AcDbScale
 70
     0
300
3/16" = 1'-0"
140
0.1875
141
12.0
290
     0
  0
SCALE
  5
B3C
102
{ACAD_REACTORS
330
B23
102
}
330
B23
100
AcDbScale
 70
     0
300
1/4" = 1'-0"
140
0.25
141
12.0
290
     0
  0
SCALE
  5
B3D
102
{ACAD_REACTORS
330
B23
102
}
330
B23
100
AcDbScale
 70
     0
300
3/8" = 1'-0"
140
0.375
141
12.0
290
     0
  0
SCALE
  5
B3E
102
{ACAD_REACTORS
330
B23
102
}
330
B23
100
AcDbScale
 70
     0
300
1/2" = 1'-0"
140
0.5
141
12.0
290
     0
  0
SCALE
  5
B3F
102
{ACAD_REACTORS
330
B23
102
}
330
B23
100
AcDbScale
 70
     0
300
3/4" = 1'-0"
140
0.75
141
12.0
290
     0
  0
SCALE
  5
B40
102
{ACAD_REACTORS
330
B23
102
}
330
B23
100
AcDbScale
 70
     0
300
1" = 1'-0"
140
1.0
141
12.0
290
     0
  0
SCALE
  5
B41
102
{ACAD_REACTORS
330
B23
102
}
330
B23
100
AcDbScale
 70
     0
300
1-1/2" = 1'-0"
140
1.5
141
12.0
290
     0
  0
SCALE
  5
B42
102
{ACAD_REACTORS
330
B23
102
}
330
B23
100
AcDbScale
 70
     0
300
3" = 1'-0"
140
3.0
141
12.0
290
     0
  0
SCALE
  5
B43
102
{ACAD_REACTORS
330
B23
102
}
330
B23
100
AcDbScale
 70
     0
300
6" = 1'-0"
140
6.0
141
12.0
290
     0
  0
SCALE
  5
B44
102
{ACAD_REACTORS
330
B23
102
}
330
B23
100
AcDbScale
 70
     0
300
1'-0" = 1'-0"
140
12.0
141
12.0
290
     0
  0
TABLESTYLE
  5
4BB
102
{ACAD_XDICTIONARY
360
B52
102
}
102
{ACAD_REACTORS
330
4BA
102
}
330
4BA
100
AcDbTableStyle
  3
Standard
 70
     0
 71
     0
 40
0.06
 41
0.06
280
     0
281
     0
  7
Standard
140
0.18
170
     2
 62
     0
 63
     7
283
     0
274
    -2
284
     1
 64
     0
275
    -2
285
     1
 65
     0
276
    -2
286
     1
 66
     0
277
    -2
287
     1
 67
     0
278
    -2
288
     1
 68
     0
279
    -2
289
     1
 69
     0
  7
Standard
140
0.25
170
     5
 62
     0
 63
     7
283
     0
274
    -2
284
     1
 64
     0
275
    -2
285
     1
 65
     0
276
    -2
286
     1
 66
     0
277
    -2
287
     1
 67
     0
278
    -2
288
     1
 68
     0
279
    -2
289
     1
 69
     0
  7
Standard
140
0.18
170
     5
 62
     0
 63
     7
283
     0
274
    -2
284
     1
 64
     0
275
    -2
285
     1
 65
     0
276
    -2
286
     1
 66
     0
277
    -2
287
     1
 67
     0
278
    -2
288
     1
 68
     0
279
    -2
289
     1
 69
     0
  0
VISUALSTYLE
  5
2F
102
{ACAD_XDICTIONARY
360
49A
102
}
102
{ACAD_REACTORS
330
2A
102
}
330
2A
100
AcDbVisualStyle
  2
2dWireframe
 70
     4
 71
     0
 72
     2
 73
     0
 90
        0
 40
-0.6
 41
-30.0
 62
     5
 63
     7
 74
     1
 91
        4
 64
     7
 65
   257
 75
     1
175
     1
 42
1.0
 92
        0
 66
   257
 43
1.0
 76
     1
 77
     6
 78
     2
 67
     7
 79
     5
170
     0
171
     0
290
     0
174
     0
 93
        1
 44
0.0
173
     0
291
     0
 45
0.0
1001
ACAD
1000
AcDbSavedByObjectVersion
1070
     0
  0
VISUALSTYLE
  5
A48
102
{ACAD_REACTORS
330
2A
102
}
330
2A
100
AcDbVisualStyle
  2
3D Hidden
 70
     6
 71
     1
 72
     2
 73
     2
 90
        0
 40
-0.6
 41
-30.0
 62
     5
 63
     7
 74
     2
 91
        2
 64
     7
 65
   257
 75
     2
175
     1
 42
40.0
 92
        0
 66
   257
 43
1.0
 76
     1
 77
     6
 78
     2
 67
     7
 79
     3
170
     0
171
     0
290
     0
174
     0
 93
        1
 44
0.0
173
     0
291
     0
 45
0.0
1001
ACAD
1000
AcDbSavedByObjectVersion
1070
     0
  0
VISUALSTYLE
  5
A47
102
{ACAD_REACTORS
330
2A
102
}
330
2A
100
AcDbVisualStyle
  2
3dWireframe
 70
     5
 71
     0
 72
     2
 73
     0
 90
        0
 40
-0.6
 41
-30.0
 62
     5
 63
     7
 74
     1
 91
        4
 64
     7
 65
   257
 75
     1
175
     1
 42
1.0
 92
        0
 66
   257
 43
1.0
 76
     1
 77
     6
 78
     2
 67
     7
 79
     5
170
     0
171
     0
290
     0
174
     0
 93
        1
 44
0.0
173
     0
291
     0
 45
0.0
1001
ACAD
1000
AcDbSavedByObjectVersion
1070
     0
  0
VISUALSTYLE
  5
32
102
{ACAD_XDICTIONARY
360
4A0
102
}
102
{ACAD_REACTORS
330
2A
102
}
330
2A
100
AcDbVisualStyle
  2
Basic
 70
     7
 71
     1
 72
     0
 73
     1
 90
        0
 40
-0.6
 41
-30.0
 62
     5
 63
     7
 74
     0
 91
        4
 64
     7
 65
   257
 75
     1
175
     1
 42
1.0
 92
        8
 66
     7
 43
1.0
 76
     1
 77
     6
 78
     2
 67
     7
 79
     5
170
     0
171
     0
290
     0
174
     0
 93
        1
 44
0.0
173
     0
291
     1
 45
0.0
1001
ACAD
1000
AcDbSavedByObjectVersion
1070
     0
  0
VISUALSTYLE
  5
36
102
{ACAD_XDICTIONARY
360
4A8
102
}
102
{ACAD_REACTORS
330
2A
102
}
330
2A
100
AcDbVisualStyle
  2
Brighten
 70
    12
 71
     2
 72
     2
 73
     0
 90
        0
 40
-0.6
 41
-30.0
 62
     5
 63
     7
 74
     1
 91
        4
 64
     7
 65
   257
 75
     1
175
     1
 42
1.0
 92
        8
 66
     7
 43
1.0
 76
     1
 77
     6
 78
     2
 67
     7
 79
     5
170
     0
171
     0
290
     0
174
     0
 93
        1
 44
50.0
173
     0
291
     1
 45
0.0
1001
ACAD
1000
AcDbSavedByObjectVersion
1070
     0
  0
VISUALSTYLE
  5
3A
102
{ACAD_XDICTIONARY
360
4B0
102
}
102
{ACAD_REACTORS
330
2A
102
}
330
2A
100
AcDbVisualStyle
  2
ColorChange
 70
    16
 71
     2
 72
     2
 73
     3
 90
        0
 40
-0.6
 41
-30.0
 62
     5
 63
     8
 74
     1
 91
        4
 64
     7
 65
   257
 75
     1
175
     1
 42
1.0
 92
        8
 66
     8
 43
1.0
 76
     1
 77
     6
 78
     2
 67
     7
 79
     5
170
     0
171
     0
290
     0
174
     0
 93
        1
 44
0.0
173
     0
291
     1
 45
0.0
1001
ACAD
1000
AcDbSavedByObjectVersion
1070
     0
  0
VISUALSTYLE
  5
A49
102
{ACAD_REACTORS
330
2A
102
}
330
2A
100
AcDbVisualStyle
  2
Conceptual
 70
     9
 71
     3
 72
     2
 73
     0
 90
        0
 40
-0.6
 41
-30.0
 62
     5
 63
     7
 74
     2
 91
        2
 64
     7
 65
   257
 75
     1
175
     1
 42
40.0
 92
        8
 66
     7
 43
1.0
 76
     1
 77
     6
 78
     2
 67
     7
 79
     3
170
     0
171
     0
290
     0
174
     0
 93
        1
 44
0.0
173
     0
291
     0
 45
0.0
1001
ACAD
1000
AcDbSavedByObjectVersion
1070
     0
  0
VISUALSTYLE
  5
35
102
{ACAD_XDICTIONARY
360
4A6
102
}
102
{ACAD_REACTORS
330
2A
102
}
330
2A
100
AcDbVisualStyle
  2
Dim
 70
    11
 71
     2
 72
     2
 73
     0
 90
        0
 40
-0.6
 41
-30.0
 62
     5
 63
     7
 74
     1
 91
        4
 64
     7
 65
   257
 75
     1
175
     1
 42
1.0
 92
        8
 66
     7
 43
1.0
 76
     1
 77
     6
 78
     2
 67
     7
 79
     5
170
     0
171
     0
290
     0
174
     0
 93
        1
 44
-50.0
173
     0
291
     1
 45
0.0
1001
ACAD
1000
AcDbSavedByObjectVersion
1070
     0
  0
VISUALSTYLE
  5
39
102
{ACAD_XDICTIONARY
360
4AE
102
}
102
{ACAD_REACTORS
330
2A
102
}
330
2A
100
AcDbVisualStyle
  2
Facepattern
 70
    15
 71
     2
 72
     2
 73
     0
 90
        0
 40
-0.6
 41
-30.0
 62
     5
 63
     7
 74
     1
 91
        4
 64
     7
 65
   257
 75
     1
175
     1
 42
1.0
 92
        8
 66
     7
 43
1.0
 76
     1
 77
     6
 78
     2
 67
     7
 79
     5
170
     0
171
     0
290
     0
174
     0
 93
        1
 44
0.0
173
     0
291
     1
 45
0.0
1001
ACAD
1000
AcDbSavedByObjectVersion
1070
     0
  0
VISUALSTYLE
  5
2B
102
{ACAD_XDICTIONARY
360
492
102
}
102
{ACAD_REACTORS
330
2A
102
}
330
2A
100
AcDbVisualStyle
  2
Flat
 70
     0
 71
     2
 72
     1
 73
     1
 90
        2
 40
-0.6
 41
30.0
 62
     5
 63
     7
 74
     0
 91
        4
 64
     7
 65
   257
 75
     1
175
     1
 42
1.0
 92
        8
 66
     7
 43
1.0
 76
     1
 77
     6
 78
     2
 67
     7
 79
     5
170
     0
171
     0
290
     0
174
     0
 93
       13
 44
0.0
173
     0
291
     1
 45
0.0
1001
ACAD
1000
AcDbSavedByObjectVersion
1070
     0
  0
VISUALSTYLE
  5
2C
102
{ACAD_XDICTIONARY
360
494
102
}
102
{ACAD_REACTORS
330
2A
102
}
330
2A
100
AcDbVisualStyle
  2
FlatWithEdges
 70
     1
 71
     2
 72
     1
 73
     1
 90
        2
 40
-0.6
 41
30.0
 62
     5
 63
     7
 74
     1
 91
        4
 64
     7
 65
   257
 75
     1
175
     1
 42
1.0
 92
        0
 66
   257
 43
1.0
 76
     1
 77
     6
 78
     2
 67
     7
 79
     5
170
     0
171
     0
290
     0
174
     0
 93
       13
 44
0.0
173
     0
291
     1
 45
0.0
1001
ACAD
1000
AcDbSavedByObjectVersion
1070
     0
  0
VISUALSTYLE
  5
2D
102
{ACAD_XDICTIONARY
360
496
102
}
102
{ACAD_REACTORS
330
2A
102
}
330
2A
100
AcDbVisualStyle
  2
Gouraud
 70
     2
 71
     2
 72
     2
 73
     1
 90
        2
 40
-0.6
 41
30.0
 62
     5
 63
     7
 74
     0
 91
        4
 64
     7
 65
   257
 75
     1
175
     1
 42
1.0
 92
        0
 66
     7
 43
1.0
 76
     1
 77
     6
 78
     2
 67
     7
 79
     5
170
     0
171
     0
290
     0
174
     0
 93
       13
 44
0.0
173
     0
291
     1
 45
0.0
1001
ACAD
1000
AcDbSavedByObjectVersion
1070
     0
  0
VISUALSTYLE
  5
2E
102
{ACAD_XDICTIONARY
360
498
102
}
102
{ACAD_REACTORS
330
2A
102
}
330
2A
100
AcDbVisualStyle
  2
GouraudWithEdges
 70
     3
 71
     2
 72
     2
 73
     1
 90
        2
 40
-0.6
 41
30.0
 62
     5
 63
     7
 74
     1
 91
        4
 64
     7
 65
   257
 75
     1
175
     1
 42
1.0
 92
        0
 66
   257
 43
1.0
 76
     1
 77
     6
 78
     2
 67
     7
 79
     5
170
     0
171
     0
290
     0
174
     0
 93
       13
 44
0.0
173
     0
291
     1
 45
0.0
1001
ACAD
1000
AcDbSavedByObjectVersion
1070
     0
  0
VISUALSTYLE
  5
38
102
{ACAD_XDICTIONARY
360
4AC
102
}
102
{ACAD_REACTORS
330
2A
102
}
330
2A
100
AcDbVisualStyle
  2
Linepattern
 70
    14
 71
     2
 72
     2
 73
     0
 90
        0
 40
-0.6
 41
-30.0
 62
     5
 63
     7
 74
     1
 91
        4
 64
     7
 65
   257
 75
     7
175
     7
 42
1.0
 92
        8
 66
     7
 43
1.0
 76
     1
 77
     6
 78
     2
 67
     7
 79
     5
170
     0
171
     0
290
     0
174
     0
 93
        1
 44
0.0
173
     0
291
     1
 45
0.0
1001
ACAD
1000
AcDbSavedByObjectVersion
1070
     0
  0
VISUALSTYLE
  5
A4A
102
{ACAD_REACTORS
330
2A
102
}
330
2A
100
AcDbVisualStyle
  2
Realistic
 70
     8
 71
     2
 72
     2
 73
     0
 90
        0
 40
-0.6
 41
-30.0
 62
     5
 63
     7
 74
     1
 91
        0
 64
     7
 65
   257
 75
     1
175
     1
 42
1.0
 92
        8
 66
     8
 43
1.0
 76
     1
 77
     6
 78
     2
 67
     7
 79
     5
170
     0
171
     0
290
     0
174
     0
 93
       13
 44
0.0
173
     0
291
     0
 45
0.0
1001
ACAD
1000
AcDbSavedByObjectVersion
1070
     0
  0
VISUALSTYLE
  5
37
102
{ACAD_XDICTIONARY
360
4AA
102
}
102
{ACAD_REACTORS
330
2A
102
}
330
2A
100
AcDbVisualStyle
  2
Thicken
 70
    13
 71
     2
 72
     2
 73
     0
 90
        0
 40
-0.6
 41
-30.0
 62
     5
 63
     7
 74
     1
 91
        4
 64
     7
 65
   257
 75
     1
175
     1
 42
1.0
 92
       12
 66
     7
 43
1.0
 76
     1
 77
     6
 78
     2
 67
     7
 79
     5
170
     0
171
     0
290
     0
174
     0
 93
        1
 44
0.0
173
     0
291
     1
 45
0.0
1001
ACAD
1000
AcDbSavedByObjectVersion
1070
     0
  0
DICTIONARYVAR
  5
B57
102
{ACAD_REACTORS
330
487
102
}
330
487
100
DictionaryVariables
280
     0
  1
1:1
  0
DICTIONARYVAR
  5
B55
102
{ACAD_REACTORS
330
487
102
}
330
487
100
DictionaryVariables
280
     0
  1
STANDARD
  0
DICTIONARYVAR
  5
5FE
102
{ACAD_REACTORS
330
487
102
}
330
487
100
DictionaryVariables
280
     0
  1
STANDARD
  0
DICTIONARYVAR
  5
48A
102
{ACAD_REACTORS
330
487
102
}
330
487
100
DictionaryVariables
280
     0
  1
2
  0
DICTIONARYVAR
  5
48B
102
{ACAD_REACTORS
330
487
102
}
330
487
100
DictionaryVariables
280
     0
  1
1
  0
DICTIONARYVAR
  5
86B
102
{ACAD_REACTORS
330
487
102
}
330
487
100
DictionaryVariables
280
     0
  1
0
  0
DICTIONARYVAR
  5
B58
102
{ACAD_REACTORS
330
487
102
}
330
487
100
DictionaryVariables
280
     0
  1
0
  0
DICTIONARYVAR
  5
B56
102
{ACAD_REACTORS
330
487
102
}
330
487
100
DictionaryVariables
280
     0
  1
0
  0
DICTIONARYVAR
  5
86A
102
{ACAD_REACTORS
330
487
102
}
330
487
100
DictionaryVariables
280
     0
  1
127
  0
DICTIONARY
  5
7D4
330
1E
100
AcDbDictionary
280
     1
281
     1
  3
ADSK_XREC_LAYOUTTHUMBNAIL
360
7D5
  0
DICTIONARY
  5
1D9F
330
3D
100
AcDbDictionary
280
     1
281
     1
  3
ACAD_XREC_ROUNDTRIP
360
1DA0
  0
DICTIONARY
  5
1D9D
330
3C
100
AcDbDictionary
280
     1
281
     1
  3
ACAD_XREC_ROUNDTRIP
360
1D9E
  0
DICTIONARY
  5
1DA1
330
3E
100
AcDbDictionary
280
     1
281
     1
  3
ACAD_XREC_ROUNDTRIP
360
1DA2
  0
DICTIONARY
  5
B52
330
4BB
100
AcDbDictionary
280
     1
281
     1
  3
ACAD_ROUNDTRIP_2008_TABLESTYLE_CELLSTYLEMAP
360
1D9C
  3
ACAD_XREC_ROUNDTRIP
360
1DA3
  0
DICTIONARY
  5
49A
330
2F
100
AcDbDictionary
280
     1
281
     1
  3
ACAD_XREC_ROUNDTRIP
360
49B
  0
DICTIONARY
  5
4A0
330
32
100
AcDbDictionary
280
     1
281
     1
  3
ACAD_XREC_ROUNDTRIP
360
4A1
  0
DICTIONARY
  5
4A8
330
36
100
AcDbDictionary
280
     1
281
     1
  3
ACAD_XREC_ROUNDTRIP
360
4A9
  0
DICTIONARY
  5
4B0
330
3A
100
AcDbDictionary
280
     1
281
     1
  3
ACAD_XREC_ROUNDTRIP
360
4B1
  0
DICTIONARY
  5
4A6
330
35
100
AcDbDictionary
280
     1
281
     1
  3
ACAD_XREC_ROUNDTRIP
360
4A7
  0
DICTIONARY
  5
4AE
330
39
100
AcDbDictionary
280
     1
281
     1
  3
ACAD_XREC_ROUNDTRIP
360
4AF
  0
DICTIONARY
  5
492
330
2B
100
AcDbDictionary
280
     1
281
     1
  3
ACAD_XREC_ROUNDTRIP
360
493
  0
DICTIONARY
  5
494
330
2C
100
AcDbDictionary
280
     1
281
     1
  3
ACAD_XREC_ROUNDTRIP
360
495
  0
DICTIONARY
  5
496
330
2D
100
AcDbDictionary
280
     1
281
     1
  3
ACAD_XREC_ROUNDTRIP
360
497
  0
DICTIONARY
  5
498
330
2E
100
AcDbDictionary
280
     1
281
     1
  3
ACAD_XREC_ROUNDTRIP
360
499
  0
DICTIONARY
  5
4AC
330
38
100
AcDbDictionary
280
     1
281
     1
  3
ACAD_XREC_ROUNDTRIP
360
4AD
  0
DICTIONARY
  5
4AA
330
37
100
AcDbDictionary
280
     1
281
     1
  3
ACAD_XREC_ROUNDTRIP
360
4AB
  0
XRECORD
  5
7D5
102
{ACAD_REACTORS
330
7D4
102
}
330
7D4
100
AcDbXrecord
280
     1
310
28000000B40000007F00000001000800000000004C59000000000000000000000001000000000000FFFFFF0000000000FFFFFF000000000000000000000000000000000000000000000000000000000000000000330000006600000099000000CC000000FF00000000330000333300006633000099330000CC330000FF3300
310
0000660000336600006666000099660000CC660000FF66000000990000339900006699000099990000CC990000FF99000000CC000033CC000066CC000099CC0000CCCC0000FFCC000000FF000033FF000066FF000099FF0000CCFF0000FFFF000000003300330033006600330099003300CC003300FF003300003333003333
310
33006633330099333300CC333300FF33330000663300336633006666330099663300CC663300FF66330000993300339933006699330099993300CC993300FF99330000CC330033CC330066CC330099CC3300CCCC3300FFCC330000FF330033FF330066FF330099FF3300CCFF3300FFFF330000006600330066006600660099
310
006600CC006600FF00660000336600333366006633660099336600CC336600FF33660000666600336666006666660099666600CC666600FF66660000996600339966006699660099996600CC996600FF99660000CC660033CC660066CC660099CC6600CCCC6600FFCC660000FF660033FF660066FF660099FF6600CCFF6600
310
FFFF660000009900330099006600990099009900CC009900FF00990000339900333399006633990099339900CC339900FF33990000669900336699006666990099669900CC669900FF66990000999900339999006699990099999900CC999900FF99990000CC990033CC990066CC990099CC9900CCCC9900FFCC990000FF99
310
0033FF990066FF990099FF9900CCFF9900FFFF99000000CC003300CC006600CC009900CC00CC00CC00FF00CC000033CC003333CC006633CC009933CC00CC33CC00FF33CC000066CC003366CC006666CC009966CC00CC66CC00FF66CC000099CC003399CC006699CC009999CC00CC99CC00FF99CC0000CCCC0033CCCC0066CC
310
CC0099CCCC00CCCCCC00FFCCCC0000FFCC0033FFCC0066FFCC0099FFCC00CCFFCC00FFFFCC000000FF003300FF006600FF009900FF00CC00FF00FF00FF000033FF003333FF006633FF009933FF00CC33FF00FF33FF000066FF003366FF006666FF009966FF00CC66FF00FF66FF000099FF003399FF006699FF009999FF00CC
310
99FF00FF99FF0000CCFF0033CCFF0066CCFF0099CCFF00CCCCFF00FFCCFF0000FFFF0033FFFF0066FFFF0099FFFF00CCFFFF00FFFFFF00000000000D0D0D001A1A1A00282828003535350043434300505050005D5D5D006B6B6B00787878008686860093939300A1A1A100AEAEAE00BBBBBB00C9C9C900D6D6D600E4E4E400
310
F1F1F100FFFFFF0000000000000000000000000000000000000000000000000000000000000000000000000000000000E2E2E2E2E2E2E2E2E2E2E2E2E2E2E2E2E2E2E2E2E2E2E2E2E2E2E2E2E2E2E2E2E2E2E2E2E2E2E2E2E2E2E2E2E2E2E2E2E2E2E2E2E2E2E2E2E2E2E2E2E2E2E2E2E2E2E2E2E2E2E2E2E2E2E2E2E2E2E2
310
E2E2E2E2E2E2E2E2E2E2E2E2E2E2E2E2E2E2E2E2E2E2E2E2E2E2E2E2E2E2E2E2E2E2E2E2E2E2E2E2E2E2E2E2E2E2E2E2E2E2E2E2E2E2E2E2E2E2E2E2E2E2E2E2E2E2E2E2E2E2E2E2E2E2E2E2E2E2E2E2E2E2E2E2E2E2E2E2E2E2E2E2E2E2E2E2E2E2E2E2E2E2F5F5F5F5F5F5F5F5F5F5F5F5F5F5F5F5F5F5F5F5F5F5F5F5F5
310
F5F5F5F5F5F5F5F5F5F5F5F5F5F5F5F5F5F5F5F5F5F5F5F5F5F5F5F5F5F5F5F5F5F5F5F5F5F5F5F5F5F5F5F5F5F5F5F5F5F5F5F5F5F5F5F5F5F5F5F5F5F5F5F5F5F5F5F5F5F5F5F5F5F5F5F5F5F5F5F5F5F5F5F5F5F5F5F5F5F5F5F5F5F5F5F5F5F5F5F5F5F5F5F5F5F5F5F5F5F5F5F5F5F5F5F5F5F5F5F5F5F5F5F5F5F5F5
310
F5F5F5F5F5F5F5F5F5F5F5F5F5F5F5F5F5F5F5F5F5F5F5F5F5E2E2E2F5E2E2E2E2E2E2E2E2E2E2E2E2E2E2E2E2E2E2E2E2E2E2E2E2E2E2E2E2E2E2E2E2E2E2E2E2E2E2E2E2E2E2E2E2E2E2E2E2E2E2E2E2E2E2E2E2E2E2E2E2E2E2E2E2E2E2E2E2E2E2E2E2E2E2E2E2E2E2E2E2E2E2E2E2E2E2E2E2E2E2E2E2E2E2E2E2E2E2
310
E2E2E2E2E2E2E2E2E2E2E2E2E2E2E2E2E2E2E2E2E2E2E2E2E2E2E2E2E2E2E2E2E2E2E2E2E2E2E2E2E2E2E2E2E2E2E2E2E2E2E2E2E2E2E2E2E2E2E2E2E2E2E2E2E2E2E2E2E2E2E2E2E2E2E2E2E2F5E2E2E2F5E2F5F5F5F5F5F5F5F5F5F5F5F5F5F5F5F5F5F5F5F5F5F5F5F5F5F5F5F5F5F5F5F5F5F5F5F5F5F5F5F5F5F5F5F5
310
F5F5F5F5F5F5F5F5F5F5F5F5F5F5F5F5F5F5F5F5F5F5F5F5F5F5F5F5F5F5F5F5F5F5F5F5F5F5F5F5F5F5F5F5F5F5F5F5F5F5F5F5F5F5F5F5F5F5F5F5F5F5F5F5F5F5F5F5F5F5F5F5F5F5F5F5F5F5F5F5F5F5F5F5F5F5F5F5F5F5F5F5F5F5F5F5F5F5F5F5F5F5F5F5F5F5F5F5F5F5F5F5F5F5F5F5F5F5F5F5F5F5F5F5F5F5F5
310
F5F5E2F5E2E2E2F5E2F5F5F5F5F5F5F5F5F5F5F5F5F5F5F5F5F5F5F5F5F5F5F5F5F5F5F5F5F5F5F5F5F5F5F5F5F5F5F5F5F5F5F5F5F5F5F5F5F5F5F5F5F5F5F5F5F5F5F5F5F5F5F5F5F5F5F5F5F5F5F5F5F5F5F5F5F5F5F5F5F5F5F5F5F5F5F5F5F5F5F5F5F5F5F5F5F5F5F5F5F5F5F5F5F5F5F5F5F5F5F5F5F5F5F5F5F5F5
310
F5F5F5F5F5F5F5F5F5F5F5F5F5F5F5F5F5F5F5F5F5F5F5F5F5F5F5F5F5F5F5F5F5F5F5F5F5F5F5F5F5F5F5F5F5F5F5F5F5F5F5F5F5F5F5E2F5E2E2E2F5E2F5F5F5F5F5F5F5F5F5F5F5F5F5F5F5F5F5F5F5F5F5F5F5F5F5F5F5F5F5F5F5F5F5F5F5F5F5F5F5F5F5F5F5F5F5F5F5F5F5F5F5F5F5F5F5F5F5F5F5F5F5F5F5F5F5
310
F5F5F5F5F5F5F5F5F5F5F5F5F5F5F5F5F5F5F5F5F5F5F5F5F5F5F5F5F5F5F5F5F5F5E2E2E2E2E2E2E2E2E2E2E2E2E2E2E2E2E2E2E2E2E2E2E2E2E2E2E2E2E2E2E2E2F5F5F5F5F5F5F5F5F5F5F5F5F5F5F5F5F5F5F5F5F5F5F5F5F5F5F5F5F5F5F5F5F5F5F5F5F5F5F5F5F5F5E2F5E2E2E2F5E2F5F5F5F5F5F5F5F5F5F5F5F5
310
F5F5F5F5F5F5F5F5F5F5F5F5F5F5F5F5F5F5F5F5F5F5F5F5F5F5F5F5F5F5F5F5F5F5F5F5F5F5F5F5F5F5F5F5F5F5F5F5F5F5F5F5F5F5F5F5F5F5F5F5F5F5F5F5F5F5F5F5F5F5F5F5F5F5F5F5F5F5F5F5F5F5F5F5F5F5F5E2E2E2E2E2E2E2E2E2E2E2E2E2E2E2E2E2E2E2E2E2E2E2E2E2E2E2E2E2E2E2E2F5F5F5F5F5F5F5F5
310
F5F5F5F5F5F5F5F5F5F5F5F5F5F5F5F5F5F5F5F5F5F5F5F5F5F5F5F5F5F5F5F5F5F5E2F5E2E2E2F5E2F5F5F5F5F5F5F5F5F5F5F5F5F5F5F5F5F5F5F5F5F5F5F5F5F5F5F5F5F5F5F5F5F5F5F5F5F5F5F5F5F5F5F5F5F5F5F5F5F5F5F5F5F5F5F5F5F5F5F5F5F5F5F5F5F5F5F5F5F5F5F5F5F5F5F5F5F5F5F5F5F5F5F5F5F5F5
310
F5F5F5F5F5F5F5F5F5F5F5F5F5E2E2E2E2E2E2E2E2E2E2E2E2E2E2E2E2E2E2E2E2E2E2E2E2E2E2E2E2E2E2E2E2F5F5F5F5F5F5F5F5F5F5F5F5F5F5F5F5F5F5F5F5F5F5F5F5F5F5F5F5F5F5F5F5F5F5F5F5F5F5F5F5F5F5E2F5E2E2E2F5E2F5F5F5F5F5F5F5F5F5F5F5F5F5F5F5F5F5F5F5F5F5F5F5F5F5F5F5F5F5F5F5F5F5
310
F5F5F5F5F5F5F5F5F5F5F5F5F5F5F5F5F5F5F5F5F5F5F5F5F5F5F5F5F5F5F5F5F5F5F5F5F5F5F5F5F5F5F5F5F5F5F5F5F5F5F5F5F5F5F5F5F5F5F5F5F5F5F5F5F5F5E2E2E2E2E2E2E2E2E2E2E2E2E2E2E2E2E2E2E2E2E2E2E2E2E2E2E2E2E2E2E2E2F5F5F5F5F5F5F5F5F5F5F5F5F5F5F5F5F5F5F5F5F5F5F5F5F5F5F5F5F5
310
F5F5F5F5F5F5F5F5F5F5F5F5F5E2F5E2E2E2F5E2F5F5F5F5F5F5F5F5F5F5F5F5F5F5F5F5F5F5F5F5F5F5F5F5F5F5F5F5F5F5F5F5F5F5F5F5F5F5F5F5F5F5F5F5F5F5F5F5F5F5F5F5F5F5F5F5F5F5F5F5F5F5F5F5F5F5F5F5F5F5F5F5F5F5F5F5F5F5F5F5F5F5F5F5F5F5F5F5F5F5F5F5F5F5F5F5F5F5F5F5F5F5F5F5F5F5F5
310
F5F5F5F5F5F5F5F5F5F5F5F5F5F5F5F5F5F5F5F5F5F5F5F5F5F5F5F5F5F5F5F5F5F5F5F5F5F5F5F5F5F5F5F5F5F5F5F5F5F5F5F5F5F5F5F5F5F5F5F5F5F5F5F5F5F5E2F5E2E2E2F5E2F5F5F5F5F5F5F5F5F5F5F5F5F5F5F5F5F5F5F5F5F5F5F5F5F5F5F5F5F5F5F5F5F5F5F5F5F5F5F5F5F5F5F5F5F5F5F5F5F5F5F5F5F5F5
310
F5F5F5F5F5F5F5F5F5F5F5F5F5F5F5F5F5F5F5F5F5F5F5F5F5F5F5F5F5F5F5F5F5F5F5F5F5F5F5F5F5F5F5F5F5F5F5F5F5F5F5F5F5F5F5F5F5F5F5F5F5F5F5F5F5F5F5F5F5F5F5F5F5F5F5F5F5F5F5F5F5F5F5F5F5F5F5F5F5F5F5F5F5F5F5F5F5F5F5F5F5F5F5F5F5F5F5F5F5F5F5F5F5F5F5F5F5F5F5E2F5E2E2E2F5E2F5
310
F5F5F5F5F5F5F5F5F5F5F5F5F5F5F5F5F5F5F5F5F5F5F5F5F5F5F5F5F5F5F5F5F5F5F5F5F5F5F5F5F5F5F5F5F5F5F5F5F5F5F5F5F5F5F5F5F5F5F5F5F5F5F5F5F5F5F5F5F5F5F5F5F5F5F5F5F5F5F5F5F5F5F5F5F5F5F5F5F5F5F5F5F5F5F5F5F5F5F5F5F5F5F5F5F5F5F5F5F5F5F5F5F5F5F5F5F5F5F5F5F5F5F5F5F5F5F5
310
F5F5F5F5F5F5F5F5F5F5F5F5F5F5F5F5F5F5F5F5F5F5F5F5F5F5F5F5F5F5F5F5F5F5F5F5F5F5F5F5F5F5F5F5F5E2F5E2E2E2F5E2F5F5F5F5F5F5F5F5F5F5F5F5F5F5F5F5F5F5F5F5F5F5F5F5F5F5F5F5F5F5F5F5F5F5F5F5F5F5F5F5F5F5F5F5F5F5F5F5F5F5F5F5F5F5F5F5F5F5F5F5F5F5F5F5F5F5F5F5F5F5F5F5F5F5F5
310
F5F5F5F5F5F5F5F5F5F5F5F5F5F5F5F5F5F5F5F5F5F5F5F5F5F5F5F5F5F5F5F5F5F5F5F5F5F5F5F5F5F5F5F5F5F5F5F5F5F5F5F5F5F5F5F5F5F5F5F5F5F5F5F5F5F5F5F5F5F5F5F5F5F5F5F5F5F5F5F5F5F5F5F5F5F5F5F5F5F5F5F5F5F5F5F5F5F5E2F5E2E2E2F5E2F5F5F5F5F5F5F5F5F5F5F5F5F5F5F5F5F5F5F5F5F5F5
310
F5F5F5F5F5F5F5F5F5F5F5F5F5F5F5F5F5F5F5F5F5F5F5F5F5F5F5F5F5F5F5F5F5F5F5F5F5F5F5F5F5F5F5F5F5F5F5F5F5F5F5F5F5F5F5F5F5F5F5F5F5F5F5F5F5F5F5F5F5F5F5F5F5F5F5F5F5F5F5F5F5F5F5F5F5F5F5F5F5F5F5F5F5F5F5F5F5F5F5F5F5F5F5F5F5F5F5F5F5F5F5F5F5F5F5F5F5F5F5F5F5F5F5F5F5F5F5
310
F5F5F5F5F5F5F5F5F5F5F5F5F5F5F5F5F5F5F5F5F5F5F5F5E2F5E2E2E2F5E2F5F5F5F5F5F5F5F5F5F5F5F5F5F5F5F5F5F5F5F5F5F5F5F5F5F5F5F5F5F5F5F5F5F5F5F5F5F5F5F5F5F5F5F5F5F5F5F5F5F5F5F5F5F5F5F5F5F5F5F5F5F5F5F5F5F5F5F5F5F5F5F5F5F5E2BEF5F5F5F5F5F5F5F5F5F5F5F5F5F5F5F5F5F5F5F5
310
F5F5F5F5F5F5F5F5F5F5F5F5F5F5F5F5F5F5F5F5F5F5F5F5F5F5F5F5F5F5F5F5F5F5F5F5F5F5F5F5F5F5F5F5F5F5F5F5F5F5F5F5F5F5F5F5F5F5F5F5F5F5F5F5F5F5F5F5F5F5F5F5F5F5F5F5F5E2F5E2E2E2F5E2F5F5F5F5F5F5F5F5F5F5F5F5F5F5F5F5F5F5F5F5F5F5F5F5F5F5F5F5F5F5F5F5F5F5F5F5F5F5F5F5F5F5F5
310
F5F5F5F5F5F5F5F5F5F5F5F5F5F5F5F5F5F5F5F5F5F5F5F5F5F5F5F5F5E2E2E2E2E2F5F5F5F5F5F5F5F5F5F5F5E2E2E2E2E2F5F5F5E2E2E2E2E2E2E2F5F5E2E2E2E2E2E2E2F5F5E2E2E2E2E2E2E2E2F5F5E2E2E2E2E2E2E2F5F5E2E2E2E2E2E2F5F5F5F5F5F5F5F5F5F5F5F5F5F5F5F5F5F5F5F5F5F5F5F5F5F5F5F5F5F5F5
310
F5F5F5E2F5E2E2E2F5E2F5F5F5F5F5F5F5F5F5F5F5F5F5F5F5F5F5F5F5F5F5F5F5F5F5F5F5F5F5F5F5F5F5F5F5F5F5F5F5F5F5F5F5F5F5F5F5F5F5F5F5F5F5F5F5F5F5F5F5F5F5F5F5F5F5F5F5F5F5F5F5F5F5BEE2F5F5F5F5F5F5F5F5F5F5F5F5F5E2F5F5F5F5F5F5F5F5F5F5F5F5F5F5F5F5F5F5F5F5F5F5F5F5F5F5F5F5
310
F5F5F5F5F5F5F5F5F5F5F5F5F5F5F5F5F5F5F5F5F5E2F5F5F5F5F5F5F5F5F5F5F5F5F5F5F5F5F5F5F5F5F5F5F5F5F5F5F5F5F5F5F5F5F5F5E2F5E2E2E2F5E2F5F5F5F5F5F5F5F5F5F5F5F5F5F5F5F5F5F5F5F5F5F5F5F5F5F5F5F5F5F5F5F5F5F5F5F5F5F5F5F5F5F5F5F5F5F5F5F5F5F5F5F5F5F5F5F5F5F5F5F5F5F5F5F5
310
F5F5F5F5F5F5F5F5F5F5E2F5F5F5F5F5F5F5F5F5F5F5F5F5E2F5F5F5F5F5F5F5F5F5F5F5F5F5F5F5F5F5F5F5F5F5F5F5F5F5F5F5F5F5F5F5F5F5F5F5F5F5F5F5F5F5F5F5F5F5F5F5F5F5E2F5F5F5F5F5F5F5F5F5F5F5F5F5F5F5F5F5F5F5F5F5F5F5F5F5F5F5F5F5F5F5F5F5F5E2F5E2E2E2F5E2F5F5F5F5F5F5F5F5F5F5F5
310
F5F5F5F5F5F5F5F5F5F5F5F5F5F5F5F5F5F5F5F5F5F5F5F5F5F5F5F5F5F5F5F5F5F5F5F5F5F5F5F5F5F5F5F5F5F5F5F5F5F5F5F5F5F5F5F5F5F5F5F5F5F5F5E2F5F5F5F5F5F5F5F5F5F5F5F5F5E2F5F5F5F5F5F5F5F5F5F5F5F5F5F5F5F5F5F5F5F5F5F5F5F5F5F5F5F5F5F5F5F5F5F5F5F5F5F5F5F5F5F5F5F5F5F5F5F5F5
310
E2F5F5F5F5F5F5F5F5F5F5F5F5F5F5F5F5F5F5F5F5F5F5F5F5F5F5F5F5F5F5F5F5F5F5E2F5E2E2E2F5E2F5F5F5F5F5F5F5F5F5F5F5F5F5F5F5F5F5F5F5F5F5F5F5F5F5F5F5F5F5F5F5F5F5F5F5F5F5F5F5F5F5F5F5F5F5F5F5F5F5F5F5F5F5F5F5F5F5F5F5F5F5F5F5F5F5F5F5F5F5F5F5F5F5F5E2F5F5F5F5F5F5F5F5F5F5
310
F5F5F5E2F5F5F5F5F5F5F5F5F5F5F5F5F5F5F5F5F5F5F5F5F5F5F5F5F5F5F5F5F5F5F5F5F5F5F5F5F5F5F5F5F5F5F5F5F5F5F5F5F5E2F5F5F5F5F5F5F5F5F5F5F5F5F5F5F5F5F5F5F5F5F5F5F5F5F5F5F5F5F5F5F5F5F5F5E2F5E2E2E2F5E2F5F5F5F5F5F5F5F5F5F5F5F5F5F5F5F5F5F5F5F5F5F5F5F5F5F5F5F5F5F5F5F5
310
F5F5F5F5F5F5F5F5F5F5F5F5F5F5F5F5F5F5F5F5F5F5F5F5F5F5F5F5F5F5F5F5F5F5F5F5F5F5F5F5F5F5E2F5F5F5F5F5F5F5F5F5F5F5F5F5E2F5F5F5F5F5F5F5F5F5F5F5F5F5F5F5F5F5F5F5F5F5F5F5F5F5F5F5F5F5F5F5F5F5F5F5F5F5F5F5F5F5F5F5F5F5F5F5F5F5E2F5F5F5F5F5F5F5F5F5F5F5F5F5F5F5F5F5F5F5F5
310
F5F5F5F5F5F5F5F5F5F5F5F5F5F5E2F5E2E2E2F5E2F5F5F5F5F5F5F5F5F5F5F5F5F5F5F5F5F5F5F5F5F5F5F5F5F5F5F5F5F5F5F5F5F5F5F5F5F5F5F5F5F5F5F5F5F5F5F5F5F5F5F5F5F5F5F5F5F5F5F5F5F5F5F5F5F5F5F5F5F5F5F5F5F5F5E2F5F5F5F5F5F5F5F5F5F5F5F5F5E2F5F5F5F5F5F5F5F5F5F5F5F5F5F5F5F5F5
310
F5F5F5F5F5F5F5F5F5F5F5F5F5F5F5F5F5F5F5F5F5F5F5F5F5F5F5F5F5F5F5F5E2F5F5F5F5F5F5F5F5F5F5F5F5F5F5F5F5F5F5F5F5F5F5F5F5F5F5F5F5F5F5F5F5F5F5E2F5E2E2E2F5E2F5F5F5F5F5F5F5F5F5F5F5F5F5F5F5F5F5F5F5F5F5F5F5F5F5F5F5F5F5F5F5F5F5F5F5F5F5F5F5F5F5F5F5F5F5F5F5F5F5F5F5F5F5
310
F5F5F5F5F5F5F5F5F5F5F5F5F5F5F5F5F5F5F5F5F5E2F5F5F5F5F5F5F5F5F5F5F5F5F5E2F5F5F5F5F5F5F5F5F5F5F5F5F5F5F5F5F5F5F5F5F5F5F5F5F5F5F5F5F5F5F5F5F5F5F5F5F5F5F5F5F5F5F5F5F5F5F5F5F5E2F5F5F5F5F5F5F5F5F5F5F5F5F5F5F5F5F5F5F5F5F5F5F5F5F5F5F5F5F5F5F5F5F5F5E2F5E2E2E2F5E2
310
F5F5F5F5F5F5F5F5F5F5F5F5F5F5F5F5F5F5F5F5F5F5F5F5F5F5F5F5F5F5F5F5F5F5F5F5F5F5F5F5F5F5F5F5F5F5F5F5F5F5F5F5F5F5F5F5F5F5F5F5F5F5F5F5F5F5F5F5F5F5F5F5F5F5E2F5F5F5F5F5F5F5F5F5F5F5F5F5F5F5F5F5F5F5F5F5F5F5F5F5F5F5F5F5F5F5F5F5F5F5F5F5F5F5F5F5F5F5F5F5F5F5F5F5F5F5F5
310
F5F5F5F5F5F5F5F5F5F5F5F5F5F5F5F5F5F5F5F5F5F5F5F5F5F5F5F5F5F5F5F5F5F5F5F5F5F5F5F5F5F5F5F5F5F5E2F5E2E2E2F5E2F5F5F5F5F5F5F5F5F5F5F5F5F5F5F5F5F5F5F5F5F5F5F5F5F5F5F5F5F5F5F5F5F5F5F5F5F5F5F5F5F5F5F5F5F5F5F5F5F5F5F5F5F5F5F5F5F5F5F5F5F5F5F5F5F5F5F5F5F5F5F5F5F5F5
310
E2F5F5F5F5F5F5F5F5F5F5F5F5F5F5F5F5F5F5F5F5F5F5F5F5F5F5F5F5F5F5F5F5F5F5F5F5F5F5F5F5F5F5F5F5F5F5F5F5F5F5F5F5F5F5F5F5F5F5F5F5F5F5F5F5F5F5F5F5F5F5F5F5F5F5F5F5F5F5F5F5F5F5F5F5F5F5F5F5F5F5F5F5F5F5F5F5F5F5E2F5E2E2E2F5E2F5F5F5F5F5F5F5F5F5F5F5F5F5F5F5F5F5F5F5F5F5
310
F5F5F5F5F5F5F5F5F5F5F5F5F5F5F5F5F5F5F5F5F5F5F5F5F5F5F5F5F5F5F5F5F5F5F5F5F5F5F5F5F5F5F5F5F5F5F5F5F5F5F5F5F5E2F5F5F5F5F5F5F5F5F5F5F5F5F5E2F5F5F5F5F5F5F5F5F5F5F5F5F5F5F5F5F5F5F5F5F5F5F5F5F5F5F5F5F5F5F5F5F5F5F5F5F5F5F5F5F5F5F5F5F5F5F5F5F5E2F5F5F5F5F5F5F5F5F5
310
F5F5F5F5F5F5F5F5F5F5F5F5F5F5F5F5F5F5F5F5F5F5F5F5F5E2F5E2E2E2F5E2F5F5F5F5F5F5F5F5F5F5F5F5F5F5F5F5F5F5F5F5F5F5F5F5F5F5F5F5F5F5F5F5F5F5F5F5F5F5F5F5F5F5F5F5F5F5F5F5F5F5F5F5F5F5F5F5F5F5F5F5F5F5F5F5F5F5F5F5F5F5F5F5F5F5E2F5F5F5F5F5F5F5F5F5F5F5F5F5E2F5F5F5F5F5F5
310
F5F5F5F5F5F5F5F5F5F5F5F5F5F5F5F5F5F5F5F5F5F5F5F5F5F5F5F5F5F5F5F5F5F5F5F5F5F5F5F5F5F5F5E2F5F5F5F5F5F5F5F5F5F5F5F5F5F5F5F5F5F5F5F5F5F5F5F5F5F5F5F5F5F5F5F5F5F5E2F5E2E2E2F5E2F5F5F5F5F5F5F5F5F5F5F5F5F5F5F5F5F5F5F5F5F5F5F5F5F5F5F5F5F5F5F5F5F5F5F5F5F5F5F5F5F5F5
310
F5F5F5F5F5F5F5F5F5F5F5F5F5F5F5F5F5F5F5F5F5F5F5F5F5F5F5F5F5F5F5F5E2F5F5F5F5F5F5F5F5F5F5F5F5F5E2F5F5F5F5F5F5F5F5F5F5F5F5F5F5F5F5F5F5F5F5F5F5F5F5F5F5F5F5F5F5F5F5F5F5F5F5F5F5F5F5F5F5F5F5F5F5F5F5F5E2F5F5F5F5F5F5F5F5F5F5F5F5F5F5F5F5F5F5F5F5F5F5F5F5F5F5F5F5F5F5
310
F5F5F5F5E2F5E2E2E2F5E2F5F5F5F5F5F5F5F5F5F5F5F5F5F5F5F5F5F5F5F5F5F5F5F5F5F5F5F5F5F5F5F5F5F5F5F5F5F5F5F5F5F5F5F5F5F5F5F5F5F5F5F5F5F5F5F5F5F5F5F5F5F5F5F5F5F5F5F5F5F5F5F5F5F5E2F5F5F5F5F5F5F5F5F5F5F5F5F5E2F5F5F5F5F5F5F5F5F5F5F5F5F5F5F5F5F5F5F5F5F5F5F5F5F5F5F5
310
F5F5F5F5F5F5F5F5F5F5F5F5F5F5F5F5F5F5F5F5F5F5E2F5F5F5F5F5F5F5F5F5F5F5F5F5F5F5F5F5F5F5F5F5F5F5F5F5F5F5F5F5F5F5F5F5F5E2F5E2E2E2F5E2F5F5F5F5F5F5F5F5F5F5F5F5F5F5F5F5F5F5F5F5F5F5F5F5F5F5F5F5F5F5F5F5F5F5F5F5F5F5F5F5F5F5F5F5F5F5F5F5F5F5F5F5F5F5F5F5F5F5F5F5F5F5F5
310
F5F5F5F5F5F5F5F5F5F5F5E2F5F5F5F5F5F5F5F5F5F5F5F5F5E2F5F5F5F5F5F5F5F5F5F5F5F5F5F5F5F5F5F5F5F5F5F5F5F5F5F5F5F5F5F5F5F5F5F5F5F5F5F5F5F5F5F5F5F5F5F5F5F5F5E2F5F5F5F5F5F5F5F5F5F5F5F5F5F5F5F5F5F5F5F5F5F5F5F5F5F5F5F5F5F5F5F5F5F5E2F5E2E2E2F5E2F5F5F5F5F5F5F5F5F5F5
310
F5F5F5F5F5F5F5F5F5F5F5F5F5F5F5F5F5F5F5F5F5F5F5F5F5F5F5F5F5F5F5F5F5F5F5F5F5F5F5F5F5F5F5F5F5F5F5F5F5F5F5F5F5F5F5F5F5F5F5F5F5F5F5F5E2F5F5F5F5F5F5F5F5F5F5F5F5F5E2F5F5F5F5F5F5F5F5F5F5F5F5F5F5F5F5F5F5F5F5F5F5F5F5F5F5F5F5F5F5F5F5F5F5F5F5F5F5F5F5F5F5F5F5F5F5F5F5
310
F5E2F5F5F5F5F5F5F5F5F5F5F5F5F5F5F5F5F5F5F5F5F5F5F5F5F5F5F5F5F5F5F5F5F5F5E2F5E2E2E2F5E2F5F5F5F5F5F5F5F5F5F5F5F5F5F5F5F5F5F5F5F5F5F5F5F5F5F5F5F5F5F5F5F5F5F5F5F5F5F5F5F5F5F5F5F5F5F5F5F5F5F5F5F5F5F5F5F5F5F5F5F5F5F5F5F5F5F5F5F5F5F5F5F5F5F5E2F5F5F5F5F5F5F5F5F5
310
F5F5F5F5E2F5F5F5F5F5F5F5F5F5F5F5F5F5F5F5F5F5F5F5F5F5F5F5F5F5F5F5F5F5F5F5F5F5F5F5F5F5F5F5F5F5F5F5F5F5F5F5F5F5E2F5F5F5F5F5F5F5F5F5F5F5F5F5F5F5F5F5F5F5F5F5F5F5F5F5F5F5F5F5F5F5F5F5F5E2F5E2E2E2F5E2F5F5F5F5F5F5F5F5F5F5F5F5F5F5F5F5F5F5F5F5F5F5F5F5F5F5F5F5F5F5F5
310
F5F5F5F5F5F5F5F5F5F5F5F5F5F5F5F5F5F5F5F5F5F5F5F5F5F5F5F5F5F5F5F5F5F5F5F5F5F5F5F5F5F5F5E2F5F5F5F5F5F5F5F5F5F5F5F5F5F5F5F5F5F5F5F5F5F5F5F5F5F5F5F5F5F5F5F5F5F5F5F5F5F5F5F5F5F5F5F5F5F5F5F5F5F5F5F5F5F5F5F5F5F5F5F5F5F5F5F5F5F5F5F5F5F5F5F5F5F5F5F5F5F5F5F5F5F5F5
310
F5F5F5F5F5F5F5F5F5F5F5F5F5F5F5E2F5E2E2E2F5E2F5F5F5F5F5F5F5F5F5F5F5F5F5F5F5F5F5F5F5F5F5F5F5F5F5F5F5F5F5F5F5F5F5F5F5F5F5F5F5F5F5F5F5F5F5F5F5F5F5F5F5F5F5F5F5F5F5F5F5F5F5F5F5F5F5F5F5F5F5F5F5F5F5F5E2F5F5F5F5F5F5F5F5F5F5F5F5F5F5F5F5F5F5F5F5F5F5F5F5F5F5F5F5F5F5
310
F5F5F5F5F5F5F5F5F5F5F5F5F5F5F5F5F5F5F5F5F5F5F5F5F5F5F5F5F5F5F5F5F5F5F5F5F5F5F5F5F5F5F5F5F5F5F5F5F5F5F5F5F5F5F5F5F5F5F5F5F5F5F5F5F5F5F5F5E2F5E2E2E2F5E2F5F5F5F5F5F5F5F5F5F5F5F5F5F5F5F5F5F5F5F5F5F5F5F5F5F5F5F5F5F5F5F5F5F5F5F5F5F5F5F5F5F5F5F5F5F5F5F5F5F5F5F5
310
F5F5F5F5F5F5F5F5F5F5F5F5F5F5F5F5F5F5F5F5F5F5E2F5F5F5F5F5F5F5F5F5F5F5F5F5F5F5F5F5F5F5F5F5F5F5F5F5F5F5F5F5F5F5F5F5F5F5F5F5F5F5F5F5F5F5F5F5F5F5F5F5F5F5F5F5F5F5F5F5F5F5F5F5F5F5F5F5F5F5F5F5F5F5F5F5F5F5F5F5F5F5F5F5F5F5F5F5F5F5F5F5F5F5F5F5F5F5F5F5F5E2F5E2E2E2F5
310
E2F5F5F5F5F5F5F5F5F5F5F5F5F5F5F5F5F5F5F5F5F5F5F5F5F5F5F5F5F5F5F5F5F5F5F5F5F5F5F5F5F5F5F5F5F5F5F5F5F5F5F5F5F5F5F5F5F5F5F5F5F5F5F5F5F5F5F5F5F5F5F5F5F5F5E2F5F5F5F5F5F5F5F5F5F5F5F5F5E2F5F5F5F5F5F5F5F5F5F5F5F5F5F5F5F5F5F5F5F5F5F5F5F5F5F5F5F5F5F5F5F5F5F5F5F5F5
310
F5F5F5F5F5F5F5F5F5F5F5F5E2F5F5F5F5F5F5F5F5F5F5F5F5F5F5F5F5F5F5F5F5F5F5F5F5F5F5F5F5F5F5F5F5F5F5E2F5E2E2E2F5E2F5F5F5F5F5F5F5F5F5F5F5F5F5F5F5F5F5F5F5F5F5F5F5F5F5F5F5F5F5F5F5F5F5F5F5F5F5F5F5F5F5F5F5F5F5F5F5F5F5F5F5F5F5F5F5F5F5F5F5F5F5F5F5F5F5F5F5F5F5F5F5F5F5
310
F5E2F5F5F5F5F5F5F5F5F5F5F5F5F5E2F5F5F5F5F5F5F5F5F5F5F5F5F5F5F5F5F5F5F5F5F5F5F5F5F5F5F5F5F5F5F5F5F5F5F5F5F5F5F5F5F5F5F5F5F5F5F5F5F5E2F5F5F5F5F5F5F5F5F5F5F5F5F5F5F5F5F5F5F5F5F5F5F5F5F5F5F5F5F5F5F5F5F5F5E2F5E2E2E2F5E2F5F5F5F5F5F5F5F5F5F5F5F5F5F5F5F5F5F5F5F5
310
F5F5F5F5F5F5F5F5F5F5F5F5F5F5F5F5F5F5F5F5F5F5F5F5F5F5F5F5F5F5F5F5F5F5F5F5F5F5F5F5F5F5F5F5F5F5F5F5F5F5F5F5F5F5E2F5F5F5F5F5F5F5F5F5F5F5F5F5E2F5F5F5F5F5F5F5F5F5F5F5F5F5F5F5F5F5F5F5F5F5F5F5F5F5F5F5F5F5F5F5F5F5F5F5F5F5F5F5F5F5F5F5F5F5F5F5F5F5E2F5F5F5F5F5F5F5F5
310
F5F5F5F5F5F5F5F5F5F5F5F5F5F5F5F5F5F5F5F5F5F5F5F5F5F5E2F5E2E2E2F5E2F5F5F5F5F5F5F5F5F5F5F5F5F5F5F5F5F5F5F5F5F5F5F5F5F5F5F5F5F5F5F5F5F5F5F5F5F5F5F5F5F5F5F5F5F5F5F5F5F5F5F5F5F5F5F5F5F5F5F5F5F5F5F5F5F5F5F5F5F5F5F5F5F5F5E2F5F5F5F5F5F5F5F5F5F5F5F5F5E2F5F5F5F5F5
310
F5F5F5F5F5F5F5F5F5F5F5F5F5F5F5F5F5F5F5F5F5F5F5F5F5F5F5F5F5F5F5F5F5F5F5F5F5F5F5F5F5F5F5F5E2F5F5F5F5F5F5F5F5F5F5F5F5F5F5F5F5F5F5F5F5F5F5F5F5F5F5F5F5F5F5F5F5F5F5E2F5E2E2E2F5E2F5F5F5F5F5F5F5F5F5F5F5F5F5F5F5F5F5F5F5F5F5F5F5F5F5F5F5F5F5F5F5F5F5F5F5F5F5F5F5F5F5
310
F5F5F5F5F5F5F5F5F5F5F5F5F5F5F5F5F5F5F5F5F5F5F5F5F5F5F5F5F5F5F5F5F5E2F5F5F5F5F5F5F5F5F5F5F5F5F5E2F5F5F5F5F5F5F5F5F5F5F5F5F5F5F5F5F5F5F5F5F5F5F5F5F5F5F5F5F5F5F5F5F5F5F5F5F5F5F5F5F5F5F5F5F5F5F5F5F5E2F5F5F5F5F5F5F5F5F5F5F5F5F5F5F5F5F5F5F5F5F5F5F5F5F5F5F5F5F5
310
F5F5F5F5F5E2F5E2E2E2F5E2F5F5F5F5F5F5F5F5F5F5F5F5F5F5F5F5F5F5F5F5F5F5F5F5F5F5F5F5F5F5F5F5F5F5F5F5F5F5F5F5F5F5F5F5F5F5F5F5F5F5F5F5F5F5F5F5F5F5F5F5F5F5F5F5F5F5F5F5F5F5F5F5F5F5E2F5F5F5F5F5F5F5F5F5F5F5F5F5E2F5F5F5F5F5F5F5F5F5F5F5F5F5F5F5F5F5F5F5F5F5F5F5F5F5F5
310
F5F5F5F5F5F5F5F5F5F5F5F5F5F5F5F5F5F5F5F5F5F5F5E2F5F5F5F5F5F5F5F5F5F5F5F5F5F5F5F5F5F5F5F5F5F5F5F5F5F5F5F5F5F5F5F5F5F5E2F5E2E2E2F5E2F5F5F5F5F5F5F5F5F5F5F5F5F5F5F5F5F5F5F5F5F5F5F5F5F5F5F5F5F5F5F5F5F5F5F5F5F5F5F5F5F5F5F5F5F5F5F5F5F5F5F5F5F5F5F5F5F5F5F5F5F5F5
310
F5F5F5F5F5F5F5F5F5F5F5F5E2F5F5F5F5F5F5F5F5F5F5F5F5F5E2F5F5F5F5F5F5F5F5F5F5F5F5F5F5F5F5F5F5F5F5F5F5F5F5F5F5F5F5F5F5F5F5F5F5F5F5F5F5F5F5F5F5F5F5F5F5F5F5F5E2F5F5F5F5F5F5F5F5F5F5F5F5F5F5F5F5F5F5F5F5F5F5F5F5F5F5F5F5F5F5F5F5F5F5E2F5E2E2E2F5E2F5F5F5F5F5F5F5F5F5
310
F5F5F5F5F5F5F5F5F5F5F5F5F5F5F5F5F5F5F5F5F5F5F5F5F5F5F5F5F5F5F5F5F5F5F5F5F5F5F5F5F5F5F5F5F5F5F5F5F5F5F5F5F5F5F5F5F5F5F5F5F5F5F5F5F5E2F5F5F5F5F5F5F5F5F5F5F5F5F5F5F5F5F5F5F5F5F5F5F5F5F5F5F5F5F5F5F5F5F5F5E2E2F5F5F5F5F5E2F5F5F5F5F5F5F5F5F5F5F5F5F5F5F5F5F5F5F5
310
F5F5F5F5F5F5F5F5F5F5F5F5F5F5F5F5F5F5F5F5F5F5F5F5F5F5F5F5F5F5F5F5F5F5F5F5F5E2F5E2E2E2F5E2F5F5F5F5F5F5F5F5F5F5F5F5F5F5F5F5F5F5F5F5F5F5F5F5F5F5F5F5F5F5F5F5F5F5F5F5F5F5F5F5F5F5F5F5F5F5F5F5F5F5F5F5F5F5F5F5F5F5F5F5F5F5F5F5F5F5F5F5F5F5F5F5F5F5E2F5F5F5F5F5F5F5F5
310
F5F5F5F5F5F5F5F5F5F5F5F5F5F5F5F5F5F5F5F5F5F5F5F5F5F5E2E2E2E2E2E2E2E2F5F5F5F5F5F5F5F5F5F5F5F5F5F5F5F5F5F5F5F5F5F5F5F5F5F5F5F5F5F5F5F5F5F5F5F5F5F5F5F5F5F5F5F5F5F5F5F5F5F5F5F5F5F5F5F5E2F5E2E2E2F5E2F5F5F5F5F5F5F5F5F5F5F5F5F5F5F5F5F5F5F5F5F5F5F5F5F5F5F5F5F5F5
310
F5F5F5F5F5F5F5F5F5F5F5F5F5F5F5F5F5F5F5F5F5F5F5F5F5F5F5F5F5F5F5F5F5F5F5F5F5F5F5F5F5F5F5F5E2F5F5F5F5F5F5F5F5F5F5F5F5F5E2F5F5F5F5F5F5F5F5F5F5F5F5F5F5F5F5F5F5F5F5E2E2F5F5F5F5F5E2F5F5F5F5F5F5F5F5F5F5F5F5F5F5F5F5F5F5F5F5F5E2F5F5F5F5F5F5F5F5F5F5F5F5F5F5F5F5F5F5
310
F5F5F5F5F5F5F5F5F5F5F5F5F5F5F5F5E2F5E2E2E2F5E2F5F5F5F5F5F5F5F5F5F5F5F5F5F5F5F5F5F5F5F5F5F5F5F5F5F5F5F5F5F5F5F5F5F5F5F5F5F5F5F5F5F5F5F5F5F5F5F5F5F5F5F5F5F5F5F5F5F5F5F5F5F5F5F5F5F5F5F5F5F5F5F5F5F5E2F5F5F5F5F5F5F5F5F5F5F5F5F5E2F5F5F5F5F5F5F5F5F5F5F5F5F5F5F5
310
F5F5F5F5F5E2E2F5F5F5F5F5E2F5F5F5F5F5F5F5F5F5F5F5F5F5F5F5F5F5F5F5F5F5E2F5F5F5F5F5F5F5F5F5F5F5F5F5F5F5F5F5F5F5F5F5F5F5F5F5F5F5F5F5F5F5F5F5F5E2F5E2E2E2F5E2F5F5F5F5F5F5F5F5F5F5F5F5F5F5F5F5F5F5F5F5F5F5F5F5F5F5F5F5F5F5F5F5F5F5F5F5F5F5F5F5F5F5F5F5F5F5F5F5F5F5F5
310
F5F5F5F5F5F5F5F5F5F5F5F5F5F5F5F5F5F5F5F5F5F5F5E2F5F5F5F5F5F5F5F5F5F5F5F5F5E2F5F5F5F5F5F5F5F5F5F5F5F5F5F5F5F5F5F5F5F5E2E2E2E2E2E2E2E2F5F5F5F5F5F5F5F5F5F5F5F5F5F5F5F5F5F5F5F5F5E2F5F5F5F5F5F5F5F5F5F5F5F5F5F5F5F5F5F5F5F5F5F5F5F5F5F5F5F5F5F5F5F5F5F5E2F5E2E2E2
310
F5E2F5F5F5F5F5F5F5F5F5F5F5F5F5F5F5F5F5F5F5F5F5F5F5F5F5F5F5F5F5F5F5F5F5F5F5F5F5F5F5F5F5F5F5F5F5F5F5F5F5F5F5F5F5F5F5F5F5F5F5F5F5F5F5F5F5F5F5F5F5F5F5F5F5F5E2F5F5F5F5F5F5F5F5F5F5F5F5F5E2F5F5F5F5F5F5F5F5F5F5F5F5F5F5F5F5F5F5F5F5E2E2F5F5F5F5F5E2F5F5F5F5F5F5F5F5
310
F5F5F5F5F5F5F5F5F5F5F5F5F5E2F5F5F5F5F5F5F5F5F5F5F5F5F5F5F5F5F5F5F5F5F5F5F5F5F5F5F5F5F5F5F5F5F5F5E2F5E2E2E2F5E2F5F5F5F5F5F5F5F5F5F5F5F5F5F5F5F5F5F5F5F5F5F5F5F5F5F5F5F5F5F5F5F5F5F5F5F5F5F5F5F5F5F5F5F5F5F5F5F5F5F5F5F5F5F5F5F5F5F5F5F5F5F5F5F5F5F5F5F5F5F5F5F5
310
F5F5E2F5F5F5F5F5F5F5F5F5F5F5F5F5E2F5F5F5F5F5F5F5F5F5F5F5F5F5F5F5F5F5F5F5F5E2E2F5F5F5F5F5E2F5F5F5F5F5F5F5F5F5F5F5F5F5F5F5F5F5F5F5F5F5E2F5F5F5F5F5F5F5F5F5F5F5F5F5F5F5F5F5F5F5F5F5F5F5F5F5F5F5F5F5F5F5F5F5F5E2F5E2E2E2F5E2F5F5F5F5F5F5F5F5F5F5F5F5F5F5F5F5F5F5F5
310
F5F5F5F5F5F5F5F5F5F5F5F5F5F5F5F5F5F5F5F5F5F5F5F5F5F5F5F5F5F5F5F5F5F5F5F5F5F5F5F5F5F5F5F5F5F5F5F5F5F5F5F5F5F5F5E2F5F5F5F5F5F5F5F5F5F5F5F5F5E2F5F5F5F5F5F5F5F5F5F5F5F5F5F5F5F5F5F5F5F5E2E2F5F5F5F5F5E2F5F5F5F5F5F5F5F5F5F5F5F5F5F5F5F5F5F5F5F5F5E2F5F5F5F5F5F5F5
310
F5F5F5F5F5F5F5F5F5F5F5F5F5F5F5F5F5F5F5F5F5F5F5F5F5F5F5E2F5E2E2E2F5E2F5F5F5F5F5F5F5F5F5F5F5F5F5F5F5F5F5F5F5F5F5F5F5F5F5F5F5F5F5F5F5F5F5F5F5F5F5F5F5F5F5F5F5F5F5F5F5F5F5F5F5F5F5F5F5F5F5F5F5F5F5F5F5F5F5F5F5F5F5F5F5F5F5F5E2F5F5F5F5F5F5F5F5F5F5F5F5F5E2F5F5F5F5
310
F5F5F5F5F5F5F5F5F5F5F5F5F5F5F5F5E2E2F5F5F5F5F5E2F5F5F5F5F5F5F5F5F5F5F5F5F5F5F5F5F5F5F5F5F5E2F5F5F5F5F5F5F5F5F5F5F5F5F5F5F5F5F5F5F5F5F5F5F5F5F5F5F5F5F5F5F5F5F5F5E2F5E2E2E2F5E2F5F5F5F5F5F5F5F5F5F5F5F5F5F5F5F5F5F5F5F5F5F5F5F5F5F5F5F5F5F5F5F5F5F5F5F5F5F5F5F5
310
F5F5F5F5F5F5F5F5F5F5F5F5F5F5F5F5F5F5F5F5F5F5F5F5F5F5F5F5F5F5F5F5F5F5E2F5F5F5F5F5F5F5F5F5F5F5F5F5F5F5F5F5F5F5F5F5F5F5F5F5F5F5F5F5F5F5F5F5F5E2E2F5F5F5F5F5E2F5F5F5F5F5F5F5F5F5F5F5F5F5F5F5F5F5F5F5F5F5F5F5F5F5F5F5F5F5F5F5F5F5F5F5F5F5F5F5F5F5F5F5F5F5F5F5F5F5F5
310
F5F5F5F5F5F5E2F5E2E2E2F5E2F5F5F5F5F5F5F5F5F5F5F5F5F5F5F5F5F5F5F5F5F5F5F5F5F5F5F5F5F5F5F5F5F5F5F5F5F5F5F5F5F5F5F5F5F5F5F5F5F5F5F5F5F5F5F5F5F5F5F5F5F5F5F5F5F5F5F5F5F5F5F5F5F5F5E2F5F5F5F5F5F5F5F5F5F5F5F5F5F5F5F5F5F5F5F5F5F5F5F5F5F5F5F5F5F5F5F5F5F5E2E2F5F5F5
310
F5F5E2F5F5F5F5F5F5F5F5F5F5F5F5F5F5F5F5F5F5F5F5F5F5F5F5F5F5F5F5F5F5F5F5F5F5F5F5F5F5F5F5F5F5F5F5F5F5F5F5F5F5F5F5F5F5F5F5E2F5E2E2E2F5E2F5F5F5F5F5F5F5F5F5F5F5F5F5F5F5F5F5F5F5F5F5F5F5F5F5F5F5F5F5F5F5F5F5F5F5F5F5F5F5F5F5F5F5F5F5F5F5F5F5F5F5F5F5F5F5F5F5F5F5F5F5
310
F5F5F5F5F5F5F5F5F5F5F5F5F5E2F5F5F5F5F5F5F5F5F5F5F5F5F5E2F5F5F5F5F5F5F5F5F5F5F5F5F5F5F5F5F5F5F5F5E2E2F5F5F5F5F5E2F5F5F5F5F5F5F5F5F5F5F5F5F5F5F5F5F5F5F5F5F5E2F5F5F5F5F5F5F5F5F5F5F5F5F5F5F5F5F5F5F5F5F5F5F5F5F5F5F5F5F5F5F5F5F5F5E2F5E2E2E2F5E2F5F5F5F5F5F5F5F5
310
F5F5F5F5F5F5F5F5F5F5F5F5F5F5F5F5F5F5F5F5F5F5F5F5F5F5F5F5F5F5F5F5F5F5F5F5F5F5F5F5F5F5F5F5F5F5F5F5F5F5F5F5F5F5F5F5F5F5F5F5F5F5F5F5F5F5E2F5F5F5F5F5F5F5F5F5F5F5F5F5E2F5F5F5F5F5F5F5F5F5F5F5F5F5F5F5F5F5F5F5F5E2E2F5F5F5F5F5E2F5F5F5F5F5F5F5F5F5F5F5F5F5F5F5F5F5F5
310
F5F5F5E2F5F5F5F5F5F5F5F5F5F5F5F5F5F5F5F5F5F5F5F5F5F5F5F5F5F5F5F5F5F5F5F5F5F5E2F5E2E2E2F5E2F5F5F5F5F5F5F5F5F5F5F5F5F5F5F5F5F5F5F5F5F5F5F5F5F5F5F5F5F5F5F5F5F5F5F5F5F5F5F5F5F5F5F5F5F5F5F5F5F5F5F5F5F5F5F5F5F5F5F5F5F5F5F5F5F5F5F5F5F5F5F5F5F5F5E2F5F5F5F5F5F5F5
310
F5F5F5F5F5F5E2F5F5F5F5F5F5F5F5F5F5F5F5F5F5F5F5F5F5F5F5E2E2F5F5F5F5F5E2F5F5F5F5F5F5F5F5F5F5F5F5F5F5F5F5F5F5F5F5F5E2F5F5F5F5F5F5F5F5F5F5F5F5F5F5F5F5F5F5F5F5F5F5F5F5F5F5F5F5F5F5F5F5F5F5E2F5E2E2E2F5E2F5F5F5F5F5F5F5F5F5F5F5F5F5F5F5F5F5F5F5F5F5F5F5F5F5F5F5F5F5
310
F5F5F5F5F5F5F5F5F5F5F5F5F5F5F5F5F5F5F5F5F5F5F5F5F5F5F5F5F5F5F5F5F5F5F5F5F5F5F5F5F5F5F5F5F5E2F5F5F5F5F5F5F5F5F5F5F5F5F5E2F5F5F5F5F5F5F5F5F5F5F5F5F5F5F5F5F5F5F5F5E2E2F5F5F5F5F5E2F5F5F5F5F5F5F5F5F5F5F5F5F5F5F5F5F5F5F5F5F5E2F5F5F5F5F5F5F5F5F5F5F5F5F5F5F5F5F5
310
F5F5F5F5F5F5F5F5F5F5F5F5F5F5F5F5F5E2F5E2E2E2F5E2F5F5F5F5F5F5F5F5F5F5F5F5F5F5F5F5F5F5F5F5F5F5F5F5F5F5F5F5F5F5F5F5F5F5F5F5F5F5F5F5F5F5F5F5F5F5F5F5F5F5F5F5F5F5F5F5F5F5F5F5F5F5F5F5F5F5F5F5F5F5F5F5F5F5E2F5F5F5F5F5F5F5F5F5F5F5F5F5E2F5F5F5F5F5F5F5F5F5F5F5F5F5F5
310
F5F5F5F5F5F5E2E2F5F5F5F5F5E2F5F5F5F5F5F5F5F5F5F5F5F5F5F5F5F5F5F5F5F5F5E2F5F5F5F5F5F5F5F5F5F5F5F5F5F5F5F5F5F5F5F5F5F5F5F5F5F5F5F5F5F5F5F5F5F5E2F5E2E2E2F5E2F5F5F5F5F5F5F5F5F5F5F5F5F5F5F5F5F5F5F5F5F5F5F5F5F5F5F5F5F5F5F5F5F5F5F5F5F5F5F5F5F5F5F5F5F5F5F5F5F5F5
310
F5F5F5F5F5F5F5F5F5F5F5F5F5F5F5F5F5F5F5F5E2E2E2F5E2F5F5F5F5F5F5F5F5F5F5F5F5F5E2F5F5F5F5F5F5F5F5F5F5F5F5F5F5F5F5F5F5F5F5E2E2F5F5F5F5F5E2F5F5F5F5F5F5F5F5F5F5F5F5F5F5F5F5F5F5F5F5F5E2F5F5F5F5F5F5F5F5F5F5F5F5F5F5F5F5F5F5F5F5F5F5F5F5F5F5F5F5F5F5F5F5F5F5E2F5E2E2
310
E2F5E2F5F5F5F5F5F5F5F5F5F5F5F5F5F5F5F5F5F5F5F5F5F5F5F5F5F5F5F5F5F5F5F5F5F5F5F5F5F5F5F5F5F5F5F5F5F5F5F5F5F5F5F5F5F5F5F5F5F5F5F5F5F5F5F5F5F5F5F5F5F5E2E2E2F5E2F5F5F5F5F5F5F5F5F5F5F5F5F5E2F5F5F5F5F5F5F5F5F5F5F5F5F5F5F5F5F5F5F5F5E2E2F5F5F5F5F5E2F5F5F5F5F5F5F5
310
F5F5F5F5F5F5F5F5F5F5F5F5F5F5E2F5F5F5F5F5F5F5F5F5F5F5F5F5F5F5F5F5F5F5F5F5F5F5F5F5F5F5F5F5F5F5F5F5F5E2F5E2E2E2F5E2F5F5F5F5F5F5F5F5F5F5F5F5F5F5F5F5F5F5F5F5F5F5F5F5F5F5F5F5F5F5F5F5F5F5F5F5F5F5F5F5F5F5F5F5F5F5F5F5F5F5F5F5F5F5F5F5F5F5F5F5F5F5F5F5F5F5F5F5F5F5E2
310
E2E2F5E2F5F5F5F5F5F5F5F5F5F5F5F5F5F5F5F5F5F5F5F5F5F5F5F5F5F5F5F5F5F5F5F5F5F5E2E2F5F5F5F5F5E2F5F5F5F5F5F5F5F5F5F5F5F5F5F5F5F5F5F5F5F5F5F5F5F5F5F5F5F5F5F5F5F5F5F5F5F5F5F5F5F5F5F5F5F5F5F5F5F5F5F5F5F5F5F5F5F5E2F5E2E2E2F5E2F5F5F5F5F5F5F5F5F5F5F5F5F5F5F5F5F5F5
310
F5F5F5F5F5F5F5F5F5F5F5F5F5F5F5F5F5F5F5F5F5F5F5F5F5F5F5F5F5F5F5F5F5F5F5F5F5F5F5F5F5F5F5F5F5F5F5F5F5F5F5F5E2E2E2F5E2F5F5F5F5F5F5F5F5F5F5F5F5F5F5F5F5F5F5F5F5F5F5F5F5F5F5F5F5F5F5F5F5F5F5E2E2F5F5F5F5F5E2F5F5F5F5F5F5F5F5F5F5F5F5F5F5F5F5F5F5F5F5F5F5F5F5F5F5F5F5
310
F5F5F5F5F5F5F5F5F5F5F5F5F5F5F5F5F5F5F5F5F5F5F5F5F5F5F5F5E2F5E2E2E2F5E2F5F5F5F5F5F5F5F5F5F5F5F5F5F5F5F5F5F5F5F5F5F5F5F5F5F5F5F5F5F5F5F5F5F5F5F5F5F5F5F5F5F5F5F5F5F5F5F5F5F5F5F5F5F5F5F5F5F5F5F5F5F5F5F5F5F5F5F5F5F5E2E2E2F5E2F5F5F5F5F5F5F5F5F5F5F5F5F5E2F5F5F5
310
F5F5F5F5F5F5F5F5F5F5F5F5F5F5F5F5F5E2E2F5F5F5F5F5E2F5F5F5F5F5F5F5F5F5F5F5F5F5F5F5F5F5F5F5F5F5E2F5F5F5F5F5F5F5F5F5F5F5F5F5F5F5F5F5F5F5F5F5F5F5F5F5F5F5F5F5F5F5F5F5F5E2F5E2E2E2F5E2F5F5F5F5F5F5F5F5F5F5F5F5F5F5F5F5F5F5F5F5F5F5F5F5F5F5F5F5F5F5F5F5F5F5F5F5F5F5F5
310
F5F5F5F5F5F5F5F5F5F5F5F5F5F5F5F5F5F5F5F5F5F5F5F5F5F5F5F5F5F5F5E2E2E2F5E2F5F5F5F5F5F5F5F5F5F5F5F5F5E2F5F5F5F5F5F5F5F5F5F5F5F5F5F5F5F5F5F5F5F5E2E2F5F5F5F5F5E2F5F5F5F5F5F5F5F5F5F5F5F5F5F5F5F5F5F5F5F5F5E2F5F5F5F5F5F5F5F5F5F5F5F5F5F5F5F5F5F5F5F5F5F5F5F5F5F5F5
310
F5F5F5F5F5F5F5E2F5E2E2E2F5E2F5F5F5F5F5F5F5F5F5F5F5F5F5F5F5F5F5F5F5F5F5F5F5F5F5F5F5F5F5F5F5F5F5F5F5F5F5F5F5F5F5F5F5F5F5F5F5F5F5F5F5F5F5F5F5F5F5F5F5F5F5F5F5F5F5F5F5F5F5F5F5F5F5F5E2F5F5F5F5F5F5F5F5F5F5F5F5F5E2F5F5F5F5F5F5F5F5F5F5F5F5F5F5F5F5F5F5F5F5E2E2E2E2
310
E2E2E2E2F5F5F5F5F5F5F5F5F5F5F5F5F5F5F5F5F5F5F5F5F5E2F5F5F5F5F5F5F5F5F5F5F5F5F5F5F5F5F5F5F5F5F5F5F5F5F5F5F5F5F5F5F5F5F5F5E2F5E2E2E2F5E2F5F5F5F5F5F5F5F5F5F5F5F5F5F5F5F5F5F5F5F5F5F5F5F5F5F5F5F5F5F5F5F5F5F5F5F5F5F5F5F5F5F5F5F5F5F5F5F5F5F5F5F5F5F5F5F5F5F5F5F5
310
F5F5F5F5F5F5F5F5F5F5F5F5F5F5E2F5F5F5F5F5F5F5F5F5F5F5F5F5E2F5F5F5F5F5F5F5F5F5F5F5F5F5F5F5F5F5F5F5F5E2E2F5F5F5F5F5E2F5F5F5F5F5F5F5F5F5F5F5F5F5F5F5F5F5F5F5F5F5E2F5F5F5F5F5F5F5F5F5F5F5F5F5F5F5F5F5F5F5F5F5F5F5F5F5F5F5F5F5F5F5F5F5F5E2F5E2E2E2F5E2F5F5F5F5F5F5F5
310
F5F5F5F5F5F5F5F5F5F5F5F5F5F5F5F5F5F5F5F5F5F5F5F5F5F5F5F5F5F5F5F5F5F5F5F5F5F5F5F5F5F5F5F5F5F5F5F5F5F5F5F5F5F5F5F5F5F5F5F5F5F5F5F5F5F5F5E2F5F5F5F5F5F5F5F5F5F5F5F5F5E2F5F5F5F5F5F5F5F5F5F5F5F5F5F5F5F5F5E2E2E2E2E2E2E2E2E2E2E2E2E2E2F5F5F5F5F5F5F5F5F5F5F5F5F5F5
310
F5F5F5F5E2F5F5F5F5F5F5F5F5F5F5F5F5F5F5F5F5F5F5F5F5F5F5F5F5F5F5F5F5F5F5F5F5F5F5E2F5E2E2E2F5E2F5F5F5F5F5F5F5F5F5F5F5F5F5F5F5F5F5F5F5F5F5F5F5F5F5F5F5F5F5F5F5F5F5F5F5F5F5F5F5F5F5F5F5F5F5F5F5F5F5F5F5F5F5F5F5F5F5F5F5F5F5F5F5F5F5F5F5F5F5F5F5F5F5F5E2F5F5F5F5F5F5
310
F5F5F5F5F5F5F5E2F5F5F5F5F5F5F5F5F5F5F5F5F5F5F5F5F5E2E2E2E2E2E2E2E2E2E2E2F5E2E2F5F5F5F5F5F5F5F5F5F5F5F5F5F5F5F5F5F5E2F5F5F5F5F5F5F5F5F5F5F5F5F5F5F5F5F5F5F5F5F5F5F5F5F5F5F5F5F5F5F5F5F5F5E2F5E2E2E2F5E2F5F5F5F5F5F5F5F5F5F5F5F5F5F5F5F5F5F5F5F5F5F5F5F5F5F5F5F5
310
F5F5F5F5F5F5F5F5F5F5F5F5F5F5F5F5F5F5F5F5F5F5F5F5F5F5F5F5F5F5F5F5F5F5F5F5F5F5F5F5F5F5F5F5F5F5E2F5F5F5F5F5F5F5F5F5F5F5F5F5E2F5F5F5F5F5F5F5F5F5F5F5F5F5F5F5F5F5E2E2E2E2E2E2E2E2E2E2E2F5E2E2F5F5F5F5F5F5F5F5F5F5F5F5F5F5F5F5F5F5E2F5F5F5F5F5F5F5F5F5F5F5F5F5F5F5F5
310
F5F5F5F5F5F5F5F5F5F5F5F5F5F5F5F5F5F5E2F5E2E2E2F5E2F5F5F5F5F5F5F5F5F5F5F5F5F5F5F5F5F5F5F5F5F5F5F5F5F5F5F5F5F5F5F5F5F5F5F5F5F5F5F5F5F5F5F5F5F5F5F5F5F5F5F5F5F5F5F5F5F5F5F5F5F5F5F5F5F5F5F5F5F5F5F5F5F5F5E2F5F5F5F5F5F5F5F5F5F5F5F5F5E2F5F5F5F5F5F5F5F5F5F5F5F5F5
310
F5F5F5F5E2E2E2E2E2E2E2E2E2E2E2F5E2E2F5F5F5F5F5F5F5F5F5F5F5F5F5F5F5F5F5F5E2F5F5F5F5F5F5F5F5F5F5F5F5F5F5F5F5F5F5F5F5F5F5F5F5F5F5F5F5F5F5F5F5F5F5E2F5E2E2E2F5E2F5F5F5F5F5F5F5F5F5F5F5F5F5F5F5F5F5F5F5F5F5F5F5F5F5F5F5F5F5F5F5F5F5F5F5F5F5F5F5F5F5F5F5F5F5F5F5F5F5
310
F5F5F5F5F5F5F5F5F5F5F5F5F5F5F5F5F5F5F5F5F5F5F5F5F5E2F5F5F5F5F5F5F5F5F5F5F5F5F5F5F5F5F5F5F5F5F5F5F5F5F5F5F5F5F5F5F5E2F5E2E2E2F5F5F5F5E2E2F5E2E2F5F5F5F5F5F5F5F5F5F5F5F5F5F5F5F5F5F5F5F5F5F5F5F5F5F5F5F5F5F5F5F5F5F5F5F5F5F5F5F5F5F5F5F5F5F5F5F5F5F5F5F5F5E2F5E2
310
E2E2F5E2F5F5F5F5F5F5F5F5F5F5F5F5F5F5F5F5F5F5F5F5F5F5F5F5F5F5F5F5F5F5F5F5F5F5F5F5F5F5F5F5F5F5F5F5F5F5F5F5F5F5F5F5F5F5F5F5F5F5F5F5F5F5F5F5F5F5F5F5F5F5F5F5F5F5E2F5F5F5F5F5F5F5F5F5F5F5F5F5F5F5F5F5F5F5F5F5F5F5F5F5F5F5F5F5F5F5E2E2E2E2E2E2E2E2E2E2E2F5E2E2F5F5F5
310
F5F5F5F5F5F5F5F5F5F5F5F5F5F5F5F5F5F5F5F5F5F5F5F5F5F5F5F5F5F5F5F5F5F5F5F5F5F5F5F5F5F5F5F5F5F5F5F5F5F5E2F5E2E2E2F5E2F5F5F5F5F5F5F5F5F5F5F5F5F5F5F5F5F5F5F5F5F5F5F5F5F5F5F5F5F5F5F5F5F5F5F5F5F5F5F5F5F5F5F5F5F5F5F5F5F5F5F5F5F5F5F5F5F5F5F5F5F5F5F5F5F5F5F5F5F5F5
310
F5F5F5F5E2F5F5F5F5F5F5F5F5F5F5F5F5F5E2F5F5F5F5F5F5F5F5F5F5F5F5F5F5F5F5F5E2E2E2E2E2E2E2E2E2E2E2F5E2E2F5F5F5F5F5F5F5F5F5F5F5F5F5F5F5F5F5F5E2F5F5F5F5F5F5F5F5F5F5F5F5F5F5F5F5F5F5F5F5F5F5F5F5F5F5F5F5F5F5F5F5F5F5E2F5E2E2E2F5E2F5F5F5F5F5F5F5F5F5F5F5F5F5F5F5F5F5
310
F5F5F5F5F5F5F5F5F5F5F5F5F5F5F5F5F5F5F5F5F5F5F5F5F5F5F5F5F5F5F5F5F5F5F5F5F5F5F5F5F5F5F5F5F5F5F5F5F5F5F5F5F5F5F5F5F5E2F5F5F5F5F5F5F5F5F5F5F5F5F5E2F5F5F5F5F5F5F5F5F5F5F5F5F5F5F5F5F5E2F5E2E2E2F5F5F5F5E2E2F5E2E2F5F5F5F5F5F5F5F5F5F5F5F5F5F5F5F5F5F5E2F5F5F5F5F5
310
F5F5F5F5F5F5F5F5F5F5F5F5F5F5F5F5F5F5F5F5F5F5F5F5F5F5F5F5F5E2F5E2E2E2F5E2F5F5F5F5F5F5F5F5F5F5F5F5F5F5F5F5F5F5F5F5F5F5F5F5F5F5F5F5F5F5F5F5F5F5F5F5F5F5F5F5F5F5F5F5F5F5F5F5F5F5F5F5F5F5F5F5F5F5F5F5F5F5F5F5F5F5F5F5F5F5F5F5F5F5E2F5F5F5F5F5F5F5F5F5F5F5F5F5E2F5F5
310
F5F5F5F5F5F5F5F5F5F5F5F5F5F5F5E2E2E2E2E2E2E2E2E2E2E2F5E2E2F5F5F5F5F5F5F5F5F5F5F5F5F5F5F5F5F5F5E2F5F5F5F5F5F5F5F5F5F5F5F5F5F5F5F5F5F5F5F5F5F5F5F5F5F5F5F5F5F5F5F5F5F5E2F5E2E2E2F5E2F5F5F5F5F5F5F5F5F5F5F5F5F5F5F5F5F5F5F5F5F5F5F5F5F5F5F5F5F5F5F5F5F5F5F5F5F5F5
310
F5F5F5F5F5F5F5F5F5F5F5F5F5F5F5F5F5F5F5F5F5F5F5F5F5F5F5F5F5F5F5F5F5F5F5F5E2F5F5F5F5F5F5F5F5F5F5F5F5F5E2F5F5F5F5F5F5F5F5F5F5F5F5F5F5F5F5F5E2E2E2E2E2E2E2E2E2E2E2F5E2E2F5F5F5F5F5F5F5F5F5F5F5F5F5F5F5F5F5F5E2F5F5F5F5F5F5F5F5F5F5F5F5F5F5F5F5F5F5F5F5F5F5F5F5F5F5
310
F5F5F5F5F5F5F5F5E2F5E2E2E2F5E2F5F5F5F5F5F5F5F5F5F5F5F5F5F5F5F5F5F5F5F5F5F5F5F5F5F5F5F5F5F5F5F5F5F5F5F5F5F5F5F5F5F5F5F5F5F5F5F5F5F5F5F5F5F5F5F5F5F5F5F5F5F5F5F5F5F5F5F5F5F5F5F5F5F5E2F5F5F5F5F5F5F5F5F5F5F5F5F5E2F5F5F5F5F5F5F5F5F5F5F5F5F5F5F5F5F5F5F5E2E2E2E2
310
E2E2E2E2E2F5E2F5F5F5F5F5F5F5F5F5F5F5F5F5F5F5F5F5F5F5E2F5F5F5F5F5F5F5F5F5F5F5F5F5F5F5F5F5F5F5F5F5F5F5F5F5F5F5F5F5F5F5F5F5F5E2F5E2E2E2F5E2F5F5F5F5F5F5F5F5F5F5F5F5F5F5F5F5F5F5F5F5F5F5F5F5F5F5F5F5F5F5F5F5F5F5F5F5F5F5F5F5F5F5F5F5F5F5F5F5F5F5F5F5F5F5F5F5F5F5F5
310
F5F5F5F5F5F5F5F5F5F5F5F5F5F5F5E2F5F5F5F5F5F5F5F5F5F5F5F5F5E2F5F5F5F5F5F5F5F5F5F5F5F5F5F5F5F5F5F5F5E2E2E2F5F5F5F5F5E2F5E2F5F5F5F5F5F5F5F5F5F5F5F5F5F5F5F5F5F5F5E2F5F5F5F5F5F5F5F5F5F5F5F5F5F5F5F5F5F5F5F5F5F5F5F5F5F5F5F5F5F5F5F5F5F5E2F5E2E2E2F5E2F5F5F5F5F5F5
310
F5F5F5F5F5F5F5F5F5F5F5F5F5F5F5F5F5F5F5F5F5F5F5F5F5F5F5F5F5F5F5F5F5F5F5F5F5F5F5F5F5F5F5F5F5F5F5F5F5F5F5F5F5F5F5F5F5F5F5F5F5F5F5F5F5F5F5F5E2F5F5F5F5F5F5F5F5F5F5F5F5F5E2F5F5F5F5F5F5F5F5F5F5F5F5F5F5F5F5F5F5F5E2E2F5F5F5F5F5F5E2F5E2F5F5F5F5F5F5F5F5F5F5F5F5F5F5
310
F5F5F5F5F5E2F5F5F5F5F5F5F5F5F5F5F5F5F5F5F5F5F5F5F5F5F5F5F5F5F5F5F5F5F5F5F5F5F5F5E2F5E2E2E2F5E2F5F5F5F5F5F5F5F5F5F5F5F5F5F5F5F5F5F5F5F5F5F5F5F5F5F5F5F5F5F5F5F5F5F5F5F5F5F5F5F5F5F5F5F5F5F5F5F5F5F5F5F5F5F5F5F5F5F5F5F5F5F5F5F5F5F5F5F5F5F5F5F5F5F5E2F5F5F5F5F5
310
F5F5F5F5F5F5F5F5F5F5F5F5F5F5F5F5F5F5F5F5F5F5F5F5F5F5F5F5E2E2E2E2E2E2E2E2E2F5E2F5F5F5F5F5F5F5F5F5F5F5F5F5F5F5F5F5F5F5F5F5F5F5F5F5F5F5F5F5F5F5F5F5F5F5F5F5F5F5F5F5F5F5F5F5F5F5F5F5F5F5F5F5F5E2F5E2E2E2F5E2F5F5F5F5F5F5F5F5F5F5F5F5F5F5F5F5F5F5F5F5F5F5F5F5F5F5F5
310
F5F5F5F5F5F5F5F5F5F5F5F5F5F5F5F5F5F5F5F5F5F5F5F5F5F5F5F5F5F5F5F5F5F5F5F5F5F5F5F5F5F5F5F5F5F5F5E2F5F5F5F5F5F5F5F5F5F5F5F5F5F5F5F5F5F5F5F5F5F5F5F5F5F5F5F5F5F5F5F5F5E2E2F5F5F5F5F5F5E2F5E2F5F5F5F5F5F5F5F5F5F5F5F5F5F5F5F5F5F5F5F5F5F5F5F5F5F5F5F5F5F5F5F5F5F5F5
310
F5F5F5F5F5F5F5F5F5F5F5F5F5F5F5F5F5F5F5E2F5E2E2E2F5E2F5F5F5F5F5F5F5F5F5F5F5F5F5F5F5F5F5F5F5F5F5F5F5F5F5F5F5F5F5F5F5F5F5F5F5F5F5F5F5F5F5F5F5F5F5F5F5F5F5F5F5F5F5F5F5F5F5F5F5F5F5F5F5F5F5F5F5F5F5F5F5F5F5F5E2F5F5F5F5F5F5F5F5F5F5F5F5F5E2F5F5F5F5F5F5F5F5F5F5F5F5
310
F5F5F5F5F5F5F5E2E2F5F5F5F5F5F5E2F5E2F5F5F5F5F5F5F5F5F5F5F5F5F5F5F5F5F5F5F5E2F5F5F5F5F5F5F5F5F5F5F5F5F5F5F5F5F5F5F5F5F5F5F5F5F5F5F5F5F5F5F5F5F5F5E2F5E2E2E2F5E2F5F5F5F5F5F5F5F5F5F5F5F5F5F5F5F5F5F5F5F5F5F5F5F5F5F5F5F5F5F5F5F5F5F5F5F5F5F5F5F5F5F5F5F5F5F5F5F5
310
F5F5F5F5F5F5F5F5F5F5F5F5F5F5F5F5F5F5F5F5F5F5F5F5F5F5E2F5F5F5F5F5F5F5F5F5F5F5F5F5E2F5F5F5F5F5F5F5F5F5F5F5F5F5F5F5F5F5F5F5E2E2E2E2E2E2E2E2E2F5E2F5F5F5F5F5F5F5F5F5F5F5F5F5F5F5F5F5F5F5E2F5F5F5F5F5F5F5F5F5F5F5F5F5F5F5F5F5F5F5F5F5F5F5F5F5F5F5F5F5F5F5F5F5F5E2F5
310
E2E2E2F5E2F5F5F5F5F5F5F5F5F5F5F5F5F5F5F5F5F5F5F5F5F5F5F5F5F5F5F5F5F5F5F5F5F5F5F5F5F5F5F5F5F5F5F5F5F5F5F5F5F5F5F5F5F5F5F5F5F5F5F5F5F5F5F5F5F5F5F5F5F5F5F5F5F5F5E2F5F5F5F5F5F5F5F5F5F5F5F5F5E2F5F5F5F5F5F5F5F5F5F5F5F5F5F5F5F5F5F5F5E2E2E2E2E2E2E2E2E2F5E2F5F5F5
310
F5F5F5F5F5F5F5F5F5F5F5F5F5F5F5F5E2F5F5F5F5F5F5F5F5F5F5F5F5F5F5F5F5F5F5F5F5F5F5F5F5F5F5F5F5F5F5F5F5F5F5E2F5E2E2E2F5E2F5F5F5F5F5F5F5F5F5F5F5F5F5F5F5F5F5F5F5F5F5F5F5F5F5F5F5F5F5F5F5F5F5F5F5F5F5F5F5F5F5F5F5F5F5F5F5F5F5F5F5F5F5F5F5F5F5F5F5F5F5F5F5F5F5F5F5F5F5
310
F5F5F5F5F5E2F5F5F5F5F5F5F5F5F5F5F5F5F5E2F5F5F5F5F5F5F5F5F5F5F5F5F5F5F5F5F5F5F5E2E2F5F5F5F5F5F5E2F5E2F5F5F5F5F5F5F5F5F5F5F5F5F5F5F5F5F5F5F5E2F5F5F5F5F5F5F5F5F5F5F5F5F5F5F5F5F5F5F5F5F5F5F5F5F5F5F5F5F5F5F5F5F5F5E2F5E2E2E2F5E2F5F5F5F5F5F5F5F5F5F5F5F5F5F5F5F5
310
F5F5F5F5F5F5F5F5F5F5F5F5F5F5F5F5F5F5F5F5F5F5F5F5F5F5F5F5F5F5F5F5F5F5F5F5F5F5F5F5F5F5F5F5F5F5F5F5F5F5F5F5F5F5F5F5F5F5E2F5F5F5F5F5F5F5F5F5F5F5F5F5E2F5F5F5F5F5F5F5F5F5F5F5F5F5F5F5F5F5F5F5E2E2F5F5F5F5F5F5E2F5E2F5F5F5F5F5F5F5F5F5F5F5F5F5F5F5F5F5F5F5E2F5F5F5F5
310
F5F5F5F5F5F5F5F5F5F5F5F5F5F5F5F5F5F5F5F5F5F5F5F5F5F5F5F5F5F5E2F5E2E2E2F5E2F5F5F5F5F5F5F5F5F5F5F5F5F5F5F5F5F5F5F5F5F5F5F5F5F5F5F5F5F5F5F5F5F5F5F5F5F5F5F5F5F5F5F5F5F5F5F5F5F5F5F5F5F5F5F5F5F5F5F5F5F5F5F5F5F5F5F5F5F5F5F5F5F5F5E2F5F5F5F5F5F5F5F5F5F5F5F5F5E2F5
310
F5F5F5F5F5F5F5F5F5F5F5F5F5F5F5F5F5F5E2E2F5F5F5F5F5F5E2F5E2F5F5F5F5F5F5F5F5F5F5F5F5F5F5F5F5F5F5F5E2F5F5F5F5F5F5F5F5F5F5F5F5F5F5F5F5F5F5F5F5F5F5F5F5F5F5F5F5F5F5F5F5F5F5E2F5E2E2E2F5E2F5F5F5F5F5F5F5F5F5F5F5F5F5F5F5F5F5F5F5F5F5F5F5F5F5F5F5F5F5F5F5F5F5F5F5F5F5
310
F5F5F5F5F5F5F5F5F5F5F5F5F5F5F5F5F5F5F5F5F5F5F5F5F5F5F5F5F5F5F5F5F5F5F5F5F5E2F5F5F5F5F5F5F5F5F5F5F5F5F5E2F5F5F5F5F5F5F5F5F5F5F5F5F5F5F5F5F5F5F5E2E2F5F5F5F5F5F5E2F5E2F5F5F5F5F5F5F5F5F5F5F5F5F5F5F5F5F5F5F5E2F5F5F5F5F5F5F5F5F5F5F5F5F5F5F5F5F5F5F5F5F5F5F5F5F5
310
F5F5F5F5F5F5F5F5F5E2F5E2E2E2F5E2F5F5F5F5F5F5F5F5F5F5F5F5F5F5F5F5F5F5F5F5F5F5F5F5F5F5F5F5F5F5F5F5F5F5F5F5F5F5F5F5F5F5F5F5F5F5F5F5F5F5F5F5F5F5F5F5F5F5F5F5F5F5F5F5F5F5F5F5F5F5F5F5F5F5E2F5F5F5F5F5F5F5F5F5F5F5F5F5F5F5F5F5F5F5F5F5F5F5F5F5F5F5F5F5F5F5F5F5E2E2F5
310
F5F5F5F5F5E2E2E2F5F5F5F5F5F5F5F5F5F5F5F5F5F5F5F5F5F5F5F5F5F5F5F5F5F5F5F5F5F5F5F5F5F5F5F5F5F5F5F5F5F5F5F5F5F5F5F5F5F5F5F5F5F5E2F5E2E2E2F5E2F5F5F5F5F5F5F5F5F5F5F5F5F5F5F5F5F5F5F5F5F5F5F5F5F5F5F5F5F5F5F5F5F5F5F5F5F5F5F5F5F5F5F5F5F5F5F5F5F5F5F5F5F5F5F5F5F5F5
310
F5F5F5F5F5F5F5F5F5F5F5F5F5F5F5F5E2F5F5F5F5F5F5F5F5F5F5F5F5F5F5F5F5F5F5F5F5F5F5F5F5F5F5F5F5F5F5F5F5F5F5F5F5F5F5F5F5F5F5F5F5F5F5F5F5F5F5F5F5F5F5F5F5F5F5F5F5F5F5F5F5F5F5F5F5F5F5F5F5F5F5F5F5F5F5F5F5F5F5F5F5F5F5F5F5F5F5F5F5F5F5F5F5F5F5E2F5E2E2E2F5E2F5F5F5F5F5
310
F5F5F5F5F5F5F5F5F5F5F5F5F5F5F5F5F5F5F5F5F5F5F5F5F5F5F5F5F5F5F5F5F5F5F5F5F5F5F5F5F5F5F5F5F5F5F5F5F5F5F5F5F5F5F5F5F5F5F5F5F5F5F5F5F5F5F5F5F5E2F5F5F5F5F5F5F5F5F5F5F5F5F5E2F5F5F5F5F5F5F5F5F5F5F5F5F5F5F5F5F5F5F5F5F5F5F5F5F5F5F5F5F5F5F5F5F5F5F5F5F5F5F5F5F5F5F5
310
F5F5F5F5F5F5E2F5F5F5F5F5F5F5F5F5F5F5F5F5F5F5F5F5F5F5F5F5F5F5F5F5F5F5F5F5F5F5F5F5F5E2F5E2E2E2F5E2F5F5F5F5F5F5F5F5F5F5F5F5F5F5F5F5F5F5F5F5F5F5F5F5F5F5F5F5F5F5F5F5F5F5F5F5F5F5F5F5F5F5F5F5F5F5F5F5F5F5F5F5F5F5F5F5F5F5F5F5F5F5F5F5F5F5F5F5F5F5F5F5F5F5E2F5F5F5F5
310
F5F5F5F5F5F5F5F5F5E2F5F5F5F5F5F5F5F5F5F5F5F5F5F5F5F5F5F5F5F5F5F5F5F5F5F5F5F5F5F5F5F5F5F5F5F5F5F5F5F5F5F5F5F5F5F5F5F5F5E2F5F5F5F5F5F5F5F5F5F5F5F5F5F5F5F5F5F5F5F5F5F5F5F5F5F5F5F5F5F5F5F5F5F5E2F5E2E2E2F5E2F5F5F5F5F5F5F5F5F5F5F5F5F5F5F5F5F5F5F5F5F5F5F5F5F5F5
310
F5F5F5F5F5F5F5F5F5F5F5F5F5F5F5F5F5F5F5F5F5F5F5F5F5F5F5F5F5F5F5F5F5F5F5F5F5F5F5F5F5F5F5F5F5F5F5F5E2F5F5F5F5F5F5F5F5F5F5F5F5F5E2F5F5F5F5F5F5F5F5F5F5F5F5F5F5F5F5F5F5F5F5F5F5F5F5F5F5F5F5F5F5F5F5F5F5F5F5F5F5F5F5F5F5F5F5F5F5F5F5F5E2F5F5F5F5F5F5F5F5F5F5F5F5F5F5
310
F5F5F5F5F5F5F5F5F5F5F5F5F5F5F5F5F5F5F5F5E2F5E2E2E2F5E2F5F5F5F5F5F5F5F5F5F5F5F5F5F5F5F5F5F5F5F5F5F5F5F5F5F5F5F5F5F5F5F5F5F5F5F5F5F5F5F5F5F5F5F5F5F5F5F5F5F5F5F5F5F5F5F5F5F5F5F5F5F5F5F5F5F5F5F5F5F5F5F5F5F5E2F5F5F5F5F5F5F5F5F5F5F5F5F5E2F5F5F5F5F5F5F5F5F5F5F5
310
F5F5F5F5F5F5F5F5F5F5F5F5F5F5F5F5F5F5F5F5F5F5F5F5F5F5F5F5F5F5F5F5F5F5F5F5F5F5E2F5F5F5F5F5F5F5F5F5F5F5F5F5F5F5F5F5F5F5F5F5F5F5F5F5F5F5F5F5F5F5F5F5F5E2F5E2E2E2F5E2F5F5F5F5F5F5F5F5F5F5F5F5F5F5F5F5F5F5F5F5F5F5F5F5F5F5F5F5F5F5F5F5F5F5F5F5F5F5F5F5F5F5F5F5F5F5F5
310
F5F5F5F5F5F5F5F5F5F5F5F5F5F5F5F5F5F5F5F5F5F5F5F5F5F5F5E2F5F5F5F5F5F5F5F5F5F5F5F5F5E2F5F5F5F5F5F5F5F5F5F5F5F5F5F5F5F5F5F5F5F5F5F5F5F5F5F5F5F5F5F5F5F5F5F5F5F5F5F5F5F5F5F5F5F5F5F5F5F5F5E2F5F5F5F5F5F5F5F5F5F5F5F5F5F5F5F5F5F5F5F5F5F5F5F5F5F5F5F5F5F5F5F5F5F5E2
310
F5E2E2E2F5E2F5F5F5F5F5F5F5F5F5F5F5F5F5F5F5F5F5F5F5F5F5F5F5F5F5F5F5F5F5F5F5F5F5F5F5F5F5F5F5F5F5F5F5F5F5F5F5F5F5F5F5F5F5F5F5F5F5F5F5F5F5F5F5F5F5F5F5F5F5F5F5F5F5F5E2F5F5F5F5F5F5F5F5F5F5F5F5F5E2F5F5F5F5F5F5F5F5F5F5F5F5F5F5F5F5F5F5F5F5F5F5F5F5F5F5F5F5F5F5F5F5
310
F5F5F5F5F5F5F5F5F5F5F5F5F5F5F5F5F5E2F5F5F5F5F5F5F5F5F5F5F5F5F5F5F5F5F5F5F5F5F5F5F5F5F5F5F5F5F5F5F5F5F5F5E2F5E2E2E2F5E2F5F5F5F5F5F5F5F5F5F5F5F5F5F5F5F5F5F5F5F5F5F5F5F5F5F5F5F5F5F5F5F5F5F5F5F5F5F5F5F5F5F5F5F5F5F5F5F5F5F5F5F5F5F5F5F5F5F5F5F5F5F5F5F5F5F5F5F5
310
F5F5F5F5F5F5E2F5F5F5F5F5F5F5F5F5F5F5F5F5E2F5F5F5F5F5F5F5F5F5F5F5F5F5F5F5F5F5F5F5F5F5F5F5F5F5F5F5F5F5F5F5F5F5F5F5F5F5F5F5F5F5F5F5F5F5F5F5F5F5E2F5F5F5F5F5F5F5F5F5F5F5F5F5F5F5F5F5F5F5F5F5F5F5F5F5F5F5F5F5F5F5F5F5F5E2F5E2E2E2F5E2F5F5F5F5F5F5F5F5F5F5F5F5F5F5F5
310
F5F5F5F5F5F5F5F5F5F5F5F5F5F5F5F5F5F5F5F5F5F5F5F5F5F5F5F5F5F5F5F5F5F5F5F5F5F5F5F5F5F5F5F5F5F5F5F5F5F5F5F5F5F5F5F5F5F5F5E2F5F5F5F5F5F5F5F5F5F5F5F5F5E2F5F5F5F5F5F5F5F5F5F5F5F5F5F5F5F5F5F5F5F5F5F5F5F5F5F5F5F5F5F5F5F5F5F5F5F5F5F5F5F5F5F5F5F5F5F5F5F5F5E2F5F5F5
310
F5F5F5F5F5F5F5F5F5F5F5F5F5F5F5F5F5F5F5F5F5F5F5F5F5F5F5F5F5F5F5E2F5E2E2E2F5E2F5F5F5F5F5F5F5F5F5F5F5F5F5F5F5F5F5F5F5F5F5F5F5F5F5F5F5F5F5F5F5F5F5F5F5F5F5F5F5F5F5F5F5F5F5F5F5F5F5F5F5F5F5F5F5F5F5F5F5F5F5F5F5F5F5F5F5F5F5F5F5F5F5F5E2F5F5F5F5F5F5F5F5F5F5F5F5F5F5
310
F5F5F5F5F5F5F5F5F5F5F5F5F5F5F5F5F5F5F5F5F5F5F5F5F5F5F5F5F5F5F5F5F5F5F5F5F5F5F5F5F5F5F5F5F5F5F5F5F5F5F5F5F5F5F5F5F5F5F5F5F5F5F5F5F5F5F5F5F5F5F5F5F5F5F5F5F5F5F5F5F5F5F5F5E2F5E2E2E2F5E2F5F5F5F5F5F5F5F5F5F5F5F5F5F5F5F5F5F5F5F5F5F5F5F5F5F5F5F5F5F5F5F5F5F5F5F5
310
F5F5F5F5F5F5F5F5F5F5F5F5F5F5F5F5F5F5F5F5F5F5F5F5F5F5F5F5F5F5F5F5F5F5F5F5F5F5E2F5F5F5F5F5F5F5F5F5F5F5F5F5F5F5F5F5F5F5F5F5F5F5F5F5F5F5F5F5F5F5F5F5F5F5F5F5F5F5F5F5F5F5F5F5F5F5F5F5F5F5F5F5F5F5F5F5F5F5F5F5F5F5F5F5F5F5F5F5F5F5F5F5F5F5F5F5F5F5F5F5F5F5F5F5F5F5F5
310
F5F5F5F5F5F5F5F5F5F5E2F5E2E2E2F5E2F5F5F5F5F5F5F5F5F5F5F5F5F5F5F5F5F5F5F5F5F5F5F5F5F5F5F5F5F5F5F5F5F5F5F5F5F5F5F5F5F5F5F5F5F5F5F5F5F5F5F5F5F5F5F5F5F5F5F5F5F5F5F5F5F5F5F5F5F5F5F5F5F5F5E2F5F5F5F5F5F5F5F5F5F5F5F5F5E2F5F5F5F5F5F5F5F5F5F5F5F5F5F5F5F5F5F5F5F5F5
310
F5F5F5F5F5F5F5F5F5F5F5F5F5F5F5F5F5F5F5F5F5F5F5F5F5F5F5F5E2F5F5F5F5F5F5F5F5F5F5F5F5F5F5F5F5F5F5F5F5F5F5F5F5F5F5F5F5F5F5F5F5F5F5E2F5E2E2E2F5E2F5F5F5F5F5F5F5F5F5F5F5F5F5F5F5F5F5F5F5F5F5F5F5F5F5F5F5F5F5F5F5F5F5F5F5F5F5F5F5F5F5F5F5F5F5F5F5F5F5F5F5F5F5F5F5F5F5
310
F5F5F5F5F5F5F5F5F5F5F5F5F5F5F5F5F5E2F5F5F5F5F5F5F5F5F5F5F5F5F5E2F5F5F5F5F5F5F5F5F5F5F5F5F5F5F5F5F5F5F5F5F5F5F5F5F5F5F5F5F5F5F5F5F5F5F5F5F5F5F5F5F5F5F5F5F5F5F5F5F5E2F5F5F5F5F5F5F5F5F5F5F5F5F5F5F5F5F5F5F5F5F5F5F5F5F5F5F5F5F5F5F5F5F5F5E2F5E2E2E2F5E2F5F5F5F5
310
F5F5F5F5F5F5F5F5F5F5F5F5F5F5F5F5F5F5F5F5F5F5F5F5F5F5F5F5F5F5F5F5F5F5F5F5F5F5F5F5F5F5F5F5F5F5F5F5F5F5F5F5F5F5F5F5F5F5F5F5F5F5F5F5F5F5F5F5F5F5E2F5F5F5F5F5F5F5F5F5F5F5F5F5E2F5F5F5F5F5F5F5F5F5F5F5F5F5F5F5F5F5F5F5F5F5F5F5F5F5F5F5F5F5F5F5F5F5F5F5F5F5F5F5F5F5F5
310
F5F5F5F5F5F5F5E2F5F5F5F5F5F5F5F5F5F5F5F5F5F5F5F5F5F5F5F5F5F5F5F5F5F5F5F5F5F5F5F5F5F5E2F5E2E2E2F5E2F5F5F5F5F5F5F5F5F5F5F5F5F5F5F5F5F5F5F5F5F5F5F5F5F5F5F5F5F5F5F5F5F5F5F5F5F5F5F5F5F5F5F5F5F5F5F5F5F5F5F5F5F5F5F5F5F5F5F5F5F5F5F5F5F5F5F5F5F5F5F5F5F5F5E2F5F5F5
310
F5F5F5F5F5F5F5F5F5F5E2F5F5F5F5F5F5F5F5F5F5F5F5F5F5F5F5F5F5F5F5F5F5F5F5F5F5F5F5F5F5F5F5F5F5F5F5F5F5F5F5F5F5F5F5F5F5F5F5F5E2F5F5F5F5F5F5F5F5F5F5F5F5F5F5F5F5F5F5F5F5F5F5F5F5F5F5F5F5F5F5F5F5F5F5E2F5E2E2E2F5E2F5F5F5F5F5F5F5F5F5F5F5F5F5F5F5F5F5F5F5F5F5F5F5F5F5
310
F5F5F5F5F5F5F5F5F5F5F5F5F5F5F5F5F5F5F5F5F5F5F5F5F5F5F5F5F5F5F5F5F5F5F5F5F5F5F5F5F5F5F5F5F5F5F5F5F5E2F5F5F5F5F5F5F5F5F5F5F5F5F5E2F5F5F5F5F5F5F5F5F5F5F5F5F5F5F5F5F5F5F5F5F5F5F5F5F5F5F5F5F5F5F5F5F5F5F5F5F5F5F5F5F5F5F5F5F5F5F5F5F5E2F5F5F5F5F5F5F5F5F5F5F5F5F5
310
F5F5F5F5F5F5F5F5F5F5F5F5F5F5F5F5F5F5F5F5F5E2F5E2E2E2F5E2F5F5F5F5F5F5F5F5F5F5F5F5F5F5F5F5F5F5F5F5F5F5F5F5F5F5F5F5F5F5F5F5F5F5F5F5F5F5F5F5F5F5F5F5F5F5F5F5F5F5F5F5F5F5F5F5F5F5F5F5F5F5F5F5F5F5F5F5F5F5F5F5F5F5E2BEF5F5F5F5F5F5F5F5F5F5F5F5E2F5F5F5F5F5F5F5F5F5F5
310
F5F5F5F5F5F5F5F5F5F5F5F5F5F5F5F5F5F5F5F5F5F5F5F5F5F5F5F5F5F5F5F5F5F5F5F5F5F5F5E2F5F5F5F5F5F5F5F5F5F5F5F5F5F5F5F5F5F5F5F5F5F5F5F5F5F5F5F5F5F5F5F5F5F5E2F5E2E2E2F5E2F5F5F5F5F5F5F5F5F5F5F5F5F5F5F5F5F5F5F5F5F5F5F5F5F5F5F5F5F5F5F5F5F5F5F5F5F5F5F5F5F5F5F5F5F5F5
310
F5F5F5F5F5F5F5F5F5F5F5F5F5F5F5F5F5F5F5F5F5F5F5F5F5F5F5F5E2F5F5F5F5F5F5F5F5F5F5F5F5F5E2F5F5F5F5F5F5F5F5F5F5F5F5F5F5F5F5F5F5F5F5F5F5F5F5F5F5F5F5F5F5F5F5F5F5F5F5F5F5F5F5F5F5F5F5F5F5F5F5F5E2F5F5F5F5F5F5F5F5F5F5F5F5F5F5F5F5F5F5F5F5F5F5F5F5F5F5F5F5F5F5F5F5F5F5
310
E2F5E2E2E2F5E2F5F5F5F5F5F5F5F5F5F5F5F5F5F5F5F5F5F5F5F5F5F5F5F5F5F5F5F5F5F5F5F5F5F5F5F5F5F5F5F5F5F5F5F5F5F5F5F5F5F5F5F5F5F5F5F5F5F5F5F5F5F5F5F5F5F5F5F5F5F5F5F5E2E2E2E2E2F5F5F5F5F5F5F5F5F5F5F5E2E2E2E2E2F5F5F5E2E2E2E2E2E2E2F5F5E2E2E2E2E2E2E2F5F5E2E2E2E2E2E2
310
E2E2F5F5E2E2E2E2E2E2E2F5F5E2E2E2E2E2E2F5F5F5F5F5F5F5F5F5F5F5F5F5F5F5F5F5F5F5F5F5F5F5F5F5F5F5F5F5F5F5F5F5F5E2F5E2E2E2F5E2F5F5F5F5F5F5F5F5F5F5F5F5F5F5F5F5F5F5F5F5F5F5F5F5F5F5F5F5F5F5F5F5F5F5F5F5F5F5F5F5F5F5F5F5F5F5F5F5F5F5F5F5F5F5F5F5F5F5F5F5F5F5F5F5F5F5F5
310
F5F5F5F5F5F5BEE2F5F5F5F5F5F5F5F5F5F5F5F5F5F5F5F5F5F5F5F5F5F5F5F5F5F5F5F5F5F5F5F5F5F5F5F5F5F5F5F5F5F5F5F5F5F5F5F5F5F5F5F5F5F5F5F5F5F5F5F5F5F5F5F5F5F5F5F5F5F5F5F5F5F5F5F5F5F5F5F5F5F5F5F5F5F5F5F5F5F5F5F5F5F5F5F5F5F5E2F5E2E2E2F5E2F5F5F5F5F5F5F5F5F5F5F5F5F5F5
310
F5F5F5F5F5F5F5F5F5F5F5F5F5F5F5F5F5F5F5F5F5F5F5F5F5F5F5F5F5F5F5F5F5F5F5F5F5F5F5F5F5F5F5F5F5F5F5F5F5F5F5F5F5F5F5F5F5F5F5F5F5F5F5F5F5F5F5F5F5F5F5F5F5F5F5F5F5F5F5F5F5F5F5F5F5F5F5F5F5F5F5F5F5F5F5F5F5F5F5F5F5F5F5F5F5F5F5F5F5F5F5F5F5F5F5F5F5F5F5F5F5F5F5F5F5F5F5
310
F5F5F5F5F5F5F5F5F5F5F5F5F5F5F5F5F5F5F5F5F5F5F5F5F5F5F5F5F5F5F5F5E2F5E2E2E2F5E2F5F5F5F5F5F5F5F5F5F5F5F5F5F5F5F5F5F5F5F5F5F5F5F5F5F5F5F5F5F5F5F5F5F5F5F5F5F5F5F5F5F5F5F5F5F5F5F5F5F5F5F5F5F5F5F5F5F5F5F5F5F5F5F5F5F5F5F5F5F5F5F5F5F5F5F5F5F5F5F5F5F5F5F5F5F5F5F5
310
F5F5F5F5F5F5F5F5F5F5F5F5F5F5F5F5F5F5F5F5F5F5F5F5F5F5F5F5F5F5F5F5F5F5F5F5F5F5F5F5F5F5F5F5F5F5F5F5F5F5F5F5F5F5F5F5F5F5F5F5F5F5F5F5F5F5F5F5F5F5F5F5F5F5F5F5F5F5F5F5F5F5F5F5F5E2F5E2E2E2F5E2F5F5F5F5F5F5F5F5F5F5F5F5F5F5F5F5F5F5F5F5F5F5F5F5F5F5F5F5F5F5F5F5F5F5F5
310
F5F5F5F5F5F5F5F5F5F5F5F5F5F5F5F5F5F5F5F5F5F5F5F5F5F5F5F5F5F5F5F5F5F5F5F5F5F5F5F5F5F5F5F5F5F5F5F5F5F5F5F5F5F5F5F5F5F5F5F5F5F5F5F5F5F5F5F5F5F5F5F5F5F5F5F5F5F5F5F5F5F5F5F5F5F5F5F5F5F5F5F5F5F5F5F5F5F5F5F5F5F5F5F5F5F5F5F5F5F5F5F5F5F5F5F5F5F5F5F5F5F5F5F5F5F5F5
310
F5F5F5F5F5F5F5F5F5F5F5E2F5E2E2E2F5E2F5F5F5F5F5F5F5F5F5F5F5F5F5F5F5F5F5F5F5F5F5F5F5F5F5F5F5F5F5F5F5F5F5F5F5F5F5F5F5F5F5F5F5F5F5F5F5F5F5F5F5F5F5F5F5F5F5F5F5F5F5F5F5F5F5F5F5F5F5F5F5F5F5F5F5F5F5F5F5F5F5F5F5F5F5F5F5F5F5F5F5F5F5F5F5F5F5F5F5F5F5F5F5F5F5F5F5F5F5
310
F5F5F5F5F5F5F5F5F5F5F5F5F5F5F5F5F5F5F5F5F5F5F5F5F5F5F5F5F5F5F5F5F5F5F5F5F5F5F5F5F5F5F5F5F5F5F5F5F5F5F5F5F5F5F5F5F5F5F5F5F5F5F5F5E2F5E2E2E2F5E2F5F5F5F5F5F5F5F5F5F5F5F5F5F5F5F5F5F5F5F5F5F5F5F5F5F5F5F5F5F5F5F5F5F5F5F5F5F5F5F5F5F5F5F5F5F5F5F5F5F5F5F5F5F5F5F5
310
F5F5F5F5F5F5F5F5F5F5F5F5F5F5F5F5F5F5F5F5F5F5F5F5F5F5F5F5F5F5F5F5F5F5F5F5F5F5F5F5F5F5F5F5F5F5F5F5F5F5F5F5F5F5F5F5F5F5F5F5F5F5F5F5F5F5F5F5F5F5F5F5F5F5F5F5F5F5F5F5F5F5F5F5F5F5F5F5F5F5F5F5F5F5F5F5F5F5F5F5F5F5F5F5F5F5F5F5F5F5F5F5F5F5F5F5F5E2F5E2E2E2F5E2F5F5F5
310
F5F5F5F5F5F5F5F5F5F5F5F5F5F5F5F5F5F5F5F5F5F5F5F5F5F5F5F5F5F5F5F5F5F5F5F5F5F5F5F5F5F5F5F5F5F5F5F5F5F5F5F5F5F5F5F5F5F5F5F5F5F5F5F5F5F5F5F5F5F5F5F5F5F5F5F5F5F5F5F5F5F5F5F5F5E2F5F5F5F5F5F5F5F5F5F5F5F5F5F5F5F5F5F5F5F5F5F5F5F5F5F5F5F5F5F5F5F5F5F5F5F5F5F5F5F5F5
310
F5F5F5F5F5F5F5F5E2F5F5F5F5F5F5F5F5F5F5F5F5F5F5F5F5F5F5F5F5F5F5F5F5F5F5F5F5F5F5F5F5F5F5E2F5E2E2E2F5E2F5F5F5F5F5F5F5F5F5F5F5F5F5F5F5F5F5F5F5F5F5F5F5F5F5F5F5F5F5F5F5F5F5F5F5F5F5F5F5F5F5F5F5F5F5F5F5F5F5F5F5F5F5F5F5F5F5F5F5F5F5F5F5F5F5F5F5F5F5F5F5F5F5F5F5F5F5
310
F5F5F5F5F5F5F5F5F5F5BEE2F5F5F5F5F5F5F5F5F5F5F5F5F5F5F5F5F5F5F5F5F5F5F5F5F5F5F5F5F5F5F5F5F5F5F5F5F5F5F5F5F5F5F5F5F5F5F5F5BEE2F5F5F5F5F5F5F5F5F5F5F5F5F5F5F5F5F5F5F5F5F5F5F5F5F5F5F5F5F5F5F5F5F5F5E2F5E2E2E2F5E2F5F5F5F5F5F5F5F5F5F5F5F5F5F5F5F5F5F5F5F5F5F5F5F5
310
F5F5F5F5F5F5F5F5F5F5F5F5F5F5F5F5F5F5F5F5F5F5F5F5F5F5F5F5F5F5F5F5F5F5F5F5F5F5F5F5F5F5F5F5F5F5F5F5F5F5F5F5F5F5F5F5F5F5F5F5F5F5F5E2E2E2E2E2E2E2E2E2E2E2E2E2E2E2E2E2E2E2E2E2E2E2E2E2E2E2E2E2E2E2E2E2E2E2E2E2E2E2E2E2E2E2E2E2E2E2E2E2E2E2E2E2F5F5F5F5F5F5F5F5F5F5F5
310
F5F5F5F5F5F5F5F5F5F5F5F5F5F5F5F5F5F5F5F5F5F5E2F5E2E2E2F5E2F5F5F5F5F5F5F5F5F5F5F5F5F5F5F5F5F5F5F5F5F5F5F5F5F5F5F5F5F5F5F5F5F5F5F5F5F5F5F5F5F5F5F5F5F5F5F5F5F5F5F5F5F5F5F5F5F5F5F5F5F5F5F5F5F5F5F5F5F5F5F5F5F5F5F5F5F5F5F5F5F5F5F5F5F5F5F5F5E2BEF5F5F5F5F5F5F5F5
310
F5F5F5F5F5F5F5F5F5F5F5F5E2E2E2E2E2F5F5F5F5F5F5F5F5F5F5F5F5F5F5F5F5F5F5F5F5F5F5F5E2BEF5F5F5F5F5F5F5F5F5F5F5F5F5F5F5F5F5F5F5F5F5F5F5F5F5F5F5F5F5F5F5F5F5E2F5E2E2E2F5E2F5F5F5F5F5F5F5F5F5F5F5F5F5F5F5F5F5F5F5F5F5F5F5F5F5F5F5F5F5F5F5F5F5F5F5F5F5F5F5F5F5F5F5F5F5
310
F5F5F5F5F5F5F5F5F5F5F5F5F5F5F5F5F5F5F5F5F5F5F5F5F5F5F5F5F5F5F5F5F5F5F5F5F5F5F5F5F5F5F5E2F5F5F5F5F5F5F5F5F5F5F5F5F5F5F5F5F5F5F5F5F5E2E2E2E2E2F5F5F5F5F5F5F5F5F5F5F5F5F5F5F5F5F5F5F5F5F5F5F5E2F5F5F5F5F5F5F5F5F5F5F5F5F5F5F5F5F5F5F5F5F5F5F5F5F5F5F5F5F5F5F5F5F5
310
F5E2F5E2E2E2F5E2F5F5F5F5F5F5F5F5F5F5F5F5F5F5F5F5F5F5F5F5F5F5F5F5F5F5F5F5F5F5F5F5F5F5F5F5F5F5F5F5F5F5F5F5F5F5F5F5F5F5F5F5F5F5F5F5F5F5F5F5F5F5F5F5F5F5F5F5F5F5F5F5F5F5F5F5F5F5F5F5F5F5F5F5F5F5F5F5F5F5F5F5F5F5F5F5F5F5F5F5F5F5F5F5F5F5F5F5F5F5E2E2E2E2E2F5F5F5F5
310
F5F5F5F5F5F5F5F5F5F5F5F5F5F5F5F5F5F5F5F5F5F5F5F5F5F5F5F5F5F5F5F5F5F5F5F5F5F5F5F5F5F5F5F5F5F5F5F5F5F5F5F5F5F5E2F5E2E2E2F5E2F5F5F5F5F5F5F5F5F5F5F5F5F5F5F5F5F5F5F5F5F5F5F5F5F5F5F5F5F5F5F5F5F5F5F5F5F5F5F5F5F5F5F5F5F5F5F5F5F5F5F5F5F5F5F5F5F5F5F5F5F5F5F5F5F5F5
310
F5F5F5F5F5F5F5F5F5F5F5F5F5F5F5F5F5F5F5F5F5F5F5F5F5F5F5F5F5F5F5F5F5F5F5F5F5F5F5F5F5F5F5F5F5F5F5F5F5F5F5F5F5F5F5F5F5F5F5F5F5F5F5F5F5F5F5F5F5F5F5F5F5F5F5F5F5F5F5F5F5F5F5F5F5F5F5F5F5F5F5F5F5F5F5F5F5F5F5F5F5F5F5F5F5F5F5E2F5E2E2E2F5E2F5F5F5F5F5F5F5F5F5F5F5F5F5
310
F5F5F5F5F5F5F5F5F5F5F5F5F5F5F5F5F5F5F5F5F5F5F5F5F5F5F5F5F5F5F5F5F5F5F5F5F5F5F5F5F5F5F5F5F5F5F5F5F5F5F5F5F5F5F5F5F5F5F5F5F5F5F5F5F5F5F5F5F5F5F5F5F5F5F5F5F5F5F5F5F5F5F5F5F5F5F5F5F5F5F5F5F5F5F5F5F5F5F5F5F5F5F5F5F5F5F5F5F5F5F5F5F5F5F5F5F5F5F5F5F5F5F5F5F5F5F5
310
F5F5F5F5F5F5F5F5F5F5F5F5F5F5F5F5F5F5F5F5F5F5F5F5F5F5F5F5F5F5F5F5F5E2F5E2E2E2F5E2F5F5F5F5F5F5F5F5F5F5F5F5F5F5F5F5F5F5F5F5F5F5F5F5F5F5F5F5F5F5F5F5F5F5F5F5F5F5F5F5F5F5F5F5F5F5F5F5F5F5F5F5F5F5F5F5F5F5F5F5F5F5F5F5F5F5F5F5F5F5F5F5F5F5F5F5F5F5F5F5F5F5F5F5F5F5F5
310
F5F5F5F5F5F5F5F5F5F5F5F5F5F5F5F5F5F5F5F5F5F5F5F5F5F5F5F5F5F5F5F5F5F5F5F5F5F5F5F5F5F5F5F5F5F5F5F5F5F5F5F5F5F5F5F5F5F5F5F5F5F5F5F5F5F5F5F5F5F5F5F5F5F5F5F5F5F5F5F5F5F5F5F5F5F5E2F5E2E2E2F5E2F5F5F5F5F5F5F5F5F5F5F5F5F5F5F5F5F5F5F5F5F5F5F5F5F5F5F5F5F5F5F5F5F5F5
310
F5F5F5F5F5F5F5F5F5F5F5F5F5F5F5F5F5F5F5F5F5F5F5F5F5F5F5F5F5F5F5F5F5F5F5F5F5F5F5F5F5F5F5F5F5F5F5F5F5F5F5F5F5F5F5F5F5F5F5F5F5F5F5F5F5F5F5F5F5F5F5F5F5F5F5F5F5F5F5F5F5F5F5F5F5F5F5F5F5F5F5F5F5F5F5F5F5F5F5F5F5F5F5F5F5F5F5F5F5F5F5F5F5F5F5F5F5F5F5F5F5F5F5F5F5F5F5
310
F5F5F5F5F5F5F5F5F5F5F5F5E2F5E2E2E2F5E2E2E2E2E2E2E2E2E2E2E2E2E2E2E2E2E2E2E2E2E2E2E2E2E2E2E2E2E2E2E2E2E2E2E2E2E2E2E2E2E2E2E2E2E2E2E2E2E2E2E2E2E2E2E2E2E2E2E2E2E2E2E2E2E2E2E2E2E2E2E2E2E2E2E2E2E2E2E2E2E2E2E2E2E2E2E2E2E2E2E2E2E2E2E2E2E2E2E2E2E2E2E2E2E2E2E2E2E2
310
E2E2E2E2E2E2E2E2E2E2E2E2E2E2E2E2E2E2E2E2E2E2E2E2E2E2E2E2E2E2E2E2E2E2E2E2E2E2E2E2E2E2E2E2E2E2E2E2E2E2E2E2E2E2E2E2E2E2E2E2E2E2E2E2E2E2F5E2E2E2F5F5F5F5F5F5F5F5F5F5F5F5F5F5F5F5F5F5F5F5F5F5F5F5F5F5F5F5F5F5F5F5F5F5F5F5F5F5F5F5F5F5F5F5F5F5F5F5F5F5F5F5F5F5F5F5F5
310
F5F5F5F5F5F5F5F5F5F5F5F5F5F5F5F5F5F5F5F5F5F5F5F5F5F5F5F5F5F5F5F5F5F5F5F5F5F5F5F5F5F5F5F5F5F5F5F5F5F5F5F5F5F5F5F5F5F5F5F5F5F5F5F5F5F5F5F5F5F5F5F5F5F5F5F5F5F5F5F5F5F5F5F5F5F5F5F5F5F5F5F5F5F5F5F5F5F5F5F5F5F5F5F5F5F5F5F5F5F5F5F5F5F5F5F5F5F5F5F5E2EFE2E2E2E2E2
310
E2E2E2E2E2E2E2E2E2E2E2E2E2E2E2E2E2E2E2E2E2E2E2E2E2E2E2E2E2E2E2E2E2E2E2E2E2E2E2E2E2E2E2E2E2E2E2E2E2E2E2E2E2E2E2E2E2E2E2E2E2E2E2E2E2E2E2E2E2E2E2E2E2E2E2E2E2E2E2E2E2E2E2E2E2E2E2E2E2E2E2E2E2E2E2E2E2E2E2E2E2E2E2E2E2E2E2E2E2E2E2E2E2E2E2E2E2E2E2E2E2E2E2E2E2E2E2
310
E2E2E2E2E2E2E2E2E2E2E2E2E2E2E2E2E2E2E2E2E2E2E2E2E2E2E2E2E2E2E2E2E2E2E2E2E2E2E2E2E2E2E2E2E2E2E2EF
  0
XRECORD
  5
1DA0
102
{ACAD_REACTORS
330
1D9F
102
}
330
1D9F
100
AcDbXrecord
280
     1
102
MATERIAL
148
0.0
149
0.0
149
0.0
 93
        0
 94
      127
282
     0
 72
     1
 77
     1
171
     1
175
     1
179
     1
273
     0
  0
XRECORD
  5
1D9E
102
{ACAD_REACTORS
330
1D9D
102
}
330
1D9D
100
AcDbXrecord
280
     1
102
MATERIAL
148
0.0
149
0.0
149
0.0
 93
        0
 94
      127
282
     0
 72
     1
 77
     1
171
     1
175
     1
179
     1
273
     0
  0
XRECORD
  5
1DA2
102
{ACAD_REACTORS
330
1DA1
102
}
330
1DA1
100
AcDbXrecord
280
     1
102
MATERIAL
148
0.0
149
0.0
149
0.0
 93
        0
 94
      127
282
     0
 72
     1
 77
     1
171
     1
175
     1
179
     1
273
     0
  0
CELLSTYLEMAP
  5
1D9C
102
{ACAD_REACTORS
330
B52
102
}
330
B52
100
AcDbCellStyleMap
 90
        3
300
CELLSTYLE
  1
TABLEFORMAT_BEGIN
 90
        5
170
     1
 91
        0
 92
    32768
 62
   257
 93
        1
300
CONTENTFORMAT
  1
CONTENTFORMAT_BEGIN
 90
        0
 91
        0
 92
      512
 93
        0
300

 40
0.0
140
1.0
 94
        5
 62
     0
340
11
144
0.25
309
CONTENTFORMAT_END
171
     0
 94
        6
 95
        1
302
GRIDFORMAT
  1
GRIDFORMAT_BEGIN
 90
        0
 91
        1
 62
     0
 92
       -2
340
0
 93
        0
 40
0.045
309
GRIDFORMAT_END
 95
        2
302
GRIDFORMAT
  1
GRIDFORMAT_BEGIN
 90
        0
 91
        1
 62
     0
 92
       -2
340
0
 93
        0
 40
0.045
309
GRIDFORMAT_END
 95
        4
302
GRIDFORMAT
  1
GRIDFORMAT_BEGIN
 90
        0
 91
        1
 62
     0
 92
       -2
340
0
 93
        0
 40
0.045
309
GRIDFORMAT_END
 95
        8
302
GRIDFORMAT
  1
GRIDFORMAT_BEGIN
 90
        0
 91
        1
 62
     0
 92
       -2
340
0
 93
        0
 40
0.045
309
GRIDFORMAT_END
 95
       16
302
GRIDFORMAT
  1
GRIDFORMAT_BEGIN
 90
        0
 91
        1
 62
     0
 92
       -2
340
0
 93
        0
 40
0.045
309
GRIDFORMAT_END
 95
       32
302
GRIDFORMAT
  1
GRIDFORMAT_BEGIN
 90
        0
 91
        1
 62
     0
 92
       -2
340
0
 93
        0
 40
0.045
309
GRIDFORMAT_END
309
TABLEFORMAT_END
  1
CELLSTYLE_BEGIN
 90
        1
 91
        1
300
_TITLE
309
CELLSTYLE_END
300
CELLSTYLE
  1
TABLEFORMAT_BEGIN
 90
        5
170
     1
 91
        0
 92
        0
 62
   257
 93
        1
300
CONTENTFORMAT
  1
CONTENTFORMAT_BEGIN
 90
        0
 91
        0
 92
      512
 93
        0
300

 40
0.0
140
1.0
 94
        5
 62
     0
340
11
144
0.18
309
CONTENTFORMAT_END
171
     0
 94
        6
 95
        1
302
GRIDFORMAT
  1
GRIDFORMAT_BEGIN
 90
        0
 91
        1
 62
     0
 92
       -2
340
0
 93
        0
 40
0.045
309
GRIDFORMAT_END
 95
        2
302
GRIDFORMAT
  1
GRIDFORMAT_BEGIN
 90
        0
 91
        1
 62
     0
 92
       -2
340
0
 93
        0
 40
0.045
309
GRIDFORMAT_END
 95
        4
302
GRIDFORMAT
  1
GRIDFORMAT_BEGIN
 90
        0
 91
        1
 62
     0
 92
       -2
340
0
 93
        0
 40
0.045
309
GRIDFORMAT_END
 95
        8
302
GRIDFORMAT
  1
GRIDFORMAT_BEGIN
 90
        0
 91
        1
 62
     0
 92
       -2
340
0
 93
        0
 40
0.045
309
GRIDFORMAT_END
 95
       16
302
GRIDFORMAT
  1
GRIDFORMAT_BEGIN
 90
        0
 91
        1
 62
     0
 92
       -2
340
0
 93
        0
 40
0.045
309
GRIDFORMAT_END
 95
       32
302
GRIDFORMAT
  1
GRIDFORMAT_BEGIN
 90
        0
 91
        1
 62
     0
 92
       -2
340
0
 93
        0
 40
0.045
309
GRIDFORMAT_END
309
TABLEFORMAT_END
  1
CELLSTYLE_BEGIN
 90
        2
 91
        1
300
_HEADER
309
CELLSTYLE_END
300
CELLSTYLE
  1
TABLEFORMAT_BEGIN
 90
        5
170
     1
 91
        0
 92
        0
 62
   257
 93
        1
300
CONTENTFORMAT
  1
CONTENTFORMAT_BEGIN
 90
        0
 91
        0
 92
      512
 93
        0
300

 40
0.0
140
1.0
 94
        2
 62
     0
340
11
144
0.18
309
CONTENTFORMAT_END
171
     0
 94
        6
 95
        1
302
GRIDFORMAT
  1
GRIDFORMAT_BEGIN
 90
        0
 91
        1
 62
     0
 92
       -2
340
0
 93
        0
 40
0.045
309
GRIDFORMAT_END
 95
        2
302
GRIDFORMAT
  1
GRIDFORMAT_BEGIN
 90
        0
 91
        1
 62
     0
 92
       -2
340
0
 93
        0
 40
0.045
309
GRIDFORMAT_END
 95
        4
302
GRIDFORMAT
  1
GRIDFORMAT_BEGIN
 90
        0
 91
        1
 62
     0
 92
       -2
340
0
 93
        0
 40
0.045
309
GRIDFORMAT_END
 95
        8
302
GRIDFORMAT
  1
GRIDFORMAT_BEGIN
 90
        0
 91
        1
 62
     0
 92
       -2
340
0
 93
        0
 40
0.045
309
GRIDFORMAT_END
 95
       16
302
GRIDFORMAT
  1
GRIDFORMAT_BEGIN
 90
        0
 91
        1
 62
     0
 92
       -2
340
0
 93
        0
 40
0.045
309
GRIDFORMAT_END
 95
       32
302
GRIDFORMAT
  1
GRIDFORMAT_BEGIN
 90
        0
 91
        1
 62
     0
 92
       -2
340
0
 93
        0
 40
0.045
309
GRIDFORMAT_END
309
TABLEFORMAT_END
  1
CELLSTYLE_BEGIN
 90
        3
 91
        2
300
_DATA
309
CELLSTYLE_END
  0
XRECORD
  5
1DA3
102
{ACAD_REACTORS
330
B52
102
}
330
B52
100
AcDbXrecord
280
     1
102
ACAD_ROUNDTRIP_PRE2007_TABLESTYLE
 90
      512
 91
        0
  1

 92
      512
 93
        0
  2

 94
      512
 95
        0
  3

  0
XRECORD
  5
49B
102
{ACAD_REACTORS
330
49A
102
}
330
49A
100
AcDbXrecord
280
     1
102
RTVSPropertyOp0
 70
     1
102
RTVSPropertyOp1
 70
     1
102
RTVSPropertyOp2
 70
     1
102
RTVSPropertyOp3
 70
     1
102
RTVSPropertyOp4
 70
     1
102
RTVSPropertyOp5
 70
     1
102
RTVSPropertyOp6
 70
     1
102
RTVSPropertyOp7
 70
     1
102
RTVSPropertyOp8
 70
     1
102
RTVSPropertyOp9
 70
     1
102
RTVSPropertyOp10
 70
     1
102
RTVSPropertyOp11
 70
     1
102
RTVSPropertyOp12
 70
     1
102
RTVSPropertyOp13
 70
     1
102
RTVSPropertyOp14
 70
     1
102
RTVSPropertyOp15
 70
     1
102
RTVSPropertyOp16
 70
     1
102
RTVSPropertyOp17
 70
     1
102
RTVSPropertyOp18
 70
     1
102
RTVSPropertyOp19
 70
     1
102
RTVSPropertyOp20
 70
     1
102
RTVSPropertyOp21
 70
     1
102
RTVSPropertyOp22
 70
     1
102
RTVSPropertyOp23
 70
     1
102
RTVSPropertyOp24
 70
     1
102
RTVSPropertyOp25
 70
     1
102
RTVSPropertyOp26
 70
     1
102
RTVSPropertyOp27
 70
     1
  0
XRECORD
  5
4A1
102
{ACAD_REACTORS
330
4A0
102
}
330
4A0
100
AcDbXrecord
280
     1
102
RTVSPropertyOp0
 70
     1
102
RTVSPropertyOp1
 70
     1
102
RTVSPropertyOp2
 70
     1
102
RTVSPropertyOp3
 70
     1
102
RTVSPropertyOp4
 70
     1
102
RTVSPropertyOp5
 70
     1
102
RTVSPropertyOp6
 70
     1
102
RTVSPropertyOp7
 70
     1
102
RTVSPropertyOp8
 70
     1
102
RTVSPropertyOp9
 70
     1
102
RTVSPropertyOp10
 70
     1
102
RTVSPropertyOp11
 70
     1
102
RTVSPropertyOp12
 70
     1
102
RTVSPropertyOp13
 70
     1
102
RTVSPropertyOp14
 70
     1
102
RTVSPropertyOp15
 70
     1
102
RTVSPropertyOp16
 70
     1
102
RTVSPropertyOp17
 70
     1
102
RTVSPropertyOp18
 70
     1
102
RTVSPropertyOp19
 70
     1
102
RTVSPropertyOp20
 70
     1
102
RTVSPropertyOp21
 70
     1
102
RTVSPropertyOp22
 70
     1
102
RTVSPropertyOp23
 70
     1
102
RTVSPropertyOp24
 70
     1
102
RTVSPropertyOp25
 70
     1
102
RTVSPropertyOp26
 70
     1
102
RTVSPropertyOp27
 70
     1
  0
XRECORD
  5
4A9
102
{ACAD_REACTORS
330
4A8
102
}
330
4A8
100
AcDbXrecord
280
     1
102
RTVSPropertyOp0
 70
     1
102
RTVSPropertyOp1
 70
     1
102
RTVSPropertyOp2
 70
     1
102
RTVSPropertyOp3
 70
     1
102
RTVSPropertyOp4
 70
     1
102
RTVSPropertyOp5
 70
     1
102
RTVSPropertyOp6
 70
     1
102
RTVSPropertyOp7
 70
     1
102
RTVSPropertyOp8
 70
     1
102
RTVSPropertyOp9
 70
     1
102
RTVSPropertyOp10
 70
     1
102
RTVSPropertyOp11
 70
     1
102
RTVSPropertyOp12
 70
     1
102
RTVSPropertyOp13
 70
     1
102
RTVSPropertyOp14
 70
     1
102
RTVSPropertyOp15
 70
     1
102
RTVSPropertyOp16
 70
     1
102
RTVSPropertyOp17
 70
     1
102
RTVSPropertyOp18
 70
     1
102
RTVSPropertyOp19
 70
     1
102
RTVSPropertyOp20
 70
     1
102
RTVSPropertyOp21
 70
     1
102
RTVSPropertyOp22
 70
     1
102
RTVSPropertyOp23
 70
     1
102
RTVSPropertyOp24
 70
     1
102
RTVSPropertyOp25
 70
     1
102
RTVSPropertyOp26
 70
     1
102
RTVSPropertyOp27
 70
     1
  0
XRECORD
  5
4B1
102
{ACAD_REACTORS
330
4B0
102
}
330
4B0
100
AcDbXrecord
280
     1
102
RTVSPropertyOp0
 70
     1
102
RTVSPropertyOp1
 70
     1
102
RTVSPropertyOp2
 70
     1
102
RTVSPropertyOp3
 70
     1
102
RTVSPropertyOp4
 70
     1
102
RTVSPropertyOp5
 70
     1
102
RTVSPropertyOp6
 70
     1
102
RTVSPropertyOp7
 70
     1
102
RTVSPropertyOp8
 70
     1
102
RTVSPropertyOp9
 70
     1
102
RTVSPropertyOp10
 70
     1
102
RTVSPropertyOp11
 70
     1
102
RTVSPropertyOp12
 70
     1
102
RTVSPropertyOp13
 70
     1
102
RTVSPropertyOp14
 70
     1
102
RTVSPropertyOp15
 70
     1
102
RTVSPropertyOp16
 70
     1
102
RTVSPropertyOp17
 70
     1
102
RTVSPropertyOp18
 70
     1
102
RTVSPropertyOp19
 70
     1
102
RTVSPropertyOp20
 70
     1
102
RTVSPropertyOp21
 70
     1
102
RTVSPropertyOp22
 70
     1
102
RTVSPropertyOp23
 70
     1
102
RTVSPropertyOp24
 70
     1
102
RTVSPropertyOp25
 70
     1
102
RTVSPropertyOp26
 70
     1
102
RTVSPropertyOp27
 70
     1
  0
XRECORD
  5
4A7
102
{ACAD_REACTORS
330
4A6
102
}
330
4A6
100
AcDbXrecord
280
     1
102
RTVSPropertyOp0
 70
     1
102
RTVSPropertyOp1
 70
     1
102
RTVSPropertyOp2
 70
     1
102
RTVSPropertyOp3
 70
     1
102
RTVSPropertyOp4
 70
     1
102
RTVSPropertyOp5
 70
     1
102
RTVSPropertyOp6
 70
     1
102
RTVSPropertyOp7
 70
     1
102
RTVSPropertyOp8
 70
     1
102
RTVSPropertyOp9
 70
     1
102
RTVSPropertyOp10
 70
     1
102
RTVSPropertyOp11
 70
     1
102
RTVSPropertyOp12
 70
     1
102
RTVSPropertyOp13
 70
     1
102
RTVSPropertyOp14
 70
     1
102
RTVSPropertyOp15
 70
     1
102
RTVSPropertyOp16
 70
     1
102
RTVSPropertyOp17
 70
     1
102
RTVSPropertyOp18
 70
     1
102
RTVSPropertyOp19
 70
     1
102
RTVSPropertyOp20
 70
     1
102
RTVSPropertyOp21
 70
     1
102
RTVSPropertyOp22
 70
     1
102
RTVSPropertyOp23
 70
     1
102
RTVSPropertyOp24
 70
     1
102
RTVSPropertyOp25
 70
     1
102
RTVSPropertyOp26
 70
     1
102
RTVSPropertyOp27
 70
     1
  0
XRECORD
  5
4AF
102
{ACAD_REACTORS
330
4AE
102
}
330
4AE
100
AcDbXrecord
280
     1
102
RTVSPropertyOp0
 70
     1
102
RTVSPropertyOp1
 70
     1
102
RTVSPropertyOp2
 70
     1
102
RTVSPropertyOp3
 70
     1
102
RTVSPropertyOp4
 70
     1
102
RTVSPropertyOp5
 70
     1
102
RTVSPropertyOp6
 70
     1
102
RTVSPropertyOp7
 70
     1
102
RTVSPropertyOp8
 70
     1
102
RTVSPropertyOp9
 70
     1
102
RTVSPropertyOp10
 70
     1
102
RTVSPropertyOp11
 70
     1
102
RTVSPropertyOp12
 70
     1
102
RTVSPropertyOp13
 70
     1
102
RTVSPropertyOp14
 70
     1
102
RTVSPropertyOp15
 70
     1
102
RTVSPropertyOp16
 70
     1
102
RTVSPropertyOp17
 70
     1
102
RTVSPropertyOp18
 70
     1
102
RTVSPropertyOp19
 70
     1
102
RTVSPropertyOp20
 70
     1
102
RTVSPropertyOp21
 70
     1
102
RTVSPropertyOp22
 70
     1
102
RTVSPropertyOp23
 70
     1
102
RTVSPropertyOp24
 70
     1
102
RTVSPropertyOp25
 70
     1
102
RTVSPropertyOp26
 70
     1
102
RTVSPropertyOp27
 70
     1
  0
XRECORD
  5
493
102
{ACAD_REACTORS
330
492
102
}
330
492
100
AcDbXrecord
280
     1
102
RTVSPropertyOp0
 70
     1
102
RTVSPropertyOp1
 70
     1
102
RTVSPropertyOp2
 70
     1
102
RTVSPropertyOp3
 70
     1
102
RTVSPropertyOp4
 70
     1
102
RTVSPropertyOp5
 70
     1
102
RTVSPropertyOp6
 70
     1
102
RTVSPropertyOp7
 70
     1
102
RTVSPropertyOp8
 70
     1
102
RTVSPropertyOp9
 70
     1
102
RTVSPropertyOp10
 70
     1
102
RTVSPropertyOp11
 70
     1
102
RTVSPropertyOp12
 70
     1
102
RTVSPropertyOp13
 70
     1
102
RTVSPropertyOp14
 70
     1
102
RTVSPropertyOp15
 70
     1
102
RTVSPropertyOp16
 70
     1
102
RTVSPropertyOp17
 70
     1
102
RTVSPropertyOp18
 70
     1
102
RTVSPropertyOp19
 70
     1
102
RTVSPropertyOp20
 70
     1
102
RTVSPropertyOp21
 70
     1
102
RTVSPropertyOp22
 70
     1
102
RTVSPropertyOp23
 70
     1
102
RTVSPropertyOp24
 70
     1
102
RTVSPropertyOp25
 70
     1
102
RTVSPropertyOp26
 70
     1
102
RTVSPropertyOp27
 70
     1
  0
XRECORD
  5
495
102
{ACAD_REACTORS
330
494
102
}
330
494
100
AcDbXrecord
280
     1
102
RTVSPropertyOp0
 70
     1
102
RTVSPropertyOp1
 70
     1
102
RTVSPropertyOp2
 70
     1
102
RTVSPropertyOp3
 70
     1
102
RTVSPropertyOp4
 70
     1
102
RTVSPropertyOp5
 70
     1
102
RTVSPropertyOp6
 70
     1
102
RTVSPropertyOp7
 70
     1
102
RTVSPropertyOp8
 70
     1
102
RTVSPropertyOp9
 70
     1
102
RTVSPropertyOp10
 70
     1
102
RTVSPropertyOp11
 70
     1
102
RTVSPropertyOp12
 70
     1
102
RTVSPropertyOp13
 70
     1
102
RTVSPropertyOp14
 70
     1
102
RTVSPropertyOp15
 70
     1
102
RTVSPropertyOp16
 70
     1
102
RTVSPropertyOp17
 70
     1
102
RTVSPropertyOp18
 70
     1
102
RTVSPropertyOp19
 70
     1
102
RTVSPropertyOp20
 70
     1
102
RTVSPropertyOp21
 70
     1
102
RTVSPropertyOp22
 70
     1
102
RTVSPropertyOp23
 70
     1
102
RTVSPropertyOp24
 70
     1
102
RTVSPropertyOp25
 70
     1
102
RTVSPropertyOp26
 70
     1
102
RTVSPropertyOp27
 70
     1
  0
XRECORD
  5
497
102
{ACAD_REACTORS
330
496
102
}
330
496
100
AcDbXrecord
280
     1
102
RTVSPropertyOp0
 70
     1
102
RTVSPropertyOp1
 70
     1
102
RTVSPropertyOp2
 70
     1
102
RTVSPropertyOp3
 70
     1
102
RTVSPropertyOp4
 70
     1
102
RTVSPropertyOp5
 70
     1
102
RTVSPropertyOp6
 70
     1
102
RTVSPropertyOp7
 70
     1
102
RTVSPropertyOp8
 70
     1
102
RTVSPropertyOp9
 70
     1
102
RTVSPropertyOp10
 70
     1
102
RTVSPropertyOp11
 70
     1
102
RTVSPropertyOp12
 70
     1
102
RTVSPropertyOp13
 70
     1
102
RTVSPropertyOp14
 70
     1
102
RTVSPropertyOp15
 70
     1
102
RTVSPropertyOp16
 70
     1
102
RTVSPropertyOp17
 70
     1
102
RTVSPropertyOp18
 70
     1
102
RTVSPropertyOp19
 70
     1
102
RTVSPropertyOp20
 70
     1
102
RTVSPropertyOp21
 70
     1
102
RTVSPropertyOp22
 70
     1
102
RTVSPropertyOp23
 70
     1
102
RTVSPropertyOp24
 70
     1
102
RTVSPropertyOp25
 70
     1
102
RTVSPropertyOp26
 70
     1
102
RTVSPropertyOp27
 70
     1
  0
XRECORD
  5
499
102
{ACAD_REACTORS
330
498
102
}
330
498
100
AcDbXrecord
280
     1
102
RTVSPropertyOp0
 70
     1
102
RTVSPropertyOp1
 70
     1
102
RTVSPropertyOp2
 70
     1
102
RTVSPropertyOp3
 70
     1
102
RTVSPropertyOp4
 70
     1
102
RTVSPropertyOp5
 70
     1
102
RTVSPropertyOp6
 70
     1
102
RTVSPropertyOp7
 70
     1
102
RTVSPropertyOp8
 70
     1
102
RTVSPropertyOp9
 70
     1
102
RTVSPropertyOp10
 70
     1
102
RTVSPropertyOp11
 70
     1
102
RTVSPropertyOp12
 70
     1
102
RTVSPropertyOp13
 70
     1
102
RTVSPropertyOp14
 70
     1
102
RTVSPropertyOp15
 70
     1
102
RTVSPropertyOp16
 70
     1
102
RTVSPropertyOp17
 70
     1
102
RTVSPropertyOp18
 70
     1
102
RTVSPropertyOp19
 70
     1
102
RTVSPropertyOp20
 70
     1
102
RTVSPropertyOp21
 70
     1
102
RTVSPropertyOp22
 70
     1
102
RTVSPropertyOp23
 70
     1
102
RTVSPropertyOp24
 70
     1
102
RTVSPropertyOp25
 70
     1
102
RTVSPropertyOp26
 70
     1
102
RTVSPropertyOp27
 70
     1
  0
XRECORD
  5
4AD
102
{ACAD_REACTORS
330
4AC
102
}
330
4AC
100
AcDbXrecord
280
     1
102
RTVSPropertyOp0
 70
     1
102
RTVSPropertyOp1
 70
     1
102
RTVSPropertyOp2
 70
     1
102
RTVSPropertyOp3
 70
     1
102
RTVSPropertyOp4
 70
     1
102
RTVSPropertyOp5
 70
     1
102
RTVSPropertyOp6
 70
     1
102
RTVSPropertyOp7
 70
     1
102
RTVSPropertyOp8
 70
     1
102
RTVSPropertyOp9
 70
     1
102
RTVSPropertyOp10
 70
     1
102
RTVSPropertyOp11
 70
     1
102
RTVSPropertyOp12
 70
     1
102
RTVSPropertyOp13
 70
     1
102
RTVSPropertyOp14
 70
     1
102
RTVSPropertyOp15
 70
     1
102
RTVSPropertyOp16
 70
     1
102
RTVSPropertyOp17
 70
     1
102
RTVSPropertyOp18
 70
     1
102
RTVSPropertyOp19
 70
     1
102
RTVSPropertyOp20
 70
     1
102
RTVSPropertyOp21
 70
     1
102
RTVSPropertyOp22
 70
     1
102
RTVSPropertyOp23
 70
     1
102
RTVSPropertyOp24
 70
     1
102
RTVSPropertyOp25
 70
     1
102
RTVSPropertyOp26
 70
     1
102
RTVSPropertyOp27
 70
     1
  0
XRECORD
  5
4AB
102
{ACAD_REACTORS
330
4AA
102
}
330
4AA
100
AcDbXrecord
280
     1
102
RTVSPropertyOp0
 70
     1
102
RTVSPropertyOp1
 70
     1
102
RTVSPropertyOp2
 70
     1
102
RTVSPropertyOp3
 70
     1
102
RTVSPropertyOp4
 70
     1
102
RTVSPropertyOp5
 70
     1
102
RTVSPropertyOp6
 70
     1
102
RTVSPropertyOp7
 70
     1
102
RTVSPropertyOp8
 70
     1
102
RTVSPropertyOp9
 70
     1
102
RTVSPropertyOp10
 70
     1
102
RTVSPropertyOp11
 70
     1
102
RTVSPropertyOp12
 70
     1
102
RTVSPropertyOp13
 70
     1
102
RTVSPropertyOp14
 70
     1
102
RTVSPropertyOp15
 70
     1
102
RTVSPropertyOp16
 70
     1
102
RTVSPropertyOp17
 70
     1
102
RTVSPropertyOp18
 70
     1
102
RTVSPropertyOp19
 70
     1
102
RTVSPropertyOp20
 70
     1
102
RTVSPropertyOp21
 70
     1
102
RTVSPropertyOp22
 70
     1
102
RTVSPropertyOp23
 70
     1
102
RTVSPropertyOp24
 70
     1
102
RTVSPropertyOp25
 70
     1
102
RTVSPropertyOp26
 70
     1
102
RTVSPropertyOp27
 70
     1
  0
ENDSEC
  0
EOF
