  0
SECTION
  2
HEADER
  9
$ACADVER
  1
AC1018
  9
$ACADMAINTVER
 70
   104
  9
$DWGCODEPAGE
  3
ANSI_1250
  9
$LASTSAVEDBY
  1
bonzo
  9
$INSBASE
 10
0.0
 20
0.0
 30
0.0
  9
$EXTMIN
 10
5.582805010313203
 20
0.3449338172153848
 30
0.0
  9
$EXTMAX
 10
10.81451805282717
 20
6.257560325428725
 30
0.0
  9
$LIMMIN
 10
0.0
 20
0.0
  9
$LIMMAX
 10
12.0
 20
9.0
  9
$ORTHOMODE
 70
     1
  9
$REGENMODE
 70
     1
  9
$FILLMODE
 70
     1
  9
$QTEXTMODE
 70
     0
  9
$MIRRTEXT
 70
     1
  9
$LTSCALE
 40
1.0
  9
$ATTMODE
 70
     1
  9
$TEXTSIZE
 40
0.2
  9
$TRACEWID
 40
0.05
  9
$TEXTSTYLE
  7
Standard
  9
$CLAYER
  8
WYMIAR
  9
$CELTYPE
  6
ByLayer
  9
$CECOLOR
 62
   256
  9
$CELTSCALE
 40
1.0
  9
$DISPSILH
 70
     0
  9
$DIMSCALE
 40
0.02
  9
$DIMASZ
 40
3.0
  9
$DIMEXO
 40
20.0
  9
$DIMDLI
 40
0.0
  9
$DIMRND
 40
0.1
  9
$DIMDLE
 40
0.0
  9
$DIMEXE
 40
5.0
  9
$DIMTP
 40
0.0
  9
$DIMTM
 40
0.0
  9
$DIMTXT
 40
9.0
  9
$DIMCEN
 40
12.0
  9
$DIMTSZ
 40
0.0
  9
$DIMTOL
 70
     0
  9
$DIMLIM
 70
     0
  9
$DIMTIH
 70
     0
  9
$DIMTOH
 70
     0
  9
$DIMSE1
 70
     1
  9
$DIMSE2
 70
     1
  9
$DIMTAD
 70
     1
  9
$DIMZIN
 70
     1
  9
$DIMBLK
  1

  9
$DIMASO
 70
     1
  9
$DIMSHO
 70
     1
  9
$DIMPOST
  1

  9
$DIMAPOST
  1

  9
$DIMALT
 70
     0
  9
$DIMALTD
 70
     4
  9
$DIMALTF
 40
1.0
  9
$DIMLFAC
 40
1.0
  9
$DIMTOFL
 70
     1
  9
$DIMTVP
 40
0.0
  9
$DIMTIX
 70
     1
  9
$DIMSOXD
 70
     0
  9
$DIMSAH
 70
     1
  9
$DIMBLK1
  1
MAR-STRZ
  9
$DIMBLK2
  1
MAR-STRZ
  9
$DIMSTYLE
  2
AR SKALA 1-50
  9
$DIMCLRD
 70
   256
  9
$DIMCLRE
 70
   256
  9
$DIMCLRT
 70
   256
  9
$DIMTFAC
 40
0.01
  9
$DIMGAP
 40
6.0
  9
$DIMJUST
 70
     0
  9
$DIMSD1
 70
     0
  9
$DIMSD2
 70
     0
  9
$DIMTOLJ
 70
     1
  9
$DIMTZIN
 70
     0
  9
$DIMALTZ
 70
     0
  9
$DIMALTTZ
 70
     0
  9
$DIMUPT
 70
     0
  9
$DIMDEC
 70
     2
  9
$DIMTDEC
 70
     2
  9
$DIMALTU
 70
     2
  9
$DIMALTTD
 70
     4
  9
$DIMTXSTY
  7
AR 01 SWIS
  9
$DIMAUNIT
 70
     0
  9
$DIMADEC
 70
     1
  9
$DIMALTRND
 40
0.0
  9
$DIMAZIN
 70
     0
  9
$DIMDSEP
 70
    46
  9
$DIMATFIT
 70
     3
  9
$DIMFRAC
 70
     0
  9
$DIMLDRBLK
  1
MAR-STRZ
  9
$DIMLUNIT
 70
     2
  9
$DIMLWD
 70
    -2
  9
$DIMLWE
 70
    -2
  9
$DIMTMOVE
 70
     2
  9
$LUNITS
 70
     2
  9
$LUPREC
 70
     4
  9
$SKETCHINC
 40
0.1
  9
$FILLETRAD
 40
0.0
  9
$AUNITS
 70
     0
  9
$AUPREC
 70
     0
  9
$MENU
  1
.
  9
$ELEVATION
 40
0.0
  9
$PELEVATION
 40
0.0
  9
$THICKNESS
 40
0.0
  9
$LIMCHECK
 70
     0
  9
$CHAMFERA
 40
0.5
  9
$CHAMFERB
 40
0.5
  9
$CHAMFERC
 40
1.0
  9
$CHAMFERD
 40
0.0
  9
$SKPOLY
 70
     0
  9
$TDCREATE
 40
2455956.499359827
  9
$TDUCREATE
 40
2455956.416026493
  9
$TDUPDATE
 40
2459311.312129213
  9
$TDUUPDATE
 40
2459311.228795880
  9
$TDINDWG
 40
0.0794981019
  9
$TDUSRTIMER
 40
0.0794981019
  9
$USRTIMER
 70
     1
  9
$ANGBASE
 50
0.0
  9
$ANGDIR
 70
     0
  9
$PDMODE
 70
     0
  9
$PDSIZE
 40
0.0
  9
$PLINEWID
 40
0.0
  9
$SPLFRAME
 70
     0
  9
$SPLINETYPE
 70
     6
  9
$SPLINESEGS
 70
     8
  9
$HANDSEED
  5
1DBF
  9
$SURFTAB1
 70
     6
  9
$SURFTAB2
 70
     6
  9
$SURFTYPE
 70
     6
  9
$SURFU
 70
     6
  9
$SURFV
 70
     6
  9
$UCSBASE
  2

  9
$UCSNAME
  2

  9
$UCSORG
 10
0.0
 20
0.0
 30
0.0
  9
$UCSXDIR
 10
1.0
 20
0.0
 30
0.0
  9
$UCSYDIR
 10
0.0
 20
1.0
 30
0.0
  9
$UCSORTHOREF
  2

  9
$UCSORTHOVIEW
 70
     0
  9
$UCSORGTOP
 10
0.0
 20
0.0
 30
0.0
  9
$UCSORGBOTTOM
 10
0.0
 20
0.0
 30
0.0
  9
$UCSORGLEFT
 10
0.0
 20
0.0
 30
0.0
  9
$UCSORGRIGHT
 10
0.0
 20
0.0
 30
0.0
  9
$UCSORGFRONT
 10
0.0
 20
0.0
 30
0.0
  9
$UCSORGBACK
 10
0.0
 20
0.0
 30
0.0
  9
$PUCSBASE
  2

  9
$PUCSNAME
  2

  9
$PUCSORG
 10
0.0
 20
0.0
 30
0.0
  9
$PUCSXDIR
 10
1.0
 20
0.0
 30
0.0
  9
$PUCSYDIR
 10
0.0
 20
1.0
 30
0.0
  9
$PUCSORTHOREF
  2

  9
$PUCSORTHOVIEW
 70
     0
  9
$PUCSORGTOP
 10
0.0
 20
0.0
 30
0.0
  9
$PUCSORGBOTTOM
 10
0.0
 20
0.0
 30
0.0
  9
$PUCSORGLEFT
 10
0.0
 20
0.0
 30
0.0
  9
$PUCSORGRIGHT
 10
0.0
 20
0.0
 30
0.0
  9
$PUCSORGFRONT
 10
0.0
 20
0.0
 30
0.0
  9
$PUCSORGBACK
 10
0.0
 20
0.0
 30
0.0
  9
$USERI1
 70
     0
  9
$USERI2
 70
     0
  9
$USERI3
 70
     0
  9
$USERI4
 70
     0
  9
$USERI5
 70
     0
  9
$USERR1
 40
0.0
  9
$USERR2
 40
0.0
  9
$USERR3
 40
0.0
  9
$USERR4
 40
0.0
  9
$USERR5
 40
0.0
  9
$WORLDVIEW
 70
     1
  9
$SHADEDGE
 70
     3
  9
$SHADEDIF
 70
    70
  9
$TILEMODE
 70
     1
  9
$MAXACTVP
 70
    64
  9
$PINSBASE
 10
0.0
 20
0.0
 30
0.0
  9
$PLIMCHECK
 70
     0
  9
$PEXTMIN
 10
6.550360952942241
 20
3.271404891950567
 30
-0.0015258207003583
  9
$PEXTMAX
 10
296.6185267327722
 20
206.4473139376702
 30
0.0000000349246037
  9
$PLIMMIN
 10
3.386557152386103
 20
0.1071894225185588
  9
$PLIMMAX
 10
300.4395661855892
 20
209.9958460387295
  9
$UNITMODE
 70
     0
  9
$VISRETAIN
 70
     1
  9
$PLINEGEN
 70
     0
  9
$PSLTSCALE
 70
     0
  9
$TREEDEPTH
 70
  3020
  9
$CMLSTYLE
  2
Standard
  9
$CMLJUST
 70
     0
  9
$CMLSCALE
 40
1.0
  9
$PROXYGRAPHICS
 70
     1
  9
$MEASUREMENT
 70
     0
  9
$CELWEIGHT
370
    -1
  9
$ENDCAPS
280
     0
  9
$JOINSTYLE
280
     0
  9
$LWDISPLAY
290
     0
  9
$INSUNITS
 70
     1
  9
$HYPERLINKBASE
  1

  9
$STYLESHEET
  1

  9
$XEDIT
290
     1
  9
$CEPSNTYPE
380
     0
  9
$PSTYLEMODE
290
     1
  9
$FINGERPRINTGUID
  2
{1B330B5B-CE04-4EC8-B886-8C8BFC3A02BF}
  9
$VERSIONGUID
  2
{CD1CCE61-6840-4556-9D3F-519B9F4112F9}
  9
$EXTNAMES
290
     1
  9
$PSVPSCALE
 40
0.0
  9
$OLESTARTUP
290
     0
  9
$SORTENTS
280
   127
  9
$INDEXCTL
280
     0
  9
$HIDETEXT
280
     1
  9
$XCLIPFRAME
290
     0
  9
$HALOGAP
280
     0
  9
$OBSCOLOR
 70
   257
  9
$OBSLTYPE
280
     0
  9
$INTERSECTIONDISPLAY
280
     0
  9
$INTERSECTIONCOLOR
 70
   257
  9
$DIMASSOC
280
     2
  9
$PROJECTNAME
  1

  0
ENDSEC
  0
SECTION
  2
CLASSES
  0
CLASS
  1
ACDBDICTIONARYWDFLT
  2
AcDbDictionaryWithDefault
  3
ObjectDBX Classes
 90
        0
 91
        1
280
     0
281
     0
  0
CLASS
  1
VISUALSTYLE
  2
AcDbVisualStyle
  3
ObjectDBX Classes
 90
     4095
 91
       16
280
     0
281
     0
  0
CLASS
  1
MATERIAL
  2
AcDbMaterial
  3
ObjectDBX Classes
 90
     1153
 91
        3
280
     0
281
     0
  0
CLASS
  1
DICTIONARYVAR
  2
AcDbDictionaryVar
  3
ObjectDBX Classes
 90
        0
 91
        9
280
     0
281
     0
  0
CLASS
  1
TABLESTYLE
  2
AcDbTableStyle
  3
ObjectDBX Classes
 90
     4095
 91
        1
280
     0
281
     0
  0
CLASS
  1
SORTENTSTABLE
  2
AcDbSortentsTable
  3
ObjectDBX Classes
 90
        0
 91
        1
280
     0
281
     0
  0
CLASS
  1
DIMASSOC
  2
AcDbDimAssoc
  3
"AcDbDimAssoc|Product Desc:     AcDim ARX App For Dimension|Company:          Autodesk, Inc.|WEB Address:      www.autodesk.com"
 90
        0
 91
        1
280
     0
281
     0
  0
CLASS
  1
SCALE
  2
AcDbScale
  3
ObjectDBX Classes
 90
     1153
 91
       33
280
     0
281
     0
  0
CLASS
  1
MLEADERSTYLE
  2
AcDbMLeaderStyle
  3
ACDB_MLEADERSTYLE_CLASS
 90
     4095
 91
        1
280
     0
281
     0
  0
CLASS
  1
CELLSTYLEMAP
  2
AcDbCellStyleMap
  3
ObjectDBX Classes
 90
     1152
 91
        2
280
     0
281
     0
  0
ENDSEC
  0
SECTION
  2
TABLES
  0
TABLE
  2
VPORT
  5
8
102
{ACAD_XDICTIONARY
360
84C
102
}
330
0
100
AcDbSymbolTable
 70
     1
  0
VPORT
  5
29
330
8
100
AcDbSymbolTableRecord
100
AcDbViewportTableRecord
  2
*Active
 70
     0
 10
0.0
 20
0.0
 11
1.0
 21
1.0
 12
8.273375678044946
 22
2.845554520767172
 13
0.0
 23
0.0
 14
0.5
 24
0.5
 15
0.5
 25
0.5
 16
0.0
 26
0.0
 36
1.0
 17
0.0
 27
0.0
 37
-1000.0
 40
7.809000322689287
 41
2.060556464811783
 42
50.0
 43
4.148984367261674
 44
9.217858496371269
 50
0.0
 51
0.0
 71
     0
 72
   100
 73
     1
 74
     3
 75
     0
 76
     0
 77
     0
 78
     0
281
     0
 65
     1
110
0.0
120
0.0
130
0.0
111
1.0
121
0.0
131
0.0
112
0.0
122
1.0
132
0.0
 79
     0
146
0.0
  0
ENDTAB
  0
TABLE
  2
LTYPE
  5
5
330
0
100
AcDbSymbolTable
 70
     2
  0
LTYPE
  5
14
330
5
100
AcDbSymbolTableRecord
100
AcDbLinetypeTableRecord
  2
ByBlock
 70
     0
  3

 72
    65
 73
     0
 40
0.0
  0
LTYPE
  5
15
330
5
100
AcDbSymbolTableRecord
100
AcDbLinetypeTableRecord
  2
ByLayer
 70
     0
  3

 72
    65
 73
     0
 40
0.0
  0
LTYPE
  5
16
330
5
100
AcDbSymbolTableRecord
100
AcDbLinetypeTableRecord
  2
Continuous
 70
     0
  3
Solid line
 72
    65
 73
     0
 40
0.0
  0
LTYPE
  5
886
330
5
100
AcDbSymbolTableRecord
100
AcDbLinetypeTableRecord
  2
DASHED
 70
     0
  3
Dashed __ __ __ __ __ __ __ __ __ __ __ __ __ _
 72
    65
 73
     2
 40
0.75
 49
0.5
 74
     0
 49
-0.25
 74
     0
  0
ENDTAB
  0
TABLE
  2
LAYER
  5
2
102
{ACAD_XDICTIONARY
360
7D1
102
}
330
0
100
AcDbSymbolTable
 70
     4
  0
LAYER
  5
10
102
{ACAD_XDICTIONARY
360
1D8A
102
}
330
2
100
AcDbSymbolTableRecord
100
AcDbLayerTableRecord
  2
0
 70
     0
 62
     7
  6
Continuous
370
   100
390
F
  0
LAYER
  5
87B
102
{ACAD_XDICTIONARY
360
1D8C
102
}
330
2
100
AcDbSymbolTableRecord
100
AcDbLayerTableRecord
  2
STREFA BEZPIECZEŃSTWA
 70
     0
 62
     7
  6
DASHED
370
    80
390
F
1001
AcAecLayerStandard
1000

1000

  0
LAYER
  5
87D
102
{ACAD_XDICTIONARY
360
1D8E
102
}
330
2
100
AcDbSymbolTableRecord
100
AcDbLayerTableRecord
  2
WYMIAR
 70
     0
 62
     7
  6
Continuous
370
    80
390
F
1001
AcAecLayerStandard
1000

1000

  0
LAYER
  5
8CC
330
2
100
AcDbSymbolTableRecord
100
AcDbLayerTableRecord
  2
Defpoints
 70
     0
 62
     7
  6
Continuous
290
     0
370
     5
390
F
1001
RAK
1000
{ACET-LAYISO
1070
     0
1070
     7
1000
Continuous
1071
        5
1071
        0
1005
F
1000
ACET-LAYISO}
  0
ENDTAB
  0
TABLE
  2
STYLE
  5
3
330
0
100
AcDbSymbolTable
 70
     2
  0
STYLE
  5
11
330
3
100
AcDbSymbolTableRecord
100
AcDbTextStyleTableRecord
  2
Standard
 70
     0
 40
0.0
 41
1.0
 50
0.0
 71
     0
 42
0.2
  3
txt
  4

  0
STYLE
  5
8CE
330
3
100
AcDbSymbolTableRecord
100
AcDbTextStyleTableRecord
  2
AR 01 SWIS
 70
     0
 40
0.0
 41
1.0
 50
0.0
 71
     0
 42
55.0
  3

  4

1001
ACAD
1000
Swis721 Cn BT
1071
       34
  0
ENDTAB
  0
TABLE
  2
VIEW
  5
6
330
0
100
AcDbSymbolTable
 70
     0
  0
ENDTAB
  0
TABLE
  2
UCS
  5
7
330
0
100
AcDbSymbolTable
 70
     0
  0
ENDTAB
  0
TABLE
  2
APPID
  5
9
330
0
100
AcDbSymbolTable
 70
     9
  0
APPID
  5
12
330
9
100
AcDbSymbolTableRecord
100
AcDbRegAppTableRecord
  2
ACAD
 70
     0
  0
APPID
  5
7CB
330
9
100
AcDbSymbolTableRecord
100
AcDbRegAppTableRecord
  2
ACAD_PSEXT
 70
     0
  0
APPID
  5
875
330
9
100
AcDbSymbolTableRecord
100
AcDbRegAppTableRecord
  2
ACAD_EXEMPT_FROM_CAD_STANDARDS
 70
     0
  0
APPID
  5
87C
330
9
100
AcDbSymbolTableRecord
100
AcDbRegAppTableRecord
  2
AcAecLayerStandard
 70
     0
  0
APPID
  5
8D4
330
9
100
AcDbSymbolTableRecord
100
AcDbRegAppTableRecord
  2
RAK
 70
     0
  0
APPID
  5
8D5
330
9
100
AcDbSymbolTableRecord
100
AcDbRegAppTableRecord
  2
ACAD_DSTYLE_DIMJOGGED_JOGANGLE_SYMBOL
 70
     0
  0
APPID
  5
8D6
330
9
100
AcDbSymbolTableRecord
100
AcDbRegAppTableRecord
  2
ACAD_DSTYLE_DIMJAG
 70
     0
  0
APPID
  5
8D7
330
9
100
AcDbSymbolTableRecord
100
AcDbRegAppTableRecord
  2
ACAD_DSTYLE_DIMTALN
 70
     0
  0
APPID
  5
1521
330
9
100
AcDbSymbolTableRecord
100
AcDbRegAppTableRecord
  2
ACAD_MLEADERVER
 70
     0
  0
ENDTAB
  0
TABLE
  2
DIMSTYLE
  5
A
330
0
100
AcDbSymbolTable
 70
     2
100
AcDbDimStyleTable
 71
     1
340
8CF
  0
DIMSTYLE
105
8CF
102
{ACAD_REACTORS
330
1D50
330
1D64
102
}
330
A
100
AcDbSymbolTableRecord
100
AcDbDimStyleTableRecord
  2
AR SKALA 1-50
 70
     0
 40
0.02
 41
3.0
 42
20.0
 43
0.0
 44
5.0
 45
0.1
 73
     0
 74
     0
 75
     1
 76
     1
 77
     1
 78
     1
140
9.0
141
12.0
143
1.0
146
0.01
147
6.0
171
     4
172
     1
173
     1
174
     1
176
   256
177
   256
178
   256
179
     1
271
     2
272
     2
274
     4
279
     2
340
8CE
341
8BC
343
8BC
344
8BC
  0
DIMSTYLE
105
B3C
330
A
100
AcDbSymbolTableRecord
100
AcDbDimStyleTableRecord
  2
Standard
 70
     0
340
11
  0
ENDTAB
  0
TABLE
  2
BLOCK_RECORD
  5
1
330
0
100
AcDbSymbolTable
 70
     5
  0
BLOCK_RECORD
  5
1F
102
{ACAD_XDICTIONARY
360
5F8
102
}
330
1
100
AcDbSymbolTableRecord
100
AcDbBlockTableRecord
  2
*Model_Space
340
22
  0
BLOCK_RECORD
  5
1B
330
1
100
AcDbSymbolTableRecord
100
AcDbBlockTableRecord
  2
*Paper_Space
340
1E
  0
BLOCK_RECORD
  5
8BC
330
1
100
AcDbSymbolTableRecord
100
AcDbBlockTableRecord
  2
MAR-STRZ
340
0
310
2800000020000000200000000100080000000000000400000000000000000000000000000000000000000000000080000080000000808000800000008000800080800000C0C0C000C0DCC000F0CAA6000020400000206000002080000020A0000020C0000020E00000400000004020000040400000406000004080000040A0
310
000040C0000040E00000600000006020000060400000606000006080000060A0000060C0000060E00000800000008020000080400000806000008080000080A0000080C0000080E00000A0000000A0200000A0400000A0600000A0800000A0A00000A0C00000A0E00000C0000000C0200000C0400000C0600000C0800000C0
310
A00000C0C00000C0E00000E0000000E0200000E0400000E0600000E0800000E0A00000E0C00000E0E00040000000400020004000400040006000400080004000A0004000C0004000E00040200000402020004020400040206000402080004020A0004020C0004020E000404000004040200040404000404060004040800040
310
40A0004040C0004040E00040600000406020004060400040606000406080004060A0004060C0004060E00040800000408020004080400040806000408080004080A0004080C0004080E00040A0000040A0200040A0400040A0600040A0800040A0A00040A0C00040A0E00040C0000040C0200040C0400040C0600040C08000
310
40C0A00040C0C00040C0E00040E0000040E0200040E0400040E0600040E0800040E0A00040E0C00040E0E00080000000800020008000400080006000800080008000A0008000C0008000E00080200000802020008020400080206000802080008020A0008020C0008020E00080400000804020008040400080406000804080
310
008040A0008040C0008040E00080600000806020008060400080606000806080008060A0008060C0008060E00080800000808020008080400080806000808080008080A0008080C0008080E00080A0000080A0200080A0400080A0600080A0800080A0A00080A0C00080A0E00080C0000080C0200080C0400080C0600080C0
310
800080C0A00080C0C00080C0E00080E0000080E0200080E0400080E0600080E0800080E0A00080E0C00080E0E000C0000000C0002000C0004000C0006000C0008000C000A000C000C000C000E000C0200000C0202000C0204000C0206000C0208000C020A000C020C000C020E000C0400000C0402000C0404000C0406000C0
310
408000C040A000C040C000C040E000C0600000C0602000C0604000C0606000C0608000C060A000C060C000C060E000C0800000C0802000C0804000C0806000C0808000C080A000C080C000C080E000C0A00000C0A02000C0A04000C0A06000C0A08000C0A0A000C0A0C000C0A0E000C0C00000C0C02000C0C04000C0C06000
310
C0C08000C0C0A000F0FBFF00A4A0A000808080000000FF0000FF000000FFFF00FF000000FF00FF00FFFF0000FFFFFF00000000000000000000000000000000000000000000000000000000000000000000000000000000000000000000000000FF000000000000000000000000000000000000000000000000000000000000
310
00FF00000000000000000000000000000000000000000000000000000000000000FF00000000000000000000000000000000000000000000000000000000000000FF00000000000000000000000000000000000000000000000000000000000000FF000000000000000000000000000000000000000000F900000000000000
310
0000FF00000000000000000000000000000000000000000000F90000000000000000FF0000000000000000000000000000000000000000000000F900000000000000FF000000000000000000000000000000000000000000000000F9000000000000FF00000000000000000000000000000000000000000000000000F90000
310
000000FF0000000000000000000000000000000000000000000000000000F900000000FF000000000000000000000000000000000000000000000000000000F9000000FF00000000000000000000000000000000000000000000000000000000F90000FF000000000000000000000000000000000000000000000000000000
310
0000F900FF000000000000000000000000000000000000000000000000000000000000F9FF00000000000000000000000000000000000000000000FFFFFFFFFFFFFFFFFFFFFFFFFFFFFFFFFFFF0000000000000000000000000000000000000000000000FFF900000000000000000000000000000000000000000000000000
310
0000000000FF00F90000000000000000000000000000000000000000000000000000000000FF0000F900000000000000000000000000000000000000000000000000000000FF000000F9000000000000000000000000000000000000000000000000000000FF00000000F90000000000000000000000000000000000000000
310
000000000000FF0000000000F900000000000000000000000000000000000000000000000000FF000000000000F9000000000000000000000000000000000000000000000000FF00000000000000F90000000000000000000000000000000000000000000000FF0000000000000000F9000000000000000000000000000000
310
00000000000000FF00000000000000000000000000000000000000000000000000000000000000FF00000000000000000000000000000000000000000000000000000000000000FF00000000000000000000000000000000000000000000000000000000000000FF0000000000000000000000000000000000000000000000
310
0000000000000000FF0000000000000000000000000000000000000000000000000000000000000000000000000000000000000000000000
102
{BLKREFS
331
14A2
331
14A3
331
14A9
331
14AA
331
1D71
331
1D72
331
1D80
331
1D81
102
}
  0
BLOCK_RECORD
  5
1D51
330
1
100
AcDbSymbolTableRecord
100
AcDbBlockTableRecord
  2
*D3
340
0
  0
BLOCK_RECORD
  5
1D65
330
1
100
AcDbSymbolTableRecord
100
AcDbBlockTableRecord
  2
*D4
340
0
  0
ENDTAB
  0
ENDSEC
  0
SECTION
  2
BLOCKS
  0
BLOCK
  5
20
330
1F
100
AcDbEntity
  8
0
100
AcDbBlockBegin
  2
*Model_Space
 70
     0
 10
0.0
 20
0.0
 30
0.0
  3
*Model_Space
  1

  0
ENDBLK
  5
21
330
1F
100
AcDbEntity
  8
0
100
AcDbBlockEnd
  0
BLOCK
  5
1C
330
1B
100
AcDbEntity
 67
     1
  8
0
100
AcDbBlockBegin
  2
*Paper_Space
 70
     0
 10
0.0
 20
0.0
 30
0.0
  3
*Paper_Space
  1

  0
ENDBLK
  5
1D
330
1B
100
AcDbEntity
 67
     1
  8
0
100
AcDbBlockEnd
  0
BLOCK
  5
8BD
330
8BC
100
AcDbEntity
  8
0
100
AcDbBlockBegin
  2
MAR-STRZ
 70
     0
 10
0.0
 20
0.0
 30
0.0
  3
MAR-STRZ
  1

  0
LINE
  5
8BE
330
8BC
100
AcDbEntity
  8
0
100
AcDbLine
 10
0.0
 20
2.299999999999272
 30
0.0
 11
0.0
 21
-2.299999999999272
 31
0.0
  0
LINE
  5
8BF
330
8BC
100
AcDbEntity
  8
0
 62
    10
100
AcDbLine
 10
1.5
 20
1.5
 30
0.0
 11
-1.5
 21
-1.5
 31
0.0
  0
LINE
  5
8C0
330
8BC
100
AcDbEntity
  8
0
100
AcDbLine
 10
1.399999999999636
 20
0.0
 30
0.0
 11
-1.399999999999636
 21
0.0
 31
0.0
  0
ENDBLK
  5
8C1
330
8BC
100
AcDbEntity
  8
0
100
AcDbBlockEnd
  0
BLOCK
  5
1D52
330
1D51
100
AcDbEntity
  8
0
100
AcDbBlockBegin
  2
*D3
 70
     1
 10
0.0
 20
0.0
 30
0.0
  3
*D3
  1

  0
LINE
  5
1D7F
330
1D51
100
AcDbEntity
  8
WYMIAR
370
    -2
100
AcDbLine
 10
10.66451805282717
 20
5.90525513062353
 30
0.0
 11
6.684518052827191
 21
5.90525513062353
 31
0.0
  0
INSERT
  5
1D80
330
1D51
100
AcDbEntity
  8
WYMIAR
370
    -2
100
AcDbBlockReference
  2
MAR-STRZ
 10
10.72451805282717
 20
5.90525513062353
 30
0.0
 41
0.06
 42
0.06
 43
0.06
  0
INSERT
  5
1D81
330
1D51
100
AcDbEntity
  8
WYMIAR
370
    -2
100
AcDbBlockReference
  2
MAR-STRZ
 10
6.624518052827191
 20
5.90525513062353
 30
0.0
 41
0.06
 42
0.06
 43
0.06
 50
180.0
  0
MTEXT
  5
1D82
330
1D51
100
AcDbEntity
  8
WYMIAR
100
AcDbMText
 10
8.674518052827183
 20
6.11525513062353
 30
0.0
 40
0.18
 41
0.0
 71
     5
 72
     1
  1
\A1;4.10
  7
AR 01 SWIS
 73
     1
 44
1.0
  0
POINT
  5
1D83
330
1D51
100
AcDbEntity
  8
Defpoints
 62
     0
100
AcDbPoint
 10
10.72451805282717
 20
5.454419857589854
 30
0.0
  0
POINT
  5
1D84
330
1D51
100
AcDbEntity
  8
Defpoints
 62
     0
100
AcDbPoint
 10
6.624518052827191
 20
5.454419857589854
 30
0.0
  0
POINT
  5
1D85
330
1D51
100
AcDbEntity
  8
Defpoints
 62
     0
100
AcDbPoint
 10
6.624518052827191
 20
5.90525513062353
 30
0.0
  0
ENDBLK
  5
1D53
330
1D51
100
AcDbEntity
  8
0
100
AcDbBlockEnd
  0
BLOCK
  5
1D66
330
1D65
100
AcDbEntity
  8
0
100
AcDbBlockBegin
  2
*D4
 70
     1
 10
0.0
 20
0.0
 30
0.0
  3
*D4
  1

  0
LINE
  5
1D70
330
1D65
100
AcDbEntity
  8
WYMIAR
370
    -2
100
AcDbLine
 10
5.935110205118399
 20
5.319995586812304
 30
0.0
 11
5.935110205118398
 21
0.9399955868123029
 31
0.0
  0
INSERT
  5
1D71
330
1D65
100
AcDbEntity
  8
WYMIAR
370
    -2
100
AcDbBlockReference
  2
MAR-STRZ
 10
5.935110205118399
 20
5.379995586812303
 30
0.0
 41
0.06
 42
0.06
 43
0.06
 50
90.0
  0
INSERT
  5
1D72
330
1D65
100
AcDbEntity
  8
WYMIAR
370
    -2
100
AcDbBlockReference
  2
MAR-STRZ
 10
5.935110205118398
 20
0.879995586812303
 30
0.0
 41
0.06
 42
0.06
 43
0.06
 50
270.0
  0
MTEXT
  5
1D73
330
1D65
100
AcDbEntity
  8
WYMIAR
100
AcDbMText
 10
5.725110205118398
 20
3.129995586812304
 30
0.0
 40
0.18
 41
0.0
 71
     5
 72
     1
  1
\A1;4.50
  7
AR 01 SWIS
 11
0.0000000000000001
 21
1.0
 31
0.0
 73
     1
 44
1.0
  0
POINT
  5
1D74
330
1D65
100
AcDbEntity
  8
Defpoints
 62
     0
100
AcDbPoint
 10
6.624518052827191
 20
5.379995586812302
 30
0.0
  0
POINT
  5
1D75
330
1D65
100
AcDbEntity
  8
Defpoints
 62
     0
100
AcDbPoint
 10
6.624518052827191
 20
0.8799955868123028
 30
0.0
  0
POINT
  5
1D76
330
1D65
100
AcDbEntity
  8
Defpoints
 62
     0
100
AcDbPoint
 10
5.935110205118398
 20
0.879995586812303
 30
0.0
  0
ENDBLK
  5
1D67
330
1D65
100
AcDbEntity
  8
0
100
AcDbBlockEnd
  0
ENDSEC
  0
SECTION
  2
ENTITIES
  0
LINE
  5
1B34
330
1F
100
AcDbEntity
  8
0
100
AcDbLine
 10
8.390583970821328
 20
2.626901091933067
 30
0.0
 11
8.390583970821328
 21
2.539715473888247
 31
0.0
  0
LINE
  5
1B35
330
1F
100
AcDbEntity
  8
0
100
AcDbLine
 10
8.275776997612284
 20
2.539715473888243
 30
0.0
 11
8.390583970821328
 21
2.539715473888247
 31
0.0
  0
LINE
  5
1B36
330
1F
100
AcDbEntity
  8
0
100
AcDbLine
 10
8.271526997612214
 20
3.132890523103199
 30
0.0
 11
8.394833970821258
 21
3.132890523103203
 31
0.0
  0
LINE
  5
1B37
330
1F
100
AcDbEntity
  8
0
100
AcDbLine
 10
8.394833970821258
 20
3.125125951750128
 30
0.0
 11
8.394833970821258
 21
3.132890523103203
 31
0.0
  0
LINE
  5
1B38
330
1F
100
AcDbEntity
  8
0
100
AcDbLine
 10
8.271526997612214
 20
3.125125951750124
 30
0.0
 11
8.271526997612214
 21
3.132890523103199
 31
0.0
  0
LINE
  5
1B39
330
1F
100
AcDbEntity
  8
0
100
AcDbLine
 10
8.275461064216825
 20
2.590802029255304
 30
0.0
 11
8.275461064216825
 21
2.543779910851014
 31
0.0
  0
LINE
  5
1B3A
330
1F
100
AcDbEntity
  8
0
100
AcDbLine
 10
8.392496884216823
 20
2.590802029255304
 30
0.0
 11
8.392496884216823
 21
2.543779910851014
 31
0.0
  0
LINE
  5
1B3B
330
1F
100
AcDbEntity
  8
0
100
AcDbLine
 10
8.263639264216825
 20
2.590802029255304
 30
0.0
 11
8.275461064216825
 21
2.590802029255304
 31
0.0
  0
LINE
  5
1B3C
330
1F
100
AcDbEntity
  8
0
100
AcDbLine
 10
8.392496884216823
 20
2.626901091933067
 30
0.0
 11
8.392496884216823
 21
2.590802029255304
 31
0.0
  0
LINE
  5
1B3D
330
1F
100
AcDbEntity
  8
0
100
AcDbLine
 10
8.404318684216823
 20
2.590802029255304
 30
0.0
 11
8.404318684216823
 21
2.543779910851014
 31
0.0
  0
LINE
  5
1B3E
330
1F
100
AcDbEntity
  8
0
100
AcDbLine
 10
8.263639264216825
 20
2.691769869506966
 30
0.0
 11
8.275461064216825
 21
2.691769869506966
 31
0.0
  0
LINE
  5
1B3F
330
1F
100
AcDbEntity
  8
0
100
AcDbLine
 10
8.392496884216823
 20
2.543779910851014
 30
0.0
 11
8.404318684216823
 21
2.543779910851014
 31
0.0
  0
LINE
  5
1B40
330
1F
100
AcDbEntity
  8
0
100
AcDbLine
 10
8.263639264216825
 20
2.543779910851014
 30
0.0
 11
8.275461064216825
 21
2.543779910851014
 31
0.0
  0
LINE
  5
1B41
330
1F
100
AcDbEntity
  8
0
100
AcDbLine
 10
8.263639264216825
 20
2.590802029255304
 30
0.0
 11
8.263639264216825
 21
2.543779910851014
 31
0.0
  0
LINE
  5
1B42
330
1F
100
AcDbEntity
  8
0
100
AcDbLine
 10
8.392496884216823
 20
2.590802029255304
 30
0.0
 11
8.404318684216823
 21
2.590802029255304
 31
0.0
  0
LINE
  5
1B43
330
1F
100
AcDbEntity
  8
0
100
AcDbLine
 10
8.404318684216823
 20
2.640986808220912
 30
0.0
 11
8.416140484216825
 21
2.640986808220912
 31
0.0
  0
LINE
  5
1B44
330
1F
100
AcDbEntity
  8
0
100
AcDbLine
 10
8.404318684216823
 20
2.612447945180157
 30
0.0
 11
8.416140484216825
 21
2.612447945180157
 31
0.0
  0
LINE
  5
1B45
330
1F
100
AcDbEntity
  8
0
100
AcDbLine
 10
8.404318684216823
 20
2.592252789815798
 30
0.0
 11
8.416140484216825
 21
2.592252789815798
 31
0.0
  0
LINE
  5
1B46
330
1F
100
AcDbEntity
  8
0
100
AcDbLine
 10
8.251817464216825
 20
2.640986808220912
 30
0.0
 11
8.263639264216825
 21
2.640986808220912
 31
0.0
  0
LINE
  5
1B47
330
1F
100
AcDbEntity
  8
0
100
AcDbLine
 10
8.251817464216825
 20
2.612447945180157
 30
0.0
 11
8.263639264216825
 21
2.612447945180157
 31
0.0
  0
LINE
  5
1B48
330
1F
100
AcDbEntity
  8
0
100
AcDbLine
 10
8.251817464216825
 20
2.592252789815795
 30
0.0
 11
8.263639264216825
 21
2.592252789815795
 31
0.0
  0
LINE
  5
1B49
330
1F
100
AcDbEntity
  8
0
100
AcDbLine
 10
9.118472934060942
 20
2.539715473888247
 30
0.0
 11
9.233279907269984
 21
2.53971547388825
 31
0.0
  0
LINE
  5
1B4A
330
1F
100
AcDbEntity
  8
0
100
AcDbLine
 10
9.118472934060939
 20
2.692107391184858
 30
0.0
 11
9.118472934060935
 21
2.7319944776462
 31
0.0
  0
LINE
  5
1B4B
330
1F
100
AcDbEntity
  8
0
100
AcDbLine
 10
9.118472934060928
 20
2.771994477646199
 30
0.0
 11
9.118472934060925
 21
2.813263657808391
 31
0.0
  0
LINE
  5
1B4C
330
1F
100
AcDbEntity
  8
0
100
AcDbLine
 10
9.118472934060921
 20
2.85326365780839
 30
0.0
 11
9.1184729340609
 21
2.884545384092024
 31
0.0
  0
LINE
  5
1B4D
330
1F
100
AcDbEntity
  8
0
100
AcDbLine
 10
9.114222934060871
 20
3.132890523103206
 30
0.0
 11
9.237529907269916
 21
3.132890523103206
 31
0.0
  0
LINE
  5
1B4E
330
1F
100
AcDbEntity
  8
0
100
AcDbLine
 10
9.237529907269916
 20
3.125125951750131
 30
0.0
 11
9.237529907269916
 21
3.132890523103206
 31
0.0
  0
LINE
  5
1B4F
330
1F
100
AcDbEntity
  8
0
100
AcDbLine
 10
9.114222934060871
 20
3.125125951750128
 30
0.0
 11
9.114222934060871
 21
3.132890523103206
 31
0.0
  0
LINE
  5
1B50
330
1F
100
AcDbEntity
  8
0
100
AcDbLine
 10
9.118157000665483
 20
2.590802029255307
 30
0.0
 11
9.118157000665483
 21
2.543779910851018
 31
0.0
  0
LINE
  5
1B51
330
1F
100
AcDbEntity
  8
0
100
AcDbLine
 10
9.235192820665481
 20
2.590802029255307
 30
0.0
 11
9.235192820665481
 21
2.543779910851018
 31
0.0
  0
LINE
  5
1B52
330
1F
100
AcDbEntity
  8
0
100
AcDbLine
 10
9.106335200665483
 20
2.590802029255307
 30
0.0
 11
9.118157000665483
 21
2.590802029255307
 31
0.0
  0
LINE
  5
1B53
330
1F
100
AcDbEntity
  8
0
100
AcDbLine
 10
9.118157000665483
 20
2.626901091933067
 30
0.0
 11
9.118157000665483
 21
2.590802029255307
 31
0.0
  0
LINE
  5
1B54
330
1F
100
AcDbEntity
  8
0
100
AcDbLine
 10
9.235192820665481
 20
2.69176986950697
 30
0.0
 11
9.247014620665481
 21
2.69176986950697
 31
0.0
  0
LINE
  5
1B55
330
1F
100
AcDbEntity
  8
0
100
AcDbLine
 10
9.247014620665481
 20
2.590802029255307
 30
0.0
 11
9.247014620665481
 21
2.543779910851018
 31
0.0
  0
LINE
  5
1B56
330
1F
100
AcDbEntity
  8
0
100
AcDbLine
 10
9.235192820665481
 20
2.543779910851018
 30
0.0
 11
9.247014620665481
 21
2.543779910851018
 31
0.0
  0
LINE
  5
1B57
330
1F
100
AcDbEntity
  8
0
100
AcDbLine
 10
9.106335200665483
 20
2.543779910851018
 30
0.0
 11
9.118157000665483
 21
2.543779910851018
 31
0.0
  0
LINE
  5
1B58
330
1F
100
AcDbEntity
  8
0
100
AcDbLine
 10
9.106335200665483
 20
2.590802029255307
 30
0.0
 11
9.106335200665483
 21
2.543779910851018
 31
0.0
  0
LINE
  5
1B59
330
1F
100
AcDbEntity
  8
0
100
AcDbLine
 10
9.235192820665481
 20
2.590802029255307
 30
0.0
 11
9.247014620665481
 21
2.590802029255307
 31
0.0
  0
LINE
  5
1B5A
330
1F
100
AcDbEntity
  8
0
100
AcDbLine
 10
9.247014620665481
 20
2.640986808220915
 30
0.0
 11
9.258836420665481
 21
2.640986808220915
 31
0.0
  0
LINE
  5
1B5B
330
1F
100
AcDbEntity
  8
0
100
AcDbLine
 10
9.247014620665481
 20
2.612447945180164
 30
0.0
 11
9.258836420665481
 21
2.612447945180164
 31
0.0
  0
LINE
  5
1B5C
330
1F
100
AcDbEntity
  8
0
100
AcDbLine
 10
9.247014620665481
 20
2.592252789815802
 30
0.0
 11
9.258836420665481
 21
2.592252789815802
 31
0.0
  0
LINE
  5
1B5D
330
1F
100
AcDbEntity
  8
0
100
AcDbLine
 10
9.094513400665483
 20
2.640986808220915
 30
0.0
 11
9.105301867477756
 21
2.640986808220915
 31
0.0
  0
LINE
  5
1B5E
330
1F
100
AcDbEntity
  8
0
100
AcDbLine
 10
9.094513400665483
 20
2.612447945180164
 30
0.0
 11
9.106335200665483
 21
2.612447945180164
 31
0.0
  0
LINE
  5
1B5F
330
1F
100
AcDbEntity
  8
0
100
AcDbLine
 10
9.094513400665483
 20
2.592252789815802
 30
0.0
 11
9.106335200665483
 21
2.592252789815802
 31
0.0
  0
LINE
  5
1B60
330
1F
100
AcDbEntity
  8
0
100
AcDbLine
 10
8.160970024403241
 20
3.617844421523621
 30
0.0
 11
8.275776997612286
 21
3.617844421523621
 31
0.0
  0
LINE
  5
1B61
330
1F
100
AcDbEntity
  8
0
100
AcDbLine
 10
8.160970024403241
 20
3.617844421523621
 30
0.0
 11
8.160970024403173
 21
3.03243394366174
 31
0.0
  0
LINE
  5
1B62
330
1F
100
AcDbEntity
  8
0
100
AcDbLine
 10
8.156720024403171
 20
3.024669372308665
 30
0.0
 11
8.280026997612216
 21
3.024669372308665
 31
0.0
  0
LINE
  5
1B63
330
1F
100
AcDbEntity
  8
0
100
AcDbLine
 10
8.280026997612216
 20
3.03243394366174
 30
0.0
 11
8.280026997612216
 21
3.024669372308665
 31
0.0
  0
LINE
  5
1B64
330
1F
100
AcDbEntity
  8
0
100
AcDbLine
 10
8.156720024403171
 20
3.03243394366174
 30
0.0
 11
8.156720024403171
 21
3.024669372308665
 31
0.0
  0
LINE
  5
1B65
330
1F
100
AcDbEntity
  8
0
100
AcDbLine
 10
8.160654091007783
 20
3.56675786615656
 30
0.0
 11
8.160654091007783
 21
3.613779984560849
 31
0.0
  0
LINE
  5
1B66
330
1F
100
AcDbEntity
  8
0
100
AcDbLine
 10
8.277689911007779
 20
3.56675786615656
 30
0.0
 11
8.277689911007779
 21
3.613779984560849
 31
0.0
  0
LINE
  5
1B67
330
1F
100
AcDbEntity
  8
0
100
AcDbLine
 10
8.148832291007781
 20
3.56675786615656
 30
0.0
 11
8.160654091007783
 21
3.56675786615656
 31
0.0
  0
LINE
  5
1B68
330
1F
100
AcDbEntity
  8
0
100
AcDbLine
 10
8.277689911007779
 20
3.525596261713566
 30
0.0
 11
8.277689911007779
 21
3.56675786615656
 31
0.0
  0
LINE
  5
1B69
330
1F
100
AcDbEntity
  8
0
100
AcDbLine
 10
8.289511711007781
 20
3.56675786615656
 30
0.0
 11
8.289511711007781
 21
3.613779984560849
 31
0.0
  0
LINE
  5
1B6A
330
1F
100
AcDbEntity
  8
0
100
AcDbLine
 10
8.148832291007781
 20
3.465790025904897
 30
0.0
 11
8.160654091007783
 21
3.465790025904897
 31
0.0
  0
LINE
  5
1B6B
330
1F
100
AcDbEntity
  8
0
100
AcDbLine
 10
8.277689911007779
 20
3.613779984560849
 30
0.0
 11
8.289511711007781
 21
3.613779984560849
 31
0.0
  0
LINE
  5
1B6C
330
1F
100
AcDbEntity
  8
0
100
AcDbLine
 10
8.248516357612325
 20
3.609715547598078
 30
0.0
 11
8.260338157612327
 21
3.609715547598078
 31
0.0
  0
LINE
  5
1B6D
330
1F
100
AcDbEntity
  8
0
100
AcDbLine
 10
8.148832291007781
 20
3.56675786615656
 30
0.0
 11
8.148832291007781
 21
3.613779984560849
 31
0.0
  0
LINE
  5
1B6E
330
1F
100
AcDbEntity
  8
0
100
AcDbLine
 10
8.277689911007779
 20
3.56675786615656
 30
0.0
 11
8.289511711007781
 21
3.56675786615656
 31
0.0
  0
LINE
  5
1B6F
330
1F
100
AcDbEntity
  8
0
100
AcDbLine
 10
8.289511711007781
 20
3.516573087190955
 30
0.0
 11
8.301333511007783
 21
3.516573087190955
 31
0.0
  0
LINE
  5
1B70
330
1F
100
AcDbEntity
  8
0
100
AcDbLine
 10
8.289511711007781
 20
3.545111950231706
 30
0.0
 11
8.301333511007783
 21
3.545111950231706
 31
0.0
  0
LINE
  5
1B71
330
1F
100
AcDbEntity
  8
0
100
AcDbLine
 10
8.289511711007781
 20
3.565307105596069
 30
0.0
 11
8.301333511007783
 21
3.565307105596069
 31
0.0
  0
LINE
  5
1B72
330
1F
100
AcDbEntity
  8
0
100
AcDbLine
 10
8.137010491007782
 20
3.516573087190955
 30
0.0
 11
8.148832291007781
 21
3.516573087190955
 31
0.0
  0
LINE
  5
1B73
330
1F
100
AcDbEntity
  8
0
100
AcDbLine
 10
8.137010491007782
 20
3.545111950231706
 30
0.0
 11
8.148832291007781
 21
3.545111950231706
 31
0.0
  0
LINE
  5
1B74
330
1F
100
AcDbEntity
  8
0
100
AcDbLine
 10
8.137010491007782
 20
3.565307105596069
 30
0.0
 11
8.148832291007781
 21
3.565307105596069
 31
0.0
  0
LINE
  5
1B75
330
1F
100
AcDbEntity
  8
0
100
AcDbLine
 10
9.003665960851897
 20
3.617844421523628
 30
0.0
 11
9.118472934060942
 21
3.617844421523628
 31
0.0
  0
LINE
  5
1B76
330
1F
100
AcDbEntity
  8
0
100
AcDbLine
 10
8.999415960851827
 20
3.024669372308672
 30
0.0
 11
9.12272293406087
 21
3.024669372308672
 31
0.0
  0
LINE
  5
1B77
330
1F
100
AcDbEntity
  8
0
100
AcDbLine
 10
9.12272293406087
 20
3.032433943661747
 30
0.0
 11
9.12272293406087
 21
3.024669372308672
 31
0.0
  0
LINE
  5
1B78
330
1F
100
AcDbEntity
  8
0
100
AcDbLine
 10
8.999415960851827
 20
3.032433943661747
 30
0.0
 11
8.999415960851827
 21
3.024669372308672
 31
0.0
  0
LINE
  5
1B79
330
1F
100
AcDbEntity
  8
0
100
AcDbLine
 10
9.003350027456438
 20
3.566757866156567
 30
0.0
 11
9.003350027456438
 21
3.613779984560856
 31
0.0
  0
LINE
  5
1B7A
330
1F
100
AcDbEntity
  8
0
100
AcDbLine
 10
9.120385847456436
 20
3.566757866156567
 30
0.0
 11
9.120385847456436
 21
3.613779984560856
 31
0.0
  0
LINE
  5
1B7B
330
1F
100
AcDbEntity
  8
0
100
AcDbLine
 10
8.991528227456438
 20
3.566757866156567
 30
0.0
 11
9.003350027456438
 21
3.566757866156567
 31
0.0
  0
LINE
  5
1B7C
330
1F
100
AcDbEntity
  8
0
100
AcDbLine
 10
9.003350027456438
 20
3.525596261713566
 30
0.0
 11
9.003350027456438
 21
3.566757866156567
 31
0.0
  0
LINE
  5
1B7D
330
1F
100
AcDbEntity
  8
0
100
AcDbLine
 10
9.120385847456436
 20
3.465790025904905
 30
0.0
 11
9.132207647456436
 21
3.465790025904905
 31
0.0
  0
LINE
  5
1B7E
330
1F
100
AcDbEntity
  8
0
100
AcDbLine
 10
9.132207647456436
 20
3.566757866156567
 30
0.0
 11
9.132207647456436
 21
3.613779984560856
 31
0.0
  0
LINE
  5
1B7F
330
1F
100
AcDbEntity
  8
0
100
AcDbLine
 10
9.120385847456436
 20
3.613779984560856
 30
0.0
 11
9.132207647456436
 21
3.613779984560856
 31
0.0
  0
LINE
  5
1B80
330
1F
100
AcDbEntity
  8
0
100
AcDbLine
 10
8.991528227456438
 20
3.613779984560856
 30
0.0
 11
9.003350027456438
 21
3.613779984560856
 31
0.0
  0
LINE
  5
1B81
330
1F
100
AcDbEntity
  8
0
100
AcDbLine
 10
8.991528227456438
 20
3.566757866156567
 30
0.0
 11
8.991528227456438
 21
3.613779984560856
 31
0.0
  0
LINE
  5
1B82
330
1F
100
AcDbEntity
  8
0
100
AcDbLine
 10
9.120385847456436
 20
3.566757866156567
 30
0.0
 11
9.132207647456436
 21
3.566757866156567
 31
0.0
  0
LINE
  5
1B83
330
1F
100
AcDbEntity
  8
0
100
AcDbLine
 10
9.132207647456436
 20
3.516573087190963
 30
0.0
 11
9.144029447456439
 21
3.516573087190963
 31
0.0
  0
LINE
  5
1B84
330
1F
100
AcDbEntity
  8
0
100
AcDbLine
 10
9.132207647456436
 20
3.545111950231714
 30
0.0
 11
9.144029447456439
 21
3.545111950231714
 31
0.0
  0
LINE
  5
1B85
330
1F
100
AcDbEntity
  8
0
100
AcDbLine
 10
9.132207647456436
 20
3.565307105596076
 30
0.0
 11
9.144029447456439
 21
3.565307105596076
 31
0.0
  0
LINE
  5
1B86
330
1F
100
AcDbEntity
  8
0
100
AcDbLine
 10
8.979706427456438
 20
3.516573087190963
 30
0.0
 11
8.990494894268708
 21
3.516573087190963
 31
0.0
  0
LINE
  5
1B87
330
1F
100
AcDbEntity
  8
0
100
AcDbLine
 10
8.979706427456438
 20
3.545111950231714
 30
0.0
 11
8.991528227456438
 21
3.545111950231714
 31
0.0
  0
LINE
  5
1B88
330
1F
100
AcDbEntity
  8
0
100
AcDbLine
 10
8.979706427456438
 20
3.565307105596076
 30
0.0
 11
8.991528227456438
 21
3.565307105596076
 31
0.0
  0
LINE
  5
1B89
330
1F
100
AcDbEntity
  8
0
100
AcDbLine
 10
9.11822821011032
 20
2.652107391184859
 30
0.0
 11
9.118472934060928
 21
2.652107391184859
 31
0.0
  0
LINE
  5
1B8A
330
1F
100
AcDbEntity
  8
0
100
AcDbLine
 10
8.403510313453885
 20
2.692107391184872
 30
0.0
 11
9.106037019376135
 21
2.692107391184864
 31
0.0
  0
LINE
  5
1B8B
330
1F
100
AcDbEntity
  8
0
100
AcDbLine
 10
9.11822821011032
 20
2.692107391184858
 30
0.0
 11
9.118472934060939
 21
2.692107391184858
 31
0.0
  0
LINE
  5
1B8C
330
1F
100
AcDbEntity
  8
0
100
AcDbLine
 10
8.390583970821319
 20
2.658735834480683
 30
0.0
 11
8.403510313453885
 21
2.658735834480683
 31
0.0
  0
LINE
  5
1B8D
330
1F
100
AcDbEntity
  8
0
100
AcDbLine
 10
8.403510313453885
 20
2.691714178431421
 30
0.0
 11
8.416436656086451
 21
2.691714178431421
 31
0.0
  0
LINE
  5
1B8E
330
1F
100
AcDbEntity
  8
0
100
AcDbLine
 10
8.403510313453887
 20
2.671714178431422
 30
0.0
 11
8.416436656086451
 21
2.671714178431422
 31
0.0
  0
LINE
  5
1B8F
330
1F
100
AcDbEntity
  8
0
100
AcDbLine
 10
9.105301867477756
 20
2.671714178431422
 30
0.0
 11
9.092375524845188
 21
2.671714178431422
 31
0.0
  0
LINE
  5
1B90
330
1F
100
AcDbEntity
  8
0
100
AcDbLine
 10
9.105301867477756
 20
2.651267473868326
 30
0.0
 11
9.092375524845188
 21
2.651267473868326
 31
0.0
  0
LINE
  5
1B91
330
1F
100
AcDbEntity
  8
0
100
AcDbLine
 10
9.105301867477756
 20
2.691714178431425
 30
0.0
 11
9.092375524845188
 21
2.691714178431425
 31
0.0
  0
LINE
  5
1B92
330
1F
100
AcDbEntity
  8
0
100
AcDbLine
 10
9.11822821011032
 20
2.652107391184859
 30
0.0
 11
9.11822821011032
 21
2.626901091933067
 31
0.0
  0
LINE
  5
1B93
330
1F
100
AcDbEntity
  8
0
100
AcDbLine
 10
9.105301867477756
 20
2.706788178394404
 30
0.0
 11
9.105301867477756
 21
2.692107391184858
 31
0.0
  0
LINE
  5
1B94
330
1F
100
AcDbEntity
  8
0
100
AcDbLine
 10
9.11822821011032
 20
2.65873583448068
 30
0.0
 11
9.105301867477756
 21
2.65873583448068
 31
0.0
  0
LINE
  5
1B95
330
1F
100
AcDbEntity
  8
0
100
AcDbLine
 10
9.118228210110309
 20
2.7319944776462
 30
0.0
 11
9.118472934060935
 21
2.7319944776462
 31
0.0
  0
LINE
  5
1B96
330
1F
100
AcDbEntity
  8
0
100
AcDbLine
 10
8.403510313453873
 20
2.771994477646209
 30
0.0
 11
9.105671704449253
 21
2.771994477646201
 31
0.0
  0
LINE
  5
1B97
330
1F
100
AcDbEntity
  8
0
100
AcDbLine
 10
9.118228210110309
 20
2.771994477646199
 30
0.0
 11
9.118472934060928
 21
2.771994477646199
 31
0.0
  0
LINE
  5
1B98
330
1F
100
AcDbEntity
  8
0
100
AcDbLine
 10
8.390583970821319
 20
2.706788178394404
 30
0.0
 11
8.403510313453873
 21
2.706788178394404
 31
0.0
  0
LINE
  5
1B99
330
1F
100
AcDbEntity
  8
0
100
AcDbLine
 10
8.390583970821309
 20
2.73862292094202
 30
0.0
 11
8.403510313453873
 21
2.73862292094202
 31
0.0
  0
LINE
  5
1B9A
330
1F
100
AcDbEntity
  8
0
100
AcDbLine
 10
8.403510313453873
 20
2.771601264892762
 30
0.0
 11
8.416436656086439
 21
2.771601264892762
 31
0.0
  0
LINE
  5
1B9B
330
1F
100
AcDbEntity
  8
0
100
AcDbLine
 10
8.403510313453875
 20
2.751601264892762
 30
0.0
 11
8.416436656086439
 21
2.751601264892762
 31
0.0
  0
LINE
  5
1B9C
330
1F
100
AcDbEntity
  8
0
100
AcDbLine
 10
8.403510313453873
 20
2.731154560329663
 30
0.0
 11
8.416436656086439
 21
2.731154560329663
 31
0.0
  0
LINE
  5
1B9D
330
1F
100
AcDbEntity
  8
0
100
AcDbLine
 10
9.105301867477745
 20
2.751601264892762
 30
0.0
 11
9.092375524845177
 21
2.751601264892762
 31
0.0
  0
LINE
  5
1B9E
330
1F
100
AcDbEntity
  8
0
100
AcDbLine
 10
9.105301867477745
 20
2.731154560329663
 30
0.0
 11
9.092375524845177
 21
2.731154560329663
 31
0.0
  0
LINE
  5
1B9F
330
1F
100
AcDbEntity
  8
0
100
AcDbLine
 10
9.105301867477745
 20
2.771601264892762
 30
0.0
 11
9.092375524845177
 21
2.771601264892762
 31
0.0
  0
LINE
  5
1BA0
330
1F
100
AcDbEntity
  8
0
100
AcDbLine
 10
9.105301867477741
 20
2.788057358556596
 30
0.0
 11
9.105301867477741
 21
2.771994477646199
 31
0.0
  0
LINE
  5
1BA1
330
1F
100
AcDbEntity
  8
0
100
AcDbLine
 10
9.118228210110309
 20
2.706788178394404
 30
0.0
 11
9.105301867477756
 21
2.706788178394404
 31
0.0
  0
LINE
  5
1BA2
330
1F
100
AcDbEntity
  8
0
100
AcDbLine
 10
9.118228210110309
 20
2.73862292094202
 30
0.0
 11
9.105301867477741
 21
2.73862292094202
 31
0.0
  0
LINE
  5
1BA3
330
1F
100
AcDbEntity
  8
0
100
AcDbLine
 10
9.118228210110299
 20
2.813263657808391
 30
0.0
 11
9.118472934060925
 21
2.813263657808391
 31
0.0
  0
LINE
  5
1BA4
330
1F
100
AcDbEntity
  8
0
100
AcDbLine
 10
9.118228210110299
 20
2.85326365780839
 30
0.0
 11
9.118472934060921
 21
2.85326365780839
 31
0.0
  0
LINE
  5
1BA5
330
1F
100
AcDbEntity
  8
0
100
AcDbLine
 10
8.390583970821309
 20
2.788057358556596
 30
0.0
 11
8.403510313453864
 21
2.788057358556596
 31
0.0
  0
LINE
  5
1BA6
330
1F
100
AcDbEntity
  8
0
100
AcDbLine
 10
8.390583970821298
 20
2.819892101104212
 30
0.0
 11
8.403510313453864
 21
2.819892101104212
 31
0.0
  0
LINE
  5
1BA7
330
1F
100
AcDbEntity
  8
0
100
AcDbLine
 10
8.403510313453864
 20
2.852870445054954
 30
0.0
 11
8.41643665608643
 21
2.852870445054954
 31
0.0
  0
LINE
  5
1BA8
330
1F
100
AcDbEntity
  8
0
100
AcDbLine
 10
8.403510313453866
 20
2.832870445054954
 30
0.0
 11
8.41643665608643
 21
2.832870445054954
 31
0.0
  0
LINE
  5
1BA9
330
1F
100
AcDbEntity
  8
0
100
AcDbLine
 10
8.403510313453864
 20
2.812423740491855
 30
0.0
 11
8.41643665608643
 21
2.812423740491855
 31
0.0
  0
LINE
  5
1BAA
330
1F
100
AcDbEntity
  8
0
100
AcDbLine
 10
9.105301867477734
 20
2.832870445054954
 30
0.0
 11
9.092375524845166
 21
2.832870445054954
 31
0.0
  0
LINE
  5
1BAB
330
1F
100
AcDbEntity
  8
0
100
AcDbLine
 10
9.105301867477734
 20
2.812423740491855
 30
0.0
 11
9.092375524845166
 21
2.812423740491855
 31
0.0
  0
LINE
  5
1BAC
330
1F
100
AcDbEntity
  8
0
100
AcDbLine
 10
9.105301867477734
 20
2.852870445054954
 30
0.0
 11
9.092375524845166
 21
2.852870445054954
 31
0.0
  0
LINE
  5
1BAD
330
1F
100
AcDbEntity
  8
0
100
AcDbLine
 10
9.105301867477734
 20
2.868939340294964
 30
0.0
 11
9.105301867477734
 21
2.85326365780839
 31
0.0
  0
LINE
  5
1BAE
330
1F
100
AcDbEntity
  8
0
100
AcDbLine
 10
9.118228210110299
 20
2.788057358556596
 30
0.0
 11
9.105301867477741
 21
2.788057358556596
 31
0.0
  0
LINE
  5
1BAF
330
1F
100
AcDbEntity
  8
0
100
AcDbLine
 10
9.118228210110299
 20
2.819892101104212
 30
0.0
 11
9.105301867477734
 21
2.819892101104212
 31
0.0
  0
LINE
  5
1BB0
330
1F
100
AcDbEntity
  8
0
100
AcDbLine
 10
8.403510313453855
 20
2.93414563954677
 30
0.0
 11
8.999415960851827
 21
2.934145639546763
 31
0.0
  0
LINE
  5
1BB1
330
1F
100
AcDbEntity
  8
0
100
AcDbLine
 10
8.403510313453855
 20
2.955831854941056
 30
0.0
 11
8.403510313453855
 21
2.93414563954677
 31
0.0
  0
LINE
  5
1BB2
330
1F
100
AcDbEntity
  8
0
100
AcDbLine
 10
8.390583970821298
 20
2.868939340294964
 30
0.0
 11
8.403510313453855
 21
2.868939340294964
 31
0.0
  0
LINE
  5
1BB3
330
1F
100
AcDbEntity
  8
0
100
AcDbLine
 10
8.390583970821291
 20
2.90077408284258
 30
0.0
 11
8.403510313453855
 21
2.90077408284258
 31
0.0
  0
LINE
  5
1BB4
330
1F
100
AcDbEntity
  8
0
100
AcDbLine
 10
8.390583970821291
 20
2.955831854941056
 30
0.0
 11
8.403510313453855
 21
2.955831854941056
 31
0.0
  0
LINE
  5
1BB5
330
1F
100
AcDbEntity
  8
0
100
AcDbLine
 10
8.403510313453855
 20
2.933752426793319
 30
0.0
 11
8.416436656086421
 21
2.933752426793319
 31
0.0
  0
LINE
  5
1BB6
330
1F
100
AcDbEntity
  8
0
100
AcDbLine
 10
8.403510313453857
 20
2.913752426793319
 30
0.0
 11
8.416436656086421
 21
2.913752426793319
 31
0.0
  0
LINE
  5
1BB7
330
1F
100
AcDbEntity
  8
0
100
AcDbLine
 10
8.403510313453855
 20
2.893305722230223
 30
0.0
 11
8.416436656086421
 21
2.893305722230223
 31
0.0
  0
LINE
  5
1BB8
330
1F
100
AcDbEntity
  8
0
100
AcDbLine
 10
9.118228210110292
 20
2.868939340294964
 30
0.0
 11
9.105301867477734
 21
2.868939340294964
 31
0.0
  0
LINE
  5
1BB9
330
1F
100
AcDbEntity
  8
0
100
AcDbLine
 10
8.403510313453844
 20
3.022661752971831
 30
0.0
 11
8.999415960851827
 21
3.022661752971823
 31
0.0
  0
LINE
  5
1BBA
330
1F
100
AcDbEntity
  8
0
100
AcDbLine
 10
8.403510313453844
 20
3.044347968366118
 30
0.0
 11
8.403510313453844
 21
3.022661752971831
 31
0.0
  0
LINE
  5
1BBB
330
1F
100
AcDbEntity
  8
0
100
AcDbLine
 10
8.39058397082128
 20
2.957455453720026
 30
0.0
 11
8.403510313453844
 21
2.957455453720026
 31
0.0
  0
LINE
  5
1BBC
330
1F
100
AcDbEntity
  8
0
100
AcDbLine
 10
8.39058397082128
 20
2.989290196267642
 30
0.0
 11
8.403510313453844
 21
2.989290196267642
 31
0.0
  0
LINE
  5
1BBD
330
1F
100
AcDbEntity
  8
0
100
AcDbLine
 10
8.39058397082128
 20
3.044347968366118
 30
0.0
 11
8.403510313453844
 21
3.044347968366118
 31
0.0
  0
LINE
  5
1BBE
330
1F
100
AcDbEntity
  8
0
100
AcDbLine
 10
8.403510313453844
 20
3.02226854021838
 30
0.0
 11
8.416436656086412
 21
3.02226854021838
 31
0.0
  0
LINE
  5
1BBF
330
1F
100
AcDbEntity
  8
0
100
AcDbLine
 10
8.403510313453846
 20
3.002268540218381
 30
0.0
 11
8.416436656086412
 21
3.002268540218381
 31
0.0
  0
LINE
  5
1BC0
330
1F
100
AcDbEntity
  8
0
100
AcDbLine
 10
8.403510313453844
 20
2.981821835655285
 30
0.0
 11
8.416436656086412
 21
2.981821835655285
 31
0.0
  0
LINE
  5
1BC1
330
1F
100
AcDbEntity
  8
0
100
AcDbLine
 10
8.394833970821258
 20
3.261879336843144
 30
0.0
 11
8.990875431936744
 21
3.261879336843146
 31
0.0
  0
LINE
  5
1BC2
330
1F
100
AcDbEntity
  8
0
100
AcDbLine
 10
9.003421236901244
 20
3.261879336843147
 30
0.0
 11
9.003665960851851
 21
3.261879336843147
 31
0.0
  0
LINE
  5
1BC3
330
1F
100
AcDbEntity
  8
0
100
AcDbLine
 10
8.394833970821258
 20
3.221879336843144
 30
0.0
 11
8.990776417355862
 21
3.221879336843146
 31
0.0
  0
LINE
  5
1BC4
330
1F
100
AcDbEntity
  8
0
100
AcDbLine
 10
9.003421236901244
 20
3.221879336843148
 30
0.0
 11
9.003665960851851
 21
3.221879336843148
 31
0.0
  0
LINE
  5
1BC5
330
1F
100
AcDbEntity
  8
0
100
AcDbLine
 10
8.275776997612243
 20
3.283558013351655
 30
0.0
 11
8.275776997612245
 21
3.27301451131985
 31
0.0
  0
LINE
  5
1BC6
330
1F
100
AcDbEntity
  8
0
100
AcDbLine
 10
8.275776997612243
 20
3.283558013351655
 30
0.0
 11
8.28870334024481
 21
3.283558013351655
 31
0.0
  0
LINE
  5
1BC7
330
1F
100
AcDbEntity
  8
0
100
AcDbLine
 10
8.990494894268678
 20
3.220567801032444
 30
0.0
 11
8.977568551636114
 21
3.220567801032444
 31
0.0
  0
LINE
  5
1BC8
330
1F
100
AcDbEntity
  8
0
100
AcDbLine
 10
8.99049489426868
 20
3.240567801032447
 30
0.0
 11
8.977568551636114
 21
3.240567801032447
 31
0.0
  0
LINE
  5
1BC9
330
1F
100
AcDbEntity
  8
0
100
AcDbLine
 10
9.003421236901244
 20
3.221879336843148
 30
0.0
 11
9.003421236901244
 21
3.196665498705574
 31
0.0
  0
LINE
  5
1BCA
330
1F
100
AcDbEntity
  8
0
100
AcDbLine
 10
9.003421236901244
 20
3.196665498705574
 30
0.0
 11
8.990494894268678
 21
3.196665498705574
 31
0.0
  0
LINE
  5
1BCB
330
1F
100
AcDbEntity
  8
0
100
AcDbLine
 10
9.003421236901244
 20
3.251723270804049
 30
0.0
 11
8.990494894268678
 21
3.251723270804049
 31
0.0
  0
LINE
  5
1BCC
330
1F
100
AcDbEntity
  8
0
100
AcDbLine
 10
9.003421236901244
 20
3.283558013351655
 30
0.0
 11
8.990494894268678
 21
3.283558013351655
 31
0.0
  0
LINE
  5
1BCD
330
1F
100
AcDbEntity
  8
0
100
AcDbLine
 10
9.003421236901274
 20
3.503917585205059
 30
0.0
 11
9.003665960851883
 21
3.503917585205059
 31
0.0
  0
LINE
  5
1BCE
330
1F
100
AcDbEntity
  8
0
100
AcDbLine
 10
8.301629682877406
 20
3.463917585205056
 30
0.0
 11
8.991375550248839
 21
3.463917585205057
 31
0.0
  0
LINE
  5
1BCF
330
1F
100
AcDbEntity
  8
0
100
AcDbLine
 10
9.003421236901274
 20
3.463917585205059
 30
0.0
 11
9.003665960851879
 21
3.463917585205059
 31
0.0
  0
LINE
  5
1BD0
330
1F
100
AcDbEntity
  8
0
100
AcDbLine
 10
8.28870334024484
 20
3.525596261713566
 30
0.0
 11
8.28870334024484
 21
3.503917585205055
 31
0.0
  0
LINE
  5
1BD1
330
1F
100
AcDbEntity
  8
0
100
AcDbLine
 10
8.275776997612274
 20
3.493761519165961
 30
0.0
 11
8.28870334024484
 21
3.493761519165961
 31
0.0
  0
LINE
  5
1BD2
330
1F
100
AcDbEntity
  8
0
100
AcDbLine
 10
8.28870334024484
 20
3.482606049394359
 30
0.0
 11
8.301629682877406
 21
3.482606049394359
 31
0.0
  0
LINE
  5
1BD3
330
1F
100
AcDbEntity
  8
0
100
AcDbLine
 10
8.28870334024484
 20
3.462606049394356
 30
0.0
 11
8.301629682877406
 21
3.462606049394356
 31
0.0
  0
LINE
  5
1BD4
330
1F
100
AcDbEntity
  8
0
100
AcDbLine
 10
8.990494894268708
 20
3.462606049394356
 30
0.0
 11
8.977568551636142
 21
3.462606049394356
 31
0.0
  0
LINE
  5
1BD5
330
1F
100
AcDbEntity
  8
0
100
AcDbLine
 10
8.99049489426871
 20
3.482606049394359
 30
0.0
 11
8.977568551636144
 21
3.482606049394359
 31
0.0
  0
LINE
  5
1BD6
330
1F
100
AcDbEntity
  8
0
100
AcDbLine
 10
9.003421236901274
 20
3.525596261713566
 30
0.0
 11
9.003421236901274
 21
3.503917585205059
 31
0.0
  0
LINE
  5
1BD7
330
1F
100
AcDbEntity
  8
0
100
AcDbLine
 10
9.003421236901274
 20
3.493761519165961
 30
0.0
 11
8.990494894268708
 21
3.493761519165961
 31
0.0
  0
LINE
  5
1BD8
330
1F
100
AcDbEntity
  8
0
100
AcDbLine
 10
8.394833970821258
 20
3.173363223418089
 30
0.0
 11
8.990656322289941
 21
3.173363223418091
 31
0.0
  0
LINE
  5
1BD9
330
1F
100
AcDbEntity
  8
0
100
AcDbLine
 10
9.003421236901234
 20
3.173363223418093
 30
0.0
 11
9.00366596085184
 21
3.173363223418093
 31
0.0
  0
LINE
  5
1BDA
330
1F
100
AcDbEntity
  8
0
100
AcDbLine
 10
8.394833970821258
 20
3.13336322341809
 30
0.0
 11
8.990557307709059
 21
3.133363223418093
 31
0.0
  0
LINE
  5
1BDB
330
1F
100
AcDbEntity
  8
0
100
AcDbLine
 10
9.003421236901234
 20
3.133363223418093
 30
0.0
 11
9.00366596085184
 21
3.133363223418093
 31
0.0
  0
LINE
  5
1BDC
330
1F
100
AcDbEntity
  8
0
100
AcDbLine
 10
8.990494894268667
 20
3.132051687607386
 30
0.0
 11
8.977568551636103
 21
3.132051687607386
 31
0.0
  0
LINE
  5
1BDD
330
1F
100
AcDbEntity
  8
0
100
AcDbLine
 10
8.990494894268671
 20
3.152051687607393
 30
0.0
 11
8.977568551636103
 21
3.152051687607393
 31
0.0
  0
LINE
  5
1BDE
330
1F
100
AcDbEntity
  8
0
100
AcDbLine
 10
9.003421236901234
 20
3.133363223418093
 30
0.0
 11
9.003421236901234
 21
3.108149385280515
 31
0.0
  0
LINE
  5
1BDF
330
1F
100
AcDbEntity
  8
0
100
AcDbLine
 10
9.003421236901234
 20
3.1950418999266
 30
0.0
 11
9.003421236901234
 21
3.173363223418093
 31
0.0
  0
LINE
  5
1BE0
330
1F
100
AcDbEntity
  8
0
100
AcDbLine
 10
8.990494894268667
 20
3.1950418999266
 30
0.0
 11
8.990494894268667
 21
3.173363223418093
 31
0.0
  0
LINE
  5
1BE1
330
1F
100
AcDbEntity
  8
0
100
AcDbLine
 10
9.003421236901234
 20
3.108149385280515
 30
0.0
 11
8.990494894268667
 21
3.108149385280515
 31
0.0
  0
LINE
  5
1BE2
330
1F
100
AcDbEntity
  8
0
100
AcDbLine
 10
9.003421236901234
 20
3.163207157378995
 30
0.0
 11
8.990494894268667
 21
3.163207157378995
 31
0.0
  0
LINE
  5
1BE3
330
1F
100
AcDbEntity
  8
0
100
AcDbLine
 10
9.003421236901234
 20
3.1950418999266
 30
0.0
 11
8.990494894268667
 21
3.1950418999266
 31
0.0
  0
LINE
  5
1BE4
330
1F
100
AcDbEntity
  8
0
100
AcDbLine
 10
8.288703340244818
 20
3.342761318581509
 30
0.0
 11
8.991075644324814
 21
3.34276131858151
 31
0.0
  0
LINE
  5
1BE5
330
1F
100
AcDbEntity
  8
0
100
AcDbLine
 10
9.003421236901253
 20
3.342761318581512
 30
0.0
 11
9.003665960851861
 21
3.342761318581512
 31
0.0
  0
LINE
  5
1BE6
330
1F
100
AcDbEntity
  8
0
100
AcDbLine
 10
8.301629682877385
 20
3.302761318581509
 30
0.0
 11
8.990976629743931
 21
3.302761318581514
 31
0.0
  0
LINE
  5
1BE7
330
1F
100
AcDbEntity
  8
0
100
AcDbLine
 10
9.003421236901253
 20
3.302761318581517
 30
0.0
 11
9.003665960851861
 21
3.302761318581517
 31
0.0
  0
LINE
  5
1BE8
330
1F
100
AcDbEntity
  8
0
100
AcDbLine
 10
8.275776997612252
 20
3.332605252542418
 30
0.0
 11
8.288703340244818
 21
3.332605252542418
 31
0.0
  0
LINE
  5
1BE9
330
1F
100
AcDbEntity
  8
0
100
AcDbLine
 10
8.275776997612252
 20
3.364439995090023
 30
0.0
 11
8.288703340244818
 21
3.364439995090023
 31
0.0
  0
LINE
  5
1BEA
330
1F
100
AcDbEntity
  8
0
100
AcDbLine
 10
8.288703340244818
 20
3.321449782770816
 30
0.0
 11
8.301629682877385
 21
3.321449782770816
 31
0.0
  0
LINE
  5
1BEB
330
1F
100
AcDbEntity
  8
0
100
AcDbLine
 10
8.288703340244818
 20
3.301449782770809
 30
0.0
 11
8.301629682877385
 21
3.301449782770809
 31
0.0
  0
LINE
  5
1BEC
330
1F
100
AcDbEntity
  8
0
100
AcDbLine
 10
8.990494894268687
 20
3.301449782770809
 30
0.0
 11
8.977568551636121
 21
3.301449782770809
 31
0.0
  0
LINE
  5
1BED
330
1F
100
AcDbEntity
  8
0
100
AcDbLine
 10
8.990494894268689
 20
3.321449782770812
 30
0.0
 11
8.977568551636123
 21
3.321449782770812
 31
0.0
  0
LINE
  5
1BEE
330
1F
100
AcDbEntity
  8
0
100
AcDbLine
 10
9.003421236901253
 20
3.332605252542414
 30
0.0
 11
8.990494894268687
 21
3.332605252542414
 31
0.0
  0
LINE
  5
1BEF
330
1F
100
AcDbEntity
  8
0
100
AcDbLine
 10
9.003421236901253
 20
3.36443999509002
 30
0.0
 11
8.990494894268687
 21
3.36443999509002
 31
0.0
  0
LINE
  5
1BF0
330
1F
100
AcDbEntity
  8
0
100
AcDbLine
 10
8.288703340244829
 20
3.4240304987437
 30
0.0
 11
8.991276815170126
 21
3.424030498743703
 31
0.0
  0
LINE
  5
1BF1
330
1F
100
AcDbEntity
  8
0
100
AcDbLine
 10
9.003421236901264
 20
3.424030498743704
 30
0.0
 11
9.003665960851872
 21
3.424030498743704
 31
0.0
  0
LINE
  5
1BF2
330
1F
100
AcDbEntity
  8
0
100
AcDbLine
 10
8.301629682877395
 20
3.384030498743701
 30
0.0
 11
8.991177800589243
 21
3.384030498743703
 31
0.0
  0
LINE
  5
1BF3
330
1F
100
AcDbEntity
  8
0
100
AcDbLine
 10
9.003421236901264
 20
3.384030498743705
 30
0.0
 11
9.003665960851868
 21
3.384030498743705
 31
0.0
  0
LINE
  5
1BF4
330
1F
100
AcDbEntity
  8
0
100
AcDbLine
 10
8.275776997612263
 20
3.413874432704606
 30
0.0
 11
8.288703340244829
 21
3.413874432704606
 31
0.0
  0
LINE
  5
1BF5
330
1F
100
AcDbEntity
  8
0
100
AcDbLine
 10
8.275776997612274
 20
3.445709175252211
 30
0.0
 11
8.288703340244829
 21
3.445709175252211
 31
0.0
  0
LINE
  5
1BF6
330
1F
100
AcDbEntity
  8
0
100
AcDbLine
 10
8.288703340244829
 20
3.402718962933004
 30
0.0
 11
8.301629682877395
 21
3.402718962933004
 31
0.0
  0
LINE
  5
1BF7
330
1F
100
AcDbEntity
  8
0
100
AcDbLine
 10
8.288703340244829
 20
3.382718962933001
 30
0.0
 11
8.301629682877395
 21
3.382718962933001
 31
0.0
  0
LINE
  5
1BF8
330
1F
100
AcDbEntity
  8
0
100
AcDbLine
 10
8.990494894268699
 20
3.382718962933001
 30
0.0
 11
8.977568551636132
 21
3.382718962933001
 31
0.0
  0
LINE
  5
1BF9
330
1F
100
AcDbEntity
  8
0
100
AcDbLine
 10
8.990494894268699
 20
3.402718962933004
 30
0.0
 11
8.977568551636135
 21
3.402718962933004
 31
0.0
  0
LINE
  5
1BFA
330
1F
100
AcDbEntity
  8
0
100
AcDbLine
 10
9.003421236901264
 20
3.413874432704606
 30
0.0
 11
8.990494894268699
 21
3.413874432704606
 31
0.0
  0
LINE
  5
1BFB
330
1F
100
AcDbEntity
  8
0
100
AcDbLine
 10
9.003421236901264
 20
3.445709175252211
 30
0.0
 11
8.990494894268708
 21
3.445709175252211
 31
0.0
  0
LINE
  5
1BFC
330
1F
100
AcDbEntity
  8
0
100
AcDbLine
 10
8.39058397082128
 20
3.044347968366118
 30
0.0
 11
8.390583970821259
 21
3.125125951750128
 31
0.0
  0
LINE
  5
1BFD
330
1F
100
AcDbEntity
  8
0
100
AcDbLine
 10
8.390583970821259
 20
3.125125951750128
 30
0.0
 11
8.394833970821258
 21
3.125125951750128
 31
0.0
  0
LINE
  5
1BFE
330
1F
100
AcDbEntity
  8
0
100
AcDbLine
 10
8.275776997612245
 20
3.27301451131985
 30
0.0
 11
8.271526997612214
 21
3.27301451131985
 31
0.0
  0
LINE
  5
1BFF
330
1F
100
AcDbEntity
  8
0
100
AcDbLine
 10
9.233279907269917
 20
3.125125951750131
 30
0.0
 11
9.237529907269916
 21
3.125125951750131
 31
0.0
  0
LINE
  5
1C00
330
1F
100
AcDbEntity
  8
0
100
AcDbLine
 10
9.237529907269916
 20
3.273014511319853
 30
0.0
 11
9.1184729340609
 21
3.273014511319853
 31
0.0
  0
LINE
  5
1C01
330
1F
100
AcDbEntity
  8
0
100
AcDbLine
 10
9.1184729340609
 20
3.273014511319853
 30
0.0
 11
9.114222934060871
 21
3.273014511319853
 31
0.0
  0
LINE
  5
1C02
330
1F
100
AcDbEntity
  8
0
100
AcDbLine
 10
8.275776997612217
 20
3.03243394366174
 30
0.0
 11
8.280026997612216
 21
3.03243394366174
 31
0.0
  0
LINE
  5
1C03
330
1F
100
AcDbEntity
  8
0
100
AcDbLine
 10
8.280026997612216
 20
2.884545384092014
 30
0.0
 11
8.275776997612243
 21
2.884545384092014
 31
0.0
  0
LINE
  5
1C04
330
1F
100
AcDbEntity
  8
0
100
AcDbLine
 10
8.275776997612243
 20
2.884545384092014
 30
0.0
 11
8.156720024403171
 21
2.884545384092014
 31
0.0
  0
LINE
  5
1C05
330
1F
100
AcDbEntity
  8
0
100
AcDbLine
 10
9.003665960851897
 20
3.617844421523628
 30
0.0
 11
9.003665960851883
 21
3.503917585205059
 31
0.0
  0
LINE
  5
1C06
330
1F
100
AcDbEntity
  8
0
100
AcDbLine
 10
9.118472934060873
 20
3.032433943661747
 30
0.0
 11
9.12272293406087
 21
3.032433943661747
 31
0.0
  0
LINE
  5
1C07
330
1F
100
AcDbEntity
  8
0
100
AcDbLine
 10
9.12272293406087
 20
2.884545384092024
 30
0.0
 11
9.1184729340609
 21
2.884545384092024
 31
0.0
  0
LINE
  5
1C08
330
1F
100
AcDbEntity
  8
0
100
AcDbLine
 10
8.999415960851827
 20
3.022661752971821
 30
0.0
 11
8.999415960851827
 21
3.024669372308672
 31
0.0
  0
LINE
  5
1C09
330
1F
100
AcDbEntity
  8
0
100
AcDbLine
 10
8.403510313453885
 20
2.652107391184873
 30
0.0
 11
8.416436656086451
 21
2.652107391184873
 31
0.0
  0
LINE
  5
1C0A
330
1F
100
AcDbEntity
  8
0
100
AcDbLine
 10
8.403510313453885
 20
2.652107391184873
 30
0.0
 11
8.403510313453885
 21
2.658735834480683
 31
0.0
  0
LINE
  5
1C0B
330
1F
100
AcDbEntity
  8
0
100
AcDbLine
 10
8.403510313453885
 20
2.651267473868326
 30
0.0
 11
8.403510313453885
 21
2.626901091933067
 31
0.0
  0
LINE
  5
1C0C
330
1F
100
AcDbEntity
  8
0
100
AcDbLine
 10
8.403510313453873
 20
2.706788178394404
 30
0.0
 11
8.403510313453885
 21
2.692107391184872
 31
0.0
  0
LINE
  5
1C0D
330
1F
100
AcDbEntity
  8
0
100
AcDbLine
 10
8.390583970821328
 20
2.626901091933067
 30
0.0
 11
8.392496884216823
 21
2.626901091933067
 31
0.0
  0
LINE
  5
1C0E
330
1F
100
AcDbEntity
  8
0
100
AcDbLine
 10
8.392496884216823
 20
2.626901091933067
 30
0.0
 11
8.403510313453885
 21
2.626901091933067
 31
0.0
  0
LINE
  5
1C0F
330
1F
100
AcDbEntity
  8
0
100
AcDbLine
 10
8.403510313453885
 20
2.651267473868326
 30
0.0
 11
8.404318684216823
 21
2.651267473868326
 31
0.0
  0
LINE
  5
1C10
330
1F
100
AcDbEntity
  8
0
100
AcDbLine
 10
8.404318684216823
 20
2.651267473868326
 30
0.0
 11
8.416436656086451
 21
2.651267473868326
 31
0.0
  0
LINE
  5
1C11
330
1F
100
AcDbEntity
  8
0
100
AcDbLine
 10
9.11822821011032
 20
2.652107391184859
 30
0.0
 11
9.11822821011032
 21
2.65873583448068
 31
0.0
  0
LINE
  5
1C12
330
1F
100
AcDbEntity
  8
0
100
AcDbLine
 10
9.118228210110309
 20
2.706788178394404
 30
0.0
 11
9.11822821011032
 21
2.692107391184858
 31
0.0
  0
LINE
  5
1C13
330
1F
100
AcDbEntity
  8
0
100
AcDbLine
 10
9.105301867477756
 20
2.652107391184859
 30
0.0
 11
9.105301867477756
 21
2.65873583448068
 31
0.0
  0
LINE
  5
1C14
330
1F
100
AcDbEntity
  8
0
100
AcDbLine
 10
9.106335200665483
 20
2.626901091933067
 30
0.0
 11
9.105301867477756
 21
2.626901091933067
 31
0.0
  0
LINE
  5
1C15
330
1F
100
AcDbEntity
  8
0
100
AcDbLine
 10
8.403510313453873
 20
2.73199447764621
 30
0.0
 11
8.416436656086441
 21
2.73199447764621
 31
0.0
  0
LINE
  5
1C16
330
1F
100
AcDbEntity
  8
0
100
AcDbLine
 10
8.403510313453864
 20
2.788057358556596
 30
0.0
 11
8.403510313453873
 21
2.771994477646209
 31
0.0
  0
LINE
  5
1C17
330
1F
100
AcDbEntity
  8
0
100
AcDbLine
 10
9.118228210110309
 20
2.7319944776462
 30
0.0
 11
9.118228210110309
 21
2.73862292094202
 31
0.0
  0
LINE
  5
1C18
330
1F
100
AcDbEntity
  8
0
100
AcDbLine
 10
9.118228210110299
 20
2.788057358556596
 30
0.0
 11
9.118228210110309
 21
2.771994477646199
 31
0.0
  0
LINE
  5
1C19
330
1F
100
AcDbEntity
  8
0
100
AcDbLine
 10
9.105301867477741
 20
2.7319944776462
 30
0.0
 11
9.105301867477741
 21
2.73862292094202
 31
0.0
  0
LINE
  5
1C1A
330
1F
100
AcDbEntity
  8
0
100
AcDbLine
 10
8.403510313453864
 20
2.813263657808402
 30
0.0
 11
8.41643665608643
 21
2.813263657808402
 31
0.0
  0
LINE
  5
1C1B
330
1F
100
AcDbEntity
  8
0
100
AcDbLine
 10
8.403510313453864
 20
2.813263657808402
 30
0.0
 11
8.403510313453864
 21
2.819892101104212
 31
0.0
  0
LINE
  5
1C1C
330
1F
100
AcDbEntity
  8
0
100
AcDbLine
 10
8.403510313453855
 20
2.868939340294964
 30
0.0
 11
8.403510313453864
 21
2.853263657808401
 31
0.0
  0
LINE
  5
1C1D
330
1F
100
AcDbEntity
  8
0
100
AcDbLine
 10
9.118228210110292
 20
2.868939340294964
 30
0.0
 11
9.118228210110299
 21
2.85326365780839
 31
0.0
  0
LINE
  5
1C1E
330
1F
100
AcDbEntity
  8
0
100
AcDbLine
 10
9.105301867477734
 20
2.813263657808391
 30
0.0
 11
9.105301867477734
 21
2.819892101104212
 31
0.0
  0
LINE
  5
1C1F
330
1F
100
AcDbEntity
  8
0
100
AcDbLine
 10
8.403510313453855
 20
2.894145639546771
 30
0.0
 11
8.416436656086423
 21
2.894145639546771
 31
0.0
  0
LINE
  5
1C20
330
1F
100
AcDbEntity
  8
0
100
AcDbLine
 10
8.416436656086423
 20
2.894145639546771
 30
0.0
 11
8.999415960851827
 21
2.894145639546763
 31
0.0
  0
LINE
  5
1C21
330
1F
100
AcDbEntity
  8
0
100
AcDbLine
 10
8.403510313453855
 20
2.894145639546771
 30
0.0
 11
8.403510313453855
 21
2.90077408284258
 31
0.0
  0
LINE
  5
1C22
330
1F
100
AcDbEntity
  8
0
100
AcDbLine
 10
8.403510313453844
 20
2.982661752971832
 30
0.0
 11
8.416436656086412
 21
2.982661752971832
 31
0.0
  0
LINE
  5
1C23
330
1F
100
AcDbEntity
  8
0
100
AcDbLine
 10
8.416436656086412
 20
2.982661752971832
 30
0.0
 11
8.999415960851827
 21
2.982661752971826
 31
0.0
  0
LINE
  5
1C24
330
1F
100
AcDbEntity
  8
0
100
AcDbLine
 10
8.403510313453844
 20
2.982661752971832
 30
0.0
 11
8.403510313453844
 21
2.989290196267642
 31
0.0
  0
LINE
  5
1C25
330
1F
100
AcDbEntity
  8
0
100
AcDbLine
 10
8.403510313453844
 20
2.981821835655285
 30
0.0
 11
8.403510313453844
 21
2.957455453720026
 31
0.0
  0
LINE
  5
1C26
330
1F
100
AcDbEntity
  8
0
100
AcDbLine
 10
9.003421236901244
 20
3.221879336843148
 30
0.0
 11
9.003421236901244
 21
3.251723270804049
 31
0.0
  0
LINE
  5
1C27
330
1F
100
AcDbEntity
  8
0
100
AcDbLine
 10
8.990494894268678
 20
3.220567801032444
 30
0.0
 11
8.990494894268678
 21
3.196665498705574
 31
0.0
  0
LINE
  5
1C28
330
1F
100
AcDbEntity
  8
0
100
AcDbLine
 10
8.99049489426868
 20
3.240567801032447
 30
0.0
 11
8.990494894268678
 21
3.251723270804049
 31
0.0
  0
LINE
  5
1C29
330
1F
100
AcDbEntity
  8
0
100
AcDbLine
 10
8.28870334024484
 20
3.503917585205055
 30
0.0
 11
8.289511711007781
 21
3.503917585205055
 31
0.0
  0
LINE
  5
1C2A
330
1F
100
AcDbEntity
  8
0
100
AcDbLine
 10
8.289511711007781
 20
3.503917585205055
 30
0.0
 11
8.991474564829722
 21
3.503917585205057
 31
0.0
  0
LINE
  5
1C2B
330
1F
100
AcDbEntity
  8
0
100
AcDbLine
 10
8.28870334024484
 20
3.493761519165961
 30
0.0
 11
8.28870334024484
 21
3.503917585205055
 31
0.0
  0
LINE
  5
1C2C
330
1F
100
AcDbEntity
  8
0
100
AcDbLine
 10
8.275776997612274
 20
3.525596261713566
 30
0.0
 11
8.277689911007779
 21
3.525596261713566
 31
0.0
  0
LINE
  5
1C2D
330
1F
100
AcDbEntity
  8
0
100
AcDbLine
 10
8.277689911007779
 20
3.525596261713566
 30
0.0
 11
8.28870334024484
 21
3.525596261713566
 31
0.0
  0
LINE
  5
1C2E
330
1F
100
AcDbEntity
  8
0
100
AcDbLine
 10
9.003421236901274
 20
3.463917585205059
 30
0.0
 11
9.003421236901264
 21
3.445709175252211
 31
0.0
  0
LINE
  5
1C2F
330
1F
100
AcDbEntity
  8
0
100
AcDbLine
 10
9.003421236901274
 20
3.463917585205059
 30
0.0
 11
9.003421236901274
 21
3.493761519165961
 31
0.0
  0
LINE
  5
1C30
330
1F
100
AcDbEntity
  8
0
100
AcDbLine
 10
9.003421236901274
 20
3.493761519165961
 30
0.0
 11
9.003421236901274
 21
3.503917585205059
 31
0.0
  0
LINE
  5
1C31
330
1F
100
AcDbEntity
  8
0
100
AcDbLine
 10
8.990494894268708
 20
3.462606049394356
 30
0.0
 11
8.990494894268708
 21
3.445709175252211
 31
0.0
  0
LINE
  5
1C32
330
1F
100
AcDbEntity
  8
0
100
AcDbLine
 10
8.990494894268708
 20
3.525596261713566
 30
0.0
 11
8.990494894268708
 21
3.516573087190963
 31
0.0
  0
LINE
  5
1C33
330
1F
100
AcDbEntity
  8
0
100
AcDbLine
 10
8.990494894268708
 20
3.516573087190963
 30
0.0
 11
8.990494894268708
 21
3.503917585205059
 31
0.0
  0
LINE
  5
1C34
330
1F
100
AcDbEntity
  8
0
100
AcDbLine
 10
8.99049489426871
 20
3.482606049394359
 30
0.0
 11
8.990494894268708
 21
3.493761519165961
 31
0.0
  0
LINE
  5
1C35
330
1F
100
AcDbEntity
  8
0
100
AcDbLine
 10
8.991528227456438
 20
3.525596261713566
 30
0.0
 11
8.990494894268708
 21
3.525596261713566
 31
0.0
  0
LINE
  5
1C36
330
1F
100
AcDbEntity
  8
0
100
AcDbLine
 10
9.003421236901234
 20
3.133363223418093
 30
0.0
 11
9.003421236901234
 21
3.163207157378995
 31
0.0
  0
LINE
  5
1C37
330
1F
100
AcDbEntity
  8
0
100
AcDbLine
 10
9.003421236901234
 20
3.163207157378995
 30
0.0
 11
9.003421236901234
 21
3.173363223418093
 31
0.0
  0
LINE
  5
1C38
330
1F
100
AcDbEntity
  8
0
100
AcDbLine
 10
8.990494894268667
 20
3.132051687607386
 30
0.0
 11
8.990494894268667
 21
3.108149385280515
 31
0.0
  0
LINE
  5
1C39
330
1F
100
AcDbEntity
  8
0
100
AcDbLine
 10
8.990494894268667
 20
3.163207157378995
 30
0.0
 11
8.990494894268667
 21
3.173363223418093
 31
0.0
  0
LINE
  5
1C3A
330
1F
100
AcDbEntity
  8
0
100
AcDbLine
 10
8.288703340244818
 20
3.332605252542418
 30
0.0
 11
8.288703340244818
 21
3.342761318581509
 31
0.0
  0
LINE
  5
1C3B
330
1F
100
AcDbEntity
  8
0
100
AcDbLine
 10
9.003421236901253
 20
3.302761318581517
 30
0.0
 11
9.003421236901244
 21
3.283558013351655
 31
0.0
  0
LINE
  5
1C3C
330
1F
100
AcDbEntity
  8
0
100
AcDbLine
 10
9.003421236901253
 20
3.332605252542414
 30
0.0
 11
9.003421236901253
 21
3.342761318581512
 31
0.0
  0
LINE
  5
1C3D
330
1F
100
AcDbEntity
  8
0
100
AcDbLine
 10
8.990494894268687
 20
3.301449782770809
 30
0.0
 11
8.990494894268678
 21
3.283558013351655
 31
0.0
  0
LINE
  5
1C3E
330
1F
100
AcDbEntity
  8
0
100
AcDbLine
 10
8.990494894268687
 20
3.332605252542414
 30
0.0
 11
8.990494894268687
 21
3.342761318581512
 31
0.0
  0
LINE
  5
1C3F
330
1F
100
AcDbEntity
  8
0
100
AcDbLine
 10
8.288703340244829
 20
3.413874432704606
 30
0.0
 11
8.288703340244829
 21
3.4240304987437
 31
0.0
  0
LINE
  5
1C40
330
1F
100
AcDbEntity
  8
0
100
AcDbLine
 10
9.003421236901264
 20
3.384030498743705
 30
0.0
 11
9.003421236901253
 21
3.36443999509002
 31
0.0
  0
LINE
  5
1C41
330
1F
100
AcDbEntity
  8
0
100
AcDbLine
 10
9.003421236901264
 20
3.413874432704606
 30
0.0
 11
9.003421236901264
 21
3.424030498743704
 31
0.0
  0
LINE
  5
1C42
330
1F
100
AcDbEntity
  8
0
100
AcDbLine
 10
8.990494894268699
 20
3.382718962933001
 30
0.0
 11
8.990494894268687
 21
3.36443999509002
 31
0.0
  0
LINE
  5
1C43
330
1F
100
AcDbEntity
  8
0
100
AcDbLine
 10
8.990494894268699
 20
3.413874432704606
 30
0.0
 11
8.990494894268699
 21
3.424030498743704
 31
0.0
  0
LINE
  5
1C44
330
1F
100
AcDbEntity
  8
0
100
AcDbLine
 10
8.271526997612214
 20
3.125125951750124
 30
0.0
 11
8.275776997612215
 21
3.125125951750124
 31
0.0
  0
LINE
  5
1C45
330
1F
100
AcDbEntity
  8
0
100
AcDbLine
 10
8.275776997612215
 20
3.125125951750124
 30
0.0
 11
8.390583970821259
 21
3.125125951750128
 31
0.0
  0
LINE
  5
1C46
330
1F
100
AcDbEntity
  8
0
100
AcDbLine
 10
8.394833970821258
 20
3.27301451131985
 30
0.0
 11
8.28870334024481
 21
3.27301451131985
 31
0.0
  0
LINE
  5
1C47
330
1F
100
AcDbEntity
  8
0
100
AcDbLine
 10
8.28870334024481
 20
3.27301451131985
 30
0.0
 11
8.275776997612245
 21
3.27301451131985
 31
0.0
  0
LINE
  5
1C48
330
1F
100
AcDbEntity
  8
0
100
AcDbLine
 10
9.114222934060871
 20
3.125125951750128
 30
0.0
 11
9.118472934060873
 21
3.125125951750128
 31
0.0
  0
LINE
  5
1C49
330
1F
100
AcDbEntity
  8
0
100
AcDbLine
 10
9.118472934060873
 20
3.125125951750128
 30
0.0
 11
9.233279907269917
 21
3.125125951750131
 31
0.0
  0
LINE
  5
1C4A
330
1F
100
AcDbEntity
  8
0
100
AcDbLine
 10
8.275776997612274
 20
3.525596261713566
 30
0.0
 11
8.275776997612286
 21
3.617844421523621
 31
0.0
  0
LINE
  5
1C4B
330
1F
100
AcDbEntity
  8
0
100
AcDbLine
 10
8.156720024403171
 20
3.03243394366174
 30
0.0
 11
8.160970024403173
 21
3.03243394366174
 31
0.0
  0
LINE
  5
1C4C
330
1F
100
AcDbEntity
  8
0
100
AcDbLine
 10
8.160970024403173
 20
3.03243394366174
 30
0.0
 11
8.275776997612217
 21
3.03243394366174
 31
0.0
  0
LINE
  5
1C4D
330
1F
100
AcDbEntity
  8
0
100
AcDbLine
 10
8.999415960851827
 20
3.032433943661747
 30
0.0
 11
9.003665960851829
 21
3.032433943661747
 31
0.0
  0
LINE
  5
1C4E
330
1F
100
AcDbEntity
  8
0
100
AcDbLine
 10
9.003665960851829
 20
3.032433943661747
 30
0.0
 11
9.118472934060873
 21
3.032433943661747
 31
0.0
  0
LINE
  5
1C4F
330
1F
100
AcDbEntity
  8
0
100
AcDbLine
 10
9.1184729340609
 20
2.884545384092024
 30
0.0
 11
9.118228210110292
 21
2.884545384092024
 31
0.0
  0
LINE
  5
1C50
330
1F
100
AcDbEntity
  8
0
100
AcDbLine
 10
8.999415960851827
 20
2.982661752971822
 30
0.0
 11
8.999415960851827
 21
3.022661752971821
 31
0.0
  0
LINE
  5
1C51
330
1F
100
AcDbEntity
  8
0
100
AcDbLine
 10
8.416436656086451
 20
2.652107391184873
 30
0.0
 11
9.106219935010219
 21
2.652107391184864
 31
0.0
  0
LINE
  5
1C52
330
1F
100
AcDbEntity
  8
0
100
AcDbLine
 10
9.092375524845188
 20
2.652107391184859
 30
0.0
 11
9.105301867477756
 21
2.652107391184859
 31
0.0
  0
LINE
  5
1C53
330
1F
100
AcDbEntity
  8
0
100
AcDbLine
 10
9.11822821011032
 20
2.65873583448068
 30
0.0
 11
9.11822821011032
 21
2.692107391184858
 31
0.0
  0
LINE
  5
1C54
330
1F
100
AcDbEntity
  8
0
100
AcDbLine
 10
9.11822821011032
 20
2.626901091933067
 30
0.0
 11
9.118157000665483
 21
2.626901091933067
 31
0.0
  0
LINE
  5
1C55
330
1F
100
AcDbEntity
  8
0
100
AcDbLine
 10
9.118157000665483
 20
2.626901091933067
 30
0.0
 11
9.106335200665483
 21
2.626901091933067
 31
0.0
  0
LINE
  5
1C56
330
1F
100
AcDbEntity
  8
0
100
AcDbLine
 10
8.416436656086441
 20
2.73199447764621
 30
0.0
 11
9.105854620083338
 21
2.731994477646202
 31
0.0
  0
LINE
  5
1C57
330
1F
100
AcDbEntity
  8
0
100
AcDbLine
 10
9.092375524845177
 20
2.7319944776462
 30
0.0
 11
9.105301867477741
 21
2.7319944776462
 31
0.0
  0
LINE
  5
1C58
330
1F
100
AcDbEntity
  8
0
100
AcDbLine
 10
8.403510313453873
 20
2.73199447764621
 30
0.0
 11
8.403510313453873
 21
2.73862292094202
 31
0.0
  0
LINE
  5
1C59
330
1F
100
AcDbEntity
  8
0
100
AcDbLine
 10
9.118228210110309
 20
2.73862292094202
 30
0.0
 11
9.118228210110309
 21
2.771994477646199
 31
0.0
  0
LINE
  5
1C5A
330
1F
100
AcDbEntity
  8
0
100
AcDbLine
 10
9.105301867477741
 20
2.73862292094202
 30
0.0
 11
9.105301867477745
 21
2.751601264892762
 31
0.0
  0
LINE
  5
1C5B
330
1F
100
AcDbEntity
  8
0
100
AcDbLine
 10
8.41643665608643
 20
2.813263657808402
 30
0.0
 11
9.105482984992814
 21
2.813263657808394
 31
0.0
  0
LINE
  5
1C5C
330
1F
100
AcDbEntity
  8
0
100
AcDbLine
 10
9.092375524845166
 20
2.813263657808391
 30
0.0
 11
9.105301867477734
 21
2.813263657808391
 31
0.0
  0
LINE
  5
1C5D
330
1F
100
AcDbEntity
  8
0
100
AcDbLine
 10
9.118228210110299
 20
2.813263657808391
 30
0.0
 11
9.118228210110299
 21
2.819892101104212
 31
0.0
  0
LINE
  5
1C5E
330
1F
100
AcDbEntity
  8
0
100
AcDbLine
 10
9.118228210110299
 20
2.819892101104212
 30
0.0
 11
9.118228210110299
 21
2.85326365780839
 31
0.0
  0
LINE
  5
1C5F
330
1F
100
AcDbEntity
  8
0
100
AcDbLine
 10
9.105301867477734
 20
2.819892101104212
 30
0.0
 11
9.105301867477734
 21
2.832870445054954
 31
0.0
  0
LINE
  5
1C60
330
1F
100
AcDbEntity
  8
0
100
AcDbLine
 10
8.403510313453855
 20
2.933752426793319
 30
0.0
 11
8.403510313453855
 21
2.93414563954677
 31
0.0
  0
LINE
  5
1C61
330
1F
100
AcDbEntity
  8
0
100
AcDbLine
 10
9.003421236901244
 20
3.251723270804049
 30
0.0
 11
9.003421236901244
 21
3.261879336843147
 31
0.0
  0
LINE
  5
1C62
330
1F
100
AcDbEntity
  8
0
100
AcDbLine
 10
8.990494894268678
 20
3.251723270804049
 30
0.0
 11
8.990494894268678
 21
3.261879336843147
 31
0.0
  0
LINE
  5
1C63
330
1F
100
AcDbEntity
  8
0
100
AcDbLine
 10
8.990494894268708
 20
3.493761519165961
 30
0.0
 11
8.990494894268708
 21
3.503917585205059
 31
0.0
  0
LINE
  5
1C64
330
1F
100
AcDbEntity
  8
0
100
AcDbLine
 10
9.003421236901274
 20
3.525596261713566
 30
0.0
 11
9.003350027456438
 21
3.525596261713566
 31
0.0
  0
LINE
  5
1C65
330
1F
100
AcDbEntity
  8
0
100
AcDbLine
 10
9.003350027456438
 20
3.525596261713566
 30
0.0
 11
8.991528227456438
 21
3.525596261713566
 31
0.0
  0
LINE
  5
1C66
330
1F
100
AcDbEntity
  8
0
100
AcDbLine
 10
9.003421236901253
 20
3.302761318581517
 30
0.0
 11
9.003421236901253
 21
3.332605252542414
 31
0.0
  0
LINE
  5
1C67
330
1F
100
AcDbEntity
  8
0
100
AcDbLine
 10
9.003421236901264
 20
3.384030498743705
 30
0.0
 11
9.003421236901264
 21
3.413874432704606
 31
0.0
  0
LINE
  5
1C68
330
1F
100
AcDbEntity
  8
0
100
AcDbLine
 10
8.394833970821258
 20
3.221879336843144
 30
0.0
 11
8.394833970821258
 21
3.261879336843144
 31
0.0
  0
LINE
  5
1C69
330
1F
100
AcDbEntity
  8
0
100
AcDbLine
 10
9.118228210110292
 20
2.884545384092024
 30
0.0
 11
9.105301867477724
 21
2.884545384092024
 31
0.0
  0
LINE
  5
1C6A
330
1F
100
AcDbEntity
  8
0
100
AcDbLine
 10
9.105301867477724
 20
2.884545384092024
 30
0.0
 11
8.999415960851827
 21
2.884545384092024
 31
0.0
  0
LINE
  5
1C6B
330
1F
100
AcDbEntity
  8
0
100
AcDbLine
 10
8.403510313453885
 20
2.691714178431421
 30
0.0
 11
8.403510313453885
 21
2.692107391184872
 31
0.0
  0
LINE
  5
1C6C
330
1F
100
AcDbEntity
  8
0
100
AcDbLine
 10
9.105301867477756
 20
2.651267473868326
 30
0.0
 11
9.105301867477756
 21
2.640986808220915
 31
0.0
  0
LINE
  5
1C6D
330
1F
100
AcDbEntity
  8
0
100
AcDbLine
 10
9.105301867477756
 20
2.640986808220915
 30
0.0
 11
9.105301867477756
 21
2.626901091933067
 31
0.0
  0
LINE
  5
1C6E
330
1F
100
AcDbEntity
  8
0
100
AcDbLine
 10
9.105301867477756
 20
2.691714178431425
 30
0.0
 11
9.105301867477756
 21
2.692107391184858
 31
0.0
  0
LINE
  5
1C6F
330
1F
100
AcDbEntity
  8
0
100
AcDbLine
 10
8.28870334024484
 20
3.462606049394356
 30
0.0
 11
8.288703340244829
 21
3.445709175252211
 31
0.0
  0
LINE
  5
1C70
330
1F
100
AcDbEntity
  8
0
100
AcDbLine
 10
8.288703340244818
 20
3.301449782770809
 30
0.0
 11
8.28870334024481
 21
3.283558013351655
 31
0.0
  0
LINE
  5
1C71
330
1F
100
AcDbEntity
  8
0
100
AcDbLine
 10
8.288703340244829
 20
3.382718962933001
 30
0.0
 11
8.288703340244818
 21
3.364439995090023
 31
0.0
  0
LINE
  5
1C72
330
1F
100
AcDbEntity
  8
0
100
AcDbLine
 10
8.394833970821258
 20
3.173363223418089
 30
0.0
 11
8.394833970821258
 21
3.221879336843144
 31
0.0
  0
LINE
  5
1C73
330
1F
100
AcDbEntity
  8
0
100
AcDbLine
 10
9.118472934060942
 20
2.539715473888247
 30
0.0
 11
9.118472934060928
 21
2.652107391184859
 31
0.0
  0
LINE
  5
1C74
330
1F
100
AcDbEntity
  8
0
100
AcDbLine
 10
8.394833970821258
 20
3.132890523103203
 30
0.0
 11
8.394833970821258
 21
3.13336322341809
 31
0.0
  0
LINE
  5
1C75
330
1F
100
AcDbEntity
  8
0
100
AcDbLine
 10
8.394833970821258
 20
3.13336322341809
 30
0.0
 11
8.394833970821258
 21
3.173363223418089
 31
0.0
  0
LINE
  5
1C76
330
1F
100
AcDbEntity
  8
0
100
AcDbLine
 10
8.999415960851827
 20
2.89414563954676
 30
0.0
 11
8.999415960851827
 21
2.934145639546759
 31
0.0
  0
LINE
  5
1C77
330
1F
100
AcDbEntity
  8
0
100
AcDbLine
 10
8.999415960851827
 20
2.934145639546759
 30
0.0
 11
8.999415960851827
 21
2.982661752971822
 31
0.0
  0
LINE
  5
1C78
330
1F
100
AcDbEntity
  8
0
100
AcDbLine
 10
8.991528227456438
 20
3.565307105596076
 30
0.0
 11
8.991528227456438
 21
3.566757866156567
 31
0.0
  0
LINE
  5
1C79
330
1F
100
AcDbEntity
  8
0
100
AcDbLine
 10
8.403510313453844
 20
3.02226854021838
 30
0.0
 11
8.403510313453844
 21
3.022661752971831
 31
0.0
  0
LINE
  5
1C7A
330
1F
100
AcDbEntity
  8
0
100
AcDbLine
 10
8.28870334024484
 20
3.482606049394359
 30
0.0
 11
8.28870334024484
 21
3.493761519165961
 31
0.0
  0
LINE
  5
1C7B
330
1F
100
AcDbEntity
  8
0
100
AcDbLine
 10
8.403510313453873
 20
2.771601264892762
 30
0.0
 11
8.403510313453873
 21
2.771994477646209
 31
0.0
  0
LINE
  5
1C7C
330
1F
100
AcDbEntity
  8
0
100
AcDbLine
 10
8.403510313453864
 20
2.852870445054954
 30
0.0
 11
8.403510313453864
 21
2.853263657808401
 31
0.0
  0
LINE
  5
1C7D
330
1F
100
AcDbEntity
  8
0
100
AcDbLine
 10
8.403510313453844
 20
2.989290196267642
 30
0.0
 11
8.403510313453846
 21
3.002268540218381
 31
0.0
  0
LINE
  5
1C7E
330
1F
100
AcDbEntity
  8
0
100
AcDbLine
 10
8.990494894268671
 20
3.152051687607393
 30
0.0
 11
8.990494894268667
 21
3.163207157378995
 31
0.0
  0
LINE
  5
1C7F
330
1F
100
AcDbEntity
  8
0
100
AcDbLine
 10
8.403510313453873
 20
2.73862292094202
 30
0.0
 11
8.403510313453875
 21
2.751601264892762
 31
0.0
  0
LINE
  5
1C80
330
1F
100
AcDbEntity
  8
0
100
AcDbLine
 10
8.403510313453864
 20
2.819892101104212
 30
0.0
 11
8.403510313453866
 21
2.832870445054954
 31
0.0
  0
LINE
  5
1C81
330
1F
100
AcDbEntity
  8
0
100
AcDbLine
 10
8.288703340244818
 20
3.321449782770816
 30
0.0
 11
8.288703340244818
 21
3.332605252542418
 31
0.0
  0
LINE
  5
1C82
330
1F
100
AcDbEntity
  8
0
100
AcDbLine
 10
8.990494894268689
 20
3.321449782770812
 30
0.0
 11
8.990494894268687
 21
3.332605252542414
 31
0.0
  0
LINE
  5
1C83
330
1F
100
AcDbEntity
  8
0
100
AcDbLine
 10
8.288703340244829
 20
3.402718962933004
 30
0.0
 11
8.288703340244829
 21
3.413874432704606
 31
0.0
  0
LINE
  5
1C84
330
1F
100
AcDbEntity
  8
0
100
AcDbLine
 10
9.105301867477745
 20
2.771601264892762
 30
0.0
 11
9.105301867477741
 21
2.771994477646199
 31
0.0
  0
LINE
  5
1C85
330
1F
100
AcDbEntity
  8
0
100
AcDbLine
 10
9.105301867477734
 20
2.852870445054954
 30
0.0
 11
9.105301867477734
 21
2.85326365780839
 31
0.0
  0
LINE
  5
1C86
330
1F
100
AcDbEntity
  8
0
100
AcDbLine
 10
8.990494894268699
 20
3.402718962933004
 30
0.0
 11
8.990494894268699
 21
3.413874432704606
 31
0.0
  0
LINE
  5
1C87
330
1F
100
AcDbEntity
  8
0
100
AcDbLine
 10
9.003665960851879
 20
3.463917585205059
 30
0.0
 11
9.003665960851872
 21
3.424030498743704
 31
0.0
  0
LINE
  5
1C88
330
1F
100
AcDbEntity
  8
0
100
AcDbLine
 10
8.403510313453855
 20
2.90077408284258
 30
0.0
 11
8.403510313453857
 21
2.913752426793319
 31
0.0
  0
LINE
  5
1C89
330
1F
100
AcDbEntity
  8
0
100
AcDbLine
 10
8.263639264216825
 20
2.592252789815795
 30
0.0
 11
8.263639264216825
 21
2.590802029255304
 31
0.0
  0
LINE
  5
1C8A
330
1F
100
AcDbEntity
  8
0
100
AcDbLine
 10
8.148832291007781
 20
3.565307105596069
 30
0.0
 11
8.148832291007781
 21
3.56675786615656
 31
0.0
  0
LINE
  5
1C8B
330
1F
100
AcDbEntity
  8
0
100
AcDbLine
 10
9.003665960851868
 20
3.384030498743705
 30
0.0
 11
9.003665960851861
 21
3.342761318581512
 31
0.0
  0
LINE
  5
1C8C
330
1F
100
AcDbEntity
  8
0
100
AcDbLine
 10
8.403510313453885
 20
2.658735834480683
 30
0.0
 11
8.403510313453887
 21
2.671714178431422
 31
0.0
  0
LINE
  5
1C8D
330
1F
100
AcDbEntity
  8
0
100
AcDbLine
 10
8.390583970821291
 20
2.955831854941056
 30
0.0
 11
8.39058397082128
 21
2.957455453720026
 31
0.0
  0
LINE
  5
1C8E
330
1F
100
AcDbEntity
  8
0
100
AcDbLine
 10
9.003665960851861
 20
3.302761318581517
 30
0.0
 11
9.003665960851851
 21
3.261879336843147
 31
0.0
  0
LINE
  5
1C8F
330
1F
100
AcDbEntity
  8
0
100
AcDbLine
 10
9.105301867477756
 20
2.65873583448068
 30
0.0
 11
9.105301867477756
 21
2.671714178431422
 31
0.0
  0
LINE
  5
1C90
330
1F
100
AcDbEntity
  8
0
100
AcDbLine
 10
9.003665960851851
 20
3.221879336843148
 30
0.0
 11
9.00366596085184
 21
3.173363223418093
 31
0.0
  0
LINE
  5
1C91
330
1F
100
AcDbEntity
  8
0
100
AcDbLine
 10
9.00366596085184
 20
3.133363223418093
 30
0.0
 11
9.003665960851829
 21
3.032433943661747
 31
0.0
  0
LINE
  5
1C92
330
1F
100
AcDbEntity
  8
0
100
AcDbLine
 10
8.289511711007781
 20
3.56675786615656
 30
0.0
 11
8.289511711007781
 21
3.565307105596069
 31
0.0
  0
LINE
  5
1C93
330
1F
100
AcDbEntity
  8
0
100
AcDbLine
 10
9.132207647456436
 20
3.566757866156567
 30
0.0
 11
9.132207647456436
 21
3.565307105596076
 31
0.0
  0
LINE
  5
1C94
330
1F
100
AcDbEntity
  8
0
100
AcDbLine
 10
8.404318684216823
 20
2.590802029255304
 30
0.0
 11
8.404318684216823
 21
2.592252789815798
 31
0.0
  0
LINE
  5
1C95
330
1F
100
AcDbEntity
  8
0
100
AcDbLine
 10
9.106335200665483
 20
2.592252789815802
 30
0.0
 11
9.106335200665483
 21
2.590802029255307
 31
0.0
  0
LINE
  5
1C96
330
1F
100
AcDbEntity
  8
0
100
AcDbLine
 10
9.247014620665481
 20
2.590802029255307
 30
0.0
 11
9.247014620665481
 21
2.592252789815802
 31
0.0
  0
LINE
  5
1C97
330
1F
100
AcDbEntity
  8
0
100
AcDbLine
 10
8.275776997612284
 20
2.539715473888243
 30
0.0
 11
8.275776997612243
 21
2.884545384092014
 31
0.0
  0
LINE
  5
1C98
330
1F
100
AcDbEntity
  8
0
100
AcDbLine
 10
8.275776997612215
 20
3.125125951750124
 30
0.0
 11
8.275776997612217
 21
3.03243394366174
 31
0.0
  0
LINE
  5
1C99
330
1F
100
AcDbEntity
  8
0
100
AcDbLine
 10
8.271526997612214
 20
3.27301451131985
 30
0.0
 11
8.271526997612214
 21
3.132890523103199
 31
0.0
  0
LINE
  5
1C9A
330
1F
100
AcDbEntity
  8
0
100
AcDbLine
 10
8.394833970821258
 20
3.27301451131985
 30
0.0
 11
8.394833970821258
 21
3.261879336843144
 31
0.0
  0
LINE
  5
1C9B
330
1F
100
AcDbEntity
  8
0
100
AcDbLine
 10
8.263639264216825
 20
2.691769869506966
 30
0.0
 11
8.263639264216825
 21
2.640986808220912
 31
0.0
  0
LINE
  5
1C9C
330
1F
100
AcDbEntity
  8
0
100
AcDbLine
 10
8.275461064216825
 20
2.691769869506966
 30
0.0
 11
8.275461064216825
 21
2.590802029255304
 31
0.0
  0
LINE
  5
1C9D
330
1F
100
AcDbEntity
  8
0
100
AcDbLine
 10
8.404318684216823
 20
2.651267473868326
 30
0.0
 11
8.404318684216823
 21
2.640986808220912
 31
0.0
  0
LINE
  5
1C9E
330
1F
100
AcDbEntity
  8
0
100
AcDbLine
 10
8.404318684216823
 20
2.612447945180157
 30
0.0
 11
8.404318684216823
 21
2.592252789815798
 31
0.0
  0
LINE
  5
1C9F
330
1F
100
AcDbEntity
  8
0
100
AcDbLine
 10
8.416140484216825
 20
2.612447945180157
 30
0.0
 11
8.416140484216825
 21
2.592252789815798
 31
0.0
  0
LINE
  5
1CA0
330
1F
100
AcDbEntity
  8
0
100
AcDbLine
 10
8.416140484216825
 20
2.612447945180157
 30
0.0
 11
8.416140484216825
 21
2.640986808220912
 31
0.0
  0
LINE
  5
1CA1
330
1F
100
AcDbEntity
  8
0
100
AcDbLine
 10
8.404318684216823
 20
2.640986808220912
 30
0.0
 11
8.404318684216823
 21
2.612447945180157
 31
0.0
  0
LINE
  5
1CA2
330
1F
100
AcDbEntity
  8
0
100
AcDbLine
 10
8.251817464216825
 20
2.612447945180157
 30
0.0
 11
8.251817464216825
 21
2.640986808220912
 31
0.0
  0
LINE
  5
1CA3
330
1F
100
AcDbEntity
  8
0
100
AcDbLine
 10
8.263639264216825
 20
2.612447945180157
 30
0.0
 11
8.263639264216825
 21
2.640986808220912
 31
0.0
  0
LINE
  5
1CA4
330
1F
100
AcDbEntity
  8
0
100
AcDbLine
 10
8.251817464216825
 20
2.612447945180157
 30
0.0
 11
8.251817464216825
 21
2.592252789815795
 31
0.0
  0
LINE
  5
1CA5
330
1F
100
AcDbEntity
  8
0
100
AcDbLine
 10
8.263639264216825
 20
2.612447945180157
 30
0.0
 11
8.263639264216825
 21
2.592252789815795
 31
0.0
  0
LINE
  5
1CA6
330
1F
100
AcDbEntity
  8
0
100
AcDbLine
 10
9.233279907269984
 20
2.53971547388825
 30
0.0
 11
9.233279907269917
 21
3.125125951750131
 31
0.0
  0
LINE
  5
1CA7
330
1F
100
AcDbEntity
  8
0
100
AcDbLine
 10
9.118472934060873
 20
3.125125951750128
 30
0.0
 11
9.118472934060873
 21
3.032433943661747
 31
0.0
  0
LINE
  5
1CA8
330
1F
100
AcDbEntity
  8
0
100
AcDbLine
 10
9.114222934060871
 20
3.273014511319853
 30
0.0
 11
9.114222934060871
 21
3.132890523103206
 31
0.0
  0
LINE
  5
1CA9
330
1F
100
AcDbEntity
  8
0
100
AcDbLine
 10
9.237529907269916
 20
3.273014511319853
 30
0.0
 11
9.237529907269916
 21
3.132890523103206
 31
0.0
  0
LINE
  5
1CAA
330
1F
100
AcDbEntity
  8
0
100
AcDbLine
 10
9.247014620665481
 20
2.69176986950697
 30
0.0
 11
9.247014620665481
 21
2.640986808220915
 31
0.0
  0
LINE
  5
1CAB
330
1F
100
AcDbEntity
  8
0
100
AcDbLine
 10
9.235192820665481
 20
2.69176986950697
 30
0.0
 11
9.235192820665481
 21
2.590802029255307
 31
0.0
  0
LINE
  5
1CAC
330
1F
100
AcDbEntity
  8
0
100
AcDbLine
 10
9.247014620665481
 20
2.612447945180164
 30
0.0
 11
9.247014620665481
 21
2.592252789815802
 31
0.0
  0
LINE
  5
1CAD
330
1F
100
AcDbEntity
  8
0
100
AcDbLine
 10
9.258836420665481
 20
2.612447945180164
 30
0.0
 11
9.258836420665481
 21
2.592252789815802
 31
0.0
  0
LINE
  5
1CAE
330
1F
100
AcDbEntity
  8
0
100
AcDbLine
 10
9.258836420665481
 20
2.612447945180164
 30
0.0
 11
9.258836420665481
 21
2.640986808220915
 31
0.0
  0
LINE
  5
1CAF
330
1F
100
AcDbEntity
  8
0
100
AcDbLine
 10
9.247014620665481
 20
2.640986808220915
 30
0.0
 11
9.247014620665481
 21
2.612447945180164
 31
0.0
  0
LINE
  5
1CB0
330
1F
100
AcDbEntity
  8
0
100
AcDbLine
 10
9.094513400665483
 20
2.612447945180164
 30
0.0
 11
9.094513400665483
 21
2.640986808220915
 31
0.0
  0
LINE
  5
1CB1
330
1F
100
AcDbEntity
  8
0
100
AcDbLine
 10
9.106335200665483
 20
2.612447945180164
 30
0.0
 11
9.106335200665483
 21
2.626901091933067
 31
0.0
  0
LINE
  5
1CB2
330
1F
100
AcDbEntity
  8
0
100
AcDbLine
 10
9.094513400665483
 20
2.612447945180164
 30
0.0
 11
9.094513400665483
 21
2.592252789815802
 31
0.0
  0
LINE
  5
1CB3
330
1F
100
AcDbEntity
  8
0
100
AcDbLine
 10
9.106335200665483
 20
2.612447945180164
 30
0.0
 11
9.106335200665483
 21
2.592252789815802
 31
0.0
  0
LINE
  5
1CB4
330
1F
100
AcDbEntity
  8
0
100
AcDbLine
 10
8.156720024403171
 20
2.884545384092014
 30
0.0
 11
8.156720024403171
 21
3.024669372308665
 31
0.0
  0
LINE
  5
1CB5
330
1F
100
AcDbEntity
  8
0
100
AcDbLine
 10
8.280026997612216
 20
2.884545384092014
 30
0.0
 11
8.280026997612216
 21
3.024669372308665
 31
0.0
  0
LINE
  5
1CB6
330
1F
100
AcDbEntity
  8
0
100
AcDbLine
 10
8.148832291007781
 20
3.465790025904897
 30
0.0
 11
8.148832291007781
 21
3.516573087190955
 31
0.0
  0
LINE
  5
1CB7
330
1F
100
AcDbEntity
  8
0
100
AcDbLine
 10
8.160654091007783
 20
3.465790025904897
 30
0.0
 11
8.160654091007783
 21
3.56675786615656
 31
0.0
  0
LINE
  5
1CB8
330
1F
100
AcDbEntity
  8
0
100
AcDbLine
 10
8.289511711007781
 20
3.503917585205055
 30
0.0
 11
8.289511711007781
 21
3.516573087190955
 31
0.0
  0
LINE
  5
1CB9
330
1F
100
AcDbEntity
  8
0
100
AcDbLine
 10
8.289511711007781
 20
3.545111950231706
 30
0.0
 11
8.289511711007781
 21
3.565307105596069
 31
0.0
  0
LINE
  5
1CBA
330
1F
100
AcDbEntity
  8
0
100
AcDbLine
 10
8.301333511007783
 20
3.545111950231706
 30
0.0
 11
8.301333511007783
 21
3.565307105596069
 31
0.0
  0
LINE
  5
1CBB
330
1F
100
AcDbEntity
  8
0
100
AcDbLine
 10
8.301333511007783
 20
3.545111950231706
 30
0.0
 11
8.301333511007783
 21
3.516573087190955
 31
0.0
  0
LINE
  5
1CBC
330
1F
100
AcDbEntity
  8
0
100
AcDbLine
 10
8.289511711007781
 20
3.516573087190955
 30
0.0
 11
8.289511711007781
 21
3.545111950231706
 31
0.0
  0
LINE
  5
1CBD
330
1F
100
AcDbEntity
  8
0
100
AcDbLine
 10
8.137010491007782
 20
3.545111950231706
 30
0.0
 11
8.137010491007782
 21
3.516573087190955
 31
0.0
  0
LINE
  5
1CBE
330
1F
100
AcDbEntity
  8
0
100
AcDbLine
 10
8.148832291007781
 20
3.545111950231706
 30
0.0
 11
8.148832291007781
 21
3.516573087190955
 31
0.0
  0
LINE
  5
1CBF
330
1F
100
AcDbEntity
  8
0
100
AcDbLine
 10
8.137010491007782
 20
3.545111950231706
 30
0.0
 11
8.137010491007782
 21
3.565307105596069
 31
0.0
  0
LINE
  5
1CC0
330
1F
100
AcDbEntity
  8
0
100
AcDbLine
 10
8.148832291007781
 20
3.545111950231706
 30
0.0
 11
8.148832291007781
 21
3.565307105596069
 31
0.0
  0
LINE
  5
1CC1
330
1F
100
AcDbEntity
  8
0
100
AcDbLine
 10
9.118472934060942
 20
3.617844421523628
 30
0.0
 11
9.1184729340609
 21
3.273014511319853
 31
0.0
  0
LINE
  5
1CC2
330
1F
100
AcDbEntity
  8
0
100
AcDbLine
 10
8.999415960851827
 20
2.884545384092024
 30
0.0
 11
8.999415960851827
 21
2.89414563954676
 31
0.0
  0
LINE
  5
1CC3
330
1F
100
AcDbEntity
  8
0
100
AcDbLine
 10
9.12272293406087
 20
2.884545384092024
 30
0.0
 11
9.12272293406087
 21
3.024669372308672
 31
0.0
  0
LINE
  5
1CC4
330
1F
100
AcDbEntity
  8
0
100
AcDbLine
 10
9.132207647456436
 20
3.465790025904905
 30
0.0
 11
9.132207647456436
 21
3.516573087190963
 31
0.0
  0
LINE
  5
1CC5
330
1F
100
AcDbEntity
  8
0
100
AcDbLine
 10
9.120385847456436
 20
3.465790025904905
 30
0.0
 11
9.120385847456436
 21
3.566757866156567
 31
0.0
  0
LINE
  5
1CC6
330
1F
100
AcDbEntity
  8
0
100
AcDbLine
 10
9.132207647456436
 20
3.545111950231714
 30
0.0
 11
9.132207647456436
 21
3.565307105596076
 31
0.0
  0
LINE
  5
1CC7
330
1F
100
AcDbEntity
  8
0
100
AcDbLine
 10
9.144029447456439
 20
3.545111950231714
 30
0.0
 11
9.144029447456439
 21
3.565307105596076
 31
0.0
  0
LINE
  5
1CC8
330
1F
100
AcDbEntity
  8
0
100
AcDbLine
 10
9.144029447456439
 20
3.545111950231714
 30
0.0
 11
9.144029447456439
 21
3.516573087190963
 31
0.0
  0
LINE
  5
1CC9
330
1F
100
AcDbEntity
  8
0
100
AcDbLine
 10
9.132207647456436
 20
3.516573087190963
 30
0.0
 11
9.132207647456436
 21
3.545111950231714
 31
0.0
  0
LINE
  5
1CCA
330
1F
100
AcDbEntity
  8
0
100
AcDbLine
 10
8.979706427456438
 20
3.545111950231714
 30
0.0
 11
8.979706427456438
 21
3.516573087190963
 31
0.0
  0
LINE
  5
1CCB
330
1F
100
AcDbEntity
  8
0
100
AcDbLine
 10
8.991528227456438
 20
3.545111950231714
 30
0.0
 11
8.991528227456438
 21
3.525596261713566
 31
0.0
  0
LINE
  5
1CCC
330
1F
100
AcDbEntity
  8
0
100
AcDbLine
 10
8.979706427456438
 20
3.545111950231714
 30
0.0
 11
8.979706427456438
 21
3.565307105596076
 31
0.0
  0
LINE
  5
1CCD
330
1F
100
AcDbEntity
  8
0
100
AcDbLine
 10
8.991528227456438
 20
3.545111950231714
 30
0.0
 11
8.991528227456438
 21
3.565307105596076
 31
0.0
  0
LINE
  5
1CCE
330
1F
100
AcDbEntity
  8
0
100
AcDbLine
 10
8.390583970821328
 20
2.626901091933067
 30
0.0
 11
8.390583970821319
 21
2.658735834480683
 31
0.0
  0
LINE
  5
1CCF
330
1F
100
AcDbEntity
  8
0
100
AcDbLine
 10
8.390583970821319
 20
2.658735834480683
 30
0.0
 11
8.390583970821319
 21
2.706788178394404
 31
0.0
  0
LINE
  5
1CD0
330
1F
100
AcDbEntity
  8
0
100
AcDbLine
 10
9.118472934060928
 20
2.652107391184859
 30
0.0
 11
9.118472934060939
 21
2.692107391184858
 31
0.0
  0
LINE
  5
1CD1
330
1F
100
AcDbEntity
  8
0
100
AcDbLine
 10
8.403510313453873
 20
2.706788178394404
 30
0.0
 11
8.403510313453873
 21
2.731154560329663
 31
0.0
  0
LINE
  5
1CD2
330
1F
100
AcDbEntity
  8
0
100
AcDbLine
 10
8.403510313453885
 20
2.691714178431421
 30
0.0
 11
8.403510313453887
 21
2.671714178431422
 31
0.0
  0
LINE
  5
1CD3
330
1F
100
AcDbEntity
  8
0
100
AcDbLine
 10
8.416436656086451
 20
2.671714178431422
 30
0.0
 11
8.416436656086451
 21
2.691714178431421
 31
0.0
  0
LINE
  5
1CD4
330
1F
100
AcDbEntity
  8
0
100
AcDbLine
 10
8.403510313453885
 20
2.651267473868326
 30
0.0
 11
8.403510313453885
 21
2.652107391184873
 31
0.0
  0
LINE
  5
1CD5
330
1F
100
AcDbEntity
  8
0
100
AcDbLine
 10
8.416436656086451
 20
2.651267473868326
 30
0.0
 11
8.416436656086451
 21
2.652107391184873
 31
0.0
  0
LINE
  5
1CD6
330
1F
100
AcDbEntity
  8
0
100
AcDbLine
 10
9.105301867477756
 20
2.651267473868326
 30
0.0
 11
9.105301867477756
 21
2.652107391184859
 31
0.0
  0
LINE
  5
1CD7
330
1F
100
AcDbEntity
  8
0
100
AcDbLine
 10
9.092375524845188
 20
2.651267473868326
 30
0.0
 11
9.092375524845188
 21
2.652107391184859
 31
0.0
  0
LINE
  5
1CD8
330
1F
100
AcDbEntity
  8
0
100
AcDbLine
 10
9.092375524845188
 20
2.691714178431425
 30
0.0
 11
9.092375524845188
 21
2.671714178431422
 31
0.0
  0
LINE
  5
1CD9
330
1F
100
AcDbEntity
  8
0
100
AcDbLine
 10
9.105301867477756
 20
2.671714178431422
 30
0.0
 11
9.105301867477756
 21
2.691714178431425
 31
0.0
  0
LINE
  5
1CDA
330
1F
100
AcDbEntity
  8
0
100
AcDbLine
 10
9.118228210110309
 20
2.706788178394404
 30
0.0
 11
9.118228210110309
 21
2.7319944776462
 31
0.0
  0
LINE
  5
1CDB
330
1F
100
AcDbEntity
  8
0
100
AcDbLine
 10
9.105301867477756
 20
2.706788178394404
 30
0.0
 11
9.105301867477745
 21
2.731154560329663
 31
0.0
  0
LINE
  5
1CDC
330
1F
100
AcDbEntity
  8
0
100
AcDbLine
 10
8.390583970821319
 20
2.706788178394404
 30
0.0
 11
8.390583970821309
 21
2.73862292094202
 31
0.0
  0
LINE
  5
1CDD
330
1F
100
AcDbEntity
  8
0
100
AcDbLine
 10
8.390583970821309
 20
2.73862292094202
 30
0.0
 11
8.390583970821309
 21
2.788057358556596
 31
0.0
  0
LINE
  5
1CDE
330
1F
100
AcDbEntity
  8
0
100
AcDbLine
 10
9.118472934060935
 20
2.7319944776462
 30
0.0
 11
9.118472934060928
 21
2.771994477646199
 31
0.0
  0
LINE
  5
1CDF
330
1F
100
AcDbEntity
  8
0
100
AcDbLine
 10
8.403510313453864
 20
2.788057358556596
 30
0.0
 11
8.403510313453864
 21
2.812423740491855
 31
0.0
  0
LINE
  5
1CE0
330
1F
100
AcDbEntity
  8
0
100
AcDbLine
 10
8.403510313453873
 20
2.771601264892762
 30
0.0
 11
8.403510313453875
 21
2.751601264892762
 31
0.0
  0
LINE
  5
1CE1
330
1F
100
AcDbEntity
  8
0
100
AcDbLine
 10
8.416436656086439
 20
2.751601264892762
 30
0.0
 11
8.416436656086439
 21
2.771601264892762
 31
0.0
  0
LINE
  5
1CE2
330
1F
100
AcDbEntity
  8
0
100
AcDbLine
 10
8.403510313453873
 20
2.731154560329663
 30
0.0
 11
8.403510313453873
 21
2.73199447764621
 31
0.0
  0
LINE
  5
1CE3
330
1F
100
AcDbEntity
  8
0
100
AcDbLine
 10
8.416436656086439
 20
2.731154560329663
 30
0.0
 11
8.416436656086441
 21
2.73199447764621
 31
0.0
  0
LINE
  5
1CE4
330
1F
100
AcDbEntity
  8
0
100
AcDbLine
 10
9.105301867477745
 20
2.731154560329663
 30
0.0
 11
9.105301867477741
 21
2.7319944776462
 31
0.0
  0
LINE
  5
1CE5
330
1F
100
AcDbEntity
  8
0
100
AcDbLine
 10
9.092375524845177
 20
2.731154560329663
 30
0.0
 11
9.092375524845177
 21
2.7319944776462
 31
0.0
  0
LINE
  5
1CE6
330
1F
100
AcDbEntity
  8
0
100
AcDbLine
 10
9.092375524845177
 20
2.771601264892762
 30
0.0
 11
9.092375524845177
 21
2.751601264892762
 31
0.0
  0
LINE
  5
1CE7
330
1F
100
AcDbEntity
  8
0
100
AcDbLine
 10
9.105301867477745
 20
2.751601264892762
 30
0.0
 11
9.105301867477745
 21
2.771601264892762
 31
0.0
  0
LINE
  5
1CE8
330
1F
100
AcDbEntity
  8
0
100
AcDbLine
 10
9.118228210110299
 20
2.788057358556596
 30
0.0
 11
9.118228210110299
 21
2.813263657808391
 31
0.0
  0
LINE
  5
1CE9
330
1F
100
AcDbEntity
  8
0
100
AcDbLine
 10
9.105301867477741
 20
2.788057358556596
 30
0.0
 11
9.105301867477734
 21
2.812423740491855
 31
0.0
  0
LINE
  5
1CEA
330
1F
100
AcDbEntity
  8
0
100
AcDbLine
 10
8.390583970821309
 20
2.788057358556596
 30
0.0
 11
8.390583970821298
 21
2.819892101104212
 31
0.0
  0
LINE
  5
1CEB
330
1F
100
AcDbEntity
  8
0
100
AcDbLine
 10
8.390583970821298
 20
2.819892101104212
 30
0.0
 11
8.390583970821298
 21
2.868939340294964
 31
0.0
  0
LINE
  5
1CEC
330
1F
100
AcDbEntity
  8
0
100
AcDbLine
 10
9.118472934060925
 20
2.813263657808391
 30
0.0
 11
9.118472934060921
 21
2.85326365780839
 31
0.0
  0
LINE
  5
1CED
330
1F
100
AcDbEntity
  8
0
100
AcDbLine
 10
8.403510313453855
 20
2.868939340294964
 30
0.0
 11
8.403510313453855
 21
2.893305722230223
 31
0.0
  0
LINE
  5
1CEE
330
1F
100
AcDbEntity
  8
0
100
AcDbLine
 10
8.403510313453864
 20
2.852870445054954
 30
0.0
 11
8.403510313453866
 21
2.832870445054954
 31
0.0
  0
LINE
  5
1CEF
330
1F
100
AcDbEntity
  8
0
100
AcDbLine
 10
8.41643665608643
 20
2.832870445054954
 30
0.0
 11
8.41643665608643
 21
2.852870445054954
 31
0.0
  0
LINE
  5
1CF0
330
1F
100
AcDbEntity
  8
0
100
AcDbLine
 10
8.403510313453864
 20
2.812423740491855
 30
0.0
 11
8.403510313453864
 21
2.813263657808402
 31
0.0
  0
LINE
  5
1CF1
330
1F
100
AcDbEntity
  8
0
100
AcDbLine
 10
8.41643665608643
 20
2.812423740491855
 30
0.0
 11
8.41643665608643
 21
2.813263657808402
 31
0.0
  0
LINE
  5
1CF2
330
1F
100
AcDbEntity
  8
0
100
AcDbLine
 10
9.105301867477734
 20
2.812423740491855
 30
0.0
 11
9.105301867477734
 21
2.813263657808391
 31
0.0
  0
LINE
  5
1CF3
330
1F
100
AcDbEntity
  8
0
100
AcDbLine
 10
9.092375524845166
 20
2.812423740491855
 30
0.0
 11
9.092375524845166
 21
2.813263657808391
 31
0.0
  0
LINE
  5
1CF4
330
1F
100
AcDbEntity
  8
0
100
AcDbLine
 10
9.092375524845166
 20
2.852870445054954
 30
0.0
 11
9.092375524845166
 21
2.832870445054954
 31
0.0
  0
LINE
  5
1CF5
330
1F
100
AcDbEntity
  8
0
100
AcDbLine
 10
9.105301867477734
 20
2.832870445054954
 30
0.0
 11
9.105301867477734
 21
2.852870445054954
 31
0.0
  0
LINE
  5
1CF6
330
1F
100
AcDbEntity
  8
0
100
AcDbLine
 10
9.118228210110292
 20
2.868939340294964
 30
0.0
 11
9.118228210110292
 21
2.884545384092024
 31
0.0
  0
LINE
  5
1CF7
330
1F
100
AcDbEntity
  8
0
100
AcDbLine
 10
9.105301867477734
 20
2.868939340294964
 30
0.0
 11
9.105301867477724
 21
2.884545384092024
 31
0.0
  0
LINE
  5
1CF8
330
1F
100
AcDbEntity
  8
0
100
AcDbLine
 10
8.390583970821298
 20
2.868939340294964
 30
0.0
 11
8.390583970821291
 21
2.90077408284258
 31
0.0
  0
LINE
  5
1CF9
330
1F
100
AcDbEntity
  8
0
100
AcDbLine
 10
8.390583970821291
 20
2.90077408284258
 30
0.0
 11
8.390583970821291
 21
2.955831854941056
 31
0.0
  0
LINE
  5
1CFA
330
1F
100
AcDbEntity
  8
0
100
AcDbLine
 10
8.403510313453855
 20
2.933752426793319
 30
0.0
 11
8.403510313453857
 21
2.913752426793319
 31
0.0
  0
LINE
  5
1CFB
330
1F
100
AcDbEntity
  8
0
100
AcDbLine
 10
8.416436656086421
 20
2.913752426793319
 30
0.0
 11
8.416436656086421
 21
2.933752426793319
 31
0.0
  0
LINE
  5
1CFC
330
1F
100
AcDbEntity
  8
0
100
AcDbLine
 10
8.403510313453855
 20
2.893305722230223
 30
0.0
 11
8.403510313453855
 21
2.894145639546771
 31
0.0
  0
LINE
  5
1CFD
330
1F
100
AcDbEntity
  8
0
100
AcDbLine
 10
8.416436656086421
 20
2.893305722230223
 30
0.0
 11
8.416436656086423
 21
2.894145639546771
 31
0.0
  0
LINE
  5
1CFE
330
1F
100
AcDbEntity
  8
0
100
AcDbLine
 10
8.39058397082128
 20
2.957455453720026
 30
0.0
 11
8.39058397082128
 21
2.989290196267642
 31
0.0
  0
LINE
  5
1CFF
330
1F
100
AcDbEntity
  8
0
100
AcDbLine
 10
8.39058397082128
 20
2.989290196267642
 30
0.0
 11
8.39058397082128
 21
3.044347968366118
 31
0.0
  0
LINE
  5
1D00
330
1F
100
AcDbEntity
  8
0
100
AcDbLine
 10
8.403510313453844
 20
3.02226854021838
 30
0.0
 11
8.403510313453846
 21
3.002268540218381
 31
0.0
  0
LINE
  5
1D01
330
1F
100
AcDbEntity
  8
0
100
AcDbLine
 10
8.416436656086412
 20
3.002268540218381
 30
0.0
 11
8.416436656086412
 21
3.02226854021838
 31
0.0
  0
LINE
  5
1D02
330
1F
100
AcDbEntity
  8
0
100
AcDbLine
 10
8.403510313453844
 20
2.981821835655285
 30
0.0
 11
8.403510313453844
 21
2.982661752971832
 31
0.0
  0
LINE
  5
1D03
330
1F
100
AcDbEntity
  8
0
100
AcDbLine
 10
8.416436656086412
 20
2.981821835655285
 30
0.0
 11
8.416436656086412
 21
2.982661752971832
 31
0.0
  0
LINE
  5
1D04
330
1F
100
AcDbEntity
  8
0
100
AcDbLine
 10
9.003665960851851
 20
3.221879336843148
 30
0.0
 11
9.003665960851851
 21
3.261879336843147
 31
0.0
  0
LINE
  5
1D05
330
1F
100
AcDbEntity
  8
0
100
AcDbLine
 10
8.977568551636114
 20
3.220567801032444
 30
0.0
 11
8.977568551636114
 21
3.221879336843148
 31
0.0
  0
LINE
  5
1D06
330
1F
100
AcDbEntity
  8
0
100
AcDbLine
 10
8.977568551636114
 20
3.240567801032447
 30
0.0
 11
8.977568551636114
 21
3.221879336843148
 31
0.0
  0
LINE
  5
1D07
330
1F
100
AcDbEntity
  8
0
100
AcDbLine
 10
8.990494894268678
 20
3.220567801032444
 30
0.0
 11
8.99049489426868
 21
3.240567801032447
 31
0.0
  0
LINE
  5
1D08
330
1F
100
AcDbEntity
  8
0
100
AcDbLine
 10
8.275776997612274
 20
3.525596261713566
 30
0.0
 11
8.275776997612274
 21
3.493761519165961
 31
0.0
  0
LINE
  5
1D09
330
1F
100
AcDbEntity
  8
0
100
AcDbLine
 10
8.275776997612274
 20
3.445709175252211
 30
0.0
 11
8.275776997612274
 21
3.493761519165961
 31
0.0
  0
LINE
  5
1D0A
330
1F
100
AcDbEntity
  8
0
100
AcDbLine
 10
9.003665960851879
 20
3.463917585205059
 30
0.0
 11
9.003665960851883
 21
3.503917585205059
 31
0.0
  0
LINE
  5
1D0B
330
1F
100
AcDbEntity
  8
0
100
AcDbLine
 10
8.288703340244829
 20
3.445709175252211
 30
0.0
 11
8.288703340244829
 21
3.4240304987437
 31
0.0
  0
LINE
  5
1D0C
330
1F
100
AcDbEntity
  8
0
100
AcDbLine
 10
8.28870334024484
 20
3.482606049394359
 30
0.0
 11
8.28870334024484
 21
3.462606049394356
 31
0.0
  0
LINE
  5
1D0D
330
1F
100
AcDbEntity
  8
0
100
AcDbLine
 10
8.301629682877406
 20
3.463917585205056
 30
0.0
 11
8.301629682877406
 21
3.482606049394359
 31
0.0
  0
LINE
  5
1D0E
330
1F
100
AcDbEntity
  8
0
100
AcDbLine
 10
8.301629682877406
 20
3.462606049394356
 30
0.0
 11
8.301629682877406
 21
3.463917585205056
 31
0.0
  0
LINE
  5
1D0F
330
1F
100
AcDbEntity
  8
0
100
AcDbLine
 10
8.977568551636142
 20
3.462606049394356
 30
0.0
 11
8.977568551636142
 21
3.463917585205059
 31
0.0
  0
LINE
  5
1D10
330
1F
100
AcDbEntity
  8
0
100
AcDbLine
 10
8.977568551636144
 20
3.482606049394359
 30
0.0
 11
8.977568551636142
 21
3.463917585205059
 31
0.0
  0
LINE
  5
1D11
330
1F
100
AcDbEntity
  8
0
100
AcDbLine
 10
9.003421236901264
 20
3.445709175252211
 30
0.0
 11
9.003421236901264
 21
3.424030498743704
 31
0.0
  0
LINE
  5
1D12
330
1F
100
AcDbEntity
  8
0
100
AcDbLine
 10
8.990494894268708
 20
3.462606049394356
 30
0.0
 11
8.99049489426871
 21
3.482606049394359
 31
0.0
  0
LINE
  5
1D13
330
1F
100
AcDbEntity
  8
0
100
AcDbLine
 10
8.990494894268708
 20
3.445709175252211
 30
0.0
 11
8.990494894268699
 21
3.424030498743704
 31
0.0
  0
LINE
  5
1D14
330
1F
100
AcDbEntity
  8
0
100
AcDbLine
 10
9.00366596085184
 20
3.133363223418093
 30
0.0
 11
9.00366596085184
 21
3.173363223418093
 31
0.0
  0
LINE
  5
1D15
330
1F
100
AcDbEntity
  8
0
100
AcDbLine
 10
8.977568551636103
 20
3.132051687607386
 30
0.0
 11
8.977568551636103
 21
3.133363223418093
 31
0.0
  0
LINE
  5
1D16
330
1F
100
AcDbEntity
  8
0
100
AcDbLine
 10
8.977568551636103
 20
3.152051687607393
 30
0.0
 11
8.977568551636103
 21
3.133363223418093
 31
0.0
  0
LINE
  5
1D17
330
1F
100
AcDbEntity
  8
0
100
AcDbLine
 10
8.990494894268667
 20
3.132051687607386
 30
0.0
 11
8.990494894268671
 21
3.152051687607393
 31
0.0
  0
LINE
  5
1D18
330
1F
100
AcDbEntity
  8
0
100
AcDbLine
 10
8.275776997612252
 20
3.364439995090023
 30
0.0
 11
8.275776997612252
 21
3.332605252542418
 31
0.0
  0
LINE
  5
1D19
330
1F
100
AcDbEntity
  8
0
100
AcDbLine
 10
8.275776997612243
 20
3.283558013351655
 30
0.0
 11
8.275776997612252
 21
3.332605252542418
 31
0.0
  0
LINE
  5
1D1A
330
1F
100
AcDbEntity
  8
0
100
AcDbLine
 10
9.003665960851861
 20
3.302761318581517
 30
0.0
 11
9.003665960851861
 21
3.342761318581512
 31
0.0
  0
LINE
  5
1D1B
330
1F
100
AcDbEntity
  8
0
100
AcDbLine
 10
8.28870334024481
 20
3.283558013351655
 30
0.0
 11
8.28870334024481
 21
3.27301451131985
 31
0.0
  0
LINE
  5
1D1C
330
1F
100
AcDbEntity
  8
0
100
AcDbLine
 10
8.288703340244818
 20
3.321449782770816
 30
0.0
 11
8.288703340244818
 21
3.301449782770809
 31
0.0
  0
LINE
  5
1D1D
330
1F
100
AcDbEntity
  8
0
100
AcDbLine
 10
8.301629682877385
 20
3.302761318581509
 30
0.0
 11
8.301629682877385
 21
3.321449782770816
 31
0.0
  0
LINE
  5
1D1E
330
1F
100
AcDbEntity
  8
0
100
AcDbLine
 10
8.301629682877385
 20
3.301449782770809
 30
0.0
 11
8.301629682877385
 21
3.302761318581509
 31
0.0
  0
LINE
  5
1D1F
330
1F
100
AcDbEntity
  8
0
100
AcDbLine
 10
8.977568551636121
 20
3.301449782770809
 30
0.0
 11
8.977568551636121
 21
3.302761318581517
 31
0.0
  0
LINE
  5
1D20
330
1F
100
AcDbEntity
  8
0
100
AcDbLine
 10
8.977568551636123
 20
3.321449782770812
 30
0.0
 11
8.977568551636121
 21
3.302761318581517
 31
0.0
  0
LINE
  5
1D21
330
1F
100
AcDbEntity
  8
0
100
AcDbLine
 10
9.003421236901244
 20
3.283558013351655
 30
0.0
 11
9.003421236901244
 21
3.261879336843147
 31
0.0
  0
LINE
  5
1D22
330
1F
100
AcDbEntity
  8
0
100
AcDbLine
 10
8.990494894268687
 20
3.301449782770809
 30
0.0
 11
8.990494894268689
 21
3.321449782770812
 31
0.0
  0
LINE
  5
1D23
330
1F
100
AcDbEntity
  8
0
100
AcDbLine
 10
8.990494894268678
 20
3.283558013351655
 30
0.0
 11
8.990494894268678
 21
3.261879336843147
 31
0.0
  0
LINE
  5
1D24
330
1F
100
AcDbEntity
  8
0
100
AcDbLine
 10
8.275776997612274
 20
3.445709175252211
 30
0.0
 11
8.275776997612263
 21
3.413874432704606
 31
0.0
  0
LINE
  5
1D25
330
1F
100
AcDbEntity
  8
0
100
AcDbLine
 10
8.275776997612252
 20
3.364439995090023
 30
0.0
 11
8.275776997612263
 21
3.413874432704606
 31
0.0
  0
LINE
  5
1D26
330
1F
100
AcDbEntity
  8
0
100
AcDbLine
 10
9.003665960851868
 20
3.384030498743705
 30
0.0
 11
9.003665960851872
 21
3.424030498743704
 31
0.0
  0
LINE
  5
1D27
330
1F
100
AcDbEntity
  8
0
100
AcDbLine
 10
8.288703340244818
 20
3.364439995090023
 30
0.0
 11
8.288703340244818
 21
3.342761318581509
 31
0.0
  0
LINE
  5
1D28
330
1F
100
AcDbEntity
  8
0
100
AcDbLine
 10
8.288703340244829
 20
3.402718962933004
 30
0.0
 11
8.288703340244829
 21
3.382718962933001
 31
0.0
  0
LINE
  5
1D29
330
1F
100
AcDbEntity
  8
0
100
AcDbLine
 10
8.301629682877395
 20
3.384030498743701
 30
0.0
 11
8.301629682877395
 21
3.402718962933004
 31
0.0
  0
LINE
  5
1D2A
330
1F
100
AcDbEntity
  8
0
100
AcDbLine
 10
8.301629682877395
 20
3.382718962933001
 30
0.0
 11
8.301629682877395
 21
3.384030498743701
 31
0.0
  0
LINE
  5
1D2B
330
1F
100
AcDbEntity
  8
0
100
AcDbLine
 10
8.977568551636132
 20
3.382718962933001
 30
0.0
 11
8.977568551636132
 21
3.384030498743705
 31
0.0
  0
LINE
  5
1D2C
330
1F
100
AcDbEntity
  8
0
100
AcDbLine
 10
8.977568551636135
 20
3.402718962933004
 30
0.0
 11
8.977568551636132
 21
3.384030498743705
 31
0.0
  0
LINE
  5
1D2D
330
1F
100
AcDbEntity
  8
0
100
AcDbLine
 10
9.003421236901253
 20
3.36443999509002
 30
0.0
 11
9.003421236901253
 21
3.342761318581512
 31
0.0
  0
LINE
  5
1D2E
330
1F
100
AcDbEntity
  8
0
100
AcDbLine
 10
8.990494894268699
 20
3.382718962933001
 30
0.0
 11
8.990494894268699
 21
3.402718962933004
 31
0.0
  0
LINE
  5
1D2F
330
1F
100
AcDbEntity
  8
0
100
AcDbLine
 10
8.990494894268687
 20
3.36443999509002
 30
0.0
 11
8.990494894268687
 21
3.342761318581512
 31
0.0
  0
LINE
  5
1D30
330
1F
100
AcDbEntity
  8
0
100
AcDbLine
 10
8.991528227456438
 20
3.525596261713566
 30
0.0
 11
8.990494894268667
 21
3.108149385280515
 31
0.0
  0
LINE
  5
1D31
330
1F
100
AcDbEntity
  8
0
100
AcDbLine
 10
8.999415960851827
 20
3.022661752971821
 30
0.0
 11
8.999415960851827
 21
2.894145639546763
 31
0.0
  0
LINE
  5
1D32
330
1F
100
AcDbEntity
  8
0
100
AcDbLine
 10
9.105301867477734
 20
2.852870445054954
 30
0.0
 11
9.106335200665483
 21
2.626901091933067
 31
0.0
  0
LINE
  5
1D33
330
1F
100
AcDbEntity
  8
0
100
AcDbLine
 10
8.41643665608643
 20
2.852870445054954
 30
0.0
 11
9.092375524845166
 21
2.852870445054954
 31
0.0
  0
LINE
  5
1D34
330
1F
100
AcDbEntity
  8
0
100
AcDbLine
 10
8.260654091007785
 20
3.613779984560849
 30
0.0
 11
8.160654091007783
 21
3.613779984560849
 31
0.0
  0
LINE
  5
1D4C
330
1F
100
AcDbEntity
  8
STREFA BEZPIECZEŃSTWA
100
AcDbLine
 10
6.624518052827191
 20
5.379995586812302
 30
0.0
 11
6.624518052827191
 21
0.8799955868123028
 31
0.0
  0
LINE
  5
1D4D
102
{ACAD_REACTORS
330
1D77
102
}
330
1F
100
AcDbEntity
  8
STREFA BEZPIECZEŃSTWA
100
AcDbLine
 10
6.624518052827191
 20
0.8799955868123028
 30
0.0
 11
10.72451805282719
 21
0.8799955868123028
 31
0.0
  0
LINE
  5
1D4E
330
1F
100
AcDbEntity
  8
STREFA BEZPIECZEŃSTWA
100
AcDbLine
 10
10.72451805282719
 20
0.8799955868123028
 30
0.0
 11
10.72451805282717
 21
5.379995586812302
 31
0.0
  0
LINE
  5
1D4F
102
{ACAD_REACTORS
330
1D77
102
}
330
1F
100
AcDbEntity
  8
STREFA BEZPIECZEŃSTWA
100
AcDbLine
 10
10.72451805282717
 20
5.379995586812302
 30
0.0
 11
6.624518052827191
 21
5.379995586812302
 31
0.0
  0
DIMENSION
  5
1D50
330
1F
100
AcDbEntity
  8
WYMIAR
100
AcDbDimension
  2
*D3
 10
6.624518052827191
 20
5.90525513062353
 30
0.0
 11
8.674518052827183
 21
6.11525513062353
 31
0.0
 70
    32
 71
     5
 42
4.099999999999983
  3
AR SKALA 1-50
100
AcDbAlignedDimension
 13
10.72451805282717
 23
5.454419857589854
 33
0.0
 14
6.624518052827191
 24
5.454419857589854
 34
0.0
100
AcDbRotatedDimension
  0
DIMENSION
  5
1D64
102
{ACAD_XDICTIONARY
360
1D6F
102
}
102
{ACAD_REACTORS
330
1D77
102
}
330
1F
100
AcDbEntity
  8
WYMIAR
100
AcDbDimension
  2
*D4
 10
5.935110205118398
 20
0.879995586812303
 30
0.0
 11
5.725110205118398
 21
3.129995586812304
 31
0.0
 70
    32
 71
     5
 42
4.5
  3
AR SKALA 1-50
100
AcDbAlignedDimension
 13
6.624518052827191
 23
5.379995586812302
 33
0.0
 14
6.624518052827191
 24
0.8799955868123028
 34
0.0
 50
90.0
100
AcDbRotatedDimension
  0
VIEWPORT
  5
7CA
330
1B
100
AcDbEntity
 67
     1
  8
0
100
AcDbViewport
 10
157.4232438655912
 20
109.683291617914
 30
0.0
 40
558.8269503910331
 41
231.2072255910571
 68
     1
 69
     1
 12
157.4232438655912
 22
109.683291617914
 13
0.0
 23
0.0
 14
10.0
 24
10.0
 15
10.0
 25
10.0
 16
0.0
 26
0.0
 36
1.0
 17
0.0
 27
0.0
 37
0.0
 42
50.0
 43
0.0
 44
0.0
 45
231.2072255910571
 50
0.0
 51
0.0
 72
   100
 90
   819232
  1

281
     0
 71
     1
 74
     0
110
0.0
120
0.0
130
0.0
111
1.0
121
0.0
131
0.0
112
0.0
122
1.0
132
0.0
 79
     0
146
0.0
170
     0
  0
VIEWPORT
  5
99A
330
1B
100
AcDbEntity
 67
     1
  8
Defpoints
100
AcDbViewport
 10
151.5855934681565
 20
104.8621726199724
 30
0.0
 40
290.0480970456033
 41
203.1599664902751
 68
     2
 69
     2
 12
8.843051759667371
 22
2.769535089933248
 13
0.0
 23
0.0
 14
0.5
 24
0.5
 15
0.5
 25
0.5
 16
0.0
 26
0.0
 36
1.0
 17
0.0
 27
0.0
 37
-1000.0
 42
50.0
 43
4.148984367261674
 44
9.217858496371269
 45
10.15799894002488
 50
0.0
 51
0.0
 72
   100
 90
   819296
  1

281
     0
 71
     1
 74
     0
110
0.0
120
0.0
130
0.0
111
1.0
121
0.0
131
0.0
112
0.0
122
1.0
132
0.0
 79
     0
146
0.0
170
     0
  0
ENDSEC
  0
SECTION
  2
OBJECTS
  0
DICTIONARY
  5
C
330
0
100
AcDbDictionary
281
     1
  3
ACAD_COLOR
350
4B9
  3
ACAD_GROUP
350
D
  3
ACAD_LAYOUT
350
1A
  3
ACAD_MATERIAL
350
3B
  3
ACAD_MLEADERSTYLE
350
489
  3
ACAD_MLINESTYLE
350
17
  3
ACAD_PLOTSETTINGS
350
19
  3
ACAD_PLOTSTYLENAME
350
E
  3
ACAD_SCALELIST
350
14FE
  3
ACAD_TABLESTYLE
350
4BA
  3
ACAD_VISUALSTYLE
350
2A
  3
ACDB_RECOMPOSE_DATA
350
1DA8
  3
AcDbVariableDictionary
350
487
  0
DICTIONARY
  5
84C
330
8
100
AcDbDictionary
280
     1
281
     1
  0
DICTIONARY
  5
7D1
330
2
100
AcDbDictionary
280
     1
281
     1
  3
ACAD_LAYERFILTERS
360
1D89
  3
ACAD_LAYERSTATES
360
7D2
  3
ACLYDICTIONARY
360
1D88
  0
DICTIONARY
  5
1D8A
330
10
100
AcDbDictionary
280
     1
281
     1
  3
ADSK_XREC_LAYER_RECONCILED
360
1D8B
  0
DICTIONARY
  5
1D8C
330
87B
100
AcDbDictionary
280
     1
281
     1
  3
ADSK_XREC_LAYER_RECONCILED
360
1D8D
  0
DICTIONARY
  5
1D8E
330
87D
100
AcDbDictionary
280
     1
281
     1
  3
ADSK_XREC_LAYER_RECONCILED
360
1D8F
  0
DICTIONARY
  5
5F8
330
1F
100
AcDbDictionary
280
     1
281
     1
  3
ACAD_SORTENTS
360
5F9
  0
DICTIONARY
  5
1D6F
330
1D64
100
AcDbDictionary
280
     1
281
     1
  3
ACAD_DIMASSOC
360
1D77
  0
DICTIONARY
  5
4B9
102
{ACAD_REACTORS
330
C
102
}
330
C
100
AcDbDictionary
281
     1
  0
DICTIONARY
  5
D
102
{ACAD_REACTORS
330
C
102
}
330
C
100
AcDbDictionary
281
     1
  0
DICTIONARY
  5
1A
102
{ACAD_REACTORS
330
C
102
}
330
C
100
AcDbDictionary
281
     1
  3
Layout1
350
1E
  3
Model
350
22
  0
DICTIONARY
  5
3B
102
{ACAD_REACTORS
330
C
102
}
330
C
100
AcDbDictionary
281
     1
  3
ByBlock
350
3D
  3
ByLayer
350
3C
  3
Global
350
3E
  0
DICTIONARY
  5
489
102
{ACAD_REACTORS
330
C
102
}
330
C
100
AcDbDictionary
281
     1
  3
Standard
350
1520
  0
DICTIONARY
  5
17
102
{ACAD_REACTORS
330
C
102
}
330
C
100
AcDbDictionary
281
     1
  3
Standard
350
18
  0
DICTIONARY
  5
19
102
{ACAD_REACTORS
330
C
102
}
330
C
100
AcDbDictionary
281
     1
  0
ACDBDICTIONARYWDFLT
  5
E
102
{ACAD_REACTORS
330
C
102
}
330
C
100
AcDbDictionary
281
     1
  3
Normal
350
F
100
AcDbDictionaryWithDefault
340
F
  0
DICTIONARY
  5
14FE
102
{ACAD_REACTORS
330
C
102
}
330
C
100
AcDbDictionary
281
     1
  3
A0
350
14FF
  3
A1
350
1500
  3
A2
350
1501
  3
A3
350
1502
  3
A4
350
1503
  3
A5
350
1504
  3
A6
350
1505
  3
A7
350
1506
  3
A8
350
1507
  3
A9
350
1508
  3
B0
350
1509
  3
B1
350
150A
  3
B2
350
150B
  3
B3
350
150C
  3
B4
350
150D
  3
B5
350
150E
  3
B6
350
150F
  3
B7
350
1510
  3
B8
350
1511
  3
B9
350
1512
  3
C0
350
1513
  3
C1
350
1514
  3
C2
350
1515
  3
C3
350
1516
  3
C4
350
1517
  3
C5
350
1518
  3
C6
350
1519
  3
C7
350
151A
  3
C8
350
151B
  3
C9
350
151C
  3
D0
350
151D
  3
D1
350
151E
  3
D2
350
151F
  0
DICTIONARY
  5
4BA
102
{ACAD_REACTORS
330
C
102
}
330
C
100
AcDbDictionary
281
     1
  3
Standard
350
4BB
  0
DICTIONARY
  5
2A
102
{ACAD_REACTORS
330
C
102
}
330
C
100
AcDbDictionary
281
     1
  3
2dWireframe
350
2F
  3
3D Hidden
350
A48
  3
3dWireframe
350
A47
  3
Basic
350
32
  3
Brighten
350
36
  3
ColorChange
350
3A
  3
Conceptual
350
A49
  3
Dim
350
35
  3
Facepattern
350
39
  3
Flat
350
2B
  3
FlatWithEdges
350
2C
  3
Gouraud
350
2D
  3
GouraudWithEdges
350
2E
  3
Linepattern
350
38
  3
Realistic
350
A4A
  3
Thicken
350
37
  0
XRECORD
  5
1DA8
102
{ACAD_REACTORS
330
C
102
}
330
C
100
AcDbXrecord
280
     1
 90
        1
330
4BB
  0
DICTIONARY
  5
487
102
{ACAD_REACTORS
330
C
102
}
330
C
100
AcDbDictionary
281
     1
  3
CANNOSCALE
350
1DAB
  3
CMLEADERSTYLE
350
1DA9
  3
CTABLESTYLE
350
5FE
  3
DIMASSOC
350
48A
  3
HIDETEXT
350
48B
  3
INDEXCTL
350
86B
  3
LIGHTINGUNITS
350
1DAC
  3
MSLTSCALE
350
1DAA
  3
SORTENTS
350
86A
  0
DICTIONARY
  5
1D89
102
{ACAD_REACTORS
330
7D1
102
}
330
7D1
100
AcDbDictionary
281
     1
  0
DICTIONARY
  5
7D2
102
{ACAD_REACTORS
330
7D1
102
}
330
7D1
100
AcDbDictionary
281
     1
  0
DICTIONARY
  5
1D88
102
{ACAD_REACTORS
330
7D1
102
}
330
7D1
100
AcDbDictionary
281
     1
1001
ACAD
1000
<All
  0
XRECORD
  5
1D8B
102
{ACAD_REACTORS
330
1D8A
102
}
330
1D8A
100
AcDbXrecord
280
     1
290
     1
  0
XRECORD
  5
1D8D
102
{ACAD_REACTORS
330
1D8C
102
}
330
1D8C
100
AcDbXrecord
280
     1
290
     1
  0
XRECORD
  5
1D8F
102
{ACAD_REACTORS
330
1D8E
102
}
330
1D8E
100
AcDbXrecord
280
     1
290
     1
  0
SORTENTSTABLE
  5
5F9
102
{ACAD_REACTORS
330
5F8
102
}
330
5F8
100
AcDbSortentsTable
330
1F
  0
DIMASSOC
  5
1D77
102
{ACAD_REACTORS
330
1D6F
102
}
330
1D6F
100
AcDbDimAssoc
330
1D64
 90
        3
 70
     0
 71
     0
  1
AcDbOsnapPointRef
 72
     1
331
1D4F
 73
     2
 91
        0
 40
1.0
 10
0.0
 20
0.0
 30
2.000000000000000E+50
 75
     0
  1
AcDbOsnapPointRef
 72
    13
331
1D4D
 73
     2
 91
        0
 40
0.0
 10
0.0
 20
0.0
 30
2.000000000000000E+50
 75
     0
  0
LAYOUT
  5
1E
102
{ACAD_XDICTIONARY
360
7D4
102
}
102
{ACAD_REACTORS
330
1A
102
}
330
1A
100
AcDbPlotSettings
  1

  2
Bullzip PDF Printer
  4
A4
  6

 40
3.174999952316284
 41
3.174999952316284
 42
3.175003051757812
 43
3.17498779296875
 44
209.8886566162109
 45
297.0530090332031
 46
0.0
 47
0.0
 48
6.561544945354853
 49
3.282189374834842
140
296.6096419909582
141
206.4421558651099
142
1.0
143
1.0
 70
   672
 72
     1
 73
     1
 74
     4
  7
RINTAL 1.10.ctb
 75
    16
147
25.4
 76
     0
 77
     2
 78
   300
148
-6.561544945354853
149
-3.282189374834842
100
AcDbLayout
  1
Layout1
 70
     0
 71
     1
 10
3.386557152386103
 20
0.1071894225185588
 11
300.4395661855892
 21
209.9958460387295
 12
0.0
 22
0.0
 32
0.0
 14
6.550360952942241
 24
3.271404891950567
 34
-0.0015258207003583
 15
296.6185267327722
 25
206.4473139376702
 35
0.0000000349246037
146
0.0
 13
0.0
 23
0.0
 33
0.0
 16
1.0
 26
0.0
 36
0.0
 17
0.0
 27
1.0
 37
0.0
 76
     0
330
1B
331
7CA
1001
ACAD_PSEXT
1000
Bullzip PDF Printer
1000
Bullzip PDF Printer
1000
BULLZIP
1000
Bullzip PDF Printer 7.1.0.1218
1070
     0
  0
LAYOUT
  5
22
102
{ACAD_REACTORS
330
1A
102
}
330
1A
100
AcDbPlotSettings
  1

  2
none_device
  4
Letter_(8.50_x_11.00_Inches)
  6

 40
6.349999904632568
 41
6.349999904632568
 42
6.350006103515625
 43
6.350006103515625
 44
215.8999938964844
 45
279.3999938964844
 46
0.0
 47
0.0
 48
0.0
 49
0.0
140
0.0
141
0.0
142
1.0
143
1.502377732607135
 70
 11952
 72
     0
 73
     1
 74
     0
  7

 75
     0
147
0.66561156911229
 76
     0
 77
     2
 78
   300
148
-5.789488769680695
149
26.89721927066778
100
AcDbLayout
  1
Model
 70
     1
 71
     0
 10
0.0
 20
0.0
 11
12.0
 21
9.0
 12
0.0
 22
0.0
 32
0.0
 14
1.000000000000000E+20
 24
1.000000000000000E+20
 34
1.000000000000000E+20
 15
-1.000000000000000E+20
 25
-1.000000000000000E+20
 35
-1.000000000000000E+20
146
0.0
 13
0.0
 23
0.0
 33
0.0
 16
1.0
 26
0.0
 36
0.0
 17
0.0
 27
1.0
 37
0.0
 76
     0
330
1F
331
29
1001
ACAD_PSEXT
1000
Brak
1000
Brak
1000
Nie można zastosować.
1000
Arkusz nie zostanie wydrukowany dopóki nie wybrano konfiguracji plotera.
1070
     0
  0
MATERIAL
  5
3D
102
{ACAD_XDICTIONARY
360
1DBA
102
}
102
{ACAD_REACTORS
330
3B
102
}
330
3B
100
AcDbMaterial
  1
ByBlock
 73
     1
 78
     1
172
     1
176
     1
270
     1
274
     1
  0
MATERIAL
  5
3C
102
{ACAD_XDICTIONARY
360
1DB8
102
}
102
{ACAD_REACTORS
330
3B
102
}
330
3B
100
AcDbMaterial
  1
ByLayer
 73
     1
 78
     1
172
     1
176
     1
270
     1
274
     1
  0
MATERIAL
  5
3E
102
{ACAD_XDICTIONARY
360
1DBC
102
}
102
{ACAD_REACTORS
330
3B
102
}
330
3B
100
AcDbMaterial
  1
Global
 73
     1
 78
     1
172
     1
176
     1
270
     1
274
     1
  0
MLEADERSTYLE
  5
1520
102
{ACAD_REACTORS
330
489
102
}
330
489
100
AcDbMLeaderStyle
170
     2
171
     1
172
     0
 90
        2
 40
0.0
 41
0.0
173
     1
 91
-1056964608
340
14
 92
       -2
290
     1
 42
0.09
291
     1
 43
0.36
  3
Standard
 44
0.18
300

342
11
174
     1
178
     6
175
     1
176
     0
 93
-1056964608
 45
0.18
292
     0
297
     0
 46
0.18
 94
-1056964608
 47
1.0
 49
1.0
140
1.0
293
     1
141
0.0
294
     1
177
     0
142
1.0
295
     0
296
     0
143
0.125
1001
ACAD_MLEADERVER
1070
     2
  0
MLINESTYLE
  5
18
102
{ACAD_REACTORS
330
17
102
}
330
17
100
AcDbMlineStyle
  2
STANDARD
 70
     0
  3

 62
   256
 51
90.0
 52
90.0
 71
     2
 49
0.5
 62
   256
  6
BYLAYER
 49
-0.5
 62
   256
  6
BYLAYER
  0
ACDBPLACEHOLDER
  5
F
102
{ACAD_REACTORS
330
E
102
}
330
E
  0
SCALE
  5
14FF
102
{ACAD_REACTORS
330
14FE
102
}
330
14FE
100
AcDbScale
 70
     0
300
1:1
140
1.0
141
1.0
290
     1
  0
SCALE
  5
1500
102
{ACAD_REACTORS
330
14FE
102
}
330
14FE
100
AcDbScale
 70
     0
300
1:2
140
1.0
141
2.0
290
     0
  0
SCALE
  5
1501
102
{ACAD_REACTORS
330
14FE
102
}
330
14FE
100
AcDbScale
 70
     0
300
1:4
140
1.0
141
4.0
290
     0
  0
SCALE
  5
1502
102
{ACAD_REACTORS
330
14FE
102
}
330
14FE
100
AcDbScale
 70
     0
300
1:5
140
1.0
141
5.0
290
     0
  0
SCALE
  5
1503
102
{ACAD_REACTORS
330
14FE
102
}
330
14FE
100
AcDbScale
 70
     0
300
1:8
140
1.0
141
8.0
290
     0
  0
SCALE
  5
1504
102
{ACAD_REACTORS
330
14FE
102
}
330
14FE
100
AcDbScale
 70
     0
300
1:10
140
1.0
141
10.0
290
     0
  0
SCALE
  5
1505
102
{ACAD_REACTORS
330
14FE
102
}
330
14FE
100
AcDbScale
 70
     0
300
1:16
140
1.0
141
16.0
290
     0
  0
SCALE
  5
1506
102
{ACAD_REACTORS
330
14FE
102
}
330
14FE
100
AcDbScale
 70
     0
300
1:20
140
1.0
141
20.0
290
     0
  0
SCALE
  5
1507
102
{ACAD_REACTORS
330
14FE
102
}
330
14FE
100
AcDbScale
 70
     0
300
1:30
140
1.0
141
30.0
290
     0
  0
SCALE
  5
1508
102
{ACAD_REACTORS
330
14FE
102
}
330
14FE
100
AcDbScale
 70
     0
300
1:40
140
1.0
141
40.0
290
     0
  0
SCALE
  5
1509
102
{ACAD_REACTORS
330
14FE
102
}
330
14FE
100
AcDbScale
 70
     0
300
1:50
140
1.0
141
50.0
290
     0
  0
SCALE
  5
150A
102
{ACAD_REACTORS
330
14FE
102
}
330
14FE
100
AcDbScale
 70
     0
300
1:100
140
1.0
141
100.0
290
     0
  0
SCALE
  5
150B
102
{ACAD_REACTORS
330
14FE
102
}
330
14FE
100
AcDbScale
 70
     0
300
2:1
140
2.0
141
1.0
290
     0
  0
SCALE
  5
150C
102
{ACAD_REACTORS
330
14FE
102
}
330
14FE
100
AcDbScale
 70
     0
300
4:1
140
4.0
141
1.0
290
     0
  0
SCALE
  5
150D
102
{ACAD_REACTORS
330
14FE
102
}
330
14FE
100
AcDbScale
 70
     0
300
8:1
140
8.0
141
1.0
290
     0
  0
SCALE
  5
150E
102
{ACAD_REACTORS
330
14FE
102
}
330
14FE
100
AcDbScale
 70
     0
300
10:1
140
10.0
141
1.0
290
     0
  0
SCALE
  5
150F
102
{ACAD_REACTORS
330
14FE
102
}
330
14FE
100
AcDbScale
 70
     0
300
100:1
140
100.0
141
1.0
290
     0
  0
SCALE
  5
1510
102
{ACAD_REACTORS
330
14FE
102
}
330
14FE
100
AcDbScale
 70
     0
300
1/128" = 1'-0"
140
0.0078125
141
12.0
290
     0
  0
SCALE
  5
1511
102
{ACAD_REACTORS
330
14FE
102
}
330
14FE
100
AcDbScale
 70
     0
300
1/64" = 1'-0"
140
0.015625
141
12.0
290
     0
  0
SCALE
  5
1512
102
{ACAD_REACTORS
330
14FE
102
}
330
14FE
100
AcDbScale
 70
     0
300
1/32" = 1'-0"
140
0.03125
141
12.0
290
     0
  0
SCALE
  5
1513
102
{ACAD_REACTORS
330
14FE
102
}
330
14FE
100
AcDbScale
 70
     0
300
1/16" = 1'-0"
140
0.0625
141
12.0
290
     0
  0
SCALE
  5
1514
102
{ACAD_REACTORS
330
14FE
102
}
330
14FE
100
AcDbScale
 70
     0
300
3/32" = 1'-0"
140
0.09375
141
12.0
290
     0
  0
SCALE
  5
1515
102
{ACAD_REACTORS
330
14FE
102
}
330
14FE
100
AcDbScale
 70
     0
300
1/8" = 1'-0"
140
0.125
141
12.0
290
     0
  0
SCALE
  5
1516
102
{ACAD_REACTORS
330
14FE
102
}
330
14FE
100
AcDbScale
 70
     0
300
3/16" = 1'-0"
140
0.1875
141
12.0
290
     0
  0
SCALE
  5
1517
102
{ACAD_REACTORS
330
14FE
102
}
330
14FE
100
AcDbScale
 70
     0
300
1/4" = 1'-0"
140
0.25
141
12.0
290
     0
  0
SCALE
  5
1518
102
{ACAD_REACTORS
330
14FE
102
}
330
14FE
100
AcDbScale
 70
     0
300
3/8" = 1'-0"
140
0.375
141
12.0
290
     0
  0
SCALE
  5
1519
102
{ACAD_REACTORS
330
14FE
102
}
330
14FE
100
AcDbScale
 70
     0
300
1/2" = 1'-0"
140
0.5
141
12.0
290
     0
  0
SCALE
  5
151A
102
{ACAD_REACTORS
330
14FE
102
}
330
14FE
100
AcDbScale
 70
     0
300
3/4" = 1'-0"
140
0.75
141
12.0
290
     0
  0
SCALE
  5
151B
102
{ACAD_REACTORS
330
14FE
102
}
330
14FE
100
AcDbScale
 70
     0
300
1" = 1'-0"
140
1.0
141
12.0
290
     0
  0
SCALE
  5
151C
102
{ACAD_REACTORS
330
14FE
102
}
330
14FE
100
AcDbScale
 70
     0
300
1-1/2" = 1'-0"
140
1.5
141
12.0
290
     0
  0
SCALE
  5
151D
102
{ACAD_REACTORS
330
14FE
102
}
330
14FE
100
AcDbScale
 70
     0
300
3" = 1'-0"
140
3.0
141
12.0
290
     0
  0
SCALE
  5
151E
102
{ACAD_REACTORS
330
14FE
102
}
330
14FE
100
AcDbScale
 70
     0
300
6" = 1'-0"
140
6.0
141
12.0
290
     0
  0
SCALE
  5
151F
102
{ACAD_REACTORS
330
14FE
102
}
330
14FE
100
AcDbScale
 70
     0
300
1'-0" = 1'-0"
140
12.0
141
12.0
290
     0
  0
TABLESTYLE
  5
4BB
102
{ACAD_XDICTIONARY
360
1DA6
102
}
102
{ACAD_REACTORS
330
4BA
102
}
330
4BA
100
AcDbTableStyle
  3
Standard
 70
     0
 71
     0
 40
0.06
 41
0.06
280
     0
281
     0
  7
Standard
140
0.18
170
     2
 62
     0
 63
     7
283
     0
274
    -2
284
     1
 64
     0
275
    -2
285
     1
 65
     0
276
    -2
286
     1
 66
     0
277
    -2
287
     1
 67
     0
278
    -2
288
     1
 68
     0
279
    -2
289
     1
 69
     0
  7
Standard
140
0.25
170
     5
 62
     0
 63
     7
283
     0
274
    -2
284
     1
 64
     0
275
    -2
285
     1
 65
     0
276
    -2
286
     1
 66
     0
277
    -2
287
     1
 67
     0
278
    -2
288
     1
 68
     0
279
    -2
289
     1
 69
     0
  7
Standard
140
0.18
170
     5
 62
     0
 63
     7
283
     0
274
    -2
284
     1
 64
     0
275
    -2
285
     1
 65
     0
276
    -2
286
     1
 66
     0
277
    -2
287
     1
 67
     0
278
    -2
288
     1
 68
     0
279
    -2
289
     1
 69
     0
  0
VISUALSTYLE
  5
2F
102
{ACAD_XDICTIONARY
360
49A
102
}
102
{ACAD_REACTORS
330
2A
102
}
330
2A
100
AcDbVisualStyle
  2
2dWireframe
 70
     4
 71
     0
 72
     2
 73
     0
 90
        0
 40
-0.6
 41
-30.0
 62
     5
 63
     7
 74
     1
 91
        4
 64
     7
 65
   257
 75
     1
175
     1
 42
1.0
 92
        0
 66
   257
 43
1.0
 76
     1
 77
     6
 78
     2
 67
     7
 79
     5
170
     0
171
     0
290
     0
174
     0
 93
        1
 44
0.0
173
     0
291
     0
 45
0.0
1001
ACAD
1000
AcDbSavedByObjectVersion
1070
     0
  0
VISUALSTYLE
  5
A48
102
{ACAD_REACTORS
330
2A
102
}
330
2A
100
AcDbVisualStyle
  2
3D Hidden
 70
     6
 71
     1
 72
     2
 73
     2
 90
        0
 40
-0.6
 41
-30.0
 62
     5
 63
     7
 74
     2
 91
        2
 64
     7
 65
   257
 75
     2
175
     1
 42
40.0
 92
        0
 66
   257
 43
1.0
 76
     1
 77
     6
 78
     2
 67
     7
 79
     3
170
     0
171
     0
290
     0
174
     0
 93
        1
 44
0.0
173
     0
291
     0
 45
0.0
1001
ACAD
1000
AcDbSavedByObjectVersion
1070
     0
  0
VISUALSTYLE
  5
A47
102
{ACAD_REACTORS
330
2A
102
}
330
2A
100
AcDbVisualStyle
  2
3dWireframe
 70
     5
 71
     0
 72
     2
 73
     0
 90
        0
 40
-0.6
 41
-30.0
 62
     5
 63
     7
 74
     1
 91
        4
 64
     7
 65
   257
 75
     1
175
     1
 42
1.0
 92
        0
 66
   257
 43
1.0
 76
     1
 77
     6
 78
     2
 67
     7
 79
     5
170
     0
171
     0
290
     0
174
     0
 93
        1
 44
0.0
173
     0
291
     0
 45
0.0
1001
ACAD
1000
AcDbSavedByObjectVersion
1070
     0
  0
VISUALSTYLE
  5
32
102
{ACAD_XDICTIONARY
360
4A0
102
}
102
{ACAD_REACTORS
330
2A
102
}
330
2A
100
AcDbVisualStyle
  2
Basic
 70
     7
 71
     1
 72
     0
 73
     1
 90
        0
 40
-0.6
 41
-30.0
 62
     5
 63
     7
 74
     0
 91
        4
 64
     7
 65
   257
 75
     1
175
     1
 42
1.0
 92
        8
 66
     7
 43
1.0
 76
     1
 77
     6
 78
     2
 67
     7
 79
     5
170
     0
171
     0
290
     0
174
     0
 93
        1
 44
0.0
173
     0
291
     1
 45
0.0
1001
ACAD
1000
AcDbSavedByObjectVersion
1070
     0
  0
VISUALSTYLE
  5
36
102
{ACAD_XDICTIONARY
360
4A8
102
}
102
{ACAD_REACTORS
330
2A
102
}
330
2A
100
AcDbVisualStyle
  2
Brighten
 70
    12
 71
     2
 72
     2
 73
     0
 90
        0
 40
-0.6
 41
-30.0
 62
     5
 63
     7
 74
     1
 91
        4
 64
     7
 65
   257
 75
     1
175
     1
 42
1.0
 92
        8
 66
     7
 43
1.0
 76
     1
 77
     6
 78
     2
 67
     7
 79
     5
170
     0
171
     0
290
     0
174
     0
 93
        1
 44
50.0
173
     0
291
     1
 45
0.0
1001
ACAD
1000
AcDbSavedByObjectVersion
1070
     0
  0
VISUALSTYLE
  5
3A
102
{ACAD_XDICTIONARY
360
4B0
102
}
102
{ACAD_REACTORS
330
2A
102
}
330
2A
100
AcDbVisualStyle
  2
ColorChange
 70
    16
 71
     2
 72
     2
 73
     3
 90
        0
 40
-0.6
 41
-30.0
 62
     5
 63
     8
 74
     1
 91
        4
 64
     7
 65
   257
 75
     1
175
     1
 42
1.0
 92
        8
 66
     8
 43
1.0
 76
     1
 77
     6
 78
     2
 67
     7
 79
     5
170
     0
171
     0
290
     0
174
     0
 93
        1
 44
0.0
173
     0
291
     1
 45
0.0
1001
ACAD
1000
AcDbSavedByObjectVersion
1070
     0
  0
VISUALSTYLE
  5
A49
102
{ACAD_REACTORS
330
2A
102
}
330
2A
100
AcDbVisualStyle
  2
Conceptual
 70
     9
 71
     3
 72
     2
 73
     0
 90
        0
 40
-0.6
 41
-30.0
 62
     5
 63
     7
 74
     2
 91
        2
 64
     7
 65
   257
 75
     1
175
     1
 42
40.0
 92
        8
 66
     7
 43
1.0
 76
     1
 77
     6
 78
     2
 67
     7
 79
     3
170
     0
171
     0
290
     0
174
     0
 93
        1
 44
0.0
173
     0
291
     0
 45
0.0
1001
ACAD
1000
AcDbSavedByObjectVersion
1070
     0
  0
VISUALSTYLE
  5
35
102
{ACAD_XDICTIONARY
360
4A6
102
}
102
{ACAD_REACTORS
330
2A
102
}
330
2A
100
AcDbVisualStyle
  2
Dim
 70
    11
 71
     2
 72
     2
 73
     0
 90
        0
 40
-0.6
 41
-30.0
 62
     5
 63
     7
 74
     1
 91
        4
 64
     7
 65
   257
 75
     1
175
     1
 42
1.0
 92
        8
 66
     7
 43
1.0
 76
     1
 77
     6
 78
     2
 67
     7
 79
     5
170
     0
171
     0
290
     0
174
     0
 93
        1
 44
-50.0
173
     0
291
     1
 45
0.0
1001
ACAD
1000
AcDbSavedByObjectVersion
1070
     0
  0
VISUALSTYLE
  5
39
102
{ACAD_XDICTIONARY
360
4AE
102
}
102
{ACAD_REACTORS
330
2A
102
}
330
2A
100
AcDbVisualStyle
  2
Facepattern
 70
    15
 71
     2
 72
     2
 73
     0
 90
        0
 40
-0.6
 41
-30.0
 62
     5
 63
     7
 74
     1
 91
        4
 64
     7
 65
   257
 75
     1
175
     1
 42
1.0
 92
        8
 66
     7
 43
1.0
 76
     1
 77
     6
 78
     2
 67
     7
 79
     5
170
     0
171
     0
290
     0
174
     0
 93
        1
 44
0.0
173
     0
291
     1
 45
0.0
1001
ACAD
1000
AcDbSavedByObjectVersion
1070
     0
  0
VISUALSTYLE
  5
2B
102
{ACAD_XDICTIONARY
360
492
102
}
102
{ACAD_REACTORS
330
2A
102
}
330
2A
100
AcDbVisualStyle
  2
Flat
 70
     0
 71
     2
 72
     1
 73
     1
 90
        2
 40
-0.6
 41
30.0
 62
     5
 63
     7
 74
     0
 91
        4
 64
     7
 65
   257
 75
     1
175
     1
 42
1.0
 92
        8
 66
     7
 43
1.0
 76
     1
 77
     6
 78
     2
 67
     7
 79
     5
170
     0
171
     0
290
     0
174
     0
 93
       13
 44
0.0
173
     0
291
     1
 45
0.0
1001
ACAD
1000
AcDbSavedByObjectVersion
1070
     0
  0
VISUALSTYLE
  5
2C
102
{ACAD_XDICTIONARY
360
494
102
}
102
{ACAD_REACTORS
330
2A
102
}
330
2A
100
AcDbVisualStyle
  2
FlatWithEdges
 70
     1
 71
     2
 72
     1
 73
     1
 90
        2
 40
-0.6
 41
30.0
 62
     5
 63
     7
 74
     1
 91
        4
 64
     7
 65
   257
 75
     1
175
     1
 42
1.0
 92
        0
 66
   257
 43
1.0
 76
     1
 77
     6
 78
     2
 67
     7
 79
     5
170
     0
171
     0
290
     0
174
     0
 93
       13
 44
0.0
173
     0
291
     1
 45
0.0
1001
ACAD
1000
AcDbSavedByObjectVersion
1070
     0
  0
VISUALSTYLE
  5
2D
102
{ACAD_XDICTIONARY
360
496
102
}
102
{ACAD_REACTORS
330
2A
102
}
330
2A
100
AcDbVisualStyle
  2
Gouraud
 70
     2
 71
     2
 72
     2
 73
     1
 90
        2
 40
-0.6
 41
30.0
 62
     5
 63
     7
 74
     0
 91
        4
 64
     7
 65
   257
 75
     1
175
     1
 42
1.0
 92
        0
 66
     7
 43
1.0
 76
     1
 77
     6
 78
     2
 67
     7
 79
     5
170
     0
171
     0
290
     0
174
     0
 93
       13
 44
0.0
173
     0
291
     1
 45
0.0
1001
ACAD
1000
AcDbSavedByObjectVersion
1070
     0
  0
VISUALSTYLE
  5
2E
102
{ACAD_XDICTIONARY
360
498
102
}
102
{ACAD_REACTORS
330
2A
102
}
330
2A
100
AcDbVisualStyle
  2
GouraudWithEdges
 70
     3
 71
     2
 72
     2
 73
     1
 90
        2
 40
-0.6
 41
30.0
 62
     5
 63
     7
 74
     1
 91
        4
 64
     7
 65
   257
 75
     1
175
     1
 42
1.0
 92
        0
 66
   257
 43
1.0
 76
     1
 77
     6
 78
     2
 67
     7
 79
     5
170
     0
171
     0
290
     0
174
     0
 93
       13
 44
0.0
173
     0
291
     1
 45
0.0
1001
ACAD
1000
AcDbSavedByObjectVersion
1070
     0
  0
VISUALSTYLE
  5
38
102
{ACAD_XDICTIONARY
360
4AC
102
}
102
{ACAD_REACTORS
330
2A
102
}
330
2A
100
AcDbVisualStyle
  2
Linepattern
 70
    14
 71
     2
 72
     2
 73
     0
 90
        0
 40
-0.6
 41
-30.0
 62
     5
 63
     7
 74
     1
 91
        4
 64
     7
 65
   257
 75
     7
175
     7
 42
1.0
 92
        8
 66
     7
 43
1.0
 76
     1
 77
     6
 78
     2
 67
     7
 79
     5
170
     0
171
     0
290
     0
174
     0
 93
        1
 44
0.0
173
     0
291
     1
 45
0.0
1001
ACAD
1000
AcDbSavedByObjectVersion
1070
     0
  0
VISUALSTYLE
  5
A4A
102
{ACAD_REACTORS
330
2A
102
}
330
2A
100
AcDbVisualStyle
  2
Realistic
 70
     8
 71
     2
 72
     2
 73
     0
 90
        0
 40
-0.6
 41
-30.0
 62
     5
 63
     7
 74
     1
 91
        0
 64
     7
 65
   257
 75
     1
175
     1
 42
1.0
 92
        8
 66
     8
 43
1.0
 76
     1
 77
     6
 78
     2
 67
     7
 79
     5
170
     0
171
     0
290
     0
174
     0
 93
       13
 44
0.0
173
     0
291
     0
 45
0.0
1001
ACAD
1000
AcDbSavedByObjectVersion
1070
     0
  0
VISUALSTYLE
  5
37
102
{ACAD_XDICTIONARY
360
4AA
102
}
102
{ACAD_REACTORS
330
2A
102
}
330
2A
100
AcDbVisualStyle
  2
Thicken
 70
    13
 71
     2
 72
     2
 73
     0
 90
        0
 40
-0.6
 41
-30.0
 62
     5
 63
     7
 74
     1
 91
        4
 64
     7
 65
   257
 75
     1
175
     1
 42
1.0
 92
       12
 66
     7
 43
1.0
 76
     1
 77
     6
 78
     2
 67
     7
 79
     5
170
     0
171
     0
290
     0
174
     0
 93
        1
 44
0.0
173
     0
291
     1
 45
0.0
1001
ACAD
1000
AcDbSavedByObjectVersion
1070
     0
  0
DICTIONARYVAR
  5
1DAB
102
{ACAD_REACTORS
330
487
102
}
330
487
100
DictionaryVariables
280
     0
  1
1:1
  0
DICTIONARYVAR
  5
1DA9
102
{ACAD_REACTORS
330
487
102
}
330
487
100
DictionaryVariables
280
     0
  1
STANDARD
  0
DICTIONARYVAR
  5
5FE
102
{ACAD_REACTORS
330
487
102
}
330
487
100
DictionaryVariables
280
     0
  1
STANDARD
  0
DICTIONARYVAR
  5
48A
102
{ACAD_REACTORS
330
487
102
}
330
487
100
DictionaryVariables
280
     0
  1
2
  0
DICTIONARYVAR
  5
48B
102
{ACAD_REACTORS
330
487
102
}
330
487
100
DictionaryVariables
280
     0
  1
1
  0
DICTIONARYVAR
  5
86B
102
{ACAD_REACTORS
330
487
102
}
330
487
100
DictionaryVariables
280
     0
  1
0
  0
DICTIONARYVAR
  5
1DAC
102
{ACAD_REACTORS
330
487
102
}
330
487
100
DictionaryVariables
280
     0
  1
0
  0
DICTIONARYVAR
  5
1DAA
102
{ACAD_REACTORS
330
487
102
}
330
487
100
DictionaryVariables
280
     0
  1
0
  0
DICTIONARYVAR
  5
86A
102
{ACAD_REACTORS
330
487
102
}
330
487
100
DictionaryVariables
280
     0
  1
127
  0
DICTIONARY
  5
7D4
330
1E
100
AcDbDictionary
280
     1
281
     1
  3
ADSK_XREC_LAYOUTTHUMBNAIL
360
7D5
  0
DICTIONARY
  5
1DBA
330
3D
100
AcDbDictionary
280
     1
281
     1
  3
ACAD_XREC_ROUNDTRIP
360
1DBB
  0
DICTIONARY
  5
1DB8
330
3C
100
AcDbDictionary
280
     1
281
     1
  3
ACAD_XREC_ROUNDTRIP
360
1DB9
  0
DICTIONARY
  5
1DBC
330
3E
100
AcDbDictionary
280
     1
281
     1
  3
ACAD_XREC_ROUNDTRIP
360
1DBD
  0
DICTIONARY
  5
1DA6
330
4BB
100
AcDbDictionary
280
     1
281
     1
  3
ACAD_ROUNDTRIP_2008_TABLESTYLE_CELLSTYLEMAP
360
1DB7
  3
ACAD_XREC_ROUNDTRIP
360
1DBE
  0
DICTIONARY
  5
49A
330
2F
100
AcDbDictionary
280
     1
281
     1
  3
ACAD_XREC_ROUNDTRIP
360
49B
  0
DICTIONARY
  5
4A0
330
32
100
AcDbDictionary
280
     1
281
     1
  3
ACAD_XREC_ROUNDTRIP
360
4A1
  0
DICTIONARY
  5
4A8
330
36
100
AcDbDictionary
280
     1
281
     1
  3
ACAD_XREC_ROUNDTRIP
360
4A9
  0
DICTIONARY
  5
4B0
330
3A
100
AcDbDictionary
280
     1
281
     1
  3
ACAD_XREC_ROUNDTRIP
360
4B1
  0
DICTIONARY
  5
4A6
330
35
100
AcDbDictionary
280
     1
281
     1
  3
ACAD_XREC_ROUNDTRIP
360
4A7
  0
DICTIONARY
  5
4AE
330
39
100
AcDbDictionary
280
     1
281
     1
  3
ACAD_XREC_ROUNDTRIP
360
4AF
  0
DICTIONARY
  5
492
330
2B
100
AcDbDictionary
280
     1
281
     1
  3
ACAD_XREC_ROUNDTRIP
360
493
  0
DICTIONARY
  5
494
330
2C
100
AcDbDictionary
280
     1
281
     1
  3
ACAD_XREC_ROUNDTRIP
360
495
  0
DICTIONARY
  5
496
330
2D
100
AcDbDictionary
280
     1
281
     1
  3
ACAD_XREC_ROUNDTRIP
360
497
  0
DICTIONARY
  5
498
330
2E
100
AcDbDictionary
280
     1
281
     1
  3
ACAD_XREC_ROUNDTRIP
360
499
  0
DICTIONARY
  5
4AC
330
38
100
AcDbDictionary
280
     1
281
     1
  3
ACAD_XREC_ROUNDTRIP
360
4AD
  0
DICTIONARY
  5
4AA
330
37
100
AcDbDictionary
280
     1
281
     1
  3
ACAD_XREC_ROUNDTRIP
360
4AB
  0
XRECORD
  5
7D5
102
{ACAD_REACTORS
330
7D4
102
}
330
7D4
100
AcDbXrecord
280
     1
310
28000000B40000007F00000001000800000000004C59000000000000000000000001000000000000FFFFFF0000000000FFFFFF000000000000000000000000000000000000000000000000000000000000000000330000006600000099000000CC000000FF00000000330000333300006633000099330000CC330000FF3300
310
0000660000336600006666000099660000CC660000FF66000000990000339900006699000099990000CC990000FF99000000CC000033CC000066CC000099CC0000CCCC0000FFCC000000FF000033FF000066FF000099FF0000CCFF0000FFFF000000003300330033006600330099003300CC003300FF003300003333003333
310
33006633330099333300CC333300FF33330000663300336633006666330099663300CC663300FF66330000993300339933006699330099993300CC993300FF99330000CC330033CC330066CC330099CC3300CCCC3300FFCC330000FF330033FF330066FF330099FF3300CCFF3300FFFF330000006600330066006600660099
310
006600CC006600FF00660000336600333366006633660099336600CC336600FF33660000666600336666006666660099666600CC666600FF66660000996600339966006699660099996600CC996600FF99660000CC660033CC660066CC660099CC6600CCCC6600FFCC660000FF660033FF660066FF660099FF6600CCFF6600
310
FFFF660000009900330099006600990099009900CC009900FF00990000339900333399006633990099339900CC339900FF33990000669900336699006666990099669900CC669900FF66990000999900339999006699990099999900CC999900FF99990000CC990033CC990066CC990099CC9900CCCC9900FFCC990000FF99
310
0033FF990066FF990099FF9900CCFF9900FFFF99000000CC003300CC006600CC009900CC00CC00CC00FF00CC000033CC003333CC006633CC009933CC00CC33CC00FF33CC000066CC003366CC006666CC009966CC00CC66CC00FF66CC000099CC003399CC006699CC009999CC00CC99CC00FF99CC0000CCCC0033CCCC0066CC
310
CC0099CCCC00CCCCCC00FFCCCC0000FFCC0033FFCC0066FFCC0099FFCC00CCFFCC00FFFFCC000000FF003300FF006600FF009900FF00CC00FF00FF00FF000033FF003333FF006633FF009933FF00CC33FF00FF33FF000066FF003366FF006666FF009966FF00CC66FF00FF66FF000099FF003399FF006699FF009999FF00CC
310
99FF00FF99FF0000CCFF0033CCFF0066CCFF0099CCFF00CCCCFF00FFCCFF0000FFFF0033FFFF0066FFFF0099FFFF00CCFFFF00FFFFFF00000000000D0D0D001A1A1A00282828003535350043434300505050005D5D5D006B6B6B00787878008686860093939300A1A1A100AEAEAE00BBBBBB00C9C9C900D6D6D600E4E4E400
310
F1F1F100FFFFFF0000000000000000000000000000000000000000000000000000000000000000000000000000000000E2E2E2E2E2E2E2E2E2E2E2E2E2E2E2E2E2E2E2E2E2E2E2E2E2E2E2E2E2E2E2E2E2E2E2E2E2E2E2E2E2E2E2E2E2E2E2E2E2E2E2E2E2E2E2E2E2E2E2E2E2E2E2E2E2E2E2E2E2E2E2E2E2E2E2E2E2E2E2
310
E2E2E2E2E2E2E2E2E2E2E2E2E2E2E2E2E2E2E2E2E2E2E2E2E2E2E2E2E2E2E2E2E2E2E2E2E2E2E2E2E2E2E2E2E2E2E2E2E2E2E2E2E2E2E2E2E2E2E2E2E2E2E2E2E2E2E2E2E2E2E2E2E2E2E2E2E2E2E2E2E2E2E2E2E2E2E2E2E2E2E2E2E2E2E2E2E2E2E2E2E2E2F5F5F5F5F5F5F5F5F5F5F5F5F5F5F5F5F5F5F5F5F5F5F5F5F5
310
F5F5F5F5F5F5F5F5F5F5F5F5F5F5F5F5F5F5F5F5F5F5F5F5F5F5F5F5F5F5F5F5F5F5F5F5F5F5F5F5F5F5F5F5F5F5F5F5F5F5F5F5F5F5F5F5F5F5F5F5F5F5F5F5F5F5F5F5F5F5F5F5F5F5F5F5F5F5F5F5F5F5F5F5F5F5F5F5F5F5F5F5F5F5F5F5F5F5F5F5F5F5F5F5F5F5F5F5F5F5F5F5F5F5F5F5F5F5F5F5F5F5F5F5F5F5F5
310
F5F5F5F5F5F5F5F5F5F5F5F5F5F5F5F5F5F5F5F5F5F5F5F5F5E2E2E2F5E2E2E2E2E2E2E2E2E2E2E2E2E2E2E2E2E2E2E2E2E2E2E2E2E2E2E2E2E2E2E2E2E2E2E2E2E2E2E2E2E2E2E2E2E2E2E2E2E2E2E2E2E2E2E2E2E2E2E2E2E2E2E2E2E2E2E2E2E2E2E2E2E2E2E2E2E2E2E2E2E2E2E2E2E2E2E2E2E2E2E2E2E2E2E2E2E2E2
310
E2E2E2E2E2E2E2E2E2E2E2E2E2E2E2E2E2E2E2E2E2E2E2E2E2E2E2E2E2E2E2E2E2E2E2E2E2E2E2E2E2E2E2E2E2E2E2E2E2E2E2E2E2E2E2E2E2E2E2E2E2E2E2E2E2E2E2E2E2E2E2E2E2E2E2E2E2F5E2E2E2F5E2F5F5F5F5F5F5F5F5F5F5F5F5F5F5F5F5F5F5F5F5F5F5F5F5F5F5F5F5F5F5F5F5F5F5F5F5F5F5F5F5F5F5F5F5
310
F5F5F5F5F5F5F5F5F5F5F5F5F5F5F5F5F5F5F5F5F5F5F5F5F5F5F5F5F5F5F5F5F5F5F5F5F5F5F5F5F5F5F5F5F5F5F5F5F5F5F5F5F5F5F5F5F5F5F5F5F5F5F5F5F5F5F5F5F5F5F5F5F5F5F5F5F5F5F5F5F5F5F5F5F5F5F5F5F5F5F5F5F5F5F5F5F5F5F5F5F5F5F5F5F5F5F5F5F5F5F5F5F5F5F5F5F5F5F5F5F5F5F5F5F5F5F5
310
F5F5E2F5E2E2E2F5E2F5F5F5F5F5F5F5F5F5F5F5F5F5F5F5F5F5F5F5F5F5F5F5F5F5F5F5F5F5F5F5F5F5F5F5F5F5F5F5F5F5F5F5F5F5F5F5F5F5F5F5F5F5F5F5F5F5F5F5F5F5F5F5F5F5F5F5F5F5F5F5F5F5F5F5F5F5F5F5F5F5F5F5F5F5F5F5F5F5F5F5F5F5F5F5F5F5F5F5F5F5F5F5F5F5F5F5F5F5F5F5F5F5F5F5F5F5F5
310
F5F5F5F5F5F5F5F5F5F5F5F5F5F5F5F5F5F5F5F5F5F5F5F5F5F5F5F5F5F5F5F5F5F5F5F5F5F5F5F5F5F5F5F5F5F5F5F5F5F5F5F5F5F5F5E2F5E2E2E2F5E2F5F5F5F5F5F5F5F5F5F5F5F5F5F5F5F5F5F5F5F5F5F5F5F5F5F5F5F5F5F5F5F5F5F5F5F5F5F5F5F5F5F5F5F5F5F5F5F5F5F5F5F5F5F5F5F5F5F5F5F5F5F5F5F5F5
310
F5F5F5F5F5F5F5F5F5F5F5F5F5F5F5F5F5F5F5F5F5F5F5F5F5F5F5F5F5F5F5F5F5F5F5F5F5F5F5F5F5F5F5F5F5F5F5F5F5F5F5F5F5F5F5F5F5F5F5F5F5F5F5F5F5F5F5F5F5F5F5F5F5F5F5F5F5F5F5F5F5F5F5F5F5F5F5F5F5F5F5F5F5F5F5F5F5F5F5F5F5F5F5F5F5F5F5F5E2F5E2E2E2F5E2F5F5F5F5F5F5F5F5F5F5F5F5
310
F5F5F5F5F5F5F5F5F5F5F5F5F5F5F5F5F5F5F5F5F5F5F5F5F5F5F5F5F5F5F5F5F5F5F5F5F5F5F5F5F5F5F5F5F5F5F5F5F5F5F5F5F5F5F5F5F5F5F5F5F5F5F5F5F5F5F5F5F5F5F5F5F5F5F5F5F5F5F5F5F5F5F5F5F5F5F5F5F5F5F5F5F5F5F5F5F5F5F5F5F5F5F5F5F5F5F5F5F5F5F5F5F5F5F5F5F5F5F5F5F5F5F5F5F5F5F5
310
F5F5F5F5F5F5F5F5F5F5F5F5F5F5F5F5F5F5F5F5F5F5F5F5F5F5F5F5F5F5F5F5F5F5E2F5E2E2E2F5E2F5F5F5F5F5F5F5F5F5F5F5F5F5F5F5F5F5F5F5F5F5F5F5F5F5F5F5F5F5F5F5F5F5F5F5F5F5F5F5F5F5F5F5F5F5F5F5F5F5F5F5F5F5F5F5F5F5F5F5F5F5F5F5F5F5F5F5F5F5F5F5F5F5F5F5F5F5F5F5F5F5F5F5F5F5F5
310
F5F5F5F5F5F5F5F5F5F5F5F5F5F5F5F5F5F5F5F5F5F5F5F5F5F5F5F5F5F5F5F5F5F5F5F5F5F5F5F5F5F5F5F5F5F5F5F5F5F5F5F5F5F5F5F5F5F5F5F5F5F5F5F5F5F5F5F5F5F5F5F5F5F5F5F5F5F5F5F5F5F5F5F5F5F5F5E2F5E2E2E2F5E2F5F5F5F5F5F5F5F5F5F5F5F5F5F5F5F5F5F5F5F5F5F5F5F5F5F5F5F5F5F5F5F5F5
310
F5F5F5F5F5F5F5F5F5F5F5F5F5F5F5F5F5F5F5F5F5F5F5F5F5F5F5F5F5F5F5F5F5F5F5F5F5F5F5F5F5F5F5F5F5F5F5F5F5F5F5F5F5F5F5F5F5F5F5F5F5F5F5F5F5F5F5F5F5F5F5F5F5F5F5F5F5F5F5F5F5F5F5F5F5F5F5F5F5F5F5F5F5F5F5F5F5F5F5F5F5F5F5F5F5F5F5F5F5F5F5F5F5F5F5F5F5F5F5F5F5F5F5F5F5F5F5
310
F5F5F5F5F5F5F5F5F5F5F5F5F5E2F5E2E2E2F5E2F5F5F5F5F5F5F5F5F5F5F5F5F5F5F5F5F5F5F5F5F5F5F5F5F5F5F5F5F5F5F5F5F5F5F5F5F5F5F5F5F5F5F5F5F5F5F5F5F5F5F5F5F5F5F5F5F5F5F5F5F5F5F5F5F5F5F5F5F5F5F5F5F5F5F5F5F5F5F5F5F5F5F5F5F5F5F5F5F5F5F5F5F5F5F5F5F5F5F5F5F5F5F5F5F5F5F5
310
F5F5F5F5F5F5F5F5F5F5F5F5F5F5F5F5F5F5F5F5F5F5F5F5F5F5F5F5F5F5F5F5F5F5F5F5F5F5F5F5F5F5F5F5F5F5F5F5F5F5F5F5F5F5F5F5F5F5F5F5F5F5F5F5F5F5E2F5E2E2E2F5E2F5F5F5F5F5F5F5F5F5F5F5F5F5F5F5F5F5F5F5F5F5F5F5F5F5F5F5F5F5F5F5F5F5F5F5F5F5F5F5F5F5F5F5F5F5F5F5F5F5F5F5F5F5F5
310
F5F5F5F5F5F5F5F5F5F5F5F5F5F5F5F5F5F5F5F5F5F5F5F5F5F5F5F5F5F5F5F5F5F5F5F5F5F5F5F5F5F5F5F5F5F5F5F5F5F5F5F5F5F5F5F5F5F5F5F5F5F5F5F5F5F5F5F5F5F5F5F5F5F5F5F5F5F5F5F5F5F5F5F5F5F5F5F5F5F5F5F5F5F5F5F5F5F5F5F5F5F5F5F5F5F5F5F5F5F5F5F5F5F5F5F5F5F5F5E2F5E2E2E2F5E2F5
310
F5F5F5F5F5F5F5F5F5F5F5F5F5F5F5F5F5F5F5F5F5F5F5F5F5F5F5F5F5F5F5F5F5F5F5F5F5F5F5F5F5F5F5F5F5F5F5F5F5F5F5F5F5F5F5F5F5F5F5F5F5F5F5F5F5F5F5F5F5F5F5F5F5F5F5F5F5F5F5F5F5F5F5F5F5F5F5F5F5F5F5F5F5F5F5F5F5F5F5F5F5F5F5F5F5F5F5F5F5F5F5F5F5F5F5F5F5F5F5F5F5F5F5F5F5F5F5
310
F5F5F5F5F5F5F5F5F5F5F5F5F5F5F5F5F5F5F5F5F5F5F5F5F5F5F5F5F5F5F5F5F5F5F5F5F5F5F5F5F5F5F5F5F5E2F5E2E2E2F5E2F5F5F5F5F5F5F5F5F5F5F5F5F5F5F5F5F5F5F5F5F5F5F5F5F5F5F5F5F5F5F5F5F5F5F5F5F5F5F5F5F5F5F5F5F5F5F5F5F5F5F5F5F5F5F5F5F5F5F5F5F5F5F5F5F5F5F5F5F5F5F5F5F5F5F5
310
F5F5F5F5F5F5F5F5F5F5F5F5F5F5F5F5F5F5F5F5F5F5F5F5F5F5F5F5F5F5F5F5F5F5F5F5F5F5F5F5F5F5F5F5F5F5F5F5F5F5F5F5F5F5F5F5F5F5F5F5F5F5F5F5F5F5F5F5F5F5F5F5F5F5F5F5F5F5F5F5F5F5F5F5F5F5F5F5F5F5F5F5F5F5F5F5F5F5E2F5E2E2E2F5E2F5F5F5F5F5F5F5F5F5F5F5F5F5F5F5F5F5F5F5F5F5F5
310
F5F5F5F5F5F5F5F5F5F5F5F5F5F5F5F5F5F5F5F5F5F5F5F5F5F5F5F5F5F5F5F5F5F5F5F5F5F5F5F5F5F5F5F5F5F5F5F5F5F5F5F5F5F5F5F5F5F5F5F5F5F5F5F5F5F5F5F5F5F5F5F5F5F5F5F5F5F5F5F5F5F5F5F5F5F5F5F5F5F5F5F5F5F5F5F5F5F5F5F5F5F5F5F5F5F5F5F5F5F5F5F5F5F5F5F5F5F5F5F5F5F5F5F5F5F5F5
310
F5F5F5F5F5F5F5F5F5F5F5F5F5F5F5F5F5F5F5F5F5F5F5F5E2F5E2E2E2F5E2F5F5F5F5F5F5F5F5F5F5F5F5F5F5F5F5F5F5F5F5F5F5F5F5F5F5F5F5F5F5F5F5F5F5F5F5F5F5F5F5F5F5F5F5F5F5F5F5F5F5F5F5F5F5F5F5F5F5F5F5F5F5F5F5F5F5F5F5F5F5F5F5F5F5F5F5F5F5F5F5F5F5F5F5F5F5F5F5F5F5F5F5F5F5F5F5
310
F5F5F5F5F5F5F5F5F5F5F5F5F5F5F5F5F5F5F5F5F5F5F5F5F5F5F5F5F5F5F5F5F5F5F5F5F5F5F5F5F5F5F5F5F5F5F5F5F5F5F5F5F5F5F5F5F5F5F5F5F5F5F5F5F5F5F5F5F5F5F5F5F5F5F5F5F5E2F5E2E2E2F5E2F5F5F5F5F5F5F5F5F5F5F5F5F5F5F5F5F5F5F5F5F5F5F5F5F5F5F5F5F5F5F5F5F5F5F5F5F5F5F5F5F5F5F5
310
F5F5F5F5F5F5F5F5F5F5F5F5F5F5F5F5F5F5F5F5F5F5F5F5F5F5F5F5F5F5F5F5F5F5F5F5F5F5F5F5F5F5F5F5F5F5F5F5F5F5F5F5F5F5F5F5F5F5F5F5F5F5F5F5F5F5F5F5F5F5F5F5F5F5F5F5F5F5F5F5F5F5F5F5F5F5F5F5F5F5F5F5F5F5F5F5F5F5F5F5F5F5F5F5F5F5F5F5F5F5F5F5F5F5F5F5F5F5F5F5F5F5F5F5F5F5F5
310
F5F5F5E2F5E2E2E2F5E2F5F5F5F5F5F5F5F5F5F5F5F5F5F5F5F5F5F5F5F5F5F5F5F5F5F5F5F5F5F5F5F5F5F5F5F5F5F5F5F5F5F5F5F5F5F5F5F5F5F5F5F5F5F5F5F5F5F5F5F5F5F5F5F5F5F5F5F5F5F5F5F5F5F5F5F5F5F5F5F5F5F5F5F5F5F5F5F5F5F5F5F5F5F5F5F5F5F5F5F5F5F5F5F5F5F5F5F5F5F5F5F5F5F5F5F5F5
310
F5F5F5F5F5F5F5F5F5F5F5F5F5F5F5F5F5F5F5F5F5F5F5F5F5F5F5F5F5F5F5F5F5F5F5F5F5F5F5F5F5F5F5F5F5F5F5F5F5F5F5F5F5F5F5F5E2F5E2E2E2F5E2F5F5F5F5F5F5F5F5F5F5F5F5F5F5F5F5F5F5F5F5F5F5F5F5F5F5F5F5F5F5F5F5F5F5F5F5F5F5F5F5F5F5F5F5F5F5F5F5F5F5F5F5F5F5F5F5F5F5F5F5F5F5F5F5
310
F5F5F5F5F5F5F5F5F5F5F5F5F5F5F5F5F5F5F5F5F5F5F5F5F5F5F5F5F5F5F5F5F5F5F5F5F5F5F5F5F5F5F5F5F5F5F5F5F5F5F5F5F5F5F5F5F5F5F5F5F5F5F5F5F5F5F5F5F5F5F5F5F5F5F5F5F5F5F5F5F5F5F5F5F5F5F5F5F5F5F5F5F5F5F5F5F5F5F5F5F5F5F5F5F5F5F5F5F5E2F5E2E2E2F5E2F5F5F5F5F5F5F5F5F5F5F5
310
F5F5F5F5F5F5F5F5F5F5F5F5F5F5F5F5F5F5F5F5F5F5F5F5F5F5F5F5F5F5F5F5F5F5F5F5F5F5F5F5F5F5F5F5F5F5F5F5F5F5F5F5F5F5F5F5F5F5F5F5F5F5F5F5F5F5F5F5F5F5F5F5F5F5F5F5F5F5F5F5F5F5F5F5F5F5F5F5F5F5F5F5F5F5F5F5F5F5F5F5F5F5F5F5F5F5F5F5F5F5F5F5F5F5F5F5F5F5F5F5F5F5F5F5F5F5F5
310
F5F5F5F5F5F5F5F5F5F5F5F5F5F5F5F5F5F5F5F5F5F5F5F5F5F5F5F5F5F5F5F5F5F5F5E2F5E2E2E2F5E2F5F5F5F5F5F5F5F5F5F5F5F5F5F5F5F5F5F5F5F5F5F5F5F5F5F5F5F5F5F5F5F5F5F5F5F5F5F5F5F5F5F5F5F5F5F5F5F5F5F5F5F5F5F5F5F5F5F5F5F5F5F5F5F5F5F5F5F5F5F5F5F5F5F5F5F5F5F5F5F5F5F5F5F5F5
310
F5F5F5F5F5F5F5F5F5F5F5F5F5F5F5F5F5F5F5F5F5F5F5F5F5F5F5F5F5F5F5F5F5F5F5F5F5F5F5F5F5F5F5F5F5F5F5F5F5F5F5F5F5F5F5F5F5F5F5F5F5F5F5F5F5F5F5F5F5F5F5F5F5F5F5F5F5F5F5F5F5F5F5F5F5F5F5F5E2F5E2E2E2F5E2F5F5F5F5F5F5F5F5F5F5F5F5F5F5F5F5F5F5F5F5F5F5F5F5F5F5F5F5F5F5F5F5
310
F5F5F5F5F5F5F5F5F5F5F5F5F5F5F5F5F5F5F5F5F5F5F5F5F5F5F5F5F5F5F5F5F5F5F5F5F5F5F5F5F5F5F5F5F5F5F5F5F5F5F5F5F5F5F5F5F5F5F5F5F5F5F5F5F5F5F5F5F5F5F5F5F5F5F5F5F5F5F5F5F5F5F5F5F5F5F5F5F5F5F5F5F5F5F5F5F5F5F5F5F5F5F5F5F5F5F5F5F5F5F5F5F5F5F5F5F5F5F5F5F5F5F5F5F5F5F5
310
F5F5F5F5F5F5F5F5F5F5F5F5F5F5E2F5E2E2E2F5E2F5F5F5F5F5F5F5F5F5F5F5F5F5F5F5F5F5F5F5F5F5F5F5F5F5F5F5F5F5F5F5F5F5F5F5F5F5F5F5F5F5F5F5F5F5F5F5F5F5F5F5F5F5F5F5F5F5F5F5F5F5F5F5F5F5F5F5F5F5F5F5F5F5F5F5F5F5F5F5F5F5F5F5F5F5F5F5F5F5F5F5F5F5F5F5F5F5F5F5F5F5F5F5F5F5F5
310
F5F5F5F5F5F5F5F5F5F5F5F5F5F5F5F5F5F5F5F5F5F5F5F5F5F5F5F5F5F5F5F5F5F5F5F5F5F5F5F5F5F5F5F5F5F5F5F5F5F5F5F5F5F5F5F5F5F5F5F5F5F5F5F5F5F5F5E2F5E2E2E2F5E2F5F5F5F5F5F5F5F5F5F5F5F5F5F5F5F5F5F5F5F5F5F5F5F5F5F5F5F5F5F5F5F5F5F5F5F5F5F5F5F5F5F5F5F5F5F5F5F5F5F5F5F5F5
310
F5F5F5F5F5F5F5F5F5F5F5F5F5F5F5F5F5F5F5F5F5F5F5F5F5F5F5F5F5F5F5F5F5F5F5F5F5F5F5F5F5F5F5F5F5F5F5F5F5F5F5F5F5F5F5F5F5F5F5F5F5F5F5F5F5F5F5F5F5F5F5F5F5F5F5F5F5F5F5F5F5F5F5F5F5F5F5F5F5F5F5F5F5F5F5F5F5F5F5F5F5F5F5F5F5F5F5F5F5F5F5F5F5F5F5F5F5F5F5F5E2F5E2E2E2F5E2
310
F5F5F5F5F5F5F5F5F5F5F5F5F5F5F5F5F5F5F5F5F5F5F5F5F5F5F5F5F5F5F5F5F5F5F5F5F5F5F5F5F5F5F5F5F5F5F5F5F5F5F5F5F5F5F5F5F5F5F5F5F5F5F5F5F5F5F5F5F5F5F5F5F5F5F5F5F5F5F5F5F5F5F5F5F5F5F5F5F5F5F5F5F5F5F5F5F5F5F5F5F5F5F5F5F5F5F5F5F5F5F5F5F5F5F5F5F5F5F5F5F5F5F5F5F5F5F5
310
F5F5F5F5F5F5F5F5F5F5F5F5F5F5F5F5F5F5F5F5F5F5F5F5F5F5F5F5F5F5F5F5F5F5F5F5F5F5F5F5F5F5F5F5F5F5E2F5E2E2E2F5E2F5F5F5F5F5F5F5F5F5F5F5F5F5F5F5F5F5F5F5F5F5F5F5F5F5F5F5F5F5F5F5F5F5F5F5F5F5F5F5F5F5F5F5F5F5F5F5F5F5F5F5F5F5F5F5F5F5F5F5F5F5F5F5F5F5F5F5F5F5F5F5F5F5F5
310
F5F5F5F5F5F5F5F5F5F5F5F5F5F5F5F5F5F5F5F5F5F5F5F5F5F5F5F5F5F5F5F5F5F5F5F5F5F5F5F5F5F5F5F5F5F5F5F5F5F5F5F5F5F5F5F5F5F5F5F5F5F5F5F5F5F5F5F5F5F5F5F5F5F5F5F5F5F5F5F5F5F5F5F5F5F5F5F5F5F5F5F5F5F5F5F5F5F5F5E2F5E2E2E2F5E2F5F5F5F5F5F5F5F5F5F5F5F5F5F5F5F5F5F5F5F5F5
310
F5F5F5F5F5F5F5F5F5F5F5F5F5F5F5F5F5F5F5F5F5F5F5F5F5F5F5F5F5F5F5F5F5F5F5F5F5F5F5F5F5F5F5F5F5F5F5F5F5F5F5F5F5F5F5F5F5F5F5F5F5F5F5F5F5F5F5F5F5F5F5F5F5F5F5F5F5F5F5F5F5F5F5F5F5F5F5F5F5F5F5F5F5F5F5F5F5F5F5F5F5F5F5F5F5F5F5F5F5F5F5F5F5F5F5F5F5F5F5F5F5F5F5F5F5F5F5
310
F5F5F5F5F5F5F5F5F5F5F5F5F5F5F5F5F5F5F5F5F5F5F5F5F5E2F5E2E2E2F5E2F5F5F5F5F5F5F5F5F5F5F5F5F5F5F5F5F5F5F5F5F5F5F5F5F5F5F5F5F5F5F5F5F5F5F5F5F5F5F5F5F5F5F5F5F5F5F5F5F5F5F5F5F5F5F5F5F5F5F5F5F5F5F5F5F5F5F5F5F5F5F5F5F5F5F5F5F5F5F5F5F5F5F5F5F5F5F5F5F5F5F5F5F5F5F5
310
F5F5F5F5F5F5F5F5F5F5F5F5F5F5F5F5F5F5F5F5F5F5F5F5F5F5F5F5F5F5F5F5F5F5F5F5F5F5F5F5F5F5F5F5F5F5F5F5F5F5F5F5F5F5F5F5F5F5F5F5F5F5F5F5F5F5F5F5F5F5F5F5F5F5F5F5F5F5E2F5E2E2E2F5E2F5F5F5F5F5F5F5F5F5F5F5F5F5F5F5F5F5F5F5F5F5F5F5F5F5F5F5F5F5F5F5F5F5F5F5F5F5F5F5F5F5F5
310
F5F5F5F5F5F5F5F5F5F5F5F5F5F5F5F5F5F5F5F5F5F5F5F5F5F5F5F5F5F5F5F5F5F5F5F5F5F5F5F5F5F5F5F5F5F5F5F5F5F5F5F5F5F5F5F5F5F5F5F5F5F5F5F5F5F5F5F5F5F5F5F5F5F5F5F5F5F5F5F5F5F5F5F5F5F5F5F5F5F5F5F5F5F5F5F5F5F5F5F5F5F5F5F5F5F5F5F5F5F5F5F5F5F5F5F5F5F5F5F5F5F5F5F5F5F5F5
310
F5F5F5F5E2F5E2E2E2F5E2F5F5F5F5F5F5F5F5F5F5F5F5F5F5F5F5F5F5F5F5F5F5F5F5F5F5F5F5F5F5F5F5F5F5F5F5F5F5F5F5F5F5F5F5F5F5F5F5F5F5F5F5F5F5F5F5F5F5F5F5F5F5F5F5F5F5F5F5F5F5F5F5F5F5F5F5F5F5F5F5F5F5F5F5F5F5F5F5F5F5F5F5F5F5F5F5F5F5F5F5F5F5F5F5F5F5F5F5F5F5F5F5F5F5F5F5
310
F5F5F5F5F5F5F5F5F5F5F5F5F5F5F5F5F5F5F5F5F5F5F5F5F5F5F5F5F5F5F5F5F5F5F5F5F5F5F5F5F5F5F5F5F5F5F5F5F5F5F5F5F5F5F5F5F5E2F5E2E2E2F5E2F5F5F5F5F5F5F5F5F5F5F5F5F5F5F5F5F5F5F5F5F5F5F5F5F5F5F5F5F5F5F5F5F5F5F5F5F5F5F5F5F5F5F5F5F5F5F5F5F5F5F5F5F5F5F5F5F5F5F5F5F5F5F5
310
F5F5F5F5F5F5F5F5F5F5F5F5F5F5F5F5F5F5F5F5F5F5F5F5F5F5F5F5F5F5F5F5F5F5F5F5F5F5F5F5F5F5F5F5F5F5F5F5F5F5F5F5F5F5F5F5F5F5F5F5F5F5F5F5F5F5F5F5F5F5F5F5F5F5F5F5F5F5F5F5F5F5F5F5F5F5F5F5F5F5F5F5F5F5F5F5F5F5F5F5F5F5F5F5F5F5F5F5F5F5E2F5E2E2E2F5E2F5F5F5F5F5F5F5F5F5F5
310
F5F5F5F5F5F5F5F5F5F5F5F5F5F5F5F5F5F5F5F5F5F5F5F5F5F5F5F5F5F5F5F5F5F5F5F5F5F5F5F5F5F5F5F5F5F5F5F5F5F5F5F5F5F5F5F5F5F5F5F5F5F5F5F5F5F5F5F5F5F5F5F5F5F5F5F5F5F5F5F5F5F5F5F5F5F5F5F5F5F5F5F5F5F5F5F5F5F5F5F5F5F5F5F5F5F5F5F5F5F5F5F5F5F5F5F5F5F5F5F5F5F5F5F5F5F5F5
310
F5F5F5F5F5F5F5F5F5F5F5F5F5F5F5F5F5F5F5F5F5F5F5F5F5F5F5F5F5F5F5F5F5F5F5F5E2F5E2E2E2F5E2F5F5F5F5F5F5F5F5F5F5F5F5F5F5F5F5F5F5F5F5F5F5F5F5F5F5F5F5F5F5F5F5F5F5F5F5F5F5F5F5F5F5F5F5F5F5F5F5F5F5F5F5F5F5F5F5F5F5F5F5F5F5F5F5F5F5F5F5F5F5F5F5F5F5F5F5F5F5F5F5F5F5F5F5
310
F5F5F5F5F5F5F5F5F5F5F5F5F5F5F5F5F5F5F5F5F5F5F5F5F5F5F5F5F5F5F5F5F5F5F5F5F5F5F5F5F5F5F5F5F5F5F5F5F5F5F5F5F5F5F5F5F5F5F5F5F5F5F5F5F5F5F5F5F5F5F5F5F5F5F5F5F5F5F5F5F5F5F5F5F5F5F5F5F5E2F5E2E2E2F5E2F5F5F5F5F5F5F5F5F5F5F5F5F5F5F5F5F5F5F5F5F5F5F5F5F5F5F5F5F5F5F5
310
F5F5F5F5F5F5F5F5F5F5F5F5F5F5F5F5F5F5F5F5F5F5F5F5F5F5F5F5F5F5F5F5F5F5F5F5F5F5F5F5F5F5F5F5F5F5F5F5F5F5F5F5F5F5F5F5F5F5F5F5F5F5F5F5F5F5F5F5F5F5F5F5F5F5F5F5F5F5F5F5F5F5F5F5F5F5F5F5F5F5F5F5F5F5F5F5F5F5F5F5F5F5F5F5F5F5F5F5F5F5F5F5F5F5F5F5F5F5F5F5F5F5F5F5F5F5F5
310
F5F5F5F5F5F5F5F5F5F5F5F5F5F5F5E2F5E2E2E2F5E2F5F5F5F5F5F5F5F5F5F5F5F5F5F5F5F5F5F5F5F5F5F5F5F5F5F5F5F5F5F5F5F5F5F5F5F5F5F5F5F5F5F5F5F5F5F5F5F5F5F5F5F5F5F5F5F5F5F5F5F5F5F5E2E2E2E2E2E2E2E2E2E2E2E2E2E2E2E2E2E2E2E2E2E2E2E2E2E2E2E2E2E2E2E2E2E2E2E2E2E2E2E2E2E2E2
310
E2E2F5F5F5F5F5F5F5F5F5F5F5F5F5F5F5F5F5F5F5F5F5F5F5F5F5F5F5F5F5F5F5F5F5F5F5F5F5F5F5F5F5F5F5F5F5F5F5F5F5F5F5F5F5F5F5F5F5F5F5F5F5F5F5F5F5F5E2F5E2E2E2F5E2F5F5F5F5F5F5F5F5F5F5F5F5F5F5F5F5F5F5F5F5F5F5F5F5F5F5F5F5F5F5F5F5F5F5F5F5F5F5F5F5F5F5F5F5F5F5F5F5F5F5F5F5
310
F5F5F5F5F5F5F5F5F5F5E2E2E2E2E2E2E2E2E2E2E2E2E2E2E2E2E2E2E2E2E2E2E2E2E2E2E2E2E2E2E2E2E2E2E2E2E2E2E2E2E2E2E2E2E2F5F5F5F5F5F5F5F5F5F5F5F5F5F5F5F5F5F5F5F5F5F5F5F5F5F5F5F5F5F5F5F5F5F5F5F5F5F5F5F5F5F5F5F5F5F5F5F5F5F5F5F5F5F5F5F5F5F5F5F5F5F5F5F5F5F5E2F5E2E2E2F5
310
E2F5F5F5F5F5F5F5F5F5F5F5F5F5F5F5F5F5F5F5F5F5F5F5F5F5F5F5F5F5F5F5F5F5F5F5F5F5F5F5F5F5F5F5F5F5F5F5F5F5F5F5F5F5F5F5F5F5F5F5F5F5F5E2E2E2E2E2E2E2E2E2E2E2E2E2E2E2E2E2E2E2E2E2E2E2E2E2E2E2E2E2E2E2E2E2E2E2E2E2E2E2E2E2E2E2E2E2F5F5F5F5F5F5F5F5F5F5F5F5F5F5F5F5F5F5F5
310
F5F5F5F5F5F5F5F5F5F5F5F5F5F5F5F5F5F5F5F5F5F5F5F5F5F5F5F5F5F5F5F5F5F5F5F5F5F5F5F5F5F5F5F5F5F5F5E2F5E2E2E2F5E2F5F5F5F5F5F5F5F5F5F5F5F5F5F5F5F5F5F5F5F5F5F5F5F5F5F5F5F5F5F5F5F5F5F5F5F5F5F5F5F5F5F5F5F5F5F5F5F5F5F5F5F5F5F5F5F5F5F5F5F5F5F5E2E2E2E2E2E2E2E2E2E2E2
310
E2E2E2E2E2E2E2E2E2E2E2E2E2E2E2E2E2E2E2E2E2E2E2E2E2E2E2E2E2E2E2E2E2E2F5F5F5F5F5F5F5F5F5F5F5F5F5F5F5F5F5F5F5F5F5F5F5F5F5F5F5F5F5F5F5F5F5F5F5F5F5F5F5F5F5F5F5F5F5F5F5F5F5F5F5F5F5F5F5F5F5F5F5F5F5F5F5F5F5F5E2F5E2E2E2F5E2F5F5F5F5F5F5F5F5F5F5F5F5F5F5F5F5F5F5F5F5
310
F5F5F5F5F5F5F5F5F5F5F5F5F5F5F5F5F5F5F5F5F5F5F5F5F5F5F5F5F5F5F5F5F5F5F5F5F5F5F5F5F5F5F5F5F5F5F5F5F5F5F5F5F5F5F5F5F5F5F5F5F5F5F5F5F5F5F5F5F5F5F5F5F5F5F5F5F5F5F5F5F5F5F5F5F5F5F5F5F5F5F5F5F5F5F5F5F5F5F5F5F5F5F5F5F5F5F5F5F5F5F5F5F5F5F5F5F5F5F5F5F5F5F5F5F5F5F5
310
F5F5F5F5F5F5F5F5F5F5F5F5F5F5F5F5F5F5F5F5F5F5F5F5F5F5E2F5E2E2E2F5E2F5F5F5F5F5F5F5F5F5F5F5F5F5F5F5F5F5F5F5F5F5F5F5F5F5F5F5F5F5F5F5F5F5F5F5F5F5F5F5F5F5F5F5F5F5F5F5F5F5F5F5F5F5F5F5F5E2BEF5F5F5F5F5F5F5F5F5F5F5F5F5F5F5F5F5F5F5F5F5F5F5F5F5F5F5F5F5F5F5F5F5F5F5F5
310
F5F5F5F5F5F5F5F5F5F5F5F5F5F5F5F5F5F5F5F5F5F5F5F5F5F5F5F5F5F5F5F5F5F5F5F5F5F5F5F5F5F5F5F5F5F5F5F5F5F5F5F5F5F5F5F5F5F5F5F5F5F5F5F5F5F5F5F5F5F5F5F5F5F5F5F5F5F5F5E2F5E2E2E2F5E2F5F5F5F5F5F5F5F5F5F5F5F5F5F5F5F5F5F5F5F5F5F5F5F5F5F5F5F5F5F5F5F5F5F5F5F5F5F5F5F5F5
310
F5F5F5F5F5F5F5F5F5F5F5F5F5E2E2E2E2E2F5F5F5E2E2E2E2E2E2E2E2F5E2E2E2E2E2E2E2E2F5E2E2E2E2E2E2E2E2F5E2E2E2E2E2E2E2E2F5E2E2E2E2E2E2E2E2F5E2E2E2E2E2E2E2E2F5E2E2E2E2E2E2E2E2F5F5F5F5F5F5F5F5F5F5F5F5F5F5F5F5F5F5F5F5F5F5F5F5F5F5F5F5F5F5F5F5F5F5F5F5F5F5F5F5F5F5F5F5
310
F5F5F5F5F5E2F5E2E2E2F5E2F5F5F5F5F5F5F5F5F5F5F5F5F5F5F5F5F5F5F5F5F5F5F5F5F5F5F5F5F5F5F5F5F5F5F5F5F5F5F5F5F5F5F5F5F5F5F5F5F5F5F5F5F5F5F5BEE2F5F5F5F5F5E2F5F5F5F5F5F5F5F5F5F5F5F5F5F5F5F5F5F5F5F5F5F5F5F5F5F5F5F5F5F5F5F5F5F5F5F5F5F5F5F5F5F5F5F5F5F5F5F5F5F5F5F5
310
F5F5F5F5F5F5F5F5E2F5F5F5F5F5F5F5F5F5F5F5F5F5F5F5F5F5F5F5F5F5F5F5F5F5F5F5F5F5F5F5F5F5F5F5F5F5F5F5F5F5F5F5F5F5F5F5F5F5E2F5E2E2E2F5E2F5F5F5F5F5F5F5F5F5F5F5F5F5F5F5F5F5F5F5F5F5F5F5F5F5F5F5F5F5F5F5F5F5F5F5F5F5F5F5F5F5F5F5F5F5F5F5F5F5F5F5F5F5F5F5F5E2F5F5F5F5F5
310
E2F5F5F5F5F5F5F5F5F5F5F5F5F5F5F5F5F5F5F5F5F5F5F5F5F5F5F5F5F5F5F5F5F5F5F5F5F5F5F5F5F5F5F5F5F5F5F5F5F5F5F5F5F5F5F5F5F5F5F5F5E2F5F5F5F5F5F5F5F5F5F5F5F5F5F5F5F5F5F5F5F5F5F5F5F5F5F5F5F5F5F5F5F5F5F5F5F5F5F5F5F5F5F5F5F5F5F5F5F5F5E2F5E2E2E2F5E2F5F5F5F5F5F5F5F5F5
310
F5F5F5F5F5F5F5F5F5F5F5F5F5F5F5F5F5F5F5F5F5F5F5F5F5F5F5F5F5F5F5F5F5F5F5F5F5F5F5F5F5F5F5F5F5F5F5E2F5F5F5F5F5E2F5F5F5F5F5F5F5F5F5F5F5F5F5F5F5F5F5F5F5F5F5F5F5F5F5F5F5F5F5F5F5F5F5F5F5F5F5F5F5F5F5F5F5F5F5F5F5F5F5F5F5F5F5F5F5F5F5F5F5F5E2F5F5F5F5F5F5F5F5F5F5F5F5
310
F5F5F5F5F5F5F5F5F5F5F5F5F5F5F5F5F5F5F5F5F5F5F5F5F5F5F5F5F5F5F5F5F5F5F5F5F5E2F5E2E2E2F5E2F5F5F5F5F5F5F5F5F5F5F5F5F5F5F5F5F5F5F5F5F5F5F5F5F5F5F5F5F5F5F5F5F5F5F5F5F5F5F5F5F5F5F5F5F5F5F5F5F5F5F5F5F5F5F5F5E2F5F5F5F5F5E2F5F5F5F5F5F5F5F5F5F5F5F5F5F5F5F5F5F5F5F5
310
F5F5F5F5F5F5F5F5F5F5F5F5F5F5F5F5F5F5F5F5F5F5F5F5F5F5F5F5F5F5F5F5F5F5F5F5F5F5F5F5E2F5F5F5F5F5F5F5F5F5F5F5F5F5F5F5F5F5F5F5F5F5F5F5F5F5F5F5F5F5F5F5F5F5F5F5F5F5F5F5F5F5F5F5F5F5F5F5F5F5E2F5E2E2E2F5E2F5F5F5F5F5F5F5F5F5F5F5F5F5F5F5F5F5F5F5F5F5F5F5F5F5F5F5F5F5F5
310
F5F5F5F5F5F5F5F5F5F5F5F5F5F5F5F5F5F5F5F5F5F5F5F5F5F5E2F5F5F5F5F5E2F5F5F5F5F5F5F5F5F5F5F5F5F5F5F5F5F5F5F5F5F5F5F5F5F5F5F5F5F5F5F5F5F5F5F5F5F5F5F5F5F5F5F5F5F5F5F5F5F5F5F5F5F5F5F5F5F5F5F5F5E2F5F5F5F5F5F5F5F5F5F5F5F5F5F5F5F5F5F5F5F5F5F5F5F5F5F5F5F5F5F5F5F5F5
310
F5F5F5F5F5F5F5F5F5F5F5F5F5F5F5F5E2F5E2E2E2F5E2F5F5F5F5F5F5F5F5F5F5F5F5F5F5F5F5F5F5F5F5F5F5F5F5F5F5F5F5F5F5F5F5F5F5F5F5F5F5F5F5F5F5F5F5F5F5F5F5F5F5F5F5F5F5F5F5E2F5F5F5F5F5E2F5F5F5F5F5F5F5F5F5F5F5F5F5F5F5F5F5F5F5F5F5F5F5F5F5F5F5F5F5F5F5F5F5F5F5F5F5F5F5F5F5
310
F5F5F5F5F5F5F5F5F5F5F5F5F5F5F5F5F5F5F5E2F5F5F5F5F5F5F5F5F5F5F5F5F5F5F5F5F5F5F5F5F5F5F5F5F5F5F5F5F5F5F5F5F5F5F5F5F5F5F5F5F5F5F5F5F5F5F5F5F5E2F5E2E2E2F5E2F5F5F5F5F5F5F5F5F5F5F5F5F5F5F5F5F5F5F5F5F5F5F5F5F5F5F5F5F5F5F5F5F5F5F5F5F5F5F5F5F5F5F5F5F5F5F5F5F5F5F5
310
F5F5F5F5F5E2F5F5F5F5F5E2F5F5F5F5F5F5F5F5F5F5F5F5F5F5F5F5F5F5F5F5F5F5F5F5F5F5F5F5F5F5F5F5F5F5F5F5F5F5F5F5F5F5F5F5F5F5F5F5F5F5F5F5F5F5F5F5F5F5F5F5E2F5F5F5F5F5F5F5F5F5F5F5F5F5F5F5F5F5F5F5F5F5F5F5F5F5F5F5F5F5F5F5F5F5F5F5F5F5F5F5F5F5F5F5F5F5F5F5F5F5E2F5E2E2E2
310
F5E2F5F5F5F5F5F5F5F5F5F5F5F5F5F5F5F5F5F5F5F5F5F5F5F5F5F5F5F5F5F5F5F5F5F5F5F5F5F5F5F5F5F5F5F5F5F5F5F5F5F5F5F5F5F5F5F5E2F5F5F5F5F5F5F5F5F5F5F5F5F5F5F5F5F5F5F5F5F5F5F5F5F5F5F5F5F5F5F5F5F5F5F5F5F5F5F5F5F5F5F5F5F5F5F5F5F5F5F5F5F5F5F5F5F5F5F5F5F5F5F5F5F5F5F5F5
310
F5F5F5F5F5F5F5F5F5F5F5F5F5F5F5F5F5F5F5F5F5F5F5F5F5F5F5F5F5F5F5F5F5F5F5F5F5F5F5F5F5F5F5F5F5F5F5F5E2F5E2E2E2F5E2F5F5F5F5F5F5F5F5F5F5F5F5F5F5F5F5F5F5F5F5F5F5F5F5F5F5F5F5F5F5F5F5F5F5F5F5F5F5F5F5F5F5F5F5F5F5F5F5F5F5F5F5F5F5F5F5E2F5F5F5F5F5E2F5F5F5F5F5F5F5F5F5
310
F5F5F5F5F5F5F5F5F5F5F5F5F5F5F5F5F5F5F5F5F5F5F5F5F5F5F5F5F5F5F5F5F5F5F5F5F5F5F5F5F5F5F5F5F5F5F5F5F5F5F5E2F5F5F5F5F5F5F5F5F5F5F5F5F5F5F5F5F5F5F5F5F5F5F5F5F5F5F5F5F5F5F5F5F5F5F5F5F5F5F5F5F5F5F5F5F5F5F5F5F5E2F5E2E2E2F5E2F5F5F5F5F5F5F5F5F5F5F5F5F5F5F5F5F5F5F5
310
F5F5F5F5F5F5F5F5F5F5F5F5F5F5F5F5F5F5F5F5F5F5F5F5F5F5F5F5F5F5F5F5F5F5F5F5F5E2F5F5F5F5F5E2F5F5F5F5F5F5F5F5F5F5F5F5F5F5F5F5F5F5F5F5F5F5F5F5F5F5F5F5F5F5F5F5F5F5F5F5F5F5F5F5F5F5F5F5F5F5F5F5F5F5F5F5F5F5F5F5F5F5F5F5E2F5F5F5F5F5F5F5F5F5F5F5F5F5F5F5F5F5F5F5F5F5F5
310
F5F5F5F5F5F5F5F5F5F5F5F5F5F5F5F5F5F5F5F5F5F5F5F5F5F5F5E2F5E2E2E2F5E2F5F5F5F5F5F5F5F5F5F5F5F5F5F5F5F5F5F5F5F5F5F5F5F5F5F5F5F5F5F5F5F5F5F5F5F5F5F5F5F5F5F5F5F5F5F5F5F5F5F5F5F5F5F5F5F5E2F5F5F5F5F5E2F5F5F5F5F5F5F5F5F5F5F5F5F5F5F5F5F5F5F5F5F5F5F5F5F5F5F5F5F5F5
310
F5F5F5F5F5F5F5F5F5F5F5F5F5F5F5F5F5F5F5F5F5F5F5F5F5F5F5F5F5F5E2F5F5F5F5F5F5F5F5F5F5F5F5F5F5F5F5F5F5F5F5F5F5F5F5F5F5F5F5F5F5F5F5F5F5F5F5F5F5F5F5F5F5F5F5F5F5F5F5F5E2F5E2E2E2F5E2F5F5F5F5F5F5F5F5F5F5F5F5F5F5F5F5F5F5F5F5F5F5F5F5F5F5F5F5F5F5F5F5F5F5F5F5F5F5F5F5
310
F5F5F5F5F5F5F5F5F5F5F5F5F5F5F5F5E2F5F5F5F5F5E2F5F5F5F5F5F5F5F5F5F5F5F5F5F5F5F5F5F5F5F5F5F5F5F5F5F5F5F5F5F5F5F5F5F5F5F5F5F5F5F5F5F5F5F5F5F5F5F5F5F5F5F5F5F5F5F5F5F5F5F5E2F5F5F5F5F5F5F5F5F5F5F5F5F5F5F5F5F5F5F5F5F5F5F5F5F5F5F5F5F5F5F5F5F5F5F5F5F5F5F5F5F5F5F5
310
F5F5F5F5F5F5E2F5E2E2E2F5E2F5F5F5F5F5F5F5F5F5F5F5F5F5F5F5F5F5F5F5F5F5F5F5F5F5F5F5F5F5F5F5F5F5F5F5F5F5F5F5F5F5F5F5F5F5F5F5F5F5F5F5F5F5F5F5F5E2F5F5F5F5F5E2F5F5F5F5F5F5F5F5F5F5F5F5F5F5F5F5F5F5F5F5F5F5F5F5F5F5F5F5F5F5F5F5F5F5F5F5F5F5F5F5F5F5F5F5F5F5F5F5F5F5F5
310
F5F5F5F5F5F5F5F5F5E2F5F5F5F5F5F5F5F5F5F5F5F5F5F5F5F5F5F5F5F5F5F5F5F5F5F5F5F5F5F5F5F5F5F5F5F5F5F5F5F5F5F5F5F5F5F5F5F5F5E2F5E2E2E2F5E2F5F5F5F5F5F5F5F5F5F5F5F5F5F5F5F5F5F5F5F5F5F5F5F5F5F5F5F5F5F5F5F5F5F5F5F5F5F5F5F5F5F5F5F5F5F5F5F5F5F5F5F5F5F5F5F5E2F5F5F5F5
310
F5E2F5F5F5F5F5F5F5F5F5F5F5F5F5F5F5F5F5F5F5F5F5F5F5F5F5F5F5F5F5F5F5F5F5F5F5F5F5F5F5F5F5F5F5F5F5F5F5F5F5F5F5F5F5F5F5F5F5F5F5F5E2F5F5F5F5F5F5F5F5F5F5F5F5F5F5F5F5F5F5F5F5F5F5F5F5F5F5F5F5F5F5F5F5F5F5F5F5F5F5F5F5F5F5F5F5F5F5F5F5F5E2F5E2E2E2F5E2F5F5F5F5F5F5F5F5
310
F5F5F5F5F5F5F5F5F5F5F5F5F5F5F5F5F5F5F5F5F5F5F5F5F5F5F5F5F5F5F5F5F5F5F5F5F5F5F5F5F5F5F5F5F5F5F5F5E2F5F5F5F5F5E2F5F5F5F5F5F5F5F5F5F5F5F5F5F5F5F5F5F5F5F5F5F5F5F5F5F5F5F5F5F5F5F5F5F5F5F5F5F5F5F5F5F5F5F5F5F5F5F5F5F5F5F5F5F5F5F5F5F5F5F5E2F5F5F5F5F5F5F5F5F5F5F5
310
F5F5F5F5F5F5F5F5F5F5F5F5F5F5F5F5F5F5F5F5F5F5F5F5F5F5F5F5F5F5F5F5F5F5F5F5F5F5E2F5E2E2E2F5E2F5F5F5F5F5F5F5F5F5F5F5F5F5F5F5F5F5F5F5F5F5F5F5F5F5F5F5F5F5F5F5F5F5F5F5F5F5F5F5F5F5F5F5F5F5F5F5F5F5F5F5F5F5F5F5F5E2F5F5F5F5F5E2F5F5F5F5F5F5F5F5F5F5F5F5F5F5F5F5F5F5F5
310
F5F5F5F5F5F5F5F5F5F5F5F5F5F5F5F5F5F5F5F5F5F5F5F5F5F5F5F5F5F5F5F5F5F5F5F5F5F5F5F5F5E2F5F5F5F5F5F5F5F5F5F5F5F5F5F5F5F5F5F5F5F5F5F5F5F5F5F5F5F5F5F5F5F5F5F5F5F5F5F5F5F5F5F5F5F5F5F5F5F5F5E2F5E2E2E2F5E2F5F5F5F5F5F5F5F5F5F5F5F5F5F5F5F5F5F5F5F5F5F5F5F5F5F5F5F5F5
310
F5F5F5F5F5F5F5F5F5F5F5F5F5F5F5F5F5F5F5F5F5F5F5F5F5F5F5E2F5F5F5F5F5E2F5F5F5F5F5F5F5F5F5F5F5F5F5F5F5F5F5F5F5F5F5F5F5F5F5E2E2E2E2E2E2E2F5F5F5F5F5F5F5F5F5F5F5F5F5F5F5F5F5F5F5F5F5F5F5F5F5F5F5F5E2F5F5F5F5F5F5F5F5F5F5F5F5F5F5F5F5F5F5F5F5F5F5F5F5F5F5F5F5F5F5F5F5
310
F5F5F5F5F5F5F5F5F5F5F5F5F5F5F5F5F5E2F5E2E2E2F5E2F5F5F5F5F5F5F5F5F5F5F5F5F5F5F5F5F5F5F5F5F5F5F5F5F5F5F5F5F5F5F5F5F5F5F5F5F5F5F5F5F5F5F5F5F5F5F5F5F5F5F5F5F5F5F5F5E2F5F5F5F5F5E2F5F5F5F5F5F5F5F5F5F5F5F5F5F5F5F5F5F5F5F5F5F5F5F5E2E2F5F5E2E2E2E2E2E2E2E2F5F5F5F5
310
F5F5F5F5F5F5F5F5F5F5F5F5F5F5F5F5F5F5F5F5E2F5F5F5F5F5F5F5F5F5F5F5F5F5F5F5F5F5F5F5F5F5F5F5F5F5F5F5F5F5F5F5F5F5F5F5F5F5F5F5F5F5F5F5F5F5F5F5F5F5E2F5E2E2E2F5E2F5F5F5F5F5F5F5F5F5F5F5F5F5F5F5F5F5F5F5F5F5F5F5F5F5F5F5F5F5F5F5F5F5F5F5F5F5F5F5F5F5F5F5F5F5F5F5F5F5F5
310
F5F5F5F5F5F5E2F5F5F5F5F5E2F5F5F5F5F5F5F5F5F5F5F5F5F5F5F5F5F5F5F5F5F5F5F5F5E2E2E2E2E2E2E2E2F5F5F5E2F5F5F5F5F5F5F5F5F5F5F5F5F5F5F5F5F5F5F5F5F5F5F5F5E2F5F5F5F5F5F5F5F5F5F5F5F5F5F5F5F5F5F5F5F5F5F5F5F5F5F5F5F5F5F5F5F5F5F5F5F5F5F5F5F5F5F5F5F5F5F5F5F5F5E2F5E2E2
310
E2F5E2F5F5F5F5F5F5F5F5F5F5F5F5F5F5F5F5F5F5F5F5F5F5F5F5F5F5F5F5F5F5F5F5F5F5F5F5F5F5F5F5F5F5F5F5F5F5F5F5F5F5F5F5F5F5F5F5E2F5F5F5F5F5E2F5F5F5F5F5F5F5F5F5F5F5F5F5F5F5F5F5F5F5F5F5F5F5F5F5E2E2E2E2E2E2E2E2E2E2F5F5F5F5F5F5F5F5F5F5F5F5F5F5F5F5F5F5F5F5F5F5F5F5F5E2
310
F5F5F5F5F5F5F5F5F5F5F5F5F5F5F5F5F5F5F5F5F5F5F5F5F5F5F5F5F5F5F5F5F5F5F5F5F5F5F5F5F5F5F5F5F5F5F5F5F5E2F5E2E2E2F5E2F5F5F5F5F5F5F5F5F5F5F5F5F5F5F5F5F5F5F5F5F5F5F5F5F5F5F5F5F5F5F5F5F5F5F5F5F5F5F5F5F5F5F5F5F5F5F5F5F5F5F5F5F5F5F5F5E2F5F5F5F5F5E2F5F5F5F5F5F5F5F5
310
F5F5F5F5F5F5F5F5F5F5F5F5F5F5F5F5F5E2E2E2E2E2E2E2E2E2E2F5F5F5F5F5F5F5F5F5F5F5F5F5F5F5F5F5F5F5F5F5F5F5F5F5E2F5F5F5F5F5F5F5F5F5F5F5F5F5F5F5F5F5F5F5F5F5F5F5F5F5F5F5F5F5F5F5F5F5F5F5F5F5F5F5F5F5F5F5F5F5F5F5F5F5E2F5E2E2E2F5E2F5F5F5F5F5F5F5F5F5F5F5F5F5F5F5F5F5F5
310
F5F5F5F5F5F5F5F5F5F5F5F5F5F5F5F5F5F5F5F5F5F5F5F5F5F5F5F5F5F5F5F5F5F5E2E2E2F5E2F5F5F5F5F5F5F5F5F5F5F5F5F5F5F5F5F5F5F5F5F5F5F5F5F5F5F5F5F5F5F5E2E2E2E2E2E2E2E2E2E2F5F5F5F5F5F5F5F5F5F5F5F5F5F5F5F5F5F5F5F5F5F5F5F5F5F5F5F5F5F5F5F5F5F5F5F5F5F5F5F5F5F5F5F5F5F5F5
310
F5F5F5F5F5F5F5F5F5F5F5F5F5F5F5F5F5F5F5F5F5F5F5F5F5F5F5F5E2F5E2E2E2F5E2F5F5F5F5F5F5F5F5F5F5F5F5F5F5F5F5F5F5F5F5F5F5F5F5F5F5F5F5F5F5F5F5F5F5F5F5F5F5F5F5F5F5F5F5F5F5F5F5F5F5F5F5E2E2E2F5E2F5F5F5F5F5E2F5F5F5F5F5F5F5F5F5F5F5F5F5F5F5F5F5F5F5F5F5F5F5F5F5E2E2E2E2
310
E2E2E2E2E2E2F5F5F5F5F5F5F5F5F5F5F5F5F5F5F5F5F5F5F5F5F5F5F5F5F5E2F5F5F5F5F5F5F5F5F5F5F5F5F5F5F5F5F5F5F5F5F5F5F5F5F5F5F5F5F5F5F5F5F5F5F5F5F5F5F5F5F5F5F5F5F5F5F5F5F5E2F5E2E2E2F5E2F5F5F5F5F5F5F5F5F5F5F5F5F5F5F5F5F5F5F5F5F5F5F5F5F5F5F5F5F5F5F5F5F5F5F5F5F5F5F5
310
F5F5F5F5F5F5F5F5F5F5F5F5F5E2E2E2F5E2F5F5F5F5F5E2F5F5F5F5F5F5F5F5F5F5F5F5F5F5F5F5F5F5F5F5F5F5F5F5F5E2E2E2E2E2E2E2E2E2E2F5F5F5F5F5F5F5F5F5F5F5F5F5F5F5F5F5F5F5F5F5F5F5F5F5E2F5F5F5F5F5F5F5F5F5F5F5F5F5F5F5F5F5F5F5F5F5F5F5F5F5F5F5F5F5F5F5F5F5F5F5F5F5F5F5F5F5F5
310
F5F5F5F5F5F5F5E2F5E2E2E2F5E2F5F5F5F5F5F5F5F5F5F5F5F5F5F5F5F5F5F5F5F5F5F5F5F5F5F5F5F5F5F5F5F5F5F5F5F5F5F5F5F5F5F5F5F5F5F5F5F5F5F5F5F5E2E2E2F5E2F5F5F5F5F5E2F5F5F5F5F5F5F5F5F5F5F5F5F5F5F5F5F5F5F5F5F5F5F5F5F5E2E2E2E2E2E2E2E2E2E2F5F5F5F5F5F5F5F5F5F5F5F5F5F5F5
310
F5F5F5F5F5F5F5F5F5F5E2F5F5F5F5F5F5F5F5F5F5F5F5F5F5F5F5F5F5F5F5F5F5F5F5F5F5F5F5F5F5F5F5F5F5F5F5F5F5F5F5F5F5F5F5F5F5F5F5F5E2F5E2E2E2F5E2F5F5F5F5F5F5F5F5F5F5F5F5F5F5F5F5F5F5F5F5F5F5F5F5F5F5F5F5F5F5F5F5F5F5F5F5F5F5F5F5F5F5F5F5F5F5F5F5F5F5F5F5E2E2E2F5E2F5F5F5
310
F5F5E2F5F5F5F5F5F5F5F5F5F5F5F5F5F5F5F5F5F5F5F5F5F5F5F5F5E2E2E2E2E2E2E2E2E2E2F5F5F5F5F5F5F5F5F5F5F5F5F5F5F5F5F5F5F5F5F5F5F5F5F5E2F5F5F5F5F5F5F5F5F5F5F5F5F5F5F5F5F5F5F5F5F5F5F5F5F5F5F5F5F5F5F5F5F5F5F5F5F5F5F5F5F5F5F5F5F5F5F5F5F5E2F5E2E2E2F5E2F5F5F5F5F5F5F5
310
F5F5F5F5F5F5F5F5F5F5F5F5F5F5F5F5F5F5F5F5F5F5F5F5F5F5F5F5F5F5F5F5F5F5F5F5F5F5F5F5F5F5F5F5F5F5F5F5F5E2F5F5F5F5F5E2F5F5F5F5F5F5F5F5F5F5F5F5F5F5F5F5F5F5F5F5F5F5F5F5F5E2E2E2E2E2E2E2E2E2E2F5F5F5F5F5F5F5F5F5F5F5F5F5F5F5F5F5F5F5F5F5F5F5F5F5E2F5F5F5F5F5F5F5F5F5F5
310
F5F5F5F5F5F5F5F5F5F5F5F5F5F5F5F5F5F5F5F5F5F5F5F5F5F5F5F5F5F5F5F5F5F5F5F5F5F5F5E2F5E2E2E2F5E2F5F5F5F5F5F5F5F5F5F5F5F5F5F5F5F5F5F5F5F5F5F5F5F5F5F5F5F5F5F5F5F5F5F5F5F5F5F5F5F5F5F5F5F5F5F5F5F5F5F5F5F5F5F5F5F5E2F5F5F5F5F5E2F5F5F5F5F5F5F5F5F5F5F5F5F5F5F5F5F5F5
310
F5F5F5F5F5F5F5E2E2E2E2E2E2E2E2E2E2F5F5F5F5F5F5F5F5F5F5F5F5F5F5F5F5F5F5F5F5F5F5F5F5F5E2F5F5F5F5F5F5F5F5F5F5F5F5F5F5F5F5F5F5F5F5F5F5F5F5F5F5F5F5F5F5F5F5F5F5F5F5F5F5F5F5F5F5F5F5F5F5F5F5F5E2F5E2E2E2F5E2F5F5F5F5F5F5F5F5F5F5F5F5F5F5F5F5F5F5F5F5F5F5F5F5F5F5F5F5
310
F5F5F5F5F5F5F5F5F5F5F5F5F5F5F5F5F5F5F5F5F5F5F5F5F5F5F5F5E2F5F5F5F5F5E2F5F5F5F5F5F5F5F5F5F5F5F5F5F5F5F5F5F5F5F5F5F5F5F5E2F5F5F5E2E2E2E2E2E2E2E2F5F5F5F5F5F5F5F5F5F5F5F5F5F5F5F5F5F5F5F5F5F5F5F5E2F5F5F5F5F5F5F5F5F5F5F5F5F5F5F5F5F5F5F5F5F5F5F5F5F5F5F5F5F5F5F5
310
F5F5F5F5F5F5F5F5F5F5F5F5F5F5F5F5F5F5E2F5E2E2E2F5E2F5F5F5F5F5F5F5F5F5F5F5F5F5F5F5F5F5F5F5F5F5F5F5F5F5F5F5F5F5F5F5F5F5F5F5F5F5F5F5F5F5F5F5F5F5F5F5F5F5F5F5F5F5F5F5F5E2F5F5F5F5F5E2F5F5F5F5F5F5F5F5F5F5F5F5F5F5F5F5F5F5F5F5F5F5F5F5F5E2E2E2E2E2E2E2E2E2E2E2F5F5F5
310
F5F5F5F5F5F5F5F5F5F5F5F5F5F5F5F5F5F5F5F5F5E2F5F5F5F5F5F5F5F5F5F5F5F5F5F5F5F5F5F5F5F5F5F5F5F5F5F5F5F5F5F5F5F5F5F5F5F5F5F5F5F5F5F5F5F5F5F5F5F5F5E2F5E2E2E2F5E2F5F5F5F5F5F5F5F5F5F5F5F5F5F5F5F5F5F5F5F5F5F5F5F5F5F5F5F5F5F5F5F5F5F5F5F5F5F5F5F5F5F5F5F5F5F5F5F5F5
310
F5F5F5F5F5F5F5E2F5F5F5F5F5F5F5F5F5F5F5F5F5F5F5F5F5F5F5F5F5F5F5F5F5F5F5F5F5F5F5F5F5F5F5F5F5F5F5F5F5F5F5F5F5F5F5F5F5F5F5F5F5F5F5F5F5F5F5F5F5F5F5F5F5F5F5F5F5F5F5F5F5F5F5F5F5F5F5F5F5F5F5F5F5F5F5F5F5F5F5F5F5F5F5F5F5F5F5F5F5F5F5F5F5F5F5F5F5F5F5F5F5F5F5F5E2F5E2
310
E2E2F5E2F5F5F5F5F5F5F5F5F5F5F5F5F5F5F5F5F5F5F5F5F5F5F5F5F5F5F5F5F5F5F5F5F5F5F5F5F5F5F5F5F5F5F5F5F5F5F5F5F5F5F5F5F5F5F5F5E2F5F5F5F5F5E2F5F5F5F5F5F5F5F5F5F5F5F5F5F5F5F5F5F5F5F5F5F5F5F5F5F5F5F5F5F5F5F5F5F5F5F5F5F5F5F5F5F5F5F5F5F5F5F5F5F5F5F5F5F5F5F5F5F5F5F5
310
E2F5F5F5F5F5F5F5F5F5F5F5F5F5F5F5F5F5F5F5F5F5F5F5F5F5F5F5F5F5F5F5F5F5F5F5F5F5F5F5F5F5F5F5F5F5F5F5F5F5E2F5E2E2E2F5E2F5F5F5F5F5F5F5F5F5F5F5F5F5F5F5F5F5F5F5F5F5F5F5F5F5F5F5F5F5F5F5F5F5F5F5F5F5F5F5F5F5F5F5F5F5F5F5F5F5F5F5F5F5F5F5F5E2F5F5F5F5F5E2F5F5F5F5F5F5F5
310
F5F5F5F5F5F5F5F5F5F5F5F5F5F5F5F5F5F5F5F5F5F5F5F5F5F5F5F5F5F5F5F5F5F5F5F5F5F5F5F5F5F5F5F5F5F5F5F5F5F5F5F5F5E2F5F5F5F5F5F5F5F5F5F5F5F5F5F5F5F5F5F5F5F5F5F5F5F5F5F5F5F5F5F5F5F5F5F5F5F5F5F5F5F5F5F5F5F5F5F5F5F5F5E2F5E2E2E2F5E2F5F5F5F5F5F5F5F5F5F5F5F5F5F5F5F5F5
310
F5F5F5F5F5F5F5F5F5F5F5F5F5F5F5F5F5F5F5F5F5F5F5F5F5F5F5F5F5F5F5F5F5F5F5F5F5F5F5E2F5F5F5F5F5E2F5F5F5F5F5F5F5F5F5F5F5F5F5F5F5F5F5F5F5F5F5F5F5F5F5F5F5F5F5F5F5F5F5F5F5F5F5F5F5F5F5F5F5F5F5F5F5F5F5F5F5F5F5F5F5F5F5F5F5F5E2F5F5F5F5F5F5F5F5F5F5F5F5F5F5F5F5F5F5F5F5
310
F5F5F5F5F5F5F5F5F5F5F5F5F5F5F5F5F5F5F5F5F5F5F5F5F5F5F5F5F5E2F5E2E2E2F5E2F5F5F5F5F5F5F5F5F5F5F5F5F5F5F5F5F5F5F5F5F5F5F5F5F5F5F5F5F5F5F5F5F5F5F5F5F5F5F5F5F5F5F5F5F5F5F5F5F5F5F5F5F5F5F5F5E2F5F5F5F5F5E2F5F5F5F5F5F5F5F5F5F5F5F5F5F5F5F5F5F5F5F5F5F5F5F5F5F5F5F5
310
F5F5F5F5F5F5F5F5F5F5F5F5F5F5F5F5F5F5F5F5F5F5F5F5F5F5F5F5F5F5F5F5E2F5F5F5F5F5F5F5F5F5F5F5F5F5F5F5F5F5F5F5F5F5F5F5F5F5F5F5F5F5F5F5F5F5F5F5F5F5F5F5F5F5F5F5F5F5F5F5F5F5E2F5E2E2E2F5E2F5F5F5F5F5F5F5F5F5F5F5F5F5F5F5F5F5F5F5F5F5F5F5F5F5F5F5F5F5F5F5F5F5F5F5F5F5F5
310
F5F5F5F5F5F5F5F5F5F5F5F5F5F5F5F5F5F5E2F5F5F5F5F5E2F5F5F5F5F5F5F5F5F5F5F5F5F5F5F5F5F5F5F5F5F5F5F5F5F5F5F5F5F5F5F5F5F5F5F5F5F5F5F5F5F5F5F5F5F5F5F5F5F5F5F5F5F5F5F5F5F5F5F5F5E2F5F5F5F5F5F5F5F5F5F5F5F5F5F5F5F5F5F5F5F5F5F5F5F5F5F5F5F5F5F5F5F5F5F5F5F5F5F5F5F5F5
310
F5F5F5F5F5F5F5F5E2F5E2E2E2F5E2F5F5F5F5F5F5F5F5F5F5F5F5F5F5F5F5F5F5F5F5F5F5F5F5F5F5F5F5F5F5F5F5F5F5F5F5F5F5F5F5F5F5F5F5F5F5F5F5F5F5F5F5F5F5F5F5E2F5F5F5F5F5E2F5F5F5F5F5F5F5F5F5F5F5F5F5F5F5F5F5F5F5F5F5F5F5F5F5F5F5F5F5F5F5F5F5F5F5F5F5F5F5F5F5F5F5F5F5F5F5F5F5
310
F5F5F5F5F5F5F5F5F5F5F5E2F5F5F5F5F5F5F5F5F5F5F5F5F5F5F5F5F5F5F5F5F5F5F5F5F5F5F5F5F5F5F5F5F5F5F5F5F5F5F5F5F5F5F5F5F5F5F5F5F5E2F5E2E2E2F5E2F5F5F5F5F5F5F5F5F5F5F5F5F5F5F5F5F5F5F5F5F5F5F5F5F5F5F5F5F5F5F5F5F5F5F5F5F5F5F5F5F5F5F5F5F5F5F5F5F5F5F5F5F5F5F5F5E2F5F5
310
F5F5F5E2F5F5F5F5F5F5F5F5F5F5F5F5F5F5F5F5F5F5F5F5F5F5F5F5F5F5F5F5F5F5F5F5F5F5F5F5F5F5F5F5F5F5F5F5F5F5F5F5F5F5F5F5F5F5F5F5F5F5F5F5E2F5F5F5F5F5F5F5F5F5F5F5F5F5F5F5F5F5F5F5F5F5F5F5F5F5F5F5F5F5F5F5F5F5F5F5F5F5F5F5F5F5F5F5F5F5F5F5F5F5E2F5E2E2E2F5E2F5F5F5F5F5F5
310
F5F5F5F5F5F5F5F5F5F5F5F5F5F5F5F5F5F5F5F5F5F5F5F5F5F5F5F5F5F5F5F5F5F5F5F5F5F5F5F5F5F5F5F5F5F5F5F5F5F5E2F5F5F5F5F5E2F5F5F5F5F5F5F5F5F5F5F5F5F5F5F5F5F5F5F5F5F5F5F5F5F5F5F5F5F5F5F5F5F5F5F5F5F5F5F5F5F5F5F5F5F5F5F5F5F5F5F5F5F5F5F5F5F5F5F5F5E2F5F5F5F5F5F5F5F5F5
310
F5F5F5F5F5F5F5F5F5F5F5F5F5F5F5F5F5F5F5F5F5F5F5F5F5F5F5F5F5F5F5F5F5F5F5F5F5F5F5F5E2F5E2E2E2F5E2F5F5F5F5F5F5F5F5F5F5F5F5F5F5F5F5F5F5F5F5F5F5F5F5F5F5F5F5F5F5F5F5F5F5F5F5F5F5F5F5F5F5F5F5F5F5F5F5F5F5F5F5F5F5F5F5E2F5F5F5F5F5F5F5F5F5F5F5F5F5F5F5F5F5F5F5F5F5F5F5
310
F5F5F5F5F5F5F5F5F5F5F5F5F5F5F5F5F5F5F5F5F5F5F5F5F5F5F5F5F5F5F5F5F5F5F5F5F5F5F5F5F5F5F5F5F5F5F5F5F5F5F5F5F5F5F5F5F5F5F5F5F5F5F5F5F5F5F5F5F5F5F5F5F5F5F5F5F5F5F5F5F5F5F5F5F5F5F5F5F5F5F5F5F5E2F5E2E2E2F5E2F5F5F5F5F5F5F5F5F5F5F5F5F5F5F5F5F5F5F5F5F5F5F5F5F5F5F5
310
F5F5F5F5F5F5F5F5F5F5F5F5F5F5F5F5F5F5F5F5F5F5F5F5F5F5F5F5F5E2F5F5F5F5F5E2F5F5F5F5F5F5F5F5F5F5F5F5F5F5F5F5F5F5F5F5F5F5F5F5F5F5F5F5F5F5F5F5F5F5F5F5F5F5F5F5F5F5F5F5F5F5F5F5F5F5F5F5F5F5F5F5F5F5F5F5E2F5F5F5F5F5F5F5F5F5F5F5F5F5F5F5F5F5F5F5F5F5F5F5F5F5F5F5F5F5F5
310
F5F5F5F5F5F5F5F5F5F5F5F5F5F5F5F5F5F5F5E2F5E2E2E2F5E2F5F5F5F5F5F5F5F5F5F5F5F5F5F5F5F5F5F5F5F5F5F5F5F5F5F5F5F5F5F5F5F5F5F5F5F5F5F5F5F5F5F5F5F5F5F5F5F5F5F5F5F5F5F5F5F5E2F5F5F5F5F5E2F5F5F5F5F5F5F5F5F5F5F5F5F5F5F5F5F5F5F5F5F5F5F5F5F5F5F5F5F5F5F5F5F5F5F5F5F5F5
310
F5F5F5F5F5F5F5F5F5F5F5F5F5F5F5F5F5F5F5F5F5F5E2F5F5F5F5F5F5F5F5F5F5F5F5F5F5F5F5F5F5F5F5F5F5F5F5F5F5F5F5F5F5F5F5F5F5F5F5F5F5F5F5F5F5F5F5F5F5F5F5F5E2F5E2E2E2F5E2F5F5F5F5F5F5F5F5F5F5F5F5F5F5F5F5F5F5F5F5F5F5F5F5F5F5F5F5F5F5F5F5F5F5F5F5F5F5F5F5F5F5F5F5F5F5F5F5
310
F5F5F5F5F5F5F5F5E2F5F5F5F5F5E2F5F5F5F5F5F5F5F5F5F5F5F5F5F5F5F5F5F5F5F5F5F5F5F5F5F5F5F5F5F5F5F5F5F5F5F5F5F5F5F5F5F5F5F5F5F5F5F5F5F5F5F5F5F5F5F5F5F5F5F5E2F5F5F5F5F5F5F5F5F5F5F5F5F5F5F5F5F5F5F5F5F5F5F5F5F5F5F5F5F5F5F5F5F5F5F5F5F5F5F5F5F5F5F5F5F5F5F5F5F5E2F5
310
E2E2E2F5E2F5F5F5F5F5F5F5F5F5F5F5F5F5F5F5F5F5F5F5F5F5F5F5F5F5F5F5F5F5F5F5F5F5F5F5F5F5F5F5F5F5F5F5F5F5F5F5F5F5F5F5F5F5F5F5F5E2F5F5F5F5F5E2F5F5F5F5F5F5F5F5F5F5F5F5F5F5F5F5F5F5F5F5F5F5F5F5F5F5F5F5F5F5F5F5F5F5F5F5F5F5F5F5F5F5F5F5F5F5F5F5F5F5F5F5F5F5F5F5F5F5F5
310
F5E2F5F5F5F5F5F5F5F5F5F5F5F5F5F5F5F5F5F5F5F5F5F5F5F5F5F5F5F5F5F5F5F5F5F5F5F5F5F5F5F5F5F5F5F5F5F5F5F5F5E2F5E2E2E2F5E2F5F5F5F5F5F5F5F5F5F5F5F5F5F5F5F5F5F5F5F5F5F5F5F5F5F5F5F5F5F5F5F5F5F5F5F5F5F5F5F5F5F5F5F5F5F5F5F5F5F5F5F5F5F5F5F5E2F5F5F5F5F5E2F5F5F5F5F5F5
310
F5F5F5F5F5F5F5F5F5F5F5F5F5F5F5F5F5F5F5F5F5F5F5F5F5F5F5F5F5F5F5F5F5F5F5F5F5F5F5F5F5F5F5F5F5F5F5F5F5F5F5F5F5F5E2F5F5F5F5F5F5F5F5F5F5F5F5F5F5F5F5F5F5F5F5F5F5F5F5F5F5F5F5F5F5F5F5F5F5F5F5F5F5F5F5F5F5F5F5F5F5F5F5F5E2F5E2E2E2F5E2F5F5F5F5F5F5F5F5F5F5F5F5F5F5F5F5
310
F5F5F5F5F5F5F5F5F5F5F5F5F5F5F5F5F5F5F5F5F5F5F5F5F5F5F5F5F5F5F5F5F5F5F5F5F5F5F5F5E2F5F5F5F5F5E2F5F5F5F5F5F5F5F5F5F5F5F5F5F5F5F5F5F5F5F5F5F5F5F5F5F5F5F5F5F5F5F5F5F5F5F5F5F5F5F5F5F5F5F5F5F5F5F5F5F5F5F5F5F5F5F5F5F5F5F5E2F5F5F5F5F5F5F5F5F5F5F5F5F5F5F5F5F5F5F5
310
F5F5F5F5F5F5F5F5F5F5F5F5F5F5F5F5F5F5F5F5F5F5F5F5F5F5F5F5F5F5E2F5E2E2E2F5E2F5F5F5F5F5F5F5F5F5F5F5F5F5F5F5F5F5F5F5F5F5F5F5F5F5F5F5F5F5F5F5F5F5F5F5F5F5F5F5F5F5F5F5F5F5F5F5F5F5F5F5F5F5F5F5F5E2BEF5F5F5F5E2F5F5F5F5F5F5F5F5F5F5F5F5F5F5F5F5F5F5F5F5F5F5F5F5F5F5F5
310
F5F5F5F5F5F5F5F5F5F5F5F5F5F5F5F5F5F5F5F5F5F5F5F5F5F5F5F5F5F5F5F5F5E2F5F5F5F5F5F5F5F5F5F5F5F5F5F5F5F5F5F5F5F5F5F5F5F5F5F5F5F5F5F5F5F5F5F5F5F5F5F5F5F5F5F5F5F5F5F5F5F5F5E2F5E2E2E2F5E2F5F5F5F5F5F5F5F5F5F5F5F5F5F5F5F5F5F5F5F5F5F5F5F5F5F5F5F5F5F5F5F5F5F5F5F5F5
310
F5F5F5F5F5F5F5F5F5F5F5F5F5F5F5F5F5E2E2E2E2E2F5F5F5E2E2E2E2E2E2E2E2F5E2E2E2E2E2E2E2E2F5E2E2E2E2E2E2E2E2F5E2E2E2E2E2E2E2E2F5E2E2E2E2E2E2E2E2F5E2E2E2E2E2E2E2E2F5E2E2E2E2E2E2E2E2F5F5F5F5F5F5F5F5F5F5F5F5F5F5F5F5F5F5F5F5F5F5F5F5F5F5F5F5F5F5F5F5F5F5F5F5F5F5F5F5
310
F5F5F5F5F5F5F5F5F5E2F5E2E2E2F5E2F5F5F5F5F5F5F5F5F5F5F5F5F5F5F5F5F5F5F5F5F5F5F5F5F5F5F5F5F5F5F5F5F5F5F5F5F5F5F5F5F5F5F5F5F5F5F5F5F5F5F5F5F5F5F5BEE2F5F5F5F5F5F5F5F5F5F5F5F5F5F5F5F5F5F5F5F5F5F5F5F5F5F5F5F5F5F5F5F5F5F5F5F5F5F5F5F5F5F5F5F5F5F5F5F5F5F5F5F5F5F5
310
F5F5F5F5F5F5F5F5F5F5F5F5F5F5F5F5F5F5F5F5F5F5F5F5F5F5F5F5F5F5F5F5F5F5F5F5F5F5F5F5F5F5F5F5F5F5F5F5F5F5F5F5F5F5F5F5F5F5F5F5F5F5E2F5E2E2E2F5E2F5F5F5F5F5F5F5F5F5F5F5F5F5F5F5F5F5F5F5F5F5F5F5F5F5F5F5F5F5F5F5F5F5F5F5F5F5F5F5F5F5F5F5F5F5F5F5F5F5F5F5F5F5F5F5F5F5F5
310
F5F5F5F5F5F5F5F5F5F5F5F5F5F5F5F5F5F5F5F5F5F5F5F5F5F5F5F5F5F5F5F5F5F5F5F5F5F5F5F5F5F5F5F5F5F5F5F5F5F5F5F5F5F5F5F5F5F5F5F5F5F5F5F5F5F5F5F5F5F5F5F5F5F5F5F5F5F5F5F5F5F5F5F5F5F5F5F5F5F5F5F5F5F5F5F5F5F5F5F5F5F5F5F5F5F5F5F5F5F5F5F5F5F5F5E2F5E2E2E2F5E2F5F5F5F5F5
310
F5F5F5F5F5F5F5F5F5F5F5F5F5F5F5F5F5F5F5F5F5F5F5F5F5F5F5F5F5F5F5F5F5F5F5F5F5F5F5F5F5F5F5F5F5F5F5F5F5F5F5F5F5F5F5F5F5F5F5F5F5F5F5F5F5F5F5F5F5F5F5F5F5F5F5F5F5F5F5F5F5F5F5F5F5F5F5F5F5F5F5F5F5F5F5F5F5F5F5F5F5F5F5F5F5F5F5F5F5F5F5F5F5F5F5F5F5F5F5F5F5F5F5F5F5F5F5
310
F5F5F5F5F5F5F5F5F5F5F5F5F5F5F5F5F5F5F5F5F5F5F5F5F5F5F5F5F5F5F5F5F5F5F5F5F5F5F5F5F5E2F5E2E2E2F5E2F5F5F5F5F5F5F5F5F5F5F5F5F5F5F5F5F5F5F5F5F5F5F5F5F5F5F5F5F5F5F5F5F5F5F5F5F5F5F5F5F5F5F5F5F5F5F5F5F5F5F5F5F5F5F5F5F5F5F5F5F5F5F5F5F5F5F5F5F5F5F5F5F5F5F5F5F5F5F5
310
F5F5F5F5F5F5F5F5F5F5F5F5F5F5F5F5F5F5F5F5F5F5F5F5F5F5F5F5F5F5F5F5F5F5F5F5F5F5F5F5F5F5F5F5F5F5F5F5F5F5F5F5F5F5F5F5F5F5F5F5F5F5F5F5F5F5F5F5F5F5F5F5F5F5F5F5F5F5F5F5F5F5F5F5F5F5F5F5F5F5F5F5F5F5E2F5E2E2E2F5E2F5F5F5F5F5F5F5F5F5F5F5F5F5F5F5F5F5F5F5F5F5F5F5F5F5F5
310
F5F5F5F5F5F5F5F5F5F5F5F5F5F5F5F5F5F5F5F5F5F5F5F5F5F5F5F5F5F5F5F5F5F5F5F5F5F5F5F5F5F5F5F5F5F5F5F5F5F5F5F5F5F5F5F5F5F5F5F5F5F5F5F5F5F5F5F5F5F5F5F5F5F5F5F5F5F5F5F5F5F5F5F5F5F5F5F5F5F5F5F5F5F5F5F5F5F5F5F5F5F5F5F5F5F5F5F5F5F5F5F5F5F5F5F5F5F5F5F5F5F5F5F5F5F5F5
310
F5F5F5F5F5F5F5F5F5F5F5F5F5F5F5F5F5F5F5F5E2F5E2E2E2F5E2F5F5F5F5F5F5F5F5F5F5F5F5F5F5F5F5F5F5F5F5F5F5F5F5F5F5F5F5F5F5F5F5F5F5F5F5F5F5F5F5F5F5F5F5F5F5F5F5F5F5F5F5F5F5F5F5F5F5F5F5F5F5E2F5F5F5F5F5F5F5F5F5F5F5F5F5F5F5F5F5F5F5F5F5F5F5F5F5F5F5F5F5F5F5F5F5F5F5F5F5
310
F5F5F5F5F5F5F5F5F5F5F5F5F5F5F5F5F5F5F5F5F5F5F5E2F5F5F5F5F5F5F5F5F5F5F5F5F5F5F5F5F5F5F5F5F5F5F5F5F5F5F5F5F5F5F5F5F5F5F5F5F5F5F5F5F5F5F5F5F5F5F5F5F5E2F5E2E2E2F5E2F5F5F5F5F5F5F5F5F5F5F5F5F5F5F5F5F5F5F5F5F5F5F5F5F5F5F5F5F5F5F5F5F5F5F5F5F5F5F5F5F5F5F5F5F5F5F5
310
F5F5F5F5F5F5F5F5F5F5F5F5F5F5BEE2F5F5F5F5F5F5F5F5F5F5F5F5F5F5F5F5F5F5F5F5F5F5F5F5F5F5F5F5F5F5F5F5F5F5F5F5F5F5F5F5F5F5F5F5F5F5F5F5F5F5F5F5F5F5F5F5F5F5F5BEE2F5F5F5F5F5F5F5F5F5F5F5F5F5F5F5F5F5F5F5F5F5F5F5F5F5F5F5F5F5F5F5F5F5F5F5F5F5F5F5F5F5F5F5F5F5F5F5F5F5E2
310
F5E2E2E2F5E2F5F5F5F5F5F5F5F5F5F5F5F5F5F5F5F5F5F5F5F5F5F5F5F5F5F5F5F5F5F5F5F5F5F5F5F5F5F5F5F5F5F5F5F5F5F5F5F5F5F5F5F5F5F5F5F5F5F5F5F5F5E2E2E2E2E2E2E2E2E2E2E2E2E2E2E2E2E2E2E2E2E2E2E2E2E2E2E2E2E2E2E2E2E2E2E2E2E2E2E2E2E2E2E2E2E2E2E2E2E2E2E2E2E2E2E2E2E2E2E2E2
310
E2E2E2E2F5F5F5F5F5F5F5F5F5F5F5F5F5F5F5F5F5F5F5F5F5F5F5F5F5F5F5F5F5F5F5F5F5F5F5F5F5F5F5F5F5F5F5F5F5F5F5F5E2F5E2E2E2F5E2F5F5F5F5F5F5F5F5F5F5F5F5F5F5F5F5F5F5F5F5F5F5F5F5F5F5F5F5F5F5F5F5F5F5F5F5F5F5F5F5F5F5F5F5F5F5F5F5F5F5F5F5F5F5F5F5F5F5F5F5F5F5E2F5BEF5F5F5
310
F5F5F5F5F5F5F5F5F5F5F5F5F5F5F5F5F5F5F5F5F5F5E2E2E2E2E2F5F5F5F5F5F5F5F5F5F5F5F5F5F5F5F5F5F5F5F5F5F5F5F5F5F5F5F5E2BEF5F5F5F5F5F5F5F5F5F5F5F5F5F5F5F5F5F5F5F5F5F5F5F5F5F5F5F5F5F5F5F5F5F5F5F5F5F5F5F5F5F5F5F5F5F5F5F5E2F5E2E2E2F5E2F5F5F5F5F5F5F5F5F5F5F5F5F5F5F5
310
F5F5F5F5F5F5F5F5F5F5F5F5F5F5F5F5F5F5F5F5F5F5F5F5F5F5F5F5F5F5F5F5F5F5F5F5F5F5F5F5F5F5F5F5F5F5F5F5F5F5F5F5F5F5F5F5F5F5F5F5F5F5F5F5F5F5F5F5F5F5F5F5F5F5F5E2E2E2E2E2F5F5F5F5F5F5F5F5F5F5F5F5F5F5F5F5F5F5F5F5F5F5F5F5F5F5F5F5F5F5F5F5F5F5F5F5F5F5F5F5F5F5F5F5F5F5F5
310
F5F5F5F5F5F5F5F5F5F5F5F5F5F5F5F5F5F5F5F5F5F5F5F5F5F5F5F5F5F5F5E2F5E2E2E2F5E2F5F5F5F5F5F5F5F5F5F5F5F5F5F5F5F5F5F5F5F5F5F5F5F5F5F5F5F5F5F5F5F5F5F5F5F5F5F5F5F5F5F5F5F5F5F5F5F5F5F5F5F5F5F5F5F5F5F5F5F5F5F5F5F5F5F5F5F5F5F5F5F5F5F5F5F5F5F5F5F5F5F5F5F5F5F5F5F5F5
310
F5E2E2E2E2E2F5F5F5F5F5F5F5F5F5F5F5F5F5F5F5F5F5F5F5F5F5F5F5F5F5F5F5F5F5F5F5F5F5F5F5F5F5F5F5F5F5F5F5F5F5F5F5F5F5F5F5F5F5F5F5F5F5F5F5F5F5F5F5F5F5F5F5F5F5F5F5F5F5F5F5F5F5F5E2F5E2E2E2F5E2F5F5F5F5F5F5F5F5F5F5F5F5F5F5F5F5F5F5F5F5F5F5F5F5F5F5F5F5F5F5F5F5F5F5F5F5
310
F5F5F5F5F5F5F5F5F5F5F5F5F5F5F5F5F5F5F5F5F5F5F5F5F5F5F5F5F5F5F5F5F5F5F5F5F5F5F5F5F5F5F5F5F5F5F5F5F5F5F5F5F5F5F5F5F5F5F5F5F5F5F5F5F5F5F5F5F5F5F5F5F5F5F5F5F5F5F5F5F5F5F5F5F5F5F5F5F5F5F5F5F5F5F5F5F5F5F5F5F5F5F5F5F5F5F5F5F5F5F5F5F5F5F5F5F5F5F5F5F5F5F5F5F5F5F5
310
F5F5F5F5F5F5F5F5F5F5E2F5E2E2E2F5E2F5F5F5F5F5F5F5F5F5F5F5F5F5F5F5F5F5F5F5F5F5F5F5F5F5F5F5F5F5F5F5F5F5F5F5F5F5F5F5F5F5F5F5F5F5F5F5F5F5F5F5F5F5F5F5F5F5F5F5F5F5F5F5F5F5F5F5F5F5F5F5F5F5F5F5F5F5F5F5F5F5F5F5F5F5F5F5F5F5F5F5F5F5F5F5F5F5F5F5F5F5F5F5F5F5F5F5F5F5F5
310
F5F5F5F5F5F5F5F5F5F5F5F5F5F5F5F5F5F5F5F5F5F5F5F5F5F5F5F5F5F5F5F5F5F5F5F5F5F5F5F5F5F5F5F5F5F5F5F5F5F5F5F5F5F5F5F5F5F5F5F5F5F5F5E2F5E2E2E2F5E2F5F5F5F5F5F5F5F5F5F5F5F5F5F5F5F5F5F5F5F5F5F5F5F5F5F5F5F5F5F5F5F5F5F5F5F5F5F5F5F5F5F5F5F5F5F5F5F5F5F5F5F5F5F5F5F5F5
310
F5F5F5F5F5F5F5F5F5F5F5F5F5F5F5F5F5F5F5F5F5F5F5F5F5F5F5F5F5F5F5F5F5F5F5F5F5F5F5F5F5F5F5F5F5F5F5F5F5F5F5F5F5F5F5F5F5F5F5F5F5F5F5F5F5F5F5F5F5F5F5F5F5F5F5F5F5F5F5F5F5F5F5F5F5F5F5F5F5F5F5F5F5F5F5F5F5F5F5F5F5F5F5F5F5F5F5F5F5F5F5F5F5F5F5F5E2F5E2E2E2F5E2F5F5F5F5
310
F5F5F5F5F5F5F5F5F5F5F5F5F5F5F5F5F5F5F5F5F5F5F5F5F5F5F5F5F5F5F5F5F5F5F5F5F5F5F5F5F5F5F5F5F5F5F5F5F5F5F5F5F5F5F5F5F5F5F5F5F5F5F5F5F5F5F5F5F5F5F5F5F5F5F5F5F5F5F5F5F5F5F5F5F5F5F5F5F5F5F5F5F5F5F5F5F5F5F5F5F5F5F5F5F5F5F5F5F5F5F5F5F5F5F5F5F5F5F5F5F5F5F5F5F5F5F5
310
F5F5F5F5F5F5F5F5F5F5F5F5F5F5F5F5F5F5F5F5F5F5F5F5F5F5F5F5F5F5F5F5F5F5F5F5F5F5F5F5F5F5E2F5E2E2E2F5E2F5F5F5F5F5F5F5F5F5F5F5F5F5F5F5F5F5F5F5F5F5F5F5F5F5F5F5F5F5F5F5F5F5F5F5F5F5F5F5F5F5F5F5F5F5F5F5F5F5F5F5F5F5F5F5F5F5F5F5F5F5F5F5F5F5F5F5F5F5F5F5F5F5F5F5F5F5F5
310
F5F5F5F5F5F5F5F5F5F5F5F5F5F5F5F5F5F5F5F5F5F5F5F5F5F5F5F5F5F5F5F5F5F5F5F5F5F5F5F5F5F5F5F5F5F5F5F5F5F5F5F5F5F5F5F5F5F5F5F5F5F5F5F5F5F5F5F5F5F5F5F5F5F5F5F5F5F5F5F5F5F5F5F5F5F5F5F5F5F5F5F5F5F5F5E2F5E2E2E2F5E2F5F5F5F5F5F5F5F5F5F5F5F5F5F5F5F5F5F5F5F5F5F5F5F5F5
310
F5F5F5F5F5F5F5F5F5F5F5F5F5F5F5F5F5F5F5F5F5F5F5F5F5F5F5F5F5F5F5F5F5F5F5F5F5F5F5F5F5F5F5F5F5F5F5F5F5F5F5F5F5F5F5F5F5F5F5F5F5F5F5F5F5F5F5F5F5F5F5F5F5F5F5F5F5F5F5F5F5F5F5F5F5F5F5F5F5F5F5F5F5F5F5F5F5F5F5F5F5F5F5F5F5F5F5F5F5F5F5F5F5F5F5F5F5F5F5F5F5F5F5F5F5F5F5
310
F5F5F5F5F5F5F5F5F5F5F5F5F5F5F5F5F5F5F5F5F5E2F5E2E2E2F5E2F5F5F5F5F5F5F5F5F5F5F5F5F5F5F5F5F5F5F5F5F5F5F5F5F5F5F5F5F5F5F5F5F5F5F5F5F5F5F5F5F5F5F5F5F5F5F5F5F5F5F5F5F5F5F5F5F5F5F5F5F5F5F5F5F5F5F5F5F5F5F5F5F5F5F5F5F5F5F5F5F5F5F5F5F5F5F5F5F5F5F5F5F5F5F5F5F5F5F5
310
F5F5F5F5F5F5F5F5F5F5F5F5F5F5F5F5F5F5F5F5F5F5F5F5F5F5F5F5F5F5F5F5F5F5F5F5F5F5F5F5F5F5F5F5F5F5F5F5F5F5F5F5F5F5F5F5F5F5F5F5F5F5F5F5F5F5F5F5F5F5F5F5F5F5E2F5E2E2E2F5E2F5F5F5F5F5F5F5F5F5F5F5F5F5F5F5F5F5F5F5F5F5F5F5F5F5F5F5F5F5F5F5F5F5F5F5F5F5F5F5F5F5F5F5F5F5F5
310
F5F5F5F5F5F5F5F5F5F5F5F5F5F5F5F5F5F5F5F5F5F5F5F5F5F5F5F5F5F5F5F5F5F5F5F5F5F5F5F5F5F5F5F5F5F5F5F5F5F5F5F5F5F5F5F5F5F5F5F5F5F5F5F5F5F5F5F5F5F5F5F5F5F5F5F5F5F5F5F5F5F5F5F5F5F5F5F5F5F5F5F5F5F5F5F5F5F5F5F5F5F5F5F5F5F5F5F5F5F5F5F5F5F5F5F5F5F5F5F5F5F5F5F5F5F5F5
310
E2F5E2E2E2F5E2F5F5F5F5F5F5F5F5F5F5F5F5F5F5F5F5F5F5F5F5F5F5F5F5F5F5F5F5F5F5F5F5F5F5F5F5F5F5F5F5F5F5F5F5F5F5F5F5F5F5F5F5F5F5F5F5F5F5F5F5F5F5F5F5F5F5F5F5F5F5F5F5F5F5F5F5F5F5F5F5F5F5F5F5F5F5F5F5F5F5F5F5F5F5F5F5F5F5F5F5F5F5F5F5F5F5F5F5F5F5F5F5F5F5F5F5F5F5F5F5
310
F5F5F5F5F5F5F5F5F5F5F5F5F5F5F5F5F5F5F5F5F5F5F5F5F5F5F5F5F5F5F5F5F5F5F5F5F5F5F5F5F5F5F5F5F5F5F5F5F5F5F5F5F5E2F5E2E2E2F5E2F5F5F5F5F5F5F5F5F5F5F5F5F5F5F5F5F5F5F5F5F5F5F5F5F5F5F5F5F5F5F5F5F5F5F5F5F5F5F5F5F5F5F5F5F5F5F5F5F5F5F5F5F5F5F5F5F5F5F5F5F5F5F5F5F5F5F5
310
F5F5F5F5F5F5F5F5F5F5F5F5F5F5F5F5F5F5F5F5F5F5F5F5F5F5F5F5F5F5F5F5F5F5F5F5F5F5F5F5F5F5F5F5F5F5F5F5F5F5F5F5F5F5F5F5F5F5F5F5F5F5F5F5F5F5F5F5F5F5F5F5F5F5F5F5F5F5F5F5F5F5F5F5F5F5F5F5F5F5F5F5F5F5F5F5F5F5F5F5F5F5F5F5F5F5E2F5E2E2E2F5E2F5F5F5F5F5F5F5F5F5F5F5F5F5F5
310
F5F5F5F5F5F5F5F5F5F5F5F5F5F5F5F5F5F5F5F5F5F5F5F5F5F5F5F5F5F5F5F5F5F5F5F5F5F5F5F5F5F5F5F5F5F5F5F5F5F5F5F5F5F5F5F5F5F5F5F5F5F5F5F5F5F5F5F5F5F5F5F5F5F5F5F5F5F5F5F5F5F5F5F5F5F5F5F5F5F5F5F5F5F5F5F5F5F5F5F5F5F5F5F5F5F5F5F5F5F5F5F5F5F5F5F5F5F5F5F5F5F5F5F5F5F5F5
310
F5F5F5F5F5F5F5F5F5F5F5F5F5F5F5F5F5F5F5F5F5F5F5F5F5F5F5F5F5F5F5F5E2F5E2E2E2F5E2F5F5F5F5F5F5F5F5F5F5F5F5F5F5F5F5F5F5F5F5F5F5F5F5F5F5F5F5F5F5F5F5F5F5F5F5F5F5F5F5F5F5F5F5F5F5F5F5F5F5F5F5F5F5F5F5F5F5F5F5F5F5F5F5F5F5F5F5F5F5F5F5F5F5F5F5F5F5F5F5F5F5F5F5F5F5F5F5
310
F5F5F5F5F5F5F5F5F5F5F5F5F5F5F5F5F5F5F5F5F5F5F5F5F5F5F5F5F5F5F5F5F5F5F5F5F5F5F5F5F5F5F5F5F5F5F5F5F5F5F5F5F5F5F5F5F5F5F5F5F5F5F5F5F5F5F5F5F5F5F5F5F5F5F5F5F5F5F5F5F5F5F5F5F5E2F5E2E2E2F5E2F5F5F5F5F5F5F5F5F5F5F5F5F5F5F5F5F5F5F5F5F5F5F5F5F5F5F5F5F5F5F5F5F5F5F5
310
F5F5F5F5F5F5F5F5F5F5F5F5F5F5F5F5F5F5F5F5F5F5F5F5F5F5F5F5F5F5F5F5F5F5F5F5F5F5F5F5F5F5F5F5F5F5F5F5F5F5F5F5F5F5F5F5F5F5F5F5F5F5F5F5F5F5F5F5F5F5F5F5F5F5F5F5F5F5F5F5F5F5F5F5F5F5F5F5F5F5F5F5F5F5F5F5F5F5F5F5F5F5F5F5F5F5F5F5F5F5F5F5F5F5F5F5F5F5F5F5F5F5F5F5F5F5F5
310
F5F5F5F5F5F5F5F5F5F5F5E2F5E2E2E2F5E2F5F5F5F5F5F5F5F5F5F5F5F5F5F5F5F5F5F5F5F5F5F5F5F5F5F5F5F5F5F5F5F5F5F5F5F5F5F5F5F5F5F5F5F5F5F5F5F5F5F5F5F5F5F5F5F5F5F5F5F5F5F5F5F5F5F5F5F5F5F5F5F5F5F5F5F5F5F5F5F5F5F5F5F5F5F5F5F5F5F5F5F5F5F5F5F5F5F5F5F5F5F5F5F5F5F5F5F5F5
310
F5F5F5F5F5F5F5F5F5F5F5F5F5F5F5F5F5F5F5F5F5F5F5F5F5F5F5F5F5F5F5F5F5F5F5F5F5F5F5F5F5F5F5F5F5F5F5F5F5F5F5F5F5F5F5F5F5F5F5F5F5F5F5F5E2F5E2E2E2F5E2F5F5F5F5F5F5F5F5F5F5F5F5F5F5F5F5F5F5F5F5F5F5F5F5F5F5F5F5F5F5F5F5F5F5F5F5F5F5F5F5F5F5F5F5F5F5F5F5F5F5F5F5F5F5F5F5
310
F5F5F5F5F5F5F5F5F5F5F5F5F5F5F5F5F5F5F5F5F5F5F5F5F5F5F5F5F5F5F5F5F5F5F5F5F5F5F5F5F5F5F5F5F5F5F5F5F5F5F5F5F5F5F5F5F5F5F5F5F5F5F5F5F5F5F5F5F5F5F5F5F5F5F5F5F5F5F5F5F5F5F5F5F5F5F5F5F5F5F5F5F5F5F5F5F5F5F5F5F5F5F5F5F5F5F5F5F5F5F5F5F5F5F5F5F5E2F5E2E2E2F5E2F5F5F5
310
F5F5F5F5F5F5F5F5F5F5F5F5F5F5F5F5F5F5F5F5F5F5F5F5F5F5F5F5F5F5F5F5F5F5F5F5F5F5F5F5F5F5F5F5F5F5F5F5F5F5F5F5F5F5F5F5F5F5F5F5F5F5F5F5F5F5F5F5F5F5F5F5F5F5F5F5F5F5F5F5F5F5F5F5F5F5F5F5F5F5F5F5F5F5F5F5F5F5F5F5F5F5F5F5F5F5F5F5F5F5F5F5F5F5F5F5F5F5F5F5F5F5F5F5F5F5F5
310
F5F5F5F5F5F5F5F5F5F5F5F5F5F5F5F5F5F5F5F5F5F5F5F5F5F5F5F5F5F5F5F5F5F5F5F5F5F5F5F5F5F5F5E2F5E2E2E2F5E2F5F5F5F5F5F5F5F5F5F5F5F5F5F5F5F5F5F5F5F5F5F5F5F5F5F5F5F5F5F5F5F5F5F5F5F5F5F5F5F5F5F5F5F5F5F5F5F5F5F5F5F5F5F5F5F5F5F5F5F5F5F5F5F5F5F5F5F5F5F5F5F5F5F5F5F5F5
310
F5F5F5F5F5F5F5F5F5F5F5F5F5F5F5F5F5F5F5F5F5F5F5F5F5F5F5F5F5F5F5F5F5F5F5F5F5F5F5F5F5F5F5F5F5F5F5F5F5F5F5F5F5F5F5F5F5F5F5F5F5F5F5F5F5F5F5F5F5F5F5F5F5F5F5F5F5F5F5F5F5F5F5F5F5F5F5F5F5F5F5F5F5F5F5F5E2F5E2E2E2F5E2F5F5F5F5F5F5F5F5F5F5F5F5F5F5F5F5F5F5F5F5F5F5F5F5
310
F5F5F5F5F5F5F5F5F5F5F5F5F5F5F5F5F5F5F5F5F5F5F5F5F5F5F5F5F5F5F5F5F5F5F5F5F5F5F5F5F5F5F5F5F5F5F5F5F5F5F5F5F5F5F5F5F5F5F5F5F5F5F5F5F5F5F5F5F5F5F5F5F5F5F5F5F5F5F5F5F5F5F5F5F5F5F5F5F5F5F5F5F5F5F5F5F5F5F5F5F5F5F5F5F5F5F5F5F5F5F5F5F5F5F5F5F5F5F5F5F5F5F5F5F5F5F5
310
F5F5F5F5F5F5F5F5F5F5F5F5F5F5F5F5F5F5F5F5F5F5E2F5E2E2E2F5E2F5F5F5F5F5F5F5F5F5F5F5F5F5F5F5F5F5F5F5F5F5F5F5F5F5F5F5F5F5F5F5F5F5F5F5F5F5F5F5F5F5F5F5F5F5F5F5F5F5F5F5F5F5F5F5F5F5F5F5F5F5F5F5F5F5F5F5F5F5F5F5F5F5F5F5F5F5F5F5F5F5F5F5F5F5F5F5F5F5F5F5F5F5F5F5F5F5F5
310
F5F5F5F5F5F5F5F5F5F5F5F5F5F5F5F5F5F5F5F5F5F5F5F5F5F5F5F5F5F5F5F5F5F5F5F5F5F5F5F5F5F5F5F5F5F5F5F5F5F5F5F5F5F5F5F5F5F5F5F5F5F5F5F5F5F5F5F5F5F5F5F5F5F5F5E2F5E2E2E2F5E2F5F5F5F5F5F5F5F5F5F5F5F5F5F5F5F5F5F5F5F5F5F5F5F5F5F5F5F5F5F5F5F5F5F5F5F5F5F5F5F5F5F5F5F5F5
310
F5F5F5F5F5F5F5F5F5F5F5F5F5F5F5F5F5F5F5F5F5F5F5F5F5F5F5F5F5F5F5F5F5F5F5F5F5F5F5F5F5F5F5F5F5F5F5F5F5F5F5F5F5F5F5F5F5F5F5F5F5F5F5F5F5F5F5F5F5F5F5F5F5F5F5F5F5F5F5F5F5F5F5F5F5F5F5F5F5F5F5F5F5F5F5F5F5F5F5F5F5F5F5F5F5F5F5F5F5F5F5F5F5F5F5F5F5F5F5F5F5F5F5F5F5F5F5
310
F5E2F5E2E2E2F5E2F5F5F5F5F5F5F5F5F5F5F5F5F5F5F5F5F5F5F5F5F5F5F5F5F5F5F5F5F5F5F5F5F5F5F5F5F5F5F5F5F5F5F5F5F5F5F5F5F5F5F5F5F5F5F5F5F5F5F5F5F5F5F5F5F5F5F5F5F5F5F5F5F5F5F5F5F5F5F5F5F5F5F5F5F5F5F5F5F5F5F5F5F5F5F5F5F5F5F5F5F5F5F5F5F5F5F5F5F5F5F5F5F5F5F5F5F5F5F5
310
F5F5F5F5F5F5F5F5F5F5F5F5F5F5F5F5F5F5F5F5F5F5F5F5F5F5F5F5F5F5F5F5F5F5F5F5F5F5F5F5F5F5F5F5F5F5F5F5F5F5F5F5F5F5E2F5E2E2E2F5E2F5F5F5F5F5F5F5F5F5F5F5F5F5F5F5F5F5F5F5F5F5F5F5F5F5F5F5F5F5F5F5F5F5F5F5F5F5F5F5F5F5F5F5F5F5F5F5F5F5F5F5F5F5F5F5F5F5F5F5F5F5F5F5F5F5F5
310
F5F5F5F5F5F5F5F5F5F5F5F5F5F5F5F5F5F5F5F5F5F5F5F5F5F5F5F5F5F5F5F5F5F5F5F5F5F5F5F5F5F5F5F5F5F5F5F5F5F5F5F5F5F5F5F5F5F5F5F5F5F5F5F5F5F5F5F5F5F5F5F5F5F5F5F5F5F5F5F5F5F5F5F5F5F5F5F5F5F5F5F5F5F5F5F5F5F5F5F5F5F5F5F5F5F5F5E2F5E2E2E2F5E2F5F5F5F5F5F5F5F5F5F5F5F5F5
310
F5F5F5F5F5F5F5F5F5F5F5F5F5F5F5F5F5F5F5F5F5F5F5F5F5F5F5F5F5F5F5F5F5F5F5F5F5F5F5F5F5F5F5F5F5F5F5F5F5F5F5F5F5F5F5F5F5F5F5F5F5F5F5F5F5F5F5F5F5F5F5F5F5F5F5F5F5F5F5F5F5F5F5F5F5F5F5F5F5F5F5F5F5F5F5F5F5F5F5F5F5F5F5F5F5F5F5F5F5F5F5F5F5F5F5F5F5F5F5F5F5F5F5F5F5F5F5
310
F5F5F5F5F5F5F5F5F5F5F5F5F5F5F5F5F5F5F5F5F5F5F5F5F5F5F5F5F5F5F5F5F5E2F5E2E2E2F5E2F5F5F5F5F5F5F5F5F5F5F5F5F5F5F5F5F5F5F5F5F5F5F5F5F5F5F5F5F5F5F5F5F5F5F5F5F5F5F5F5F5F5F5F5F5F5F5F5F5F5F5F5F5F5F5F5F5F5F5F5F5F5F5F5F5F5F5F5F5F5F5F5F5F5F5F5F5F5F5F5F5F5F5F5F5F5F5
310
F5F5F5F5F5F5F5F5F5F5F5F5F5F5F5F5F5F5F5F5F5F5F5F5F5F5F5F5F5F5F5F5F5F5F5F5F5F5F5F5F5F5F5F5F5F5F5F5F5F5F5F5F5F5F5F5F5F5F5F5F5F5F5F5F5F5F5F5F5F5F5F5F5F5F5F5F5F5F5F5F5F5F5F5F5F5E2F5E2E2E2F5E2F5F5F5F5F5F5F5F5F5F5F5F5F5F5F5F5F5F5F5F5F5F5F5F5F5F5F5F5F5F5F5F5F5F5
310
F5F5F5F5F5F5F5F5F5F5F5F5F5F5F5F5F5F5F5F5F5F5F5F5F5F5F5F5F5F5F5F5F5F5F5F5F5F5F5F5F5F5F5F5F5F5F5F5F5F5F5F5F5F5F5F5F5F5F5F5F5F5F5F5F5F5F5F5F5F5F5F5F5F5F5F5F5F5F5F5F5F5F5F5F5F5F5F5F5F5F5F5F5F5F5F5F5F5F5F5F5F5F5F5F5F5F5F5F5F5F5F5F5F5F5F5F5F5F5F5F5F5F5F5F5F5F5
310
F5F5F5F5F5F5F5F5F5F5F5F5E2F5E2E2E2F5E2E2E2E2E2E2E2E2E2E2E2E2E2E2E2E2E2E2E2E2E2E2E2E2E2E2E2E2E2E2E2E2E2E2E2E2E2E2E2E2E2E2E2E2E2E2E2E2E2E2E2E2E2E2E2E2E2E2E2E2E2E2E2E2E2E2E2E2E2E2E2E2E2E2E2E2E2E2E2E2E2E2E2E2E2E2E2E2E2E2E2E2E2E2E2E2E2E2E2E2E2E2E2E2E2E2E2E2E2
310
E2E2E2E2E2E2E2E2E2E2E2E2E2E2E2E2E2E2E2E2E2E2E2E2E2E2E2E2E2E2E2E2E2E2E2E2E2E2E2E2E2E2E2E2E2E2E2E2E2E2E2E2E2E2E2E2E2E2E2E2E2E2E2E2E2E2F5E2E2E2F5F5F5F5F5F5F5F5F5F5F5F5F5F5F5F5F5F5F5F5F5F5F5F5F5F5F5F5F5F5F5F5F5F5F5F5F5F5F5F5F5F5F5F5F5F5F5F5F5F5F5F5F5F5F5F5F5
310
F5F5F5F5F5F5F5F5F5F5F5F5F5F5F5F5F5F5F5F5F5F5F5F5F5F5F5F5F5F5F5F5F5F5F5F5F5F5F5F5F5F5F5F5F5F5F5F5F5F5F5F5F5F5F5F5F5F5F5F5F5F5F5F5F5F5F5F5F5F5F5F5F5F5F5F5F5F5F5F5F5F5F5F5F5F5F5F5F5F5F5F5F5F5F5F5F5F5F5F5F5F5F5F5F5F5F5F5F5F5F5F5F5F5F5F5F5F5F5F5E2EFE2E2E2E2E2
310
E2E2E2E2E2E2E2E2E2E2E2E2E2E2E2E2E2E2E2E2E2E2E2E2E2E2E2E2E2E2E2E2E2E2E2E2E2E2E2E2E2E2E2E2E2E2E2E2E2E2E2E2E2E2E2E2E2E2E2E2E2E2E2E2E2E2E2E2E2E2E2E2E2E2E2E2E2E2E2E2E2E2E2E2E2E2E2E2E2E2E2E2E2E2E2E2E2E2E2E2E2E2E2E2E2E2E2E2E2E2E2E2E2E2E2E2E2E2E2E2E2E2E2E2E2E2E2
310
E2E2E2E2E2E2E2E2E2E2E2E2E2E2E2E2E2E2E2E2E2E2E2E2E2E2E2E2E2E2E2E2E2E2E2E2E2E2E2E2E2E2E2E2E2E2E2EF
  0
XRECORD
  5
1DBB
102
{ACAD_REACTORS
330
1DBA
102
}
330
1DBA
100
AcDbXrecord
280
     1
102
MATERIAL
148
0.0
149
0.0
149
0.0
 93
        0
 94
      127
282
     0
 72
     1
 77
     1
171
     1
175
     1
179
     1
273
     0
  0
XRECORD
  5
1DB9
102
{ACAD_REACTORS
330
1DB8
102
}
330
1DB8
100
AcDbXrecord
280
     1
102
MATERIAL
148
0.0
149
0.0
149
0.0
 93
        0
 94
      127
282
     0
 72
     1
 77
     1
171
     1
175
     1
179
     1
273
     0
  0
XRECORD
  5
1DBD
102
{ACAD_REACTORS
330
1DBC
102
}
330
1DBC
100
AcDbXrecord
280
     1
102
MATERIAL
148
0.0
149
0.0
149
0.0
 93
        0
 94
      127
282
     0
 72
     1
 77
     1
171
     1
175
     1
179
     1
273
     0
  0
CELLSTYLEMAP
  5
1DB7
102
{ACAD_REACTORS
330
1DA6
102
}
330
1DA6
100
AcDbCellStyleMap
 90
        3
300
CELLSTYLE
  1
TABLEFORMAT_BEGIN
 90
        5
170
     1
 91
        0
 92
    32768
 62
   257
 93
        1
300
CONTENTFORMAT
  1
CONTENTFORMAT_BEGIN
 90
        0
 91
        0
 92
      512
 93
        0
300

 40
0.0
140
1.0
 94
        5
 62
     0
340
11
144
0.25
309
CONTENTFORMAT_END
171
     0
 94
        6
 95
        1
302
GRIDFORMAT
  1
GRIDFORMAT_BEGIN
 90
        0
 91
        1
 62
     0
 92
       -2
340
0
 93
        0
 40
0.045
309
GRIDFORMAT_END
 95
        2
302
GRIDFORMAT
  1
GRIDFORMAT_BEGIN
 90
        0
 91
        1
 62
     0
 92
       -2
340
0
 93
        0
 40
0.045
309
GRIDFORMAT_END
 95
        4
302
GRIDFORMAT
  1
GRIDFORMAT_BEGIN
 90
        0
 91
        1
 62
     0
 92
       -2
340
0
 93
        0
 40
0.045
309
GRIDFORMAT_END
 95
        8
302
GRIDFORMAT
  1
GRIDFORMAT_BEGIN
 90
        0
 91
        1
 62
     0
 92
       -2
340
0
 93
        0
 40
0.045
309
GRIDFORMAT_END
 95
       16
302
GRIDFORMAT
  1
GRIDFORMAT_BEGIN
 90
        0
 91
        1
 62
     0
 92
       -2
340
0
 93
        0
 40
0.045
309
GRIDFORMAT_END
 95
       32
302
GRIDFORMAT
  1
GRIDFORMAT_BEGIN
 90
        0
 91
        1
 62
     0
 92
       -2
340
0
 93
        0
 40
0.045
309
GRIDFORMAT_END
309
TABLEFORMAT_END
  1
CELLSTYLE_BEGIN
 90
        1
 91
        1
300
_TITLE
309
CELLSTYLE_END
300
CELLSTYLE
  1
TABLEFORMAT_BEGIN
 90
        5
170
     1
 91
        0
 92
        0
 62
   257
 93
        1
300
CONTENTFORMAT
  1
CONTENTFORMAT_BEGIN
 90
        0
 91
        0
 92
      512
 93
        0
300

 40
0.0
140
1.0
 94
        5
 62
     0
340
11
144
0.18
309
CONTENTFORMAT_END
171
     0
 94
        6
 95
        1
302
GRIDFORMAT
  1
GRIDFORMAT_BEGIN
 90
        0
 91
        1
 62
     0
 92
       -2
340
0
 93
        0
 40
0.045
309
GRIDFORMAT_END
 95
        2
302
GRIDFORMAT
  1
GRIDFORMAT_BEGIN
 90
        0
 91
        1
 62
     0
 92
       -2
340
0
 93
        0
 40
0.045
309
GRIDFORMAT_END
 95
        4
302
GRIDFORMAT
  1
GRIDFORMAT_BEGIN
 90
        0
 91
        1
 62
     0
 92
       -2
340
0
 93
        0
 40
0.045
309
GRIDFORMAT_END
 95
        8
302
GRIDFORMAT
  1
GRIDFORMAT_BEGIN
 90
        0
 91
        1
 62
     0
 92
       -2
340
0
 93
        0
 40
0.045
309
GRIDFORMAT_END
 95
       16
302
GRIDFORMAT
  1
GRIDFORMAT_BEGIN
 90
        0
 91
        1
 62
     0
 92
       -2
340
0
 93
        0
 40
0.045
309
GRIDFORMAT_END
 95
       32
302
GRIDFORMAT
  1
GRIDFORMAT_BEGIN
 90
        0
 91
        1
 62
     0
 92
       -2
340
0
 93
        0
 40
0.045
309
GRIDFORMAT_END
309
TABLEFORMAT_END
  1
CELLSTYLE_BEGIN
 90
        2
 91
        1
300
_HEADER
309
CELLSTYLE_END
300
CELLSTYLE
  1
TABLEFORMAT_BEGIN
 90
        5
170
     1
 91
        0
 92
        0
 62
   257
 93
        1
300
CONTENTFORMAT
  1
CONTENTFORMAT_BEGIN
 90
        0
 91
        0
 92
      512
 93
        0
300

 40
0.0
140
1.0
 94
        2
 62
     0
340
11
144
0.18
309
CONTENTFORMAT_END
171
     0
 94
        6
 95
        1
302
GRIDFORMAT
  1
GRIDFORMAT_BEGIN
 90
        0
 91
        1
 62
     0
 92
       -2
340
0
 93
        0
 40
0.045
309
GRIDFORMAT_END
 95
        2
302
GRIDFORMAT
  1
GRIDFORMAT_BEGIN
 90
        0
 91
        1
 62
     0
 92
       -2
340
0
 93
        0
 40
0.045
309
GRIDFORMAT_END
 95
        4
302
GRIDFORMAT
  1
GRIDFORMAT_BEGIN
 90
        0
 91
        1
 62
     0
 92
       -2
340
0
 93
        0
 40
0.045
309
GRIDFORMAT_END
 95
        8
302
GRIDFORMAT
  1
GRIDFORMAT_BEGIN
 90
        0
 91
        1
 62
     0
 92
       -2
340
0
 93
        0
 40
0.045
309
GRIDFORMAT_END
 95
       16
302
GRIDFORMAT
  1
GRIDFORMAT_BEGIN
 90
        0
 91
        1
 62
     0
 92
       -2
340
0
 93
        0
 40
0.045
309
GRIDFORMAT_END
 95
       32
302
GRIDFORMAT
  1
GRIDFORMAT_BEGIN
 90
        0
 91
        1
 62
     0
 92
       -2
340
0
 93
        0
 40
0.045
309
GRIDFORMAT_END
309
TABLEFORMAT_END
  1
CELLSTYLE_BEGIN
 90
        3
 91
        2
300
_DATA
309
CELLSTYLE_END
  0
XRECORD
  5
1DBE
102
{ACAD_REACTORS
330
1DA6
102
}
330
1DA6
100
AcDbXrecord
280
     1
102
ACAD_ROUNDTRIP_PRE2007_TABLESTYLE
 90
      512
 91
        0
  1

 92
      512
 93
        0
  2

 94
      512
 95
        0
  3

  0
XRECORD
  5
49B
102
{ACAD_REACTORS
330
49A
102
}
330
49A
100
AcDbXrecord
280
     1
102
RTVSPropertyOp0
 70
     1
102
RTVSPropertyOp1
 70
     1
102
RTVSPropertyOp2
 70
     1
102
RTVSPropertyOp3
 70
     1
102
RTVSPropertyOp4
 70
     1
102
RTVSPropertyOp5
 70
     1
102
RTVSPropertyOp6
 70
     1
102
RTVSPropertyOp7
 70
     1
102
RTVSPropertyOp8
 70
     1
102
RTVSPropertyOp9
 70
     1
102
RTVSPropertyOp10
 70
     1
102
RTVSPropertyOp11
 70
     1
102
RTVSPropertyOp12
 70
     1
102
RTVSPropertyOp13
 70
     1
102
RTVSPropertyOp14
 70
     1
102
RTVSPropertyOp15
 70
     1
102
RTVSPropertyOp16
 70
     1
102
RTVSPropertyOp17
 70
     1
102
RTVSPropertyOp18
 70
     1
102
RTVSPropertyOp19
 70
     1
102
RTVSPropertyOp20
 70
     1
102
RTVSPropertyOp21
 70
     1
102
RTVSPropertyOp22
 70
     1
102
RTVSPropertyOp23
 70
     1
102
RTVSPropertyOp24
 70
     1
102
RTVSPropertyOp25
 70
     1
102
RTVSPropertyOp26
 70
     1
102
RTVSPropertyOp27
 70
     1
  0
XRECORD
  5
4A1
102
{ACAD_REACTORS
330
4A0
102
}
330
4A0
100
AcDbXrecord
280
     1
102
RTVSPropertyOp0
 70
     1
102
RTVSPropertyOp1
 70
     1
102
RTVSPropertyOp2
 70
     1
102
RTVSPropertyOp3
 70
     1
102
RTVSPropertyOp4
 70
     1
102
RTVSPropertyOp5
 70
     1
102
RTVSPropertyOp6
 70
     1
102
RTVSPropertyOp7
 70
     1
102
RTVSPropertyOp8
 70
     1
102
RTVSPropertyOp9
 70
     1
102
RTVSPropertyOp10
 70
     1
102
RTVSPropertyOp11
 70
     1
102
RTVSPropertyOp12
 70
     1
102
RTVSPropertyOp13
 70
     1
102
RTVSPropertyOp14
 70
     1
102
RTVSPropertyOp15
 70
     1
102
RTVSPropertyOp16
 70
     1
102
RTVSPropertyOp17
 70
     1
102
RTVSPropertyOp18
 70
     1
102
RTVSPropertyOp19
 70
     1
102
RTVSPropertyOp20
 70
     1
102
RTVSPropertyOp21
 70
     1
102
RTVSPropertyOp22
 70
     1
102
RTVSPropertyOp23
 70
     1
102
RTVSPropertyOp24
 70
     1
102
RTVSPropertyOp25
 70
     1
102
RTVSPropertyOp26
 70
     1
102
RTVSPropertyOp27
 70
     1
  0
XRECORD
  5
4A9
102
{ACAD_REACTORS
330
4A8
102
}
330
4A8
100
AcDbXrecord
280
     1
102
RTVSPropertyOp0
 70
     1
102
RTVSPropertyOp1
 70
     1
102
RTVSPropertyOp2
 70
     1
102
RTVSPropertyOp3
 70
     1
102
RTVSPropertyOp4
 70
     1
102
RTVSPropertyOp5
 70
     1
102
RTVSPropertyOp6
 70
     1
102
RTVSPropertyOp7
 70
     1
102
RTVSPropertyOp8
 70
     1
102
RTVSPropertyOp9
 70
     1
102
RTVSPropertyOp10
 70
     1
102
RTVSPropertyOp11
 70
     1
102
RTVSPropertyOp12
 70
     1
102
RTVSPropertyOp13
 70
     1
102
RTVSPropertyOp14
 70
     1
102
RTVSPropertyOp15
 70
     1
102
RTVSPropertyOp16
 70
     1
102
RTVSPropertyOp17
 70
     1
102
RTVSPropertyOp18
 70
     1
102
RTVSPropertyOp19
 70
     1
102
RTVSPropertyOp20
 70
     1
102
RTVSPropertyOp21
 70
     1
102
RTVSPropertyOp22
 70
     1
102
RTVSPropertyOp23
 70
     1
102
RTVSPropertyOp24
 70
     1
102
RTVSPropertyOp25
 70
     1
102
RTVSPropertyOp26
 70
     1
102
RTVSPropertyOp27
 70
     1
  0
XRECORD
  5
4B1
102
{ACAD_REACTORS
330
4B0
102
}
330
4B0
100
AcDbXrecord
280
     1
102
RTVSPropertyOp0
 70
     1
102
RTVSPropertyOp1
 70
     1
102
RTVSPropertyOp2
 70
     1
102
RTVSPropertyOp3
 70
     1
102
RTVSPropertyOp4
 70
     1
102
RTVSPropertyOp5
 70
     1
102
RTVSPropertyOp6
 70
     1
102
RTVSPropertyOp7
 70
     1
102
RTVSPropertyOp8
 70
     1
102
RTVSPropertyOp9
 70
     1
102
RTVSPropertyOp10
 70
     1
102
RTVSPropertyOp11
 70
     1
102
RTVSPropertyOp12
 70
     1
102
RTVSPropertyOp13
 70
     1
102
RTVSPropertyOp14
 70
     1
102
RTVSPropertyOp15
 70
     1
102
RTVSPropertyOp16
 70
     1
102
RTVSPropertyOp17
 70
     1
102
RTVSPropertyOp18
 70
     1
102
RTVSPropertyOp19
 70
     1
102
RTVSPropertyOp20
 70
     1
102
RTVSPropertyOp21
 70
     1
102
RTVSPropertyOp22
 70
     1
102
RTVSPropertyOp23
 70
     1
102
RTVSPropertyOp24
 70
     1
102
RTVSPropertyOp25
 70
     1
102
RTVSPropertyOp26
 70
     1
102
RTVSPropertyOp27
 70
     1
  0
XRECORD
  5
4A7
102
{ACAD_REACTORS
330
4A6
102
}
330
4A6
100
AcDbXrecord
280
     1
102
RTVSPropertyOp0
 70
     1
102
RTVSPropertyOp1
 70
     1
102
RTVSPropertyOp2
 70
     1
102
RTVSPropertyOp3
 70
     1
102
RTVSPropertyOp4
 70
     1
102
RTVSPropertyOp5
 70
     1
102
RTVSPropertyOp6
 70
     1
102
RTVSPropertyOp7
 70
     1
102
RTVSPropertyOp8
 70
     1
102
RTVSPropertyOp9
 70
     1
102
RTVSPropertyOp10
 70
     1
102
RTVSPropertyOp11
 70
     1
102
RTVSPropertyOp12
 70
     1
102
RTVSPropertyOp13
 70
     1
102
RTVSPropertyOp14
 70
     1
102
RTVSPropertyOp15
 70
     1
102
RTVSPropertyOp16
 70
     1
102
RTVSPropertyOp17
 70
     1
102
RTVSPropertyOp18
 70
     1
102
RTVSPropertyOp19
 70
     1
102
RTVSPropertyOp20
 70
     1
102
RTVSPropertyOp21
 70
     1
102
RTVSPropertyOp22
 70
     1
102
RTVSPropertyOp23
 70
     1
102
RTVSPropertyOp24
 70
     1
102
RTVSPropertyOp25
 70
     1
102
RTVSPropertyOp26
 70
     1
102
RTVSPropertyOp27
 70
     1
  0
XRECORD
  5
4AF
102
{ACAD_REACTORS
330
4AE
102
}
330
4AE
100
AcDbXrecord
280
     1
102
RTVSPropertyOp0
 70
     1
102
RTVSPropertyOp1
 70
     1
102
RTVSPropertyOp2
 70
     1
102
RTVSPropertyOp3
 70
     1
102
RTVSPropertyOp4
 70
     1
102
RTVSPropertyOp5
 70
     1
102
RTVSPropertyOp6
 70
     1
102
RTVSPropertyOp7
 70
     1
102
RTVSPropertyOp8
 70
     1
102
RTVSPropertyOp9
 70
     1
102
RTVSPropertyOp10
 70
     1
102
RTVSPropertyOp11
 70
     1
102
RTVSPropertyOp12
 70
     1
102
RTVSPropertyOp13
 70
     1
102
RTVSPropertyOp14
 70
     1
102
RTVSPropertyOp15
 70
     1
102
RTVSPropertyOp16
 70
     1
102
RTVSPropertyOp17
 70
     1
102
RTVSPropertyOp18
 70
     1
102
RTVSPropertyOp19
 70
     1
102
RTVSPropertyOp20
 70
     1
102
RTVSPropertyOp21
 70
     1
102
RTVSPropertyOp22
 70
     1
102
RTVSPropertyOp23
 70
     1
102
RTVSPropertyOp24
 70
     1
102
RTVSPropertyOp25
 70
     1
102
RTVSPropertyOp26
 70
     1
102
RTVSPropertyOp27
 70
     1
  0
XRECORD
  5
493
102
{ACAD_REACTORS
330
492
102
}
330
492
100
AcDbXrecord
280
     1
102
RTVSPropertyOp0
 70
     1
102
RTVSPropertyOp1
 70
     1
102
RTVSPropertyOp2
 70
     1
102
RTVSPropertyOp3
 70
     1
102
RTVSPropertyOp4
 70
     1
102
RTVSPropertyOp5
 70
     1
102
RTVSPropertyOp6
 70
     1
102
RTVSPropertyOp7
 70
     1
102
RTVSPropertyOp8
 70
     1
102
RTVSPropertyOp9
 70
     1
102
RTVSPropertyOp10
 70
     1
102
RTVSPropertyOp11
 70
     1
102
RTVSPropertyOp12
 70
     1
102
RTVSPropertyOp13
 70
     1
102
RTVSPropertyOp14
 70
     1
102
RTVSPropertyOp15
 70
     1
102
RTVSPropertyOp16
 70
     1
102
RTVSPropertyOp17
 70
     1
102
RTVSPropertyOp18
 70
     1
102
RTVSPropertyOp19
 70
     1
102
RTVSPropertyOp20
 70
     1
102
RTVSPropertyOp21
 70
     1
102
RTVSPropertyOp22
 70
     1
102
RTVSPropertyOp23
 70
     1
102
RTVSPropertyOp24
 70
     1
102
RTVSPropertyOp25
 70
     1
102
RTVSPropertyOp26
 70
     1
102
RTVSPropertyOp27
 70
     1
  0
XRECORD
  5
495
102
{ACAD_REACTORS
330
494
102
}
330
494
100
AcDbXrecord
280
     1
102
RTVSPropertyOp0
 70
     1
102
RTVSPropertyOp1
 70
     1
102
RTVSPropertyOp2
 70
     1
102
RTVSPropertyOp3
 70
     1
102
RTVSPropertyOp4
 70
     1
102
RTVSPropertyOp5
 70
     1
102
RTVSPropertyOp6
 70
     1
102
RTVSPropertyOp7
 70
     1
102
RTVSPropertyOp8
 70
     1
102
RTVSPropertyOp9
 70
     1
102
RTVSPropertyOp10
 70
     1
102
RTVSPropertyOp11
 70
     1
102
RTVSPropertyOp12
 70
     1
102
RTVSPropertyOp13
 70
     1
102
RTVSPropertyOp14
 70
     1
102
RTVSPropertyOp15
 70
     1
102
RTVSPropertyOp16
 70
     1
102
RTVSPropertyOp17
 70
     1
102
RTVSPropertyOp18
 70
     1
102
RTVSPropertyOp19
 70
     1
102
RTVSPropertyOp20
 70
     1
102
RTVSPropertyOp21
 70
     1
102
RTVSPropertyOp22
 70
     1
102
RTVSPropertyOp23
 70
     1
102
RTVSPropertyOp24
 70
     1
102
RTVSPropertyOp25
 70
     1
102
RTVSPropertyOp26
 70
     1
102
RTVSPropertyOp27
 70
     1
  0
XRECORD
  5
497
102
{ACAD_REACTORS
330
496
102
}
330
496
100
AcDbXrecord
280
     1
102
RTVSPropertyOp0
 70
     1
102
RTVSPropertyOp1
 70
     1
102
RTVSPropertyOp2
 70
     1
102
RTVSPropertyOp3
 70
     1
102
RTVSPropertyOp4
 70
     1
102
RTVSPropertyOp5
 70
     1
102
RTVSPropertyOp6
 70
     1
102
RTVSPropertyOp7
 70
     1
102
RTVSPropertyOp8
 70
     1
102
RTVSPropertyOp9
 70
     1
102
RTVSPropertyOp10
 70
     1
102
RTVSPropertyOp11
 70
     1
102
RTVSPropertyOp12
 70
     1
102
RTVSPropertyOp13
 70
     1
102
RTVSPropertyOp14
 70
     1
102
RTVSPropertyOp15
 70
     1
102
RTVSPropertyOp16
 70
     1
102
RTVSPropertyOp17
 70
     1
102
RTVSPropertyOp18
 70
     1
102
RTVSPropertyOp19
 70
     1
102
RTVSPropertyOp20
 70
     1
102
RTVSPropertyOp21
 70
     1
102
RTVSPropertyOp22
 70
     1
102
RTVSPropertyOp23
 70
     1
102
RTVSPropertyOp24
 70
     1
102
RTVSPropertyOp25
 70
     1
102
RTVSPropertyOp26
 70
     1
102
RTVSPropertyOp27
 70
     1
  0
XRECORD
  5
499
102
{ACAD_REACTORS
330
498
102
}
330
498
100
AcDbXrecord
280
     1
102
RTVSPropertyOp0
 70
     1
102
RTVSPropertyOp1
 70
     1
102
RTVSPropertyOp2
 70
     1
102
RTVSPropertyOp3
 70
     1
102
RTVSPropertyOp4
 70
     1
102
RTVSPropertyOp5
 70
     1
102
RTVSPropertyOp6
 70
     1
102
RTVSPropertyOp7
 70
     1
102
RTVSPropertyOp8
 70
     1
102
RTVSPropertyOp9
 70
     1
102
RTVSPropertyOp10
 70
     1
102
RTVSPropertyOp11
 70
     1
102
RTVSPropertyOp12
 70
     1
102
RTVSPropertyOp13
 70
     1
102
RTVSPropertyOp14
 70
     1
102
RTVSPropertyOp15
 70
     1
102
RTVSPropertyOp16
 70
     1
102
RTVSPropertyOp17
 70
     1
102
RTVSPropertyOp18
 70
     1
102
RTVSPropertyOp19
 70
     1
102
RTVSPropertyOp20
 70
     1
102
RTVSPropertyOp21
 70
     1
102
RTVSPropertyOp22
 70
     1
102
RTVSPropertyOp23
 70
     1
102
RTVSPropertyOp24
 70
     1
102
RTVSPropertyOp25
 70
     1
102
RTVSPropertyOp26
 70
     1
102
RTVSPropertyOp27
 70
     1
  0
XRECORD
  5
4AD
102
{ACAD_REACTORS
330
4AC
102
}
330
4AC
100
AcDbXrecord
280
     1
102
RTVSPropertyOp0
 70
     1
102
RTVSPropertyOp1
 70
     1
102
RTVSPropertyOp2
 70
     1
102
RTVSPropertyOp3
 70
     1
102
RTVSPropertyOp4
 70
     1
102
RTVSPropertyOp5
 70
     1
102
RTVSPropertyOp6
 70
     1
102
RTVSPropertyOp7
 70
     1
102
RTVSPropertyOp8
 70
     1
102
RTVSPropertyOp9
 70
     1
102
RTVSPropertyOp10
 70
     1
102
RTVSPropertyOp11
 70
     1
102
RTVSPropertyOp12
 70
     1
102
RTVSPropertyOp13
 70
     1
102
RTVSPropertyOp14
 70
     1
102
RTVSPropertyOp15
 70
     1
102
RTVSPropertyOp16
 70
     1
102
RTVSPropertyOp17
 70
     1
102
RTVSPropertyOp18
 70
     1
102
RTVSPropertyOp19
 70
     1
102
RTVSPropertyOp20
 70
     1
102
RTVSPropertyOp21
 70
     1
102
RTVSPropertyOp22
 70
     1
102
RTVSPropertyOp23
 70
     1
102
RTVSPropertyOp24
 70
     1
102
RTVSPropertyOp25
 70
     1
102
RTVSPropertyOp26
 70
     1
102
RTVSPropertyOp27
 70
     1
  0
XRECORD
  5
4AB
102
{ACAD_REACTORS
330
4AA
102
}
330
4AA
100
AcDbXrecord
280
     1
102
RTVSPropertyOp0
 70
     1
102
RTVSPropertyOp1
 70
     1
102
RTVSPropertyOp2
 70
     1
102
RTVSPropertyOp3
 70
     1
102
RTVSPropertyOp4
 70
     1
102
RTVSPropertyOp5
 70
     1
102
RTVSPropertyOp6
 70
     1
102
RTVSPropertyOp7
 70
     1
102
RTVSPropertyOp8
 70
     1
102
RTVSPropertyOp9
 70
     1
102
RTVSPropertyOp10
 70
     1
102
RTVSPropertyOp11
 70
     1
102
RTVSPropertyOp12
 70
     1
102
RTVSPropertyOp13
 70
     1
102
RTVSPropertyOp14
 70
     1
102
RTVSPropertyOp15
 70
     1
102
RTVSPropertyOp16
 70
     1
102
RTVSPropertyOp17
 70
     1
102
RTVSPropertyOp18
 70
     1
102
RTVSPropertyOp19
 70
     1
102
RTVSPropertyOp20
 70
     1
102
RTVSPropertyOp21
 70
     1
102
RTVSPropertyOp22
 70
     1
102
RTVSPropertyOp23
 70
     1
102
RTVSPropertyOp24
 70
     1
102
RTVSPropertyOp25
 70
     1
102
RTVSPropertyOp26
 70
     1
102
RTVSPropertyOp27
 70
     1
  0
ENDSEC
  0
EOF
