  0
SECTION
  2
HEADER
  9
$ACADVER
  1
AC1018
  9
$ACADMAINTVER
 70
   104
  9
$DWGCODEPAGE
  3
ANSI_1250
  9
$LASTSAVEDBY
  1
bonzo
  9
$INSBASE
 10
0.0
 20
0.0
 30
0.0
  9
$EXTMIN
 10
-2.098479869980252
 20
10.01548629607798
 30
0.0
  9
$EXTMAX
 10
8.910465040238687
 20
21.32102115421554
 30
0.0
  9
$LIMMIN
 10
0.0
 20
0.0
  9
$LIMMAX
 10
12.0
 20
9.0
  9
$ORTHOMODE
 70
     1
  9
$REGENMODE
 70
     1
  9
$FILLMODE
 70
     1
  9
$QTEXTMODE
 70
     0
  9
$MIRRTEXT
 70
     1
  9
$LTSCALE
 40
1.0
  9
$ATTMODE
 70
     1
  9
$TEXTSIZE
 40
0.2
  9
$TRACEWID
 40
0.05
  9
$TEXTSTYLE
  7
Standard
  9
$CLAYER
  8
STREFA BEZPIECZEŃSTWA
  9
$CELTYPE
  6
ByLayer
  9
$CECOLOR
 62
   256
  9
$CELTSCALE
 40
1.0
  9
$DISPSILH
 70
     0
  9
$DIMSCALE
 40
0.02
  9
$DIMASZ
 40
3.0
  9
$DIMEXO
 40
20.0
  9
$DIMDLI
 40
0.0
  9
$DIMRND
 40
0.05
  9
$DIMDLE
 40
0.0
  9
$DIMEXE
 40
5.0
  9
$DIMTP
 40
0.0
  9
$DIMTM
 40
0.0
  9
$DIMTXT
 40
9.0
  9
$DIMCEN
 40
12.0
  9
$DIMTSZ
 40
0.0
  9
$DIMTOL
 70
     0
  9
$DIMLIM
 70
     0
  9
$DIMTIH
 70
     0
  9
$DIMTOH
 70
     0
  9
$DIMSE1
 70
     1
  9
$DIMSE2
 70
     1
  9
$DIMTAD
 70
     1
  9
$DIMZIN
 70
     1
  9
$DIMBLK
  1

  9
$DIMASO
 70
     1
  9
$DIMSHO
 70
     1
  9
$DIMPOST
  1

  9
$DIMAPOST
  1

  9
$DIMALT
 70
     0
  9
$DIMALTD
 70
     4
  9
$DIMALTF
 40
1.0
  9
$DIMLFAC
 40
1.0
  9
$DIMTOFL
 70
     1
  9
$DIMTVP
 40
0.0
  9
$DIMTIX
 70
     1
  9
$DIMSOXD
 70
     0
  9
$DIMSAH
 70
     1
  9
$DIMBLK1
  1
MAR-STRZ
  9
$DIMBLK2
  1
MAR-STRZ
  9
$DIMSTYLE
  2
AR SKALA 1-50
  9
$DIMCLRD
 70
   256
  9
$DIMCLRE
 70
   256
  9
$DIMCLRT
 70
   256
  9
$DIMTFAC
 40
0.01
  9
$DIMGAP
 40
6.0
  9
$DIMJUST
 70
     0
  9
$DIMSD1
 70
     0
  9
$DIMSD2
 70
     0
  9
$DIMTOLJ
 70
     1
  9
$DIMTZIN
 70
     0
  9
$DIMALTZ
 70
     0
  9
$DIMALTTZ
 70
     0
  9
$DIMUPT
 70
     0
  9
$DIMDEC
 70
     2
  9
$DIMTDEC
 70
     2
  9
$DIMALTU
 70
     2
  9
$DIMALTTD
 70
     4
  9
$DIMTXSTY
  7
AR 01 SWIS
  9
$DIMAUNIT
 70
     0
  9
$DIMADEC
 70
     1
  9
$DIMALTRND
 40
0.0
  9
$DIMAZIN
 70
     0
  9
$DIMDSEP
 70
    46
  9
$DIMATFIT
 70
     3
  9
$DIMFRAC
 70
     0
  9
$DIMLDRBLK
  1
MAR-STRZ
  9
$DIMLUNIT
 70
     2
  9
$DIMLWD
 70
    -2
  9
$DIMLWE
 70
    -2
  9
$DIMTMOVE
 70
     2
  9
$LUNITS
 70
     2
  9
$LUPREC
 70
     4
  9
$SKETCHINC
 40
0.1
  9
$FILLETRAD
 40
0.5
  9
$AUNITS
 70
     0
  9
$AUPREC
 70
     0
  9
$MENU
  1
.
  9
$ELEVATION
 40
0.0
  9
$PELEVATION
 40
0.0
  9
$THICKNESS
 40
0.0
  9
$LIMCHECK
 70
     0
  9
$CHAMFERA
 40
0.5
  9
$CHAMFERB
 40
0.5
  9
$CHAMFERC
 40
1.0
  9
$CHAMFERD
 40
0.0
  9
$SKPOLY
 70
     0
  9
$TDCREATE
 40
2455956.499359827
  9
$TDUCREATE
 40
2455956.416026493
  9
$TDUPDATE
 40
2459311.315443380
  9
$TDUUPDATE
 40
2459311.232110046
  9
$TDINDWG
 40
0.2979618171
  9
$TDUSRTIMER
 40
0.2979618171
  9
$USRTIMER
 70
     1
  9
$ANGBASE
 50
0.0
  9
$ANGDIR
 70
     0
  9
$PDMODE
 70
     0
  9
$PDSIZE
 40
0.0
  9
$PLINEWID
 40
0.0
  9
$SPLFRAME
 70
     0
  9
$SPLINETYPE
 70
     6
  9
$SPLINESEGS
 70
     8
  9
$HANDSEED
  5
1D837
  9
$SURFTAB1
 70
     6
  9
$SURFTAB2
 70
     6
  9
$SURFTYPE
 70
     6
  9
$SURFU
 70
     6
  9
$SURFV
 70
     6
  9
$UCSBASE
  2

  9
$UCSNAME
  2

  9
$UCSORG
 10
0.0
 20
0.0
 30
0.0
  9
$UCSXDIR
 10
1.0
 20
0.0
 30
0.0
  9
$UCSYDIR
 10
0.0
 20
1.0
 30
0.0
  9
$UCSORTHOREF
  2

  9
$UCSORTHOVIEW
 70
     0
  9
$UCSORGTOP
 10
0.0
 20
0.0
 30
0.0
  9
$UCSORGBOTTOM
 10
0.0
 20
0.0
 30
0.0
  9
$UCSORGLEFT
 10
0.0
 20
0.0
 30
0.0
  9
$UCSORGRIGHT
 10
0.0
 20
0.0
 30
0.0
  9
$UCSORGFRONT
 10
0.0
 20
0.0
 30
0.0
  9
$UCSORGBACK
 10
0.0
 20
0.0
 30
0.0
  9
$PUCSBASE
  2

  9
$PUCSNAME
  2

  9
$PUCSORG
 10
0.0
 20
0.0
 30
0.0
  9
$PUCSXDIR
 10
1.0
 20
0.0
 30
0.0
  9
$PUCSYDIR
 10
0.0
 20
1.0
 30
0.0
  9
$PUCSORTHOREF
  2

  9
$PUCSORTHOVIEW
 70
     0
  9
$PUCSORGTOP
 10
0.0
 20
0.0
 30
0.0
  9
$PUCSORGBOTTOM
 10
0.0
 20
0.0
 30
0.0
  9
$PUCSORGLEFT
 10
0.0
 20
0.0
 30
0.0
  9
$PUCSORGRIGHT
 10
0.0
 20
0.0
 30
0.0
  9
$PUCSORGFRONT
 10
0.0
 20
0.0
 30
0.0
  9
$PUCSORGBACK
 10
0.0
 20
0.0
 30
0.0
  9
$USERI1
 70
     0
  9
$USERI2
 70
     0
  9
$USERI3
 70
     0
  9
$USERI4
 70
     0
  9
$USERI5
 70
     0
  9
$USERR1
 40
0.0
  9
$USERR2
 40
0.0
  9
$USERR3
 40
0.0
  9
$USERR4
 40
0.0
  9
$USERR5
 40
0.0
  9
$WORLDVIEW
 70
     1
  9
$SHADEDGE
 70
     3
  9
$SHADEDIF
 70
    70
  9
$TILEMODE
 70
     1
  9
$MAXACTVP
 70
    64
  9
$PINSBASE
 10
0.0
 20
0.0
 30
0.0
  9
$PLIMCHECK
 70
     0
  9
$PEXTMIN
 10
6.561544945354853
 20
3.282189374834842
 30
0.0
  9
$PEXTMAX
 10
416.7133315898103
 20
290.5875349075164
 30
0.0
  9
$PLIMMIN
 10
3.386557152386103
 20
0.1071894225185588
  9
$PLIMMAX
 10
423.5448823476986
 20
297.1601984557217
  9
$UNITMODE
 70
     0
  9
$VISRETAIN
 70
     1
  9
$PLINEGEN
 70
     0
  9
$PSLTSCALE
 70
     0
  9
$TREEDEPTH
 70
  3020
  9
$CMLSTYLE
  2
Standard
  9
$CMLJUST
 70
     0
  9
$CMLSCALE
 40
1.0
  9
$PROXYGRAPHICS
 70
     1
  9
$MEASUREMENT
 70
     0
  9
$CELWEIGHT
370
    -1
  9
$ENDCAPS
280
     0
  9
$JOINSTYLE
280
     0
  9
$LWDISPLAY
290
     0
  9
$INSUNITS
 70
     1
  9
$HYPERLINKBASE
  1

  9
$STYLESHEET
  1

  9
$XEDIT
290
     1
  9
$CEPSNTYPE
380
     0
  9
$PSTYLEMODE
290
     1
  9
$FINGERPRINTGUID
  2
{1B330B5B-CE04-4EC8-B886-8C8BFC3A02BF}
  9
$VERSIONGUID
  2
{3302B0DB-3B14-4453-AEDD-8FE1DE5AD9A4}
  9
$EXTNAMES
290
     1
  9
$PSVPSCALE
 40
0.0
  9
$OLESTARTUP
290
     0
  9
$SORTENTS
280
   127
  9
$INDEXCTL
280
     0
  9
$HIDETEXT
280
     1
  9
$XCLIPFRAME
290
     0
  9
$HALOGAP
280
     0
  9
$OBSCOLOR
 70
   257
  9
$OBSLTYPE
280
     0
  9
$INTERSECTIONDISPLAY
280
     0
  9
$INTERSECTIONCOLOR
 70
   257
  9
$DIMASSOC
280
     2
  9
$PROJECTNAME
  1

  0
ENDSEC
  0
SECTION
  2
CLASSES
  0
CLASS
  1
ACDBDICTIONARYWDFLT
  2
AcDbDictionaryWithDefault
  3
ObjectDBX Classes
 90
        0
 91
        1
280
     0
281
     0
  0
CLASS
  1
VISUALSTYLE
  2
AcDbVisualStyle
  3
ObjectDBX Classes
 90
     4095
 91
       16
280
     0
281
     0
  0
CLASS
  1
MATERIAL
  2
AcDbMaterial
  3
ObjectDBX Classes
 90
     1153
 91
        3
280
     0
281
     0
  0
CLASS
  1
DICTIONARYVAR
  2
AcDbDictionaryVar
  3
ObjectDBX Classes
 90
        0
 91
        9
280
     0
281
     0
  0
CLASS
  1
TABLESTYLE
  2
AcDbTableStyle
  3
ObjectDBX Classes
 90
     4095
 91
        1
280
     0
281
     0
  0
CLASS
  1
SORTENTSTABLE
  2
AcDbSortentsTable
  3
ObjectDBX Classes
 90
        0
 91
        2
280
     0
281
     0
  0
CLASS
  1
DIMASSOC
  2
AcDbDimAssoc
  3
"AcDbDimAssoc|Product Desc:     AcDim ARX App For Dimension|Company:          Autodesk, Inc.|WEB Address:      www.autodesk.com"
 90
        0
 91
        2
280
     0
281
     0
  0
CLASS
  1
SCALE
  2
AcDbScale
  3
ObjectDBX Classes
 90
     1153
 91
       33
280
     0
281
     0
  0
CLASS
  1
MLEADERSTYLE
  2
AcDbMLeaderStyle
  3
ACDB_MLEADERSTYLE_CLASS
 90
     4095
 91
        1
280
     0
281
     0
  0
CLASS
  1
CELLSTYLEMAP
  2
AcDbCellStyleMap
  3
ObjectDBX Classes
 90
     1152
 91
        2
280
     0
281
     0
  0
ENDSEC
  0
SECTION
  2
TABLES
  0
TABLE
  2
VPORT
  5
8
102
{ACAD_XDICTIONARY
360
84C
102
}
330
0
100
AcDbSymbolTable
 70
     1
  0
VPORT
  5
29
330
8
100
AcDbSymbolTableRecord
100
AcDbViewportTableRecord
  2
*Active
 70
     0
 10
0.0
 20
0.0
 11
1.0
 21
1.0
 12
5.152011176044297
 22
15.4390275969709
 13
0.0
 23
0.0
 14
0.5
 24
0.5
 15
0.5
 25
0.5
 16
0.0
 26
0.0
 36
1.0
 17
0.0
 27
0.0
 37
-1000.0
 40
13.90407593625535
 41
2.060556464811783
 42
50.0
 43
4.148984367261674
 44
9.217858496371269
 50
0.0
 51
0.0
 71
     0
 72
   100
 73
     1
 74
     3
 75
     0
 76
     0
 77
     0
 78
     0
281
     0
 65
     1
110
0.0
120
0.0
130
0.0
111
1.0
121
0.0
131
0.0
112
0.0
122
1.0
132
0.0
 79
     0
146
0.0
  0
ENDTAB
  0
TABLE
  2
LTYPE
  5
5
330
0
100
AcDbSymbolTable
 70
     2
  0
LTYPE
  5
14
330
5
100
AcDbSymbolTableRecord
100
AcDbLinetypeTableRecord
  2
ByBlock
 70
     0
  3

 72
    65
 73
     0
 40
0.0
  0
LTYPE
  5
15
330
5
100
AcDbSymbolTableRecord
100
AcDbLinetypeTableRecord
  2
ByLayer
 70
     0
  3

 72
    65
 73
     0
 40
0.0
  0
LTYPE
  5
16
330
5
100
AcDbSymbolTableRecord
100
AcDbLinetypeTableRecord
  2
Continuous
 70
     0
  3
Solid line
 72
    65
 73
     0
 40
0.0
  0
LTYPE
  5
886
330
5
100
AcDbSymbolTableRecord
100
AcDbLinetypeTableRecord
  2
DASHED
 70
     0
  3
Dashed __ __ __ __ __ __ __ __ __ __ __ __ __ _
 72
    65
 73
     2
 40
0.75
 49
0.5
 74
     0
 49
-0.25
 74
     0
  0
ENDTAB
  0
TABLE
  2
LAYER
  5
2
102
{ACAD_XDICTIONARY
360
7D1
102
}
330
0
100
AcDbSymbolTable
 70
     4
  0
LAYER
  5
10
102
{ACAD_XDICTIONARY
360
10554
102
}
330
2
100
AcDbSymbolTableRecord
100
AcDbLayerTableRecord
  2
0
 70
     0
 62
     7
  6
Continuous
370
    25
390
F
  0
LAYER
  5
87B
102
{ACAD_XDICTIONARY
360
10556
102
}
330
2
100
AcDbSymbolTableRecord
100
AcDbLayerTableRecord
  2
STREFA BEZPIECZEŃSTWA
 70
     0
 62
     7
  6
DASHED
370
    25
390
F
1001
AcAecLayerStandard
1000

1000

  0
LAYER
  5
87D
102
{ACAD_XDICTIONARY
360
10558
102
}
330
2
100
AcDbSymbolTableRecord
100
AcDbLayerTableRecord
  2
WYMIAR
 70
     0
 62
     7
  6
Continuous
370
    25
390
F
1001
AcAecLayerStandard
1000

1000

  0
LAYER
  5
8CC
330
2
100
AcDbSymbolTableRecord
100
AcDbLayerTableRecord
  2
Defpoints
 70
     0
 62
     7
  6
Continuous
290
     0
370
     5
390
F
1001
RAK
1000
{ACET-LAYISO
1070
     0
1070
     7
1000
Continuous
1071
        5
1071
        0
1005
F
1000
ACET-LAYISO}
  0
ENDTAB
  0
TABLE
  2
STYLE
  5
3
330
0
100
AcDbSymbolTable
 70
     2
  0
STYLE
  5
11
330
3
100
AcDbSymbolTableRecord
100
AcDbTextStyleTableRecord
  2
Standard
 70
     0
 40
0.0
 41
1.0
 50
0.0
 71
     0
 42
0.2
  3
txt
  4

  0
STYLE
  5
8CE
330
3
100
AcDbSymbolTableRecord
100
AcDbTextStyleTableRecord
  2
AR 01 SWIS
 70
     0
 40
0.0
 41
1.0
 50
0.0
 71
     0
 42
55.0
  3

  4

1001
ACAD
1000
Swis721 Cn BT
1071
       34
  0
ENDTAB
  0
TABLE
  2
VIEW
  5
6
330
0
100
AcDbSymbolTable
 70
     0
  0
ENDTAB
  0
TABLE
  2
UCS
  5
7
330
0
100
AcDbSymbolTable
 70
     0
  0
ENDTAB
  0
TABLE
  2
APPID
  5
9
330
0
100
AcDbSymbolTable
 70
     9
  0
APPID
  5
12
330
9
100
AcDbSymbolTableRecord
100
AcDbRegAppTableRecord
  2
ACAD
 70
     0
  0
APPID
  5
7CB
330
9
100
AcDbSymbolTableRecord
100
AcDbRegAppTableRecord
  2
ACAD_PSEXT
 70
     0
  0
APPID
  5
875
330
9
100
AcDbSymbolTableRecord
100
AcDbRegAppTableRecord
  2
ACAD_EXEMPT_FROM_CAD_STANDARDS
 70
     0
  0
APPID
  5
87C
330
9
100
AcDbSymbolTableRecord
100
AcDbRegAppTableRecord
  2
AcAecLayerStandard
 70
     0
  0
APPID
  5
8D4
330
9
100
AcDbSymbolTableRecord
100
AcDbRegAppTableRecord
  2
RAK
 70
     0
  0
APPID
  5
8D5
330
9
100
AcDbSymbolTableRecord
100
AcDbRegAppTableRecord
  2
ACAD_DSTYLE_DIMJOGGED_JOGANGLE_SYMBOL
 70
     0
  0
APPID
  5
8D6
330
9
100
AcDbSymbolTableRecord
100
AcDbRegAppTableRecord
  2
ACAD_DSTYLE_DIMJAG
 70
     0
  0
APPID
  5
8D7
330
9
100
AcDbSymbolTableRecord
100
AcDbRegAppTableRecord
  2
ACAD_DSTYLE_DIMTALN
 70
     0
  0
APPID
  5
10546
330
9
100
AcDbSymbolTableRecord
100
AcDbRegAppTableRecord
  2
ACAD_MLEADERVER
 70
     0
  0
ENDTAB
  0
TABLE
  2
DIMSTYLE
  5
A
330
0
100
AcDbSymbolTable
 70
     2
100
AcDbDimStyleTable
 71
     1
340
8CF
  0
DIMSTYLE
105
8CF
102
{ACAD_REACTORS
330
1D751
330
1D7CC
102
}
330
A
100
AcDbSymbolTableRecord
100
AcDbDimStyleTableRecord
  2
AR SKALA 1-50
 70
     0
 40
0.02
 41
3.0
 42
20.0
 43
0.0
 44
5.0
 45
0.05
 73
     0
 74
     0
 75
     1
 76
     1
 77
     1
 78
     1
140
9.0
141
12.0
143
1.0
146
0.01
147
6.0
171
     4
172
     1
173
     1
174
     1
176
   256
177
   256
178
   256
179
     1
271
     2
272
     2
274
     4
279
     2
340
8CE
341
8BC
343
8BC
344
8BC
  0
DIMSTYLE
105
A46
330
A
100
AcDbSymbolTableRecord
100
AcDbDimStyleTableRecord
  2
Standard
 70
     0
340
11
  0
ENDTAB
  0
TABLE
  2
BLOCK_RECORD
  5
1
330
0
100
AcDbSymbolTable
 70
     5
  0
BLOCK_RECORD
  5
1F
102
{ACAD_XDICTIONARY
360
5F8
102
}
330
1
100
AcDbSymbolTableRecord
100
AcDbBlockTableRecord
  2
*Model_Space
340
22
  0
BLOCK_RECORD
  5
1B
330
1
100
AcDbSymbolTableRecord
100
AcDbBlockTableRecord
  2
*Paper_Space
340
1E
  0
BLOCK_RECORD
  5
8BC
330
1
100
AcDbSymbolTableRecord
100
AcDbBlockTableRecord
  2
MAR-STRZ
340
0
310
2800000020000000200000000100080000000000000400000000000000000000000000000000000000000000000080000080000000808000800000008000800080800000C0C0C000C0DCC000F0CAA6000020400000206000002080000020A0000020C0000020E00000400000004020000040400000406000004080000040A0
310
000040C0000040E00000600000006020000060400000606000006080000060A0000060C0000060E00000800000008020000080400000806000008080000080A0000080C0000080E00000A0000000A0200000A0400000A0600000A0800000A0A00000A0C00000A0E00000C0000000C0200000C0400000C0600000C0800000C0
310
A00000C0C00000C0E00000E0000000E0200000E0400000E0600000E0800000E0A00000E0C00000E0E00040000000400020004000400040006000400080004000A0004000C0004000E00040200000402020004020400040206000402080004020A0004020C0004020E000404000004040200040404000404060004040800040
310
40A0004040C0004040E00040600000406020004060400040606000406080004060A0004060C0004060E00040800000408020004080400040806000408080004080A0004080C0004080E00040A0000040A0200040A0400040A0600040A0800040A0A00040A0C00040A0E00040C0000040C0200040C0400040C0600040C08000
310
40C0A00040C0C00040C0E00040E0000040E0200040E0400040E0600040E0800040E0A00040E0C00040E0E00080000000800020008000400080006000800080008000A0008000C0008000E00080200000802020008020400080206000802080008020A0008020C0008020E00080400000804020008040400080406000804080
310
008040A0008040C0008040E00080600000806020008060400080606000806080008060A0008060C0008060E00080800000808020008080400080806000808080008080A0008080C0008080E00080A0000080A0200080A0400080A0600080A0800080A0A00080A0C00080A0E00080C0000080C0200080C0400080C0600080C0
310
800080C0A00080C0C00080C0E00080E0000080E0200080E0400080E0600080E0800080E0A00080E0C00080E0E000C0000000C0002000C0004000C0006000C0008000C000A000C000C000C000E000C0200000C0202000C0204000C0206000C0208000C020A000C020C000C020E000C0400000C0402000C0404000C0406000C0
310
408000C040A000C040C000C040E000C0600000C0602000C0604000C0606000C0608000C060A000C060C000C060E000C0800000C0802000C0804000C0806000C0808000C080A000C080C000C080E000C0A00000C0A02000C0A04000C0A06000C0A08000C0A0A000C0A0C000C0A0E000C0C00000C0C02000C0C04000C0C06000
310
C0C08000C0C0A000F0FBFF00A4A0A000808080000000FF0000FF000000FFFF00FF000000FF00FF00FFFF0000FFFFFF00000000000000000000000000000000000000000000000000000000000000000000000000000000000000000000000000FF000000000000000000000000000000000000000000000000000000000000
310
00FF00000000000000000000000000000000000000000000000000000000000000FF00000000000000000000000000000000000000000000000000000000000000FF00000000000000000000000000000000000000000000000000000000000000FF000000000000000000000000000000000000000000F900000000000000
310
0000FF00000000000000000000000000000000000000000000F90000000000000000FF0000000000000000000000000000000000000000000000F900000000000000FF000000000000000000000000000000000000000000000000F9000000000000FF00000000000000000000000000000000000000000000000000F90000
310
000000FF0000000000000000000000000000000000000000000000000000F900000000FF000000000000000000000000000000000000000000000000000000F9000000FF00000000000000000000000000000000000000000000000000000000F90000FF000000000000000000000000000000000000000000000000000000
310
0000F900FF000000000000000000000000000000000000000000000000000000000000F9FF00000000000000000000000000000000000000000000FFFFFFFFFFFFFFFFFFFFFFFFFFFFFFFFFFFF0000000000000000000000000000000000000000000000FFF900000000000000000000000000000000000000000000000000
310
0000000000FF00F90000000000000000000000000000000000000000000000000000000000FF0000F900000000000000000000000000000000000000000000000000000000FF000000F9000000000000000000000000000000000000000000000000000000FF00000000F90000000000000000000000000000000000000000
310
000000000000FF0000000000F900000000000000000000000000000000000000000000000000FF000000000000F9000000000000000000000000000000000000000000000000FF00000000000000F90000000000000000000000000000000000000000000000FF0000000000000000F9000000000000000000000000000000
310
00000000000000FF00000000000000000000000000000000000000000000000000000000000000FF00000000000000000000000000000000000000000000000000000000000000FF00000000000000000000000000000000000000000000000000000000000000FF0000000000000000000000000000000000000000000000
310
0000000000000000FF0000000000000000000000000000000000000000000000000000000000000000000000000000000000000000000000
102
{BLKREFS
331
1D75E
331
1D75F
331
1D7C6
331
1D7C7
331
1D7E8
331
1D7E9
102
}
  0
BLOCK_RECORD
  5
1D61C
102
{ACAD_XDICTIONARY
360
1D631
102
}
330
1
100
AcDbSymbolTableRecord
100
AcDbBlockTableRecord
  2
A$C6E466029
340
0
1001
ACAD
1000
DesignCenter Data
1002
{
1070
     1
1070
     1
1002
}
  0
BLOCK_RECORD
  5
1D752
330
1
100
AcDbSymbolTableRecord
100
AcDbBlockTableRecord
  2
*D3
340
0
  0
BLOCK_RECORD
  5
1D7CD
330
1
100
AcDbSymbolTableRecord
100
AcDbBlockTableRecord
  2
*D4
340
0
  0
ENDTAB
  0
ENDSEC
  0
SECTION
  2
BLOCKS
  0
BLOCK
  5
20
330
1F
100
AcDbEntity
  8
0
100
AcDbBlockBegin
  2
*Model_Space
 70
     0
 10
0.0
 20
0.0
 30
0.0
  3
*Model_Space
  1

  0
ENDBLK
  5
21
330
1F
100
AcDbEntity
  8
0
100
AcDbBlockEnd
  0
BLOCK
  5
1C
330
1B
100
AcDbEntity
 67
     1
  8
0
100
AcDbBlockBegin
  2
*Paper_Space
 70
     0
 10
0.0
 20
0.0
 30
0.0
  3
*Paper_Space
  1

  0
ENDBLK
  5
1D
330
1B
100
AcDbEntity
 67
     1
  8
0
100
AcDbBlockEnd
  0
BLOCK
  5
8BD
330
8BC
100
AcDbEntity
  8
0
100
AcDbBlockBegin
  2
MAR-STRZ
 70
     0
 10
0.0
 20
0.0
 30
0.0
  3
MAR-STRZ
  1

  0
LINE
  5
8BE
330
8BC
100
AcDbEntity
  8
0
100
AcDbLine
 10
0.0
 20
2.299999999999272
 30
0.0
 11
0.0
 21
-2.299999999999272
 31
0.0
  0
LINE
  5
8BF
330
8BC
100
AcDbEntity
  8
0
 62
    10
100
AcDbLine
 10
1.5
 20
1.5
 30
0.0
 11
-1.5
 21
-1.5
 31
0.0
  0
LINE
  5
8C0
330
8BC
100
AcDbEntity
  8
0
100
AcDbLine
 10
1.399999999999636
 20
0.0
 30
0.0
 11
-1.399999999999636
 21
0.0
 31
0.0
  0
ENDBLK
  5
8C1
330
8BC
100
AcDbEntity
  8
0
100
AcDbBlockEnd
  0
BLOCK
  5
1D633
330
1D61C
100
AcDbEntity
  8
0
100
AcDbBlockBegin
  2
A$C6E466029
 70
     0
 10
0.0
 20
0.0
 30
0.0
  3
A$C6E466029
  1

  0
LINE
  5
1D61D
330
1D61C
100
AcDbEntity
  8
0
100
AcDbLine
 10
0.1051007901540757
 20
0.0196592503770745
 30
0.0
 11
0.1025125997055838
 21
0.0199999921141831
 31
0.0
  0
LINE
  5
1D61E
330
1D61C
100
AcDbEntity
  8
0
100
AcDbLine
 10
0.1075125997006836
 20
0.0186602461520273
 30
0.0
 11
0.1051007901540757
 21
0.0196592503770745
 31
0.0
  0
LINE
  5
1D61F
330
1D61C
100
AcDbEntity
  8
0
100
AcDbLine
 10
0.1095836675105133
 20
0.0170710599260495
 30
0.0
 11
0.1075125997006836
 21
0.0186602461520273
 31
0.0
  0
LINE
  5
1D620
330
1D61C
100
AcDbEntity
  8
0
100
AcDbLine
 10
0.111172853734935
 20
0.0149999921141841
 30
0.0
 11
0.1095836675105133
 21
0.0170710599260495
 31
0.0
  0
LINE
  5
1D621
330
1D61C
100
AcDbEntity
  8
0
100
AcDbLine
 10
0.1121718579590052
 20
0.0125881825652101
 30
0.0
 11
0.111172853734935
 21
0.0149999921141841
 31
0.0
  0
LINE
  5
1D622
330
1D61C
100
AcDbEntity
  8
0
100
AcDbLine
 10
0.1125125996957763
 20
0.0099999921141851
 30
0.0
 11
0.1121718579590052
 21
0.0125881825652101
 31
0.0
  0
LINE
  5
1D623
330
1D61C
100
AcDbEntity
  8
0
100
AcDbLine
 10
0.1121718579590052
 20
0.0074118016631601
 30
0.0
 11
0.1125125996957763
 21
0.0099999921141851
 31
0.0
  0
LINE
  5
1D624
330
1D61C
100
AcDbEntity
  8
0
100
AcDbLine
 10
0.111172853734935
 20
0.0049999921141826
 30
0.0
 11
0.1121718579590052
 21
0.0074118016631601
 31
0.0
  0
LINE
  5
1D625
330
1D61C
100
AcDbEntity
  8
0
100
AcDbLine
 10
0.1095836675105133
 20
0.0029289243023172
 30
0.0
 11
0.111172853734935
 21
0.0049999921141826
 31
0.0
  0
LINE
  5
1D626
330
1D61C
100
AcDbEntity
  8
0
100
AcDbLine
 10
0.1075125997006836
 20
0.0013397380763394
 30
0.0
 11
0.1095836675105133
 21
0.0029289243023172
 31
0.0
  0
LINE
  5
1D627
330
1D61C
100
AcDbEntity
  8
0
100
AcDbLine
 10
0.1051007901540757
 20
0.0003407338512922
 30
0.0
 11
0.1075125997006836
 21
0.0013397380763394
 31
0.0
  0
LINE
  5
1D628
330
1D61C
100
AcDbEntity
  8
0
100
AcDbLine
 10
0.1025125997055838
 20
-0.0000000078858164
 30
0.0
 11
0.1051007901540757
 21
0.0003407338512922
 31
0.0
  0
LINE
  5
1D629
330
1D61C
100
AcDbEntity
  8
0
100
AcDbLine
 10
0.1025125997055838
 20
0.0199999921141831
 30
0.0
 11
0.0025125997055824
 21
0.0199999921141831
 31
0.0
  0
LINE
  5
1D62A
330
1D61C
100
AcDbEntity
  8
0
100
AcDbLine
 10
0.1025125997055838
 20
-0.0000000078858164
 30
0.0
 11
0.0025125997055824
 21
-0.0000000078858164
 31
0.0
  0
LINE
  5
1D62B
330
1D61C
100
AcDbEntity
  8
0
100
AcDbLine
 10
-0.0000000278010859
 20
0.0099999921141851
 30
0.0
 11
0.0556214901609025
 21
0.0099999921141851
 31
0.0
  0
LINE
  5
1D62C
330
1D61C
100
AcDbEntity
  8
0
100
AcDbLine
 10
0.0556214901609025
 20
0.0099999921141851
 30
0.0
 11
0.0905866383443268
 21
0.0099999921141851
 31
0.0
  0
LINE
  5
1D62D
330
1D61C
100
AcDbEntity
  8
0
100
AcDbLine
 10
0.0905866383443268
 20
0.0099999921141851
 30
0.0
 11
0.1025125997055838
 21
0.0099999921141851
 31
0.0
  0
LINE
  5
1D62E
330
1D61C
100
AcDbEntity
  8
0
100
AcDbLine
 10
0.1025125997055838
 20
0.0099999921141851
 30
0.0
 11
0.0905866396941662
 21
0.0099999921141851
 31
0.0
  0
LINE
  5
1D62F
330
1D61C
100
AcDbEntity
  8
0
100
AcDbLine
 10
0.0905866396941662
 20
0.0099999921141851
 30
0.0
 11
0.0556214927686085
 21
0.0099999921141851
 31
0.0
  0
LINE
  5
1D630
330
1D61C
100
AcDbEntity
  8
0
100
AcDbLine
 10
0.0556214927686085
 20
0.0099999921141851
 30
0.0
 11
-0.0000000241132341
 21
0.0099999921141851
 31
0.0
  0
ENDBLK
  5
1D634
330
1D61C
100
AcDbEntity
  8
0
100
AcDbBlockEnd
  0
BLOCK
  5
1D753
330
1D752
100
AcDbEntity
  8
0
100
AcDbBlockBegin
  2
*D3
 70
     1
 10
0.0
 20
0.0
 30
0.0
  3
*D3
  1

  0
LINE
  5
1D75D
330
1D752
100
AcDbEntity
  8
WYMIAR
370
    -2
100
AcDbLine
 10
-1.74377857127895
 20
19.86984003348089
 30
0.0
 11
-1.743778571278952
 21
10.16548629607799
 31
0.0
  0
INSERT
  5
1D75E
330
1D752
100
AcDbEntity
  8
WYMIAR
370
    -2
100
AcDbBlockReference
  2
MAR-STRZ
 10
-1.74377857127895
 20
19.92984003348088
 30
0.0
 41
0.06
 42
0.06
 43
0.06
 50
90.0
  0
INSERT
  5
1D75F
330
1D752
100
AcDbEntity
  8
WYMIAR
370
    -2
100
AcDbBlockReference
  2
MAR-STRZ
 10
-1.743778571278952
 20
10.10548629607798
 30
0.0
 41
0.06
 42
0.06
 43
0.06
 50
270.0
  0
MTEXT
  5
1D760
330
1D752
100
AcDbEntity
  8
WYMIAR
100
AcDbMText
 10
-1.956174675175057
 20
15.01766316477944
 30
0.0
 40
0.18
 41
0.0
 71
     5
 72
     1
  1
\A1;9.80
  7
AR 01 SWIS
 11
0.0000000000000001
 21
1.0
 31
0.0
 73
     1
 44
1.0
  0
POINT
  5
1D761
330
1D752
100
AcDbEntity
  8
Defpoints
 62
     0
100
AcDbPoint
 10
2.101921556703118
 20
19.92984003348088
 30
0.0
  0
POINT
  5
1D762
330
1D752
100
AcDbEntity
  8
Defpoints
 62
     0
100
AcDbPoint
 10
1.911278541614766
 20
10.10548629607798
 30
0.0
  0
POINT
  5
1D763
330
1D752
100
AcDbEntity
  8
Defpoints
 62
     0
100
AcDbPoint
 10
-1.743778571278952
 20
10.10548629607798
 30
0.0
  0
ENDBLK
  5
1D754
330
1D752
100
AcDbEntity
  8
0
100
AcDbBlockEnd
  0
BLOCK
  5
1D7CE
330
1D7CD
100
AcDbEntity
  8
0
100
AcDbBlockBegin
  2
*D4
 70
     1
 10
0.0
 20
0.0
 30
0.0
  3
*D4
  1

  0
LINE
  5
1D7E7
330
1D7CD
100
AcDbEntity
  8
WYMIAR
370
    -2
100
AcDbLine
 10
-0.7171128577538988
 20
20.96871595941035
 30
0.0
 11
8.278353679540355
 21
20.96871595941035
 31
0.0
  0
INSERT
  5
1D7E8
330
1D7CD
100
AcDbEntity
  8
WYMIAR
370
    -2
100
AcDbBlockReference
  2
MAR-STRZ
 10
-0.7771128577538988
 20
20.96871595941035
 30
0.0
 41
0.06
 42
0.06
 43
0.06
 50
180.0
  0
INSERT
  5
1D7E9
330
1D7CD
100
AcDbEntity
  8
WYMIAR
370
    -2
100
AcDbBlockReference
  2
MAR-STRZ
 10
8.338353679540356
 20
20.96871595941035
 30
0.0
 41
0.06
 42
0.06
 43
0.06
  0
MTEXT
  5
1D7EA
330
1D7CD
100
AcDbEntity
  8
WYMIAR
100
AcDbMText
 10
3.780620410893228
 20
21.17871595941035
 30
0.0
 40
0.18
 41
0.0
 71
     5
 72
     1
  1
\A1;9.10
  7
AR 01 SWIS
 73
     1
 44
1.0
  0
POINT
  5
1D7EB
330
1D7CD
100
AcDbEntity
  8
Defpoints
 62
     0
100
AcDbPoint
 10
-0.7771128577538989
 20
19.620848189351
 30
0.0
  0
POINT
  5
1D7EC
330
1D7CD
100
AcDbEntity
  8
Defpoints
 62
     0
100
AcDbPoint
 10
8.338353679540356
 20
19.92984003348088
 30
0.0
  0
POINT
  5
1D7ED
330
1D7CD
100
AcDbEntity
  8
Defpoints
 62
     0
100
AcDbPoint
 10
8.338353679540356
 20
20.96871595941035
 30
0.0
  0
ENDBLK
  5
1D7CF
330
1D7CD
100
AcDbEntity
  8
0
100
AcDbBlockEnd
  0
ENDSEC
  0
SECTION
  2
ENTITIES
  0
LINE
  5
1C164
330
1F
100
AcDbEntity
  8
0
100
AcDbLine
 10
3.616267110947635
 20
12.12104169983782
 30
0.0
 11
3.61548340495228
 21
12.12673537278003
 31
0.0
  0
LINE
  5
1C165
330
1F
100
AcDbEntity
  8
0
100
AcDbLine
 10
3.618564820665242
 20
12.11573604129736
 30
0.0
 11
3.616267110947635
 21
12.12104169983782
 31
0.0
  0
LINE
  5
1C166
330
1F
100
AcDbEntity
  8
0
100
AcDbLine
 10
3.622219948984993
 20
12.11117996902021
 30
0.0
 11
3.618564820665242
 21
12.11573604129736
 31
0.0
  0
LINE
  5
1C167
330
1F
100
AcDbEntity
  8
0
100
AcDbLine
 10
3.62698340495228
 20
12.10768397180276
 30
0.0
 11
3.622219948984993
 21
12.11117996902021
 31
0.0
  0
LINE
  5
1C168
330
1F
100
AcDbEntity
  8
0
100
AcDbLine
 10
3.632530566914923
 20
12.10548629607798
 30
0.0
 11
3.62698340495228
 21
12.10768397180276
 31
0.0
  0
LINE
  5
1C169
330
1F
100
AcDbEntity
  8
0
100
AcDbLine
 10
3.638483404952281
 20
12.1047367098147
 30
0.0
 11
3.632530566914923
 21
12.10548629607798
 31
0.0
  0
LINE
  5
1C16A
330
1F
100
AcDbEntity
  8
0
100
AcDbLine
 10
3.644436242989638
 20
12.10548629607798
 30
0.0
 11
3.638483404952281
 21
12.1047367098147
 31
0.0
  0
LINE
  5
1C16B
330
1F
100
AcDbEntity
  8
0
100
AcDbLine
 10
3.649983404952281
 20
12.10768397180276
 30
0.0
 11
3.644436242989638
 21
12.10548629607798
 31
0.0
  0
LINE
  5
1C16C
330
1F
100
AcDbEntity
  8
0
100
AcDbLine
 10
3.654746860919572
 20
12.11117996902021
 30
0.0
 11
3.649983404952281
 21
12.10768397180276
 31
0.0
  0
LINE
  5
1C16D
330
1F
100
AcDbEntity
  8
0
100
AcDbLine
 10
3.658401989239326
 20
12.11573604129736
 30
0.0
 11
3.654746860919572
 21
12.11117996902021
 31
0.0
  0
LINE
  5
1C16E
330
1F
100
AcDbEntity
  8
0
100
AcDbLine
 10
3.660699698956932
 20
12.12104169983782
 30
0.0
 11
3.658401989239326
 21
12.11573604129736
 31
0.0
  0
LINE
  5
1C16F
330
1F
100
AcDbEntity
  8
0
100
AcDbLine
 10
3.661483404952281
 20
12.12673537278003
 30
0.0
 11
3.660699698956932
 21
12.12104169983782
 31
0.0
  0
LINE
  5
1C170
330
1F
100
AcDbEntity
  8
0
100
AcDbLine
 10
4.135492491470158
 20
12.14547707014423
 30
0.0
 11
3.661483404952281
 21
12.14577943796968
 31
0.0
  0
LINE
  5
1C171
330
1F
100
AcDbEntity
  8
0
100
AcDbLine
 10
3.616267110947635
 20
12.42598440062977
 30
0.0
 11
3.61548340495228
 21
12.42657574671318
 31
0.0
  0
LINE
  5
1C172
330
1F
100
AcDbEntity
  8
0
100
AcDbLine
 10
3.618564820665242
 20
12.4254333538047
 30
0.0
 11
3.616267110947635
 21
12.42598440062977
 31
0.0
  0
LINE
  5
1C173
330
1F
100
AcDbEntity
  8
0
100
AcDbLine
 10
3.621823226394193
 20
12.42501151906218
 30
0.0
 11
3.618564820665242
 21
12.4254333538047
 31
0.0
  0
LINE
  5
1C174
330
1F
100
AcDbEntity
  8
0
100
AcDbLine
 10
3.658401989239326
 20
12.4254333538047
 30
0.0
 11
3.655143583510374
 21
12.42501151906218
 31
0.0
  0
LINE
  5
1C175
330
1F
100
AcDbEntity
  8
0
100
AcDbLine
 10
3.660699698956932
 20
12.42598440062977
 30
0.0
 11
3.658401989239326
 21
12.4254333538047
 31
0.0
  0
LINE
  5
1C176
330
1F
100
AcDbEntity
  8
0
100
AcDbLine
 10
3.661483404952281
 20
12.42657574671318
 30
0.0
 11
3.660699698956932
 21
12.42598440062977
 31
0.0
  0
LINE
  5
1C177
330
1F
100
AcDbEntity
  8
0
100
AcDbLine
 10
4.135492491470156
 20
12.4285222633897
 30
0.0
 11
3.661483404952281
 21
12.4285536673764
 31
0.0
  0
LINE
  5
1C178
330
1F
100
AcDbEntity
  8
0
100
AcDbLine
 10
3.616267110947635
 20
13.58539997452164
 30
0.0
 11
3.615483404952284
 21
13.58739554455985
 31
0.0
  0
LINE
  5
1C179
330
1F
100
AcDbEntity
  8
0
100
AcDbLine
 10
3.618564820665242
 20
13.98397499544684
 30
0.0
 11
3.616267110947635
 21
13.98583457068478
 31
0.0
  0
LINE
  5
1C17A
330
1F
100
AcDbEntity
  8
0
100
AcDbLine
 10
3.621823226394193
 20
13.98255146226232
 30
0.0
 11
3.618564820665242
 21
13.98397499544684
 31
0.0
  0
LINE
  5
1C17B
330
1F
100
AcDbEntity
  8
0
100
AcDbLine
 10
3.658401989239326
 20
13.98397499544684
 30
0.0
 11
3.655143583510375
 21
13.98255146226232
 31
0.0
  0
LINE
  5
1C17C
330
1F
100
AcDbEntity
  8
0
100
AcDbLine
 10
3.660699698956933
 20
13.98583457068478
 30
0.0
 11
3.658401989239326
 21
13.98397499544684
 31
0.0
  0
LINE
  5
1C17D
330
1F
100
AcDbEntity
  8
0
100
AcDbLine
 10
3.661483404952281
 20
13.98783014072299
 30
0.0
 11
3.660699698956933
 21
13.98583457068478
 31
0.0
  0
LINE
  5
1C17E
330
1F
100
AcDbEntity
  8
0
100
AcDbLine
 10
4.135483404952283
 20
13.99439890251729
 30
0.0
 11
3.661483404952281
 21
13.99450487709861
 31
0.0
  0
LINE
  5
1C17F
330
1F
100
AcDbEntity
  8
0
100
AcDbLine
 10
3.615483404952284
 20
13.98783014072299
 30
0.0
 11
3.615483404952284
 21
14.04422412136414
 31
0.0
  0
LINE
  5
1C180
330
1F
100
AcDbEntity
  8
0
100
AcDbLine
 10
3.652085622696616
 20
13.9824093557657
 30
0.0
 11
3.650219135979989
 21
13.97907355152612
 31
0.0
  0
LINE
  5
1C181
330
1F
100
AcDbEntity
  8
0
100
AcDbLine
 10
3.62399314635923
 20
13.9857235693323
 30
0.0
 11
3.623941669151871
 21
13.98954570390414
 31
0.0
  0
LINE
  5
1C182
330
1F
100
AcDbEntity
  8
0
100
AcDbLine
 10
3.625032110743428
 20
13.98204499411946
 30
0.0
 11
3.62399314635923
 21
13.9857235693323
 31
0.0
  0
LINE
  5
1C183
330
1F
100
AcDbEntity
  8
0
100
AcDbLine
 10
3.647552878588037
 20
13.97633449436936
 30
0.0
 11
3.644268551555819
 21
13.97437884651414
 31
0.0
  0
LINE
  5
1C184
330
1F
100
AcDbEntity
  8
0
100
AcDbLine
 10
3.650219135979989
 20
13.97907355152612
 30
0.0
 11
3.647552878588037
 21
13.97633449436936
 31
0.0
  0
LINE
  5
1C185
330
1F
100
AcDbEntity
  8
0
100
AcDbLine
 10
3.629726815755404
 20
13.97609440969529
 30
0.0
 11
3.626987758598644
 21
13.97876066708725
 31
0.0
  0
LINE
  5
1C186
330
1F
100
AcDbEntity
  8
0
100
AcDbLine
 10
3.633062619994984
 20
13.97422792297866
 30
0.0
 11
3.629726815755404
 21
13.97609440969529
 31
0.0
  0
LINE
  5
1C187
330
1F
100
AcDbEntity
  8
0
100
AcDbLine
 10
3.636767841771133
 20
13.97328840492259
 30
0.0
 11
3.633062619994984
 21
13.97422792297866
 31
0.0
  0
LINE
  5
1C188
330
1F
100
AcDbEntity
  8
0
100
AcDbLine
 10
3.640589976342976
 20
13.97333988212994
 30
0.0
 11
3.636767841771133
 21
13.97328840492259
 31
0.0
  0
LINE
  5
1C189
330
1F
100
AcDbEntity
  8
0
100
AcDbLine
 10
3.644268551555819
 20
13.97437884651414
 30
0.0
 11
3.640589976342976
 21
13.97333988212994
 31
0.0
  0
LINE
  5
1C18A
330
1F
100
AcDbEntity
  8
0
100
AcDbLine
 10
3.624935187167166
 20
13.98136353441055
 30
0.0
 11
3.625607389650721
 21
13.98107886718549
 31
0.0
  0
LINE
  5
1C18B
330
1F
100
AcDbEntity
  8
0
100
AcDbLine
 10
3.622846388361027
 20
13.98307979481348
 30
0.0
 11
3.624935187167166
 21
13.98136353441055
 31
0.0
  0
LINE
  5
1C18C
330
1F
100
AcDbEntity
  8
0
100
AcDbLine
 10
3.621823226394193
 20
13.98511978343983
 30
0.0
 11
3.622846388361027
 21
13.98307979481348
 31
0.0
  0
LINE
  5
1C18D
330
1F
100
AcDbEntity
  8
0
100
AcDbLine
 10
3.621935428063845
 20
13.98734447843595
 30
0.0
 11
3.621823226394193
 21
13.98511978343983
 31
0.0
  0
LINE
  5
1C18E
330
1F
100
AcDbEntity
  8
0
100
AcDbLine
 10
3.623175347011617
 20
13.98960227051434
 30
0.0
 11
3.621935428063845
 21
13.98734447843595
 31
0.0
  0
LINE
  5
1C18F
330
1F
100
AcDbEntity
  8
0
100
AcDbLine
 10
3.623941669151871
 20
13.99031955051539
 30
0.0
 11
3.623175347011617
 21
13.98960227051434
 31
0.0
  0
LINE
  5
1C190
330
1F
100
AcDbEntity
  8
0
100
AcDbLine
 10
3.655143583510375
 20
13.99054049800616
 30
0.0
 11
3.654120421543538
 21
13.99258048663251
 31
0.0
  0
LINE
  5
1C191
330
1F
100
AcDbEntity
  8
0
100
AcDbLine
 10
3.655031381840723
 20
13.98831580301004
 30
0.0
 11
3.655143583510375
 21
13.99054049800616
 31
0.0
  0
LINE
  5
1C192
330
1F
100
AcDbEntity
  8
0
100
AcDbLine
 10
3.654120421543538
 20
13.99258048663251
 30
0.0
 11
3.653025140752697
 21
13.99348042349856
 31
0.0
  0
LINE
  5
1C193
330
1F
100
AcDbEntity
  8
0
100
AcDbLine
 10
3.653791462892951
 20
13.98605801093165
 30
0.0
 11
3.655031381840723
 21
13.98831580301004
 31
0.0
  0
LINE
  5
1C194
330
1F
100
AcDbEntity
  8
0
100
AcDbLine
 10
3.652767856023746
 20
13.98509991159242
 30
0.0
 11
3.653791462892951
 21
13.98605801093165
 31
0.0
  0
LINE
  5
1C195
330
1F
100
AcDbEntity
  8
0
100
AcDbLine
 10
3.661483404952281
 20
12.42657574671318
 30
0.0
 11
3.661483404952281
 21
12.4285536673764
 31
0.0
  0
LINE
  5
1C196
330
1F
100
AcDbEntity
  8
0
100
AcDbLine
 10
3.661483404952281
 20
13.98783014072299
 30
0.0
 11
3.661483404952281
 21
13.99450487709861
 31
0.0
  0
LINE
  5
1C197
330
1F
100
AcDbEntity
  8
0
100
AcDbLine
 10
3.661483404952281
 20
13.99450487709861
 30
0.0
 11
3.661483404952281
 21
14.04422412136414
 31
0.0
  0
LINE
  5
1C198
330
1F
100
AcDbEntity
  8
0
100
AcDbLine
 10
3.623941669151871
 20
13.98954570390414
 30
0.0
 11
3.623941669151871
 21
13.99031955051539
 31
0.0
  0
LINE
  5
1C199
330
1F
100
AcDbEntity
  8
0
100
AcDbLine
 10
3.653025140752697
 20
13.98611457754185
 30
0.0
 11
3.652767856023746
 21
13.98509991159242
 31
0.0
  0
LINE
  5
1C19A
330
1F
100
AcDbEntity
  8
0
100
AcDbLine
 10
3.652767856023746
 20
13.98509991159242
 30
0.0
 11
3.652085622696616
 21
13.9824093557657
 31
0.0
  0
LINE
  5
1C19B
330
1F
100
AcDbEntity
  8
0
100
AcDbLine
 10
3.626987758598644
 20
13.97876066708725
 30
0.0
 11
3.625607389650721
 21
13.98107886718549
 31
0.0
  0
LINE
  5
1C19C
330
1F
100
AcDbEntity
  8
0
100
AcDbLine
 10
3.625607389650721
 20
13.98107886718549
 30
0.0
 11
3.625032110743428
 21
13.98204499411946
 31
0.0
  0
LINE
  5
1C19D
330
1F
100
AcDbEntity
  8
0
100
AcDbLine
 10
3.653025140752697
 20
13.98611457754185
 30
0.0
 11
3.653025140752697
 21
13.99348042349856
 31
0.0
  0
LINE
  5
1C19E
330
1F
100
AcDbEntity
  8
0
100
AcDbLine
 10
3.621823226394193
 20
12.42501151906218
 30
0.0
 11
3.621823226394193
 21
12.12673537278003
 31
0.0
  0
LINE
  5
1C19F
330
1F
100
AcDbEntity
  8
0
100
AcDbLine
 10
3.655143583510375
 20
13.98255146226232
 30
0.0
 11
3.655143583510375
 21
13.99054049800616
 31
0.0
  0
LINE
  5
1C1A0
330
1F
100
AcDbEntity
  8
0
100
AcDbLine
 10
3.621823226394193
 20
13.98511978343983
 30
0.0
 11
3.621823226394193
 21
13.98255146226232
 31
0.0
  0
LINE
  5
1C1A1
330
1F
100
AcDbEntity
  8
0
100
AcDbLine
 10
3.621823226394193
 20
13.98255146226232
 30
0.0
 11
3.621823226394193
 21
12.82544611522532
 31
0.0
  0
LINE
  5
1C1A2
330
1F
100
AcDbEntity
  8
0
100
AcDbLine
 10
3.655143583510374
 20
12.1256829127676
 30
0.0
 11
3.655143583510374
 21
12.42501151906218
 31
0.0
  0
LINE
  5
1C1A3
330
1F
100
AcDbEntity
  8
0
100
AcDbLine
 10
3.655143583510374
 20
12.82544611522532
 30
0.0
 11
3.655143583510375
 21
13.98255146226232
 31
0.0
  0
LINE
  5
1C1A4
330
1F
100
AcDbEntity
  8
0
100
AcDbLine
 10
3.661483404952281
 20
12.14577943796968
 30
0.0
 11
3.661483404952281
 21
12.12673537278003
 31
0.0
  0
LINE
  5
1C1A5
330
1F
100
AcDbEntity
  8
0
100
AcDbLine
 10
3.61548340495228
 20
12.42657574671318
 30
0.0
 11
3.61548340495228
 21
12.12673537278003
 31
0.0
  0
LINE
  5
1C1A6
330
1F
100
AcDbEntity
  8
0
100
AcDbLine
 10
3.661483404952281
 20
12.42657574671318
 30
0.0
 11
3.661483404952281
 21
12.14577943796968
 31
0.0
  0
LINE
  5
1C1A7
330
1F
100
AcDbEntity
  8
0
100
AcDbLine
 10
3.661483404952281
 20
13.98783014072299
 30
0.0
 11
3.661483404952281
 21
12.82898826353954
 31
0.0
  0
LINE
  5
1C1A8
330
1F
100
AcDbEntity
  8
0
100
AcDbLine
 10
3.623941669151871
 20
14.04422412136414
 30
0.0
 11
3.623941669151871
 21
13.99031955051539
 31
0.0
  0
LINE
  5
1C1A9
330
1F
100
AcDbEntity
  8
0
100
AcDbLine
 10
3.653025140752697
 20
14.04422412136414
 30
0.0
 11
3.653025140752697
 21
13.99348042349856
 31
0.0
  0
ARC
  5
1C1AA
330
1F
100
AcDbEntity
  8
0
100
AcDbCircle
 10
3.638566542965265
 20
12.12884125064466
 30
0.0
 40
0.0168752295208051
100
AcDbArc
 50
187.1686902151656
 51
349.2130127358568
  0
LINE
  5
1C1AB
330
1F
100
AcDbEntity
  8
0
100
AcDbLine
 10
4.136276197465511
 20
12.12104169983782
 30
0.0
 11
4.135492491470156
 21
12.12673537278003
 31
0.0
  0
LINE
  5
1C1AC
330
1F
100
AcDbEntity
  8
0
100
AcDbLine
 10
4.138573907183118
 20
12.11573604129736
 30
0.0
 11
4.136276197465511
 21
12.12104169983782
 31
0.0
  0
LINE
  5
1C1AD
330
1F
100
AcDbEntity
  8
0
100
AcDbLine
 10
4.142229035502868
 20
12.11117996902021
 30
0.0
 11
4.138573907183118
 21
12.11573604129736
 31
0.0
  0
LINE
  5
1C1AE
330
1F
100
AcDbEntity
  8
0
100
AcDbLine
 10
4.146992491470157
 20
12.10768397180276
 30
0.0
 11
4.142229035502868
 21
12.11117996902021
 31
0.0
  0
LINE
  5
1C1AF
330
1F
100
AcDbEntity
  8
0
100
AcDbLine
 10
4.152539653432799
 20
12.10548629607798
 30
0.0
 11
4.146992491470157
 21
12.10768397180276
 31
0.0
  0
LINE
  5
1C1B0
330
1F
100
AcDbEntity
  8
0
100
AcDbLine
 10
4.158492491470156
 20
12.1047367098147
 30
0.0
 11
4.152539653432799
 21
12.10548629607798
 31
0.0
  0
LINE
  5
1C1B1
330
1F
100
AcDbEntity
  8
0
100
AcDbLine
 10
4.164445329507514
 20
12.10548629607798
 30
0.0
 11
4.158492491470156
 21
12.1047367098147
 31
0.0
  0
LINE
  5
1C1B2
330
1F
100
AcDbEntity
  8
0
100
AcDbLine
 10
4.169992491470157
 20
12.10768397180276
 30
0.0
 11
4.164445329507514
 21
12.10548629607798
 31
0.0
  0
LINE
  5
1C1B3
330
1F
100
AcDbEntity
  8
0
100
AcDbLine
 10
4.174755947437447
 20
12.11117996902021
 30
0.0
 11
4.169992491470157
 21
12.10768397180276
 31
0.0
  0
LINE
  5
1C1B4
330
1F
100
AcDbEntity
  8
0
100
AcDbLine
 10
4.178411075757201
 20
12.11573604129736
 30
0.0
 11
4.174755947437447
 21
12.11117996902021
 31
0.0
  0
LINE
  5
1C1B5
330
1F
100
AcDbEntity
  8
0
100
AcDbLine
 10
4.180708785474807
 20
12.12104169983782
 30
0.0
 11
4.178411075757201
 21
12.11573604129736
 31
0.0
  0
LINE
  5
1C1B6
330
1F
100
AcDbEntity
  8
0
100
AcDbLine
 10
4.181492491470157
 20
12.12673537278003
 30
0.0
 11
4.180708785474807
 21
12.12104169983782
 31
0.0
  0
LINE
  5
1C1B7
330
1F
100
AcDbEntity
  8
0
100
AcDbLine
 10
4.136276197465511
 20
12.42598440062977
 30
0.0
 11
4.135492491470156
 21
12.42657574671318
 31
0.0
  0
LINE
  5
1C1B8
330
1F
100
AcDbEntity
  8
0
100
AcDbLine
 10
4.138573907183118
 20
12.4254333538047
 30
0.0
 11
4.136276197465511
 21
12.42598440062977
 31
0.0
  0
LINE
  5
1C1B9
330
1F
100
AcDbEntity
  8
0
100
AcDbLine
 10
4.141832312912068
 20
12.42501151906218
 30
0.0
 11
4.138573907183118
 21
12.4254333538047
 31
0.0
  0
LINE
  5
1C1BA
330
1F
100
AcDbEntity
  8
0
100
AcDbLine
 10
4.178411075757201
 20
12.4254333538047
 30
0.0
 11
4.175152670028251
 21
12.42501151906218
 31
0.0
  0
LINE
  5
1C1BB
330
1F
100
AcDbEntity
  8
0
100
AcDbLine
 10
4.180708785474807
 20
12.42598440062977
 30
0.0
 11
4.178411075757201
 21
12.4254333538047
 31
0.0
  0
LINE
  5
1C1BC
330
1F
100
AcDbEntity
  8
0
100
AcDbLine
 10
4.181492491470157
 20
12.42657574671318
 30
0.0
 11
4.180708785474807
 21
12.42598440062977
 31
0.0
  0
LINE
  5
1C1BD
330
1F
100
AcDbEntity
  8
0
100
AcDbLine
 10
4.136276197465511
 20
13.98583457068478
 30
0.0
 11
4.135492491470159
 21
13.98783014072299
 31
0.0
  0
LINE
  5
1C1BE
330
1F
100
AcDbEntity
  8
0
100
AcDbLine
 10
4.138573907183118
 20
13.98397499544684
 30
0.0
 11
4.136276197465511
 21
13.98583457068478
 31
0.0
  0
LINE
  5
1C1BF
330
1F
100
AcDbEntity
  8
0
100
AcDbLine
 10
4.141832312912068
 20
13.98255146226232
 30
0.0
 11
4.138573907183118
 21
13.98397499544684
 31
0.0
  0
LINE
  5
1C1C0
330
1F
100
AcDbEntity
  8
0
100
AcDbLine
 10
4.178411075757201
 20
13.98397499544684
 30
0.0
 11
4.175152670028251
 21
13.98255146226232
 31
0.0
  0
LINE
  5
1C1C1
330
1F
100
AcDbEntity
  8
0
100
AcDbLine
 10
4.180708785474808
 20
13.98583457068478
 30
0.0
 11
4.178411075757201
 21
13.98397499544684
 31
0.0
  0
LINE
  5
1C1C2
330
1F
100
AcDbEntity
  8
0
100
AcDbLine
 10
4.181492491470157
 20
13.98783014072299
 30
0.0
 11
4.180708785474808
 21
13.98583457068478
 31
0.0
  0
LINE
  5
1C1C3
330
1F
100
AcDbEntity
  8
0
100
AcDbLine
 10
4.135492491470159
 20
13.98783014072299
 30
0.0
 11
4.135492491470159
 21
14.04422412136414
 31
0.0
  0
LINE
  5
1C1C4
330
1F
100
AcDbEntity
  8
0
100
AcDbLine
 10
4.172094709214491
 20
13.9824093557657
 30
0.0
 11
4.170228222497865
 21
13.97907355152612
 31
0.0
  0
LINE
  5
1C1C5
330
1F
100
AcDbEntity
  8
0
100
AcDbLine
 10
4.144002232877106
 20
13.9857235693323
 30
0.0
 11
4.143950755669747
 21
13.98954570390414
 31
0.0
  0
LINE
  5
1C1C6
330
1F
100
AcDbEntity
  8
0
100
AcDbLine
 10
4.145041197261304
 20
13.98204499411946
 30
0.0
 11
4.144002232877106
 21
13.9857235693323
 31
0.0
  0
LINE
  5
1C1C7
330
1F
100
AcDbEntity
  8
0
100
AcDbLine
 10
4.167561965105912
 20
13.97633449436936
 30
0.0
 11
4.164277638073695
 21
13.97437884651414
 31
0.0
  0
LINE
  5
1C1C8
330
1F
100
AcDbEntity
  8
0
100
AcDbLine
 10
4.170228222497865
 20
13.97907355152612
 30
0.0
 11
4.167561965105912
 21
13.97633449436936
 31
0.0
  0
LINE
  5
1C1C9
330
1F
100
AcDbEntity
  8
0
100
AcDbLine
 10
4.149735902273279
 20
13.97609440969529
 30
0.0
 11
4.14699684511652
 21
13.97876066708725
 31
0.0
  0
LINE
  5
1C1CA
330
1F
100
AcDbEntity
  8
0
100
AcDbLine
 10
4.153071706512859
 20
13.97422792297866
 30
0.0
 11
4.149735902273279
 21
13.97609440969529
 31
0.0
  0
LINE
  5
1C1CB
330
1F
100
AcDbEntity
  8
0
100
AcDbLine
 10
4.156776928289009
 20
13.97328840492259
 30
0.0
 11
4.153071706512859
 21
13.97422792297866
 31
0.0
  0
LINE
  5
1C1CC
330
1F
100
AcDbEntity
  8
0
100
AcDbLine
 10
4.160599062860852
 20
13.97333988212994
 30
0.0
 11
4.156776928289009
 21
13.97328840492259
 31
0.0
  0
LINE
  5
1C1CD
330
1F
100
AcDbEntity
  8
0
100
AcDbLine
 10
4.164277638073695
 20
13.97437884651414
 30
0.0
 11
4.160599062860852
 21
13.97333988212994
 31
0.0
  0
LINE
  5
1C1CE
330
1F
100
AcDbEntity
  8
0
100
AcDbLine
 10
4.144944273685042
 20
13.98136353441055
 30
0.0
 11
4.145616476168597
 21
13.98107886718549
 31
0.0
  0
LINE
  5
1C1CF
330
1F
100
AcDbEntity
  8
0
100
AcDbLine
 10
4.142855474878903
 20
13.98307979481348
 30
0.0
 11
4.144944273685042
 21
13.98136353441055
 31
0.0
  0
LINE
  5
1C1D0
330
1F
100
AcDbEntity
  8
0
100
AcDbLine
 10
4.141832312912068
 20
13.98511978343983
 30
0.0
 11
4.142855474878903
 21
13.98307979481348
 31
0.0
  0
LINE
  5
1C1D1
330
1F
100
AcDbEntity
  8
0
100
AcDbLine
 10
4.14194451458172
 20
13.98734447843595
 30
0.0
 11
4.141832312912068
 21
13.98511978343983
 31
0.0
  0
LINE
  5
1C1D2
330
1F
100
AcDbEntity
  8
0
100
AcDbLine
 10
4.143184433529492
 20
13.98960227051434
 30
0.0
 11
4.14194451458172
 21
13.98734447843595
 31
0.0
  0
LINE
  5
1C1D3
330
1F
100
AcDbEntity
  8
0
100
AcDbLine
 10
4.143950755669747
 20
13.99031955051539
 30
0.0
 11
4.143184433529492
 21
13.98960227051434
 31
0.0
  0
LINE
  5
1C1D4
330
1F
100
AcDbEntity
  8
0
100
AcDbLine
 10
4.175152670028251
 20
13.99054049800616
 30
0.0
 11
4.174129508061414
 21
13.99258048663251
 31
0.0
  0
LINE
  5
1C1D5
330
1F
100
AcDbEntity
  8
0
100
AcDbLine
 10
4.175040468358599
 20
13.98831580301004
 30
0.0
 11
4.175152670028251
 21
13.99054049800616
 31
0.0
  0
LINE
  5
1C1D6
330
1F
100
AcDbEntity
  8
0
100
AcDbLine
 10
4.174129508061414
 20
13.99258048663251
 30
0.0
 11
4.173034227270573
 21
13.99348042349856
 31
0.0
  0
LINE
  5
1C1D7
330
1F
100
AcDbEntity
  8
0
100
AcDbLine
 10
4.173800549410827
 20
13.98605801093165
 30
0.0
 11
4.175040468358599
 21
13.98831580301004
 31
0.0
  0
LINE
  5
1C1D8
330
1F
100
AcDbEntity
  8
0
100
AcDbLine
 10
4.172776942541622
 20
13.98509991159242
 30
0.0
 11
4.173800549410827
 21
13.98605801093165
 31
0.0
  0
LINE
  5
1C1D9
330
1F
100
AcDbEntity
  8
0
100
AcDbLine
 10
4.181492491470157
 20
12.42657574671318
 30
0.0
 11
4.181492491470157
 21
12.4285536673764
 31
0.0
  0
LINE
  5
1C1DA
330
1F
100
AcDbEntity
  8
0
100
AcDbLine
 10
4.181492491470157
 20
13.98783014072299
 30
0.0
 11
4.181492491470157
 21
13.99450487709861
 31
0.0
  0
LINE
  5
1C1DB
330
1F
100
AcDbEntity
  8
0
100
AcDbLine
 10
4.181492491470157
 20
13.99450487709861
 30
0.0
 11
4.181492491470158
 21
14.04422412136414
 31
0.0
  0
LINE
  5
1C1DC
330
1F
100
AcDbEntity
  8
0
100
AcDbLine
 10
4.143950755669747
 20
13.98954570390414
 30
0.0
 11
4.143950755669747
 21
13.99031955051539
 31
0.0
  0
LINE
  5
1C1DD
330
1F
100
AcDbEntity
  8
0
100
AcDbLine
 10
4.173034227270573
 20
13.98611457754185
 30
0.0
 11
4.172776942541622
 21
13.98509991159242
 31
0.0
  0
LINE
  5
1C1DE
330
1F
100
AcDbEntity
  8
0
100
AcDbLine
 10
4.172776942541622
 20
13.98509991159242
 30
0.0
 11
4.172094709214491
 21
13.9824093557657
 31
0.0
  0
LINE
  5
1C1DF
330
1F
100
AcDbEntity
  8
0
100
AcDbLine
 10
4.14699684511652
 20
13.97876066708725
 30
0.0
 11
4.145616476168597
 21
13.98107886718549
 31
0.0
  0
LINE
  5
1C1E0
330
1F
100
AcDbEntity
  8
0
100
AcDbLine
 10
4.145616476168597
 20
13.98107886718549
 30
0.0
 11
4.145041197261304
 21
13.98204499411946
 31
0.0
  0
LINE
  5
1C1E1
330
1F
100
AcDbEntity
  8
0
100
AcDbLine
 10
4.173034227270573
 20
13.98611457754185
 30
0.0
 11
4.173034227270573
 21
13.99348042349856
 31
0.0
  0
LINE
  5
1C1E2
330
1F
100
AcDbEntity
  8
0
100
AcDbLine
 10
4.141832312912068
 20
12.42501151906218
 30
0.0
 11
4.141832312912068
 21
12.12673537278003
 31
0.0
  0
LINE
  5
1C1E3
330
1F
100
AcDbEntity
  8
0
100
AcDbLine
 10
4.175152670028251
 20
13.98255146226232
 30
0.0
 11
4.175152670028251
 21
13.99054049800616
 31
0.0
  0
LINE
  5
1C1E4
330
1F
100
AcDbEntity
  8
0
100
AcDbLine
 10
4.141832312912068
 20
13.98511978343983
 30
0.0
 11
4.141832312912068
 21
13.98255146226232
 31
0.0
  0
LINE
  5
1C1E5
330
1F
100
AcDbEntity
  8
0
100
AcDbLine
 10
4.141832312912068
 20
13.98255146226232
 30
0.0
 11
4.141832312912068
 21
12.82544611522532
 31
0.0
  0
LINE
  5
1C1E6
330
1F
100
AcDbEntity
  8
0
100
AcDbLine
 10
4.175152670028251
 20
12.1256829127676
 30
0.0
 11
4.175152670028251
 21
12.42501151906218
 31
0.0
  0
LINE
  5
1C1E7
330
1F
100
AcDbEntity
  8
0
100
AcDbLine
 10
4.175152670028251
 20
12.82544611522532
 30
0.0
 11
4.175152670028251
 21
13.98255146226232
 31
0.0
  0
LINE
  5
1C1E8
330
1F
100
AcDbEntity
  8
0
100
AcDbLine
 10
4.181492491470157
 20
12.14577943796968
 30
0.0
 11
4.181492491470157
 21
12.12673537278003
 31
0.0
  0
LINE
  5
1C1E9
330
1F
100
AcDbEntity
  8
0
100
AcDbLine
 10
4.135492491470156
 20
12.42657574671318
 30
0.0
 11
4.135492491470156
 21
12.12673537278003
 31
0.0
  0
LINE
  5
1C1EA
330
1F
100
AcDbEntity
  8
0
100
AcDbLine
 10
4.181492491470157
 20
12.42657574671318
 30
0.0
 11
4.181492491470157
 21
12.14577943796968
 31
0.0
  0
LINE
  5
1C1EB
330
1F
100
AcDbEntity
  8
0
100
AcDbLine
 10
4.181492491470157
 20
13.98783014072299
 30
0.0
 11
4.181492491470157
 21
12.82898826353954
 31
0.0
  0
LINE
  5
1C1EC
330
1F
100
AcDbEntity
  8
0
100
AcDbLine
 10
4.135492491470159
 20
13.98783014072299
 30
0.0
 11
4.135492491470156
 21
12.82701034287632
 31
0.0
  0
LINE
  5
1C1ED
330
1F
100
AcDbEntity
  8
0
100
AcDbLine
 10
4.143950755669747
 20
14.04422412136414
 30
0.0
 11
4.143950755669747
 21
13.99031955051539
 31
0.0
  0
LINE
  5
1C1EE
330
1F
100
AcDbEntity
  8
0
100
AcDbLine
 10
4.173034227270573
 20
14.04422412136414
 30
0.0
 11
4.173034227270573
 21
13.99348042349856
 31
0.0
  0
ARC
  5
1C1EF
330
1F
100
AcDbEntity
  8
0
100
AcDbCircle
 10
4.158575629483141
 20
12.12884125064466
 30
0.0
 40
0.0168752295208051
100
AcDbArc
 50
187.1686902151656
 51
349.2130127358568
  0
LINE
  5
1C1F0
330
1F
100
AcDbEntity
  8
0
100
AcDbLine
 10
3.940928358430831
 20
14.14422412136413
 30
0.0
 11
3.919637332353005
 21
14.14422412136414
 31
0.0
  0
LINE
  5
1C1F1
330
1F
100
AcDbEntity
  8
0
100
AcDbLine
 10
3.324189288831853
 20
14.14422412136414
 30
0.0
 11
3.893863574825477
 21
14.14422412136414
 31
0.0
  0
LINE
  5
1C1F2
330
1F
100
AcDbEntity
  8
0
100
AcDbLine
 10
3.893863574825477
 20
14.14422412136414
 30
0.0
 11
3.898424128917412
 21
14.14422412136414
 31
0.0
  0
LINE
  5
1C1F3
330
1F
100
AcDbEntity
  8
0
100
AcDbLine
 10
3.898424128917886
 20
15.24422412136419
 30
0.0
 11
3.893863574825948
 21
15.24422412136419
 31
0.0
  0
LINE
  5
1C1F4
330
1F
100
AcDbEntity
  8
0
100
AcDbLine
 10
3.893863574825948
 20
15.24422412136419
 30
0.0
 11
3.324189288832334
 21
15.24422412136419
 31
0.0
  0
LINE
  5
1C1F5
330
1F
100
AcDbEntity
  8
0
100
AcDbLine
 10
3.951377482636546
 20
15.24422412136419
 30
0.0
 11
4.476759974204478
 21
15.24422412136419
 31
0.0
  0
LINE
  5
1C1F6
330
1F
100
AcDbEntity
  8
0
100
AcDbLine
 10
3.948218959763355
 20
14.14422412136413
 30
0.0
 11
3.940928358430831
 21
14.14422412136413
 31
0.0
  0
LINE
  5
1C1F7
330
1F
100
AcDbEntity
  8
0
100
AcDbLine
 10
3.919637332353483
 20
15.24422412136419
 30
0.0
 11
3.939625044131835
 21
15.24422412136419
 31
0.0
  0
LINE
  5
1C1F8
330
1F
100
AcDbEntity
  8
0
100
AcDbLine
 10
3.951377482636068
 20
14.14422412136413
 30
0.0
 11
3.948218959763355
 21
14.14422412136413
 31
0.0
  0
LINE
  5
1C1F9
330
1F
100
AcDbEntity
  8
0
100
AcDbLine
 10
3.939625044131835
 20
15.24422412136419
 30
0.0
 11
3.948218959763826
 21
15.24422412136419
 31
0.0
  0
LINE
  5
1C1FA
330
1F
100
AcDbEntity
  8
0
100
AcDbLine
 10
3.948218959763826
 20
15.24422412136419
 30
0.0
 11
3.951377482636546
 21
15.24422412136419
 31
0.0
  0
LINE
  5
1C1FB
330
1F
100
AcDbEntity
  8
0
100
AcDbLine
 10
4.476759974204014
 20
14.14422412136414
 30
0.0
 11
3.951377482636068
 21
14.14422412136413
 31
0.0
  0
LINE
  5
1C1FC
330
1F
100
AcDbEntity
  8
0
100
AcDbLine
 10
3.300321393584674
 20
14.14422412136414
 30
0.0
 11
3.324189288831853
 21
14.14422412136414
 31
0.0
  0
LINE
  5
1C1FD
330
1F
100
AcDbEntity
  8
0
100
AcDbLine
 10
3.300321393585152
 20
15.24422412136419
 30
0.0
 11
3.324189288832334
 21
15.24422412136419
 31
0.0
  0
LINE
  5
1C1FE
330
1F
100
AcDbEntity
  8
0
100
AcDbLine
 10
4.499916606173298
 20
15.24422412136419
 30
0.0
 11
4.476759974204478
 21
15.24422412136419
 31
0.0
  0
LINE
  5
1C1FF
330
1F
100
AcDbEntity
  8
0
100
AcDbLine
 10
4.499916606172828
 20
14.14422412136414
 30
0.0
 11
4.476759974204014
 21
14.14422412136414
 31
0.0
  0
LINE
  5
1C200
330
1F
100
AcDbEntity
  8
0
100
AcDbLine
 10
3.622219948984993
 20
12.50898160543501
 30
0.0
 11
3.622219948984993
 21
12.10898160543501
 31
0.0
  0
LINE
  5
1C201
330
1F
100
AcDbEntity
  8
0
100
AcDbLine
 10
4.141832298012189
 20
13.58562760733858
 30
0.0
 11
4.141832298012189
 21
12.42852226030158
 31
0.0
  0
LINE
  5
1C202
330
1F
100
AcDbEntity
  8
0
100
AcDbLine
 10
4.175152655128372
 20
12.42852226030158
 30
0.0
 11
4.175152655128372
 21
13.58562760733858
 31
0.0
  0
LINE
  5
1C203
330
1F
100
AcDbEntity
  8
0
100
AcDbLine
 10
4.181492476570278
 20
13.59090628579926
 30
0.0
 11
4.181492476570278
 21
12.4320644086158
 31
0.0
  0
LINE
  5
1C204
330
1F
100
AcDbEntity
  8
0
100
AcDbLine
 10
4.135492476570281
 20
13.59090628579926
 30
0.0
 11
4.135492476570277
 21
12.43008648795258
 31
0.0
  0
LINE
  5
1C205
330
1F
100
AcDbEntity
  8
0
100
AcDbLine
 10
3.621823211494314
 20
13.58368109066206
 30
0.0
 11
3.621823211494314
 21
12.42657574362506
 31
0.0
  0
LINE
  5
1C206
330
1F
100
AcDbEntity
  8
0
100
AcDbLine
 10
3.655143568610497
 20
12.42657574362506
 30
0.0
 11
3.655143568610497
 21
13.58368109066206
 31
0.0
  0
LINE
  5
1C207
330
1F
100
AcDbEntity
  8
0
100
AcDbLine
 10
3.661483390052403
 20
13.58895976912273
 30
0.0
 11
3.661483390052403
 21
12.43011789193928
 31
0.0
  0
LINE
  5
1C208
330
1F
100
AcDbEntity
  8
0
100
AcDbLine
 10
3.616267110947635
 20
12.42598440062977
 30
0.0
 11
3.615483404952284
 21
13.98783014072299
 31
0.0
  0
LINE
  5
1C209
330
1F
100
AcDbEntity
  8
0
100
AcDbLine
 10
4.141832298012189
 20
12.42852226030158
 30
0.0
 11
4.141832312912068
 21
12.42501151906218
 31
0.0
  0
LINE
  5
1C20A
330
1F
100
AcDbEntity
  8
0
100
AcDbLine
 10
4.175152670028251
 20
12.42501151906218
 30
0.0
 11
4.175152655128372
 21
12.42852226030158
 31
0.0
  0
LINE
  5
1C20B
330
1F
100
AcDbEntity
  8
0
100
AcDbLine
 10
4.181492476570278
 20
12.4320644086158
 30
0.0
 11
4.181492491470157
 21
12.42657574671318
 31
0.0
  0
LINE
  5
1C20C
330
1F
100
AcDbEntity
  8
0
100
AcDbLine
 10
3.919637332353483
 20
15.24422412136419
 30
0.0
 11
3.919637332353483
 21
15.14422412136419
 31
0.0
  0
LINE
  5
1C20D
330
1F
100
AcDbEntity
  8
0
100
AcDbLine
 10
3.919637332353483
 20
15.14422412136419
 30
0.0
 11
4.499916606173299
 21
15.14422412136419
 31
0.0
  0
LINE
  5
1C20E
330
1F
100
AcDbEntity
  8
0
100
AcDbLine
 10
4.499916606173299
 20
15.04422412136419
 30
0.0
 11
3.919637332353483
 21
15.04422412136419
 31
0.0
  0
LINE
  5
1C20F
330
1F
100
AcDbEntity
  8
0
100
AcDbLine
 10
3.919637332353483
 20
15.04422412136419
 30
0.0
 11
3.919637332353483
 21
14.94422412136419
 31
0.0
  0
LINE
  5
1C210
330
1F
100
AcDbEntity
  8
0
100
AcDbLine
 10
3.919637332353483
 20
14.94422412136419
 30
0.0
 11
4.499916606173299
 21
14.94422412136418
 31
0.0
  0
ARC
  5
1C211
330
1F
100
AcDbEntity
  8
0
100
AcDbCircle
 10
4.500791442094737
 20
15.19422412136419
 30
0.0
 40
0.0500076527932462
100
AcDbArc
 50
268.9976141588701
 51
91.00238584113084
  0
ARC
  5
1C212
330
1F
100
AcDbEntity
  8
0
100
AcDbCircle
 10
4.500791442094768
 20
15.09422412136418
 30
0.0
 40
0.0500076527932462
100
AcDbArc
 50
268.9976141588701
 51
91.00238584113091
  0
ARC
  5
1C213
330
1F
100
AcDbEntity
  8
0
100
AcDbCircle
 10
4.500791442094769
 20
14.99422412136417
 30
0.0
 40
0.0500076527932462
100
AcDbArc
 50
268.9976141588701
 51
91.00238584113091
  0
LINE
  5
1C214
330
1F
100
AcDbEntity
  8
0
100
AcDbLine
 10
3.919637332353484
 20
14.84422412136418
 30
0.0
 11
4.4999166061733
 21
14.84422412136417
 31
0.0
  0
LINE
  5
1C215
330
1F
100
AcDbEntity
  8
0
100
AcDbLine
 10
4.4999166061733
 20
14.74422412136418
 30
0.0
 11
3.919637332353484
 21
14.74422412136418
 31
0.0
  0
LINE
  5
1C216
330
1F
100
AcDbEntity
  8
0
100
AcDbLine
 10
3.919637332353484
 20
14.64422412136418
 30
0.0
 11
4.4999166061733
 21
14.64422412136417
 31
0.0
  0
ARC
  5
1C217
330
1F
100
AcDbEntity
  8
0
100
AcDbCircle
 10
4.500791442094738
 20
14.89422412136418
 30
0.0
 40
0.0500076527932462
100
AcDbArc
 50
268.9976141588701
 51
91.00238584113091
  0
ARC
  5
1C218
330
1F
100
AcDbEntity
  8
0
100
AcDbCircle
 10
4.500791442094769
 20
14.79422412136417
 30
0.0
 40
0.0500076527932462
100
AcDbArc
 50
268.9976141588701
 51
91.00238584113091
  0
ARC
  5
1C219
330
1F
100
AcDbEntity
  8
0
100
AcDbCircle
 10
4.50079144209477
 20
14.69422412136416
 30
0.0
 40
0.0500076527932462
100
AcDbArc
 50
268.9976141588701
 51
91.00238584113091
  0
LINE
  5
1C21A
330
1F
100
AcDbEntity
  8
0
100
AcDbLine
 10
3.919637332353516
 20
14.54422412136416
 30
0.0
 11
4.499916606173333
 21
14.54422412136415
 31
0.0
  0
LINE
  5
1C21B
330
1F
100
AcDbEntity
  8
0
100
AcDbLine
 10
4.499916606173333
 20
14.44422412136415
 30
0.0
 11
3.919637332353516
 21
14.44422412136415
 31
0.0
  0
LINE
  5
1C21C
330
1F
100
AcDbEntity
  8
0
100
AcDbLine
 10
3.919637332353516
 20
14.34422412136415
 30
0.0
 11
4.499916606173333
 21
14.34422412136415
 31
0.0
  0
ARC
  5
1C21D
330
1F
100
AcDbEntity
  8
0
100
AcDbCircle
 10
4.50079144209477
 20
14.59422412136415
 30
0.0
 40
0.0500076527932462
100
AcDbArc
 50
268.9976141588701
 51
91.00238584113091
  0
ARC
  5
1C21E
330
1F
100
AcDbEntity
  8
0
100
AcDbCircle
 10
4.500791442094802
 20
14.49422412136414
 30
0.0
 40
0.0500076527932462
100
AcDbArc
 50
268.9976141588701
 51
91.00238584113091
  0
ARC
  5
1C21F
330
1F
100
AcDbEntity
  8
0
100
AcDbCircle
 10
4.500791442094802
 20
14.39422412136413
 30
0.0
 40
0.0500076527932462
100
AcDbArc
 50
268.9976141588701
 51
91.00238584113091
  0
LINE
  5
1C220
330
1F
100
AcDbEntity
  8
0
100
AcDbLine
 10
3.919637332353517
 20
14.24422412136415
 30
0.0
 11
4.499916606173334
 21
14.24422412136414
 31
0.0
  0
LINE
  5
1C221
330
1F
100
AcDbEntity
  8
0
100
AcDbLine
 10
4.499916606173334
 20
14.14422412136414
 30
0.0
 11
3.919637332353517
 21
14.14422412136414
 31
0.0
  0
ARC
  5
1C222
330
1F
100
AcDbEntity
  8
0
100
AcDbCircle
 10
4.500791442094771
 20
14.29422412136414
 30
0.0
 40
0.0500076527932462
100
AcDbArc
 50
268.9976141588701
 51
91.00238584113091
  0
ARC
  5
1C223
330
1F
100
AcDbEntity
  8
0
100
AcDbCircle
 10
4.500791442094802
 20
14.19422412136413
 30
0.0
 40
0.0500076527932462
100
AcDbArc
 50
268.9976141588701
 51
91.00238584113091
  0
LINE
  5
1C224
330
1F
100
AcDbEntity
  8
0
100
AcDbLine
 10
3.919637332353483
 20
15.24422412136419
 30
0.0
 11
3.919637332353517
 21
14.14422412136414
 31
0.0
  0
LINE
  5
1C225
330
1F
100
AcDbEntity
  8
0
100
AcDbLine
 10
3.898424128917886
 20
14.14263737389358
 30
0.0
 11
3.898424128917886
 21
15.24422412136419
 31
0.0
  0
LINE
  5
1C226
330
1F
100
AcDbEntity
  8
0
100
AcDbLine
 10
3.880600667405034
 20
14.24422412136413
 30
0.0
 11
3.300321393585218
 21
14.24422412136414
 31
0.0
  0
LINE
  5
1C227
330
1F
100
AcDbEntity
  8
0
100
AcDbLine
 10
3.300321393585218
 20
14.34422412136414
 30
0.0
 11
3.880600667405034
 21
14.34422412136414
 31
0.0
  0
LINE
  5
1C228
330
1F
100
AcDbEntity
  8
0
100
AcDbLine
 10
3.880600667405034
 20
14.44422412136414
 30
0.0
 11
3.300321393585218
 21
14.44422412136414
 31
0.0
  0
ARC
  5
1C229
330
1F
100
AcDbEntity
  8
0
100
AcDbCircle
 10
3.29944655766378
 20
14.19422412136413
 30
0.0
 40
0.0500076527932462
100
AcDbArc
 50
88.99761415887006
 51
271.0023858411308
  0
ARC
  5
1C22A
330
1F
100
AcDbEntity
  8
0
100
AcDbCircle
 10
3.299446557663749
 20
14.29422412136414
 30
0.0
 40
0.0500076527932462
100
AcDbArc
 50
88.99761415887006
 51
271.0023858411308
  0
ARC
  5
1C22B
330
1F
100
AcDbEntity
  8
0
100
AcDbCircle
 10
3.299446557663748
 20
14.39422412136415
 30
0.0
 40
0.0500076527932462
100
AcDbArc
 50
88.99761415887006
 51
271.0023858411308
  0
LINE
  5
1C22C
330
1F
100
AcDbEntity
  8
0
100
AcDbLine
 10
3.880600667405033
 20
14.54422412136414
 30
0.0
 11
3.300321393585217
 21
14.54422412136415
 31
0.0
  0
LINE
  5
1C22D
330
1F
100
AcDbEntity
  8
0
100
AcDbLine
 10
3.300321393585217
 20
14.64422412136415
 30
0.0
 11
3.880600667405033
 21
14.64422412136415
 31
0.0
  0
LINE
  5
1C22E
330
1F
100
AcDbEntity
  8
0
100
AcDbLine
 10
3.880600667405033
 20
14.74422412136415
 30
0.0
 11
3.300321393585217
 21
14.74422412136415
 31
0.0
  0
ARC
  5
1C22F
330
1F
100
AcDbEntity
  8
0
100
AcDbCircle
 10
3.299446557663779
 20
14.49422412136414
 30
0.0
 40
0.0500076527932462
100
AcDbArc
 50
88.99761415887006
 51
271.0023858411308
  0
ARC
  5
1C230
330
1F
100
AcDbEntity
  8
0
100
AcDbCircle
 10
3.299446557663748
 20
14.59422412136415
 30
0.0
 40
0.0500076527932462
100
AcDbArc
 50
88.99761415887006
 51
271.0023858411308
  0
ARC
  5
1C231
330
1F
100
AcDbEntity
  8
0
100
AcDbCircle
 10
3.299446557663747
 20
14.69422412136416
 30
0.0
 40
0.0500076527932462
100
AcDbArc
 50
88.99761415887006
 51
271.0023858411308
  0
LINE
  5
1C232
330
1F
100
AcDbEntity
  8
0
100
AcDbLine
 10
3.880600667405
 20
14.84422412136417
 30
0.0
 11
3.300321393585184
 21
14.84422412136417
 31
0.0
  0
LINE
  5
1C233
330
1F
100
AcDbEntity
  8
0
100
AcDbLine
 10
3.300321393585184
 20
14.94422412136417
 30
0.0
 11
3.880600667405
 21
14.94422412136417
 31
0.0
  0
LINE
  5
1C234
330
1F
100
AcDbEntity
  8
0
100
AcDbLine
 10
3.880600667405
 20
15.04422412136417
 30
0.0
 11
3.300321393585184
 21
15.04422412136418
 31
0.0
  0
ARC
  5
1C235
330
1F
100
AcDbEntity
  8
0
100
AcDbCircle
 10
3.299446557663746
 20
14.79422412136417
 30
0.0
 40
0.0500076527932462
100
AcDbArc
 50
88.99761415887006
 51
271.0023858411308
  0
ARC
  5
1C236
330
1F
100
AcDbEntity
  8
0
100
AcDbCircle
 10
3.299446557663715
 20
14.89422412136418
 30
0.0
 40
0.0500076527932462
100
AcDbArc
 50
88.99761415887006
 51
271.0023858411308
  0
ARC
  5
1C237
330
1F
100
AcDbEntity
  8
0
100
AcDbCircle
 10
3.299446557663714
 20
14.99422412136419
 30
0.0
 40
0.0500076527932462
100
AcDbArc
 50
88.99761415887006
 51
271.0023858411308
  0
LINE
  5
1C238
330
1F
100
AcDbEntity
  8
0
100
AcDbLine
 10
3.880600667404999
 20
15.14422412136418
 30
0.0
 11
3.300321393585183
 21
15.14422412136418
 31
0.0
  0
ARC
  5
1C239
330
1F
100
AcDbEntity
  8
0
100
AcDbCircle
 10
3.299446557663745
 20
15.09422412136418
 30
0.0
 40
0.0500076527932462
100
AcDbArc
 50
88.99761415887006
 51
271.0023858411308
  0
ARC
  5
1C23A
330
1F
100
AcDbEntity
  8
0
100
AcDbCircle
 10
3.299446557663714
 20
15.19422412136419
 30
0.0
 40
0.0500076527932462
100
AcDbArc
 50
88.99761415887006
 51
271.0023858411308
  0
LINE
  5
1C23C
330
1F
100
AcDbEntity
  8
STREFA BEZPIECZEŃSTWA
100
AcDbLine
 10
1.911278541614766
 20
10.10548629607798
 30
0.0
 11
5.911278541614756
 21
10.10548629607798
 31
0.0
  0
LINE
  5
1C23E
330
1F
100
AcDbEntity
  8
0
100
AcDbLine
 10
3.893863574825939
 20
15.3442241213642
 30
0.0
 11
3.324189288832325
 21
15.3442241213642
 31
0.0
  0
LINE
  5
1C23F
330
1F
100
AcDbEntity
  8
0
100
AcDbLine
 10
3.951377482636537
 20
15.3442241213642
 30
0.0
 11
4.476759974204469
 21
15.3442241213642
 31
0.0
  0
LINE
  5
1C240
330
1F
100
AcDbEntity
  8
0
100
AcDbLine
 10
3.919637332353474
 20
15.3442241213642
 30
0.0
 11
3.939625044131826
 21
15.3442241213642
 31
0.0
  0
LINE
  5
1C241
330
1F
100
AcDbEntity
  8
0
100
AcDbLine
 10
3.939625044131826
 20
15.3442241213642
 30
0.0
 11
3.948218959763817
 21
15.3442241213642
 31
0.0
  0
LINE
  5
1C242
330
1F
100
AcDbEntity
  8
0
100
AcDbLine
 10
3.948218959763817
 20
15.3442241213642
 30
0.0
 11
3.951377482636537
 21
15.3442241213642
 31
0.0
  0
LINE
  5
1C243
330
1F
100
AcDbEntity
  8
0
100
AcDbLine
 10
3.300321393585142
 20
15.3442241213642
 30
0.0
 11
3.324189288832325
 21
15.3442241213642
 31
0.0
  0
LINE
  5
1C244
330
1F
100
AcDbEntity
  8
0
100
AcDbLine
 10
4.49991660617329
 20
15.3442241213642
 30
0.0
 11
4.476759974204469
 21
15.3442241213642
 31
0.0
  0
ARC
  5
1C245
330
1F
100
AcDbEntity
  8
0
100
AcDbCircle
 10
4.500791442094728
 20
15.2942241213642
 30
0.0
 40
0.0500076527932462
100
AcDbArc
 50
268.9976141588701
 51
91.00238584113082
  0
ARC
  5
1C246
330
1F
100
AcDbEntity
  8
0
100
AcDbCircle
 10
3.299446557663705
 20
15.2942241213642
 30
0.0
 40
0.0500076527932462
100
AcDbArc
 50
88.99761415887006
 51
271.0023858411307
  0
LINE
  5
1C247
330
1F
100
AcDbEntity
  8
0
100
AcDbLine
 10
3.893863574825939
 20
15.3442241213642
 30
0.0
 11
3.919637332353474
 21
15.3442241213642
 31
0.0
  0
LINE
  5
1C248
330
1F
100
AcDbEntity
  8
0
100
AcDbLine
 10
3.919637332353474
 20
15.3442241213642
 30
0.0
 11
3.919637332353483
 21
15.24422412136419
 31
0.0
  0
LINE
  5
1C249
330
1F
100
AcDbEntity
  8
0
100
AcDbLine
 10
3.898424128917886
 20
15.24422412136419
 30
0.0
 11
3.898424128917885
 21
15.3442241213642
 31
0.0
  0
LINE
  5
1C24A
330
1F
100
AcDbEntity
  8
0
100
AcDbLine
 10
3.661483404951738
 20
14.04263737389358
 30
0.0
 11
4.135492491469616
 21
14.04263737389358
 31
0.0
  0
LINE
  5
1C24B
330
1F
100
AcDbEntity
  8
0
100
AcDbLine
 10
3.324189288831309
 20
14.04422412136414
 30
0.0
 11
3.893863574824933
 21
14.04422412136414
 31
0.0
  0
LINE
  5
1C24C
330
1F
100
AcDbEntity
  8
0
100
AcDbLine
 10
4.476759974203471
 20
14.04422412136414
 30
0.0
 11
3.951377482635525
 21
14.04422412136414
 31
0.0
  0
LINE
  5
1C24D
330
1F
100
AcDbEntity
  8
0
100
AcDbLine
 10
3.30032139358413
 20
14.04422412136414
 30
0.0
 11
3.324189288831309
 21
14.04422412136414
 31
0.0
  0
LINE
  5
1C24E
330
1F
100
AcDbEntity
  8
0
100
AcDbLine
 10
4.499916606172284
 20
14.04422412136414
 30
0.0
 11
4.476759974203471
 21
14.04422412136414
 31
0.0
  0
LINE
  5
1C24F
330
1F
100
AcDbEntity
  8
0
100
AcDbLine
 10
4.49991660617279
 20
14.04422412136414
 30
0.0
 11
3.919637332352974
 21
14.04422412136414
 31
0.0
  0
ARC
  5
1C250
330
1F
100
AcDbEntity
  8
0
100
AcDbCircle
 10
4.500791442094259
 20
14.09422412136413
 30
0.0
 40
0.0500076527932462
100
AcDbArc
 50
268.9976141588701
 51
91.00238584113091
  0
ARC
  5
1C251
330
1F
100
AcDbEntity
  8
0
100
AcDbCircle
 10
3.299446557663237
 20
14.09422412136413
 30
0.0
 40
0.0500076527932462
100
AcDbArc
 50
88.99761415887006
 51
271.0023858411308
  0
LINE
  5
1C252
330
1F
100
AcDbEntity
  8
0
100
AcDbLine
 10
3.898424128917886
 20
14.14263737389358
 30
0.0
 11
3.898424128917884
 21
14.04422412136414
 31
0.0
  0
LINE
  5
1C253
330
1F
100
AcDbEntity
  8
0
100
AcDbLine
 10
3.919637332353005
 20
14.14422412136414
 30
0.0
 11
3.919637332352974
 21
14.04422412136414
 31
0.0
  0
CIRCLE
  5
1C254
330
1F
100
AcDbEntity
  8
0
100
AcDbCircle
 10
4.03357958058806
 20
15.28596209217482
 30
0.0
 40
0.01089627287962
  0
CIRCLE
  5
1C255
330
1F
100
AcDbEntity
  8
0
100
AcDbCircle
 10
4.03357958058806
 20
15.18798637613567
 30
0.0
 40
0.01089627287962
  0
CIRCLE
  5
1C256
330
1F
100
AcDbEntity
  8
0
100
AcDbCircle
 10
4.03357958058806
 20
15.09001066009653
 30
0.0
 40
0.01089627287962
  0
CIRCLE
  5
1C257
330
1F
100
AcDbEntity
  8
0
100
AcDbCircle
 10
4.03357958058806
 20
14.98931341824993
 30
0.0
 40
0.01089627287962
  0
CIRCLE
  5
1C258
330
1F
100
AcDbEntity
  8
0
100
AcDbCircle
 10
4.03357958058806
 20
14.89133770221078
 30
0.0
 40
0.01089627287962
  0
CIRCLE
  5
1C259
330
1F
100
AcDbEntity
  8
0
100
AcDbCircle
 10
4.03357958058806
 20
14.79336198617163
 30
0.0
 40
0.01089627287962
  0
CIRCLE
  5
1C25A
330
1F
100
AcDbEntity
  8
0
100
AcDbCircle
 10
4.03357958058806
 20
14.69266474432503
 30
0.0
 40
0.01089627287962
  0
CIRCLE
  5
1C25B
330
1F
100
AcDbEntity
  8
0
100
AcDbCircle
 10
4.03357958058806
 20
14.59196747999355
 30
0.0
 40
0.01089627287962
  0
CIRCLE
  5
1C25C
330
1F
100
AcDbEntity
  8
0
100
AcDbCircle
 10
4.03357958058806
 20
14.49127021566206
 30
0.0
 40
0.01089627287962
  0
CIRCLE
  5
1C25D
330
1F
100
AcDbEntity
  8
0
100
AcDbCircle
 10
4.03357958058806
 20
14.3932945221078
 30
0.0
 40
0.01089627287962
  0
CIRCLE
  5
1C25E
330
1F
100
AcDbEntity
  8
0
100
AcDbCircle
 10
4.033758055666496
 20
14.29327023045776
 30
0.0
 40
0.01089627287962
  0
CIRCLE
  5
1C25F
330
1F
100
AcDbEntity
  8
0
100
AcDbCircle
 10
4.029472032654645
 20
14.19478307316862
 30
0.0
 40
0.01089627287962
  0
CIRCLE
  5
1C260
330
1F
100
AcDbEntity
  8
0
100
AcDbCircle
 10
4.027329044977172
 20
14.09415490489628
 30
0.0
 40
0.01089627287962
  0
CIRCLE
  5
1C261
330
1F
100
AcDbEntity
  8
0
100
AcDbCircle
 10
4.394385180414552
 20
15.28777284513113
 30
0.0
 40
0.01089627287962
  0
CIRCLE
  5
1C262
330
1F
100
AcDbEntity
  8
0
100
AcDbCircle
 10
4.394385180414552
 20
15.18979712909198
 30
0.0
 40
0.01089627287962
  0
CIRCLE
  5
1C263
330
1F
100
AcDbEntity
  8
0
100
AcDbCircle
 10
4.394385180414552
 20
15.09182141305283
 30
0.0
 40
0.01089627287962
  0
CIRCLE
  5
1C264
330
1F
100
AcDbEntity
  8
0
100
AcDbCircle
 10
4.394385180414552
 20
14.99112417120624
 30
0.0
 40
0.01089627287962
  0
CIRCLE
  5
1C265
330
1F
100
AcDbEntity
  8
0
100
AcDbCircle
 10
4.394385180414552
 20
14.89314845516708
 30
0.0
 40
0.01089627287962
  0
CIRCLE
  5
1C266
330
1F
100
AcDbEntity
  8
0
100
AcDbCircle
 10
4.394385180414552
 20
14.79517273912793
 30
0.0
 40
0.01089627287962
  0
CIRCLE
  5
1C267
330
1F
100
AcDbEntity
  8
0
100
AcDbCircle
 10
4.394385180414552
 20
14.69447549728134
 30
0.0
 40
0.01089627287962
  0
CIRCLE
  5
1C268
330
1F
100
AcDbEntity
  8
0
100
AcDbCircle
 10
4.394385180414552
 20
14.59377823294985
 30
0.0
 40
0.01089627287962
  0
CIRCLE
  5
1C269
330
1F
100
AcDbEntity
  8
0
100
AcDbCircle
 10
4.394385180414552
 20
14.49308096861837
 30
0.0
 40
0.01089627287962
  0
CIRCLE
  5
1C26A
330
1F
100
AcDbEntity
  8
0
100
AcDbCircle
 10
4.394385180414552
 20
14.39510527506411
 30
0.0
 40
0.01089627287962
  0
CIRCLE
  5
1C26B
330
1F
100
AcDbEntity
  8
0
100
AcDbCircle
 10
4.394563655492987
 20
14.29508098341407
 30
0.0
 40
0.01089627287962
  0
CIRCLE
  5
1C26C
330
1F
100
AcDbEntity
  8
0
100
AcDbCircle
 10
4.390277632481137
 20
14.19659382612493
 30
0.0
 40
0.01089627287962
  0
CIRCLE
  5
1C26D
330
1F
100
AcDbEntity
  8
0
100
AcDbCircle
 10
4.388134644803663
 20
14.09596565785259
 30
0.0
 40
0.01089627287962
  0
CIRCLE
  5
1C26E
330
1F
100
AcDbEntity
  8
0
100
AcDbCircle
 10
3.79254524609044
 20
15.2881660608429
 30
0.0
 40
0.01089627287962
  0
CIRCLE
  5
1C26F
330
1F
100
AcDbEntity
  8
0
100
AcDbCircle
 10
3.79254524609044
 20
15.19019034480374
 30
0.0
 40
0.01089627287962
  0
CIRCLE
  5
1C270
330
1F
100
AcDbEntity
  8
0
100
AcDbCircle
 10
3.79254524609044
 20
15.0922146287646
 30
0.0
 40
0.01089627287962
  0
CIRCLE
  5
1C271
330
1F
100
AcDbEntity
  8
0
100
AcDbCircle
 10
3.79254524609044
 20
14.991517386918
 30
0.0
 40
0.01089627287962
  0
CIRCLE
  5
1C272
330
1F
100
AcDbEntity
  8
0
100
AcDbCircle
 10
3.79254524609044
 20
14.89354167087885
 30
0.0
 40
0.01089627287962
  0
CIRCLE
  5
1C273
330
1F
100
AcDbEntity
  8
0
100
AcDbCircle
 10
3.79254524609044
 20
14.7955659548397
 30
0.0
 40
0.01089627287962
  0
CIRCLE
  5
1C274
330
1F
100
AcDbEntity
  8
0
100
AcDbCircle
 10
3.79254524609044
 20
14.6948687129931
 30
0.0
 40
0.01089627287962
  0
CIRCLE
  5
1C275
330
1F
100
AcDbEntity
  8
0
100
AcDbCircle
 10
3.79254524609044
 20
14.59417144866162
 30
0.0
 40
0.01089627287962
  0
CIRCLE
  5
1C276
330
1F
100
AcDbEntity
  8
0
100
AcDbCircle
 10
3.79254524609044
 20
14.49347418433013
 30
0.0
 40
0.01089627287962
  0
CIRCLE
  5
1C277
330
1F
100
AcDbEntity
  8
0
100
AcDbCircle
 10
3.79254524609044
 20
14.39549849077587
 30
0.0
 40
0.01089627287962
  0
CIRCLE
  5
1C278
330
1F
100
AcDbEntity
  8
0
100
AcDbCircle
 10
3.792723721168876
 20
14.29547419912583
 30
0.0
 40
0.01089627287962
  0
CIRCLE
  5
1C279
330
1F
100
AcDbEntity
  8
0
100
AcDbCircle
 10
3.788437698157025
 20
14.19698704183669
 30
0.0
 40
0.01089627287962
  0
CIRCLE
  5
1C27A
330
1F
100
AcDbEntity
  8
0
100
AcDbCircle
 10
3.786294710479552
 20
14.09635887356435
 30
0.0
 40
0.01089627287962
  0
CIRCLE
  5
1C27B
330
1F
100
AcDbEntity
  8
0
100
AcDbCircle
 10
3.41863766923069
 20
15.2881660608429
 30
0.0
 40
0.01089627287962
  0
CIRCLE
  5
1C27C
330
1F
100
AcDbEntity
  8
0
100
AcDbCircle
 10
3.41863766923069
 20
15.19019034480374
 30
0.0
 40
0.01089627287962
  0
CIRCLE
  5
1C27D
330
1F
100
AcDbEntity
  8
0
100
AcDbCircle
 10
3.41863766923069
 20
15.0922146287646
 30
0.0
 40
0.01089627287962
  0
CIRCLE
  5
1C27E
330
1F
100
AcDbEntity
  8
0
100
AcDbCircle
 10
3.41863766923069
 20
14.991517386918
 30
0.0
 40
0.01089627287962
  0
CIRCLE
  5
1C27F
330
1F
100
AcDbEntity
  8
0
100
AcDbCircle
 10
3.41863766923069
 20
14.89354167087885
 30
0.0
 40
0.01089627287962
  0
CIRCLE
  5
1C280
330
1F
100
AcDbEntity
  8
0
100
AcDbCircle
 10
3.41863766923069
 20
14.7955659548397
 30
0.0
 40
0.01089627287962
  0
CIRCLE
  5
1C281
330
1F
100
AcDbEntity
  8
0
100
AcDbCircle
 10
3.41863766923069
 20
14.6948687129931
 30
0.0
 40
0.01089627287962
  0
CIRCLE
  5
1C282
330
1F
100
AcDbEntity
  8
0
100
AcDbCircle
 10
3.41863766923069
 20
14.59417144866162
 30
0.0
 40
0.01089627287962
  0
CIRCLE
  5
1C283
330
1F
100
AcDbEntity
  8
0
100
AcDbCircle
 10
3.41863766923069
 20
14.49347418433013
 30
0.0
 40
0.01089627287962
  0
CIRCLE
  5
1C284
330
1F
100
AcDbEntity
  8
0
100
AcDbCircle
 10
3.41863766923069
 20
14.39549849077587
 30
0.0
 40
0.01089627287962
  0
CIRCLE
  5
1C285
330
1F
100
AcDbEntity
  8
0
100
AcDbCircle
 10
3.418816144309126
 20
14.29547419912583
 30
0.0
 40
0.01089627287962
  0
CIRCLE
  5
1C286
330
1F
100
AcDbEntity
  8
0
100
AcDbCircle
 10
3.414530121297275
 20
14.19698704183669
 30
0.0
 40
0.01089627287962
  0
CIRCLE
  5
1C287
330
1F
100
AcDbEntity
  8
0
100
AcDbCircle
 10
3.412387133619802
 20
14.09635887356435
 30
0.0
 40
0.01089627287962
  0
LINE
  5
1C2D3
330
1F
100
AcDbEntity
  8
0
100
AcDbLine
 10
2.86915071113799
 20
14.69310126063519
 30
0.0
 11
2.868809969400881
 21
14.69568945108622
 31
0.0
  0
LINE
  5
1C2D4
330
1F
100
AcDbEntity
  8
0
100
AcDbLine
 10
2.876221778949854
 20
14.68603019282333
 30
0.0
 11
2.87380996940088
 21
14.68702919704837
 31
0.0
  0
LINE
  5
1C2D5
330
1F
100
AcDbEntity
  8
0
100
AcDbLine
 10
2.87380996940088
 20
14.68702919704837
 30
0.0
 11
2.871738901589015
 21
14.68861838327435
 31
0.0
  0
LINE
  5
1C2D6
330
1F
100
AcDbEntity
  8
0
100
AcDbLine
 10
2.87380996940088
 20
14.70434970512406
 30
0.0
 11
2.876221778949854
 21
14.7053487093491
 31
0.0
  0
LINE
  5
1C2D7
330
1F
100
AcDbEntity
  8
0
100
AcDbLine
 10
2.870149715363037
 20
14.70068945108622
 30
0.0
 11
2.871738901589015
 21
14.70276051889808
 31
0.0
  0
LINE
  5
1C2D8
330
1F
100
AcDbEntity
  8
0
100
AcDbLine
 10
2.871738901589015
 20
14.68861838327435
 30
0.0
 11
2.870149715363037
 21
14.69068945108622
 31
0.0
  0
LINE
  5
1C2D9
330
1F
100
AcDbEntity
  8
0
100
AcDbLine
 10
2.878809969400879
 20
14.68568945108622
 30
0.0
 11
2.876221778949854
 21
14.68603019282333
 31
0.0
  0
LINE
  5
1C2DA
330
1F
100
AcDbEntity
  8
0
100
AcDbLine
 10
2.871738901589015
 20
14.70276051889808
 30
0.0
 11
2.87380996940088
 21
14.70434970512406
 31
0.0
  0
LINE
  5
1C2DB
330
1F
100
AcDbEntity
  8
0
100
AcDbLine
 10
3.041864821892602
 20
14.68568945108622
 30
0.0
 11
3.041493696146076
 21
14.68603019282333
 31
0.0
  0
LINE
  5
1C2DC
330
1F
100
AcDbEntity
  8
0
100
AcDbLine
 10
3.041493696146076
 20
14.7053487093491
 30
0.0
 11
3.041864821892602
 21
14.70568945108622
 31
0.0
  0
LINE
  5
1C2DD
330
1F
100
AcDbEntity
  8
0
100
AcDbLine
 10
2.876221778949854
 20
14.7053487093491
 30
0.0
 11
2.878809969400879
 21
14.70568945108622
 31
0.0
  0
LINE
  5
1C2DE
330
1F
100
AcDbEntity
  8
0
100
AcDbLine
 10
2.86915071113799
 20
14.69827764153724
 30
0.0
 11
2.870149715363037
 21
14.70068945108622
 31
0.0
  0
LINE
  5
1C2DF
330
1F
100
AcDbEntity
  8
0
100
AcDbLine
 10
2.868809969400881
 20
14.69568945108622
 30
0.0
 11
2.86915071113799
 21
14.69827764153724
 31
0.0
  0
LINE
  5
1C2E0
330
1F
100
AcDbEntity
  8
0
100
AcDbLine
 10
2.870149715363037
 20
14.69068945108622
 30
0.0
 11
2.86915071113799
 21
14.69310126063519
 31
0.0
  0
LINE
  5
1C2E1
330
1F
100
AcDbEntity
  8
0
100
AcDbLine
 10
3.202707994005532
 20
14.70568945108622
 30
0.0
 11
3.041864821892602
 21
14.70568945108622
 31
0.0
  0
LINE
  5
1C2E2
330
1F
100
AcDbEntity
  8
0
100
AcDbLine
 10
3.202707994005532
 20
14.68568945108622
 30
0.0
 11
3.041864821892602
 21
14.68568945108622
 31
0.0
  0
LINE
  5
1C2E3
330
1F
100
AcDbEntity
  8
0
100
AcDbLine
 10
2.878809969400879
 20
14.70568945108622
 30
0.0
 11
3.041864821892602
 21
14.70568945108622
 31
0.0
  0
LINE
  5
1C2E4
330
1F
100
AcDbEntity
  8
0
100
AcDbLine
 10
2.878809969400879
 20
14.68568945108622
 30
0.0
 11
3.041864821892602
 21
14.68568945108622
 31
0.0
  0
LINE
  5
1C2E5
330
1F
100
AcDbEntity
  8
0
100
AcDbLine
 10
3.250172581356404
 20
14.68568945108622
 30
0.0
 11
3.202707994005532
 21
14.68568945108622
 31
0.0
  0
LINE
  5
1C2E6
330
1F
100
AcDbEntity
  8
0
100
AcDbLine
 10
3.202707994005532
 20
14.68568945108622
 30
0.0
 11
3.202707994005532
 21
14.70568945108622
 31
0.0
  0
LINE
  5
1C2E7
330
1F
100
AcDbEntity
  8
0
100
AcDbLine
 10
3.250770983170431
 20
14.70568945108622
 30
0.0
 11
3.202707994005532
 21
14.70568945108622
 31
0.0
  0
LINE
  5
1C490
330
1F
100
AcDbEntity
  8
0
100
AcDbLine
 10
4.196698884891031
 20
16.99189630429209
 30
0.0
 11
4.177791485460911
 21
16.99189630429209
 31
0.0
  0
LINE
  5
1C491
330
1F
100
AcDbEntity
  8
0
100
AcDbLine
 10
4.177791485460911
 20
16.99189630429209
 30
0.0
 11
3.59669888489104
 21
16.99189630429209
 31
0.0
  0
LINE
  5
1C492
330
1F
100
AcDbEntity
  8
0
100
AcDbLine
 10
3.498571776271232
 20
16.99189630429209
 30
0.0
 11
3.477791485460912
 21
16.99189630429209
 31
0.0
  0
LINE
  5
1C493
330
1F
100
AcDbEntity
  8
0
100
AcDbLine
 10
3.477791485460912
 20
16.99189630429209
 30
0.0
 11
3.398571776271232
 21
16.99189630429209
 31
0.0
  0
LINE
  5
1C4A4
330
1F
100
AcDbEntity
  8
0
100
AcDbLine
 10
3.398571776271232
 20
16.99189630429209
 30
0.0
 11
3.498571776271232
 21
16.99189630429209
 31
0.0
  0
LINE
  5
1C4A5
330
1F
100
AcDbEntity
  8
0
100
AcDbLine
 10
3.498571776271232
 20
16.99189630429209
 30
0.0
 11
3.498571776271232
 21
17.09189630429209
 31
0.0
  0
LINE
  5
1C4AC
330
1F
100
AcDbEntity
  8
0
100
AcDbLine
 10
3.398571776271232
 20
16.99189630429209
 30
0.0
 11
3.398571776271232
 21
16.97189630429209
 31
0.0
  0
LINE
  5
1C4B4
330
1F
100
AcDbEntity
  8
0
100
AcDbLine
 10
3.398571776271232
 20
16.89189630429208
 30
0.0
 11
3.398571776271232
 21
16.97189630429209
 31
0.0
  0
LINE
  5
1C4B5
330
1F
100
AcDbEntity
  8
0
100
AcDbLine
 10
4.296698884891039
 20
16.99189630429209
 30
0.0
 11
4.296698884891039
 21
15.3442241213642
 31
0.0
  0
LINE
  5
1C4B8
330
1F
100
AcDbEntity
  8
0
100
AcDbLine
 10
4.196698884891038
 20
15.3442241213642
 30
0.0
 11
4.196698884891029
 21
17.09189630429208
 31
0.0
  0
LINE
  5
1C4BA
330
1F
100
AcDbEntity
  8
0
100
AcDbLine
 10
3.498571776271232
 20
17.09189630429209
 30
0.0
 11
3.598571776271231
 21
17.09189630429209
 31
0.0
  0
LINE
  5
1C4BB
330
1F
100
AcDbEntity
  8
0
100
AcDbLine
 10
3.598571776271231
 20
17.09189630429209
 30
0.0
 11
3.598571776271231
 21
15.3442241213642
 31
0.0
  0
LINE
  5
1C4BD
330
1F
100
AcDbEntity
  8
0
100
AcDbLine
 10
3.498571776271232
 20
15.3442241213642
 30
0.0
 11
3.498571776271232
 21
16.99189630429209
 31
0.0
  0
LINE
  5
1C4C4
330
1F
100
AcDbEntity
  8
0
100
AcDbLine
 10
4.396698884891039
 20
15.3442241213642
 30
0.0
 11
4.396698884891039
 21
15.39189630429209
 31
0.0
  0
LINE
  5
1C4C5
330
1F
100
AcDbEntity
  8
0
100
AcDbLine
 10
4.396698884891039
 20
15.39189630429209
 30
0.0
 11
4.296698884891039
 21
15.39189630429209
 31
0.0
  0
LINE
  5
1C4C6
330
1F
100
AcDbEntity
  8
0
100
AcDbLine
 10
4.19669888489104
 20
15.39189630429209
 30
0.0
 11
3.598571776271233
 21
15.39189630429209
 31
0.0
  0
LINE
  5
1C4C7
330
1F
100
AcDbEntity
  8
0
100
AcDbLine
 10
3.498571776271232
 20
15.39189630429209
 30
0.0
 11
3.398571776271232
 21
15.3918963042921
 31
0.0
  0
LINE
  5
1C4C8
330
1F
100
AcDbEntity
  8
0
100
AcDbLine
 10
3.398571776271232
 20
15.3918963042921
 30
0.0
 11
3.398571776271232
 21
15.3442241213642
 31
0.0
  0
LINE
  5
1C4CA
330
1F
100
AcDbEntity
  8
0
100
AcDbLine
 10
4.196698884891031
 20
15.43638665112813
 30
0.0
 11
4.196698884891031
 21
15.55638665112813
 31
0.0
  0
LINE
  5
1C4CB
330
1F
100
AcDbEntity
  8
0
100
AcDbLine
 10
4.196698884891031
 20
15.55638665112813
 30
0.0
 11
3.596698884891031
 21
15.55638665112813
 31
0.0
  0
LINE
  5
1C4CC
330
1F
100
AcDbEntity
  8
0
100
AcDbLine
 10
3.596698884891031
 20
15.55638665112813
 30
0.0
 11
3.596698884891031
 21
15.43638665112813
 31
0.0
  0
LINE
  5
1C4CD
330
1F
100
AcDbEntity
  8
0
100
AcDbLine
 10
3.596698884891031
 20
15.43638665112813
 30
0.0
 11
4.196698884891031
 21
15.43638665112813
 31
0.0
  0
LINE
  5
1C4CE
330
1F
100
AcDbEntity
  8
0
100
AcDbLine
 10
4.196698884891031
 20
15.61798138394903
 30
0.0
 11
4.196698884891031
 21
15.73798138394903
 31
0.0
  0
LINE
  5
1C4CF
330
1F
100
AcDbEntity
  8
0
100
AcDbLine
 10
4.196698884891031
 20
15.73798138394903
 30
0.0
 11
3.596698884891031
 21
15.73798138394903
 31
0.0
  0
LINE
  5
1C4D0
330
1F
100
AcDbEntity
  8
0
100
AcDbLine
 10
3.596698884891031
 20
15.73798138394903
 30
0.0
 11
3.596698884891031
 21
15.61798138394903
 31
0.0
  0
LINE
  5
1C4D1
330
1F
100
AcDbEntity
  8
0
100
AcDbLine
 10
3.596698884891031
 20
15.61798138394903
 30
0.0
 11
4.196698884891031
 21
15.61798138394903
 31
0.0
  0
LINE
  5
1C4D2
330
1F
100
AcDbEntity
  8
0
100
AcDbLine
 10
4.196698884891031
 20
15.81171762263359
 30
0.0
 11
4.196698884891031
 21
15.93171762263359
 31
0.0
  0
LINE
  5
1C4D3
330
1F
100
AcDbEntity
  8
0
100
AcDbLine
 10
4.196698884891031
 20
15.93171762263359
 30
0.0
 11
3.596698884891031
 21
15.93171762263359
 31
0.0
  0
LINE
  5
1C4D4
330
1F
100
AcDbEntity
  8
0
100
AcDbLine
 10
3.596698884891031
 20
15.93171762263359
 30
0.0
 11
3.596698884891031
 21
15.81171762263359
 31
0.0
  0
LINE
  5
1C4D5
330
1F
100
AcDbEntity
  8
0
100
AcDbLine
 10
3.596698884891031
 20
15.81171762263359
 30
0.0
 11
4.196698884891031
 21
15.81171762263359
 31
0.0
  0
LINE
  5
1C4D6
330
1F
100
AcDbEntity
  8
0
100
AcDbLine
 10
4.196698884891031
 20
15.99425808792598
 30
0.0
 11
4.196698884891031
 21
16.11425808792597
 31
0.0
  0
LINE
  5
1C4D7
330
1F
100
AcDbEntity
  8
0
100
AcDbLine
 10
4.196698884891031
 20
16.11425808792597
 30
0.0
 11
3.596698884891031
 21
16.11425808792597
 31
0.0
  0
LINE
  5
1C4D8
330
1F
100
AcDbEntity
  8
0
100
AcDbLine
 10
3.596698884891031
 20
16.11425808792597
 30
0.0
 11
3.596698884891031
 21
15.99425808792598
 31
0.0
  0
LINE
  5
1C4D9
330
1F
100
AcDbEntity
  8
0
100
AcDbLine
 10
3.596698884891031
 20
15.99425808792598
 30
0.0
 11
4.196698884891031
 21
15.99425808792598
 31
0.0
  0
LINE
  5
1C4DA
330
1F
100
AcDbEntity
  8
0
100
AcDbLine
 10
4.196698884891031
 20
16.17559651100599
 30
0.0
 11
4.196698884891031
 21
16.29559651100599
 31
0.0
  0
LINE
  5
1C4DB
330
1F
100
AcDbEntity
  8
0
100
AcDbLine
 10
4.196698884891031
 20
16.29559651100599
 30
0.0
 11
3.596698884891031
 21
16.29559651100599
 31
0.0
  0
LINE
  5
1C4DC
330
1F
100
AcDbEntity
  8
0
100
AcDbLine
 10
3.596698884891031
 20
16.29559651100599
 30
0.0
 11
3.596698884891031
 21
16.17559651100599
 31
0.0
  0
LINE
  5
1C4DD
330
1F
100
AcDbEntity
  8
0
100
AcDbLine
 10
3.596698884891031
 20
16.17559651100599
 30
0.0
 11
4.196698884891031
 21
16.17559651100599
 31
0.0
  0
LINE
  5
1C4DE
330
1F
100
AcDbEntity
  8
0
100
AcDbLine
 10
4.196698884891031
 20
16.3664021533863
 30
0.0
 11
4.196698884891031
 21
16.4864021533863
 31
0.0
  0
LINE
  5
1C4DF
330
1F
100
AcDbEntity
  8
0
100
AcDbLine
 10
4.196698884891031
 20
16.4864021533863
 30
0.0
 11
3.596698884891031
 21
16.4864021533863
 31
0.0
  0
LINE
  5
1C4E0
330
1F
100
AcDbEntity
  8
0
100
AcDbLine
 10
3.596698884891031
 20
16.4864021533863
 30
0.0
 11
3.596698884891031
 21
16.3664021533863
 31
0.0
  0
LINE
  5
1C4E1
330
1F
100
AcDbEntity
  8
0
100
AcDbLine
 10
3.596698884891031
 20
16.3664021533863
 30
0.0
 11
4.196698884891031
 21
16.3664021533863
 31
0.0
  0
LINE
  5
1C4E2
330
1F
100
AcDbEntity
  8
0
100
AcDbLine
 10
4.196698884891031
 20
16.54327027272858
 30
0.0
 11
4.196698884891031
 21
16.66327027272858
 31
0.0
  0
LINE
  5
1C4E3
330
1F
100
AcDbEntity
  8
0
100
AcDbLine
 10
4.196698884891031
 20
16.66327027272858
 30
0.0
 11
3.596698884891031
 21
16.66327027272858
 31
0.0
  0
LINE
  5
1C4E4
330
1F
100
AcDbEntity
  8
0
100
AcDbLine
 10
3.596698884891031
 20
16.66327027272858
 30
0.0
 11
3.596698884891031
 21
16.54327027272858
 31
0.0
  0
LINE
  5
1C4E5
330
1F
100
AcDbEntity
  8
0
100
AcDbLine
 10
3.596698884891031
 20
16.54327027272858
 30
0.0
 11
4.196698884891031
 21
16.54327027272858
 31
0.0
  0
LINE
  5
1C4E6
330
1F
100
AcDbEntity
  8
0
100
AcDbLine
 10
4.196698884891031
 20
16.7328251995318
 30
0.0
 11
4.196698884891031
 21
16.8528251995318
 31
0.0
  0
LINE
  5
1C4E7
330
1F
100
AcDbEntity
  8
0
100
AcDbLine
 10
4.196698884891031
 20
16.8528251995318
 30
0.0
 11
3.596698884891031
 21
16.8528251995318
 31
0.0
  0
LINE
  5
1C4E8
330
1F
100
AcDbEntity
  8
0
100
AcDbLine
 10
3.596698884891031
 20
16.8528251995318
 30
0.0
 11
3.596698884891031
 21
16.7328251995318
 31
0.0
  0
LINE
  5
1C4E9
330
1F
100
AcDbEntity
  8
0
100
AcDbLine
 10
3.596698884891031
 20
16.7328251995318
 30
0.0
 11
4.196698884891031
 21
16.7328251995318
 31
0.0
  0
LINE
  5
1C4EB
330
1F
100
AcDbEntity
  8
0
100
AcDbLine
 10
4.196698884891031
 20
16.89189630429209
 30
0.0
 11
3.598571776271231
 21
16.89189630429208
 31
0.0
  0
LINE
  5
1C4EC
330
1F
100
AcDbEntity
  8
0
100
AcDbLine
 10
3.498571776271232
 20
16.89189630429208
 30
0.0
 11
3.398571776271232
 21
16.89189630429208
 31
0.0
  0
LINE
  5
1C4F0
330
1F
100
AcDbEntity
  8
0
100
AcDbLine
 10
3.561599748874934
 20
15.41105616260638
 30
0.0
 11
3.531599748874933
 21
15.41105616260638
 31
0.0
  0
LINE
  5
1C4F1
330
1F
100
AcDbEntity
  8
0
100
AcDbLine
 10
3.531599748874933
 20
15.41105616260638
 30
0.0
 11
3.531599748874933
 21
16.91105616260638
 31
0.0
  0
LINE
  5
1C4F2
330
1F
100
AcDbEntity
  8
0
100
AcDbLine
 10
3.531599748874933
 20
16.91105616260638
 30
0.0
 11
3.561599748874934
 21
16.91105616260638
 31
0.0
  0
LINE
  5
1C4F3
330
1F
100
AcDbEntity
  8
0
100
AcDbLine
 10
3.561599748874934
 20
16.91105616260638
 30
0.0
 11
3.561599748874934
 21
15.41105616260638
 31
0.0
  0
LINE
  5
1C4F4
330
1F
100
AcDbEntity
  8
0
100
AcDbLine
 10
3.561599748874934
 20
15.41105616260638
 30
0.0
 11
3.561599748874934
 21
15.43105616260637
 31
0.0
  0
LINE
  5
1C4F5
330
1F
100
AcDbEntity
  8
0
100
AcDbLine
 10
3.561599748874934
 20
15.43105616260637
 30
0.0
 11
3.571599748874934
 21
15.43105616260637
 31
0.0
  0
LINE
  5
1C4F6
330
1F
100
AcDbEntity
  8
0
100
AcDbLine
 10
3.571599748874934
 20
15.43105616260637
 30
0.0
 11
3.571599748874934
 21
15.38105616260637
 31
0.0
  0
LINE
  5
1C4F7
330
1F
100
AcDbEntity
  8
0
100
AcDbLine
 10
3.571599748874934
 20
15.38105616260637
 30
0.0
 11
3.521599748874935
 21
15.38105616260637
 31
0.0
  0
LINE
  5
1C4F8
330
1F
100
AcDbEntity
  8
0
100
AcDbLine
 10
3.521599748874935
 20
15.38105616260637
 30
0.0
 11
3.521599748874946
 21
15.43105616260637
 31
0.0
  0
LINE
  5
1C4F9
330
1F
100
AcDbEntity
  8
0
100
AcDbLine
 10
3.521599748874946
 20
15.43105616260637
 30
0.0
 11
3.531599748874933
 21
15.43105616260637
 31
0.0
  0
LINE
  5
1C4FA
330
1F
100
AcDbEntity
  8
0
100
AcDbLine
 10
3.531599748874933
 20
16.91105616260638
 30
0.0
 11
3.561599748874934
 21
16.91105616260638
 31
0.0
  0
LINE
  5
1C4FB
330
1F
100
AcDbEntity
  8
0
100
AcDbLine
 10
3.531599748874933
 20
16.89105616260637
 30
0.0
 11
3.521599748874935
 21
16.89105616260637
 31
0.0
  0
LINE
  5
1C4FC
330
1F
100
AcDbEntity
  8
0
100
AcDbLine
 10
3.521599748874935
 20
16.89105616260637
 30
0.0
 11
3.521599748874935
 21
16.94105616260638
 31
0.0
  0
LINE
  5
1C4FD
330
1F
100
AcDbEntity
  8
0
100
AcDbLine
 10
3.521599748874935
 20
16.94105616260638
 30
0.0
 11
3.571599748874934
 21
16.94105616260638
 31
0.0
  0
LINE
  5
1C4FE
330
1F
100
AcDbEntity
  8
0
100
AcDbLine
 10
3.571599748874934
 20
16.94105616260638
 30
0.0
 11
3.571599748874923
 21
16.89105616260637
 31
0.0
  0
LINE
  5
1C4FF
330
1F
100
AcDbEntity
  8
0
100
AcDbLine
 10
3.571599748874923
 20
16.89105616260637
 30
0.0
 11
3.561599748874934
 21
16.89105616260637
 31
0.0
  0
LINE
  5
1C500
330
1F
100
AcDbEntity
  8
0
100
AcDbLine
 10
4.261834473689825
 20
15.41819480616168
 30
0.0
 11
4.231834473689824
 21
15.41819480616168
 31
0.0
  0
LINE
  5
1C501
330
1F
100
AcDbEntity
  8
0
100
AcDbLine
 10
4.231834473689824
 20
15.41819480616168
 30
0.0
 11
4.231834473689824
 21
16.91819480616169
 31
0.0
  0
LINE
  5
1C502
330
1F
100
AcDbEntity
  8
0
100
AcDbLine
 10
4.231834473689824
 20
16.91819480616169
 30
0.0
 11
4.261834473689825
 21
16.91819480616169
 31
0.0
  0
LINE
  5
1C503
330
1F
100
AcDbEntity
  8
0
100
AcDbLine
 10
4.261834473689825
 20
16.91819480616169
 30
0.0
 11
4.261834473689825
 21
15.41819480616168
 31
0.0
  0
LINE
  5
1C504
330
1F
100
AcDbEntity
  8
0
100
AcDbLine
 10
4.261834473689825
 20
15.41819480616168
 30
0.0
 11
4.261834473689825
 21
15.43819480616168
 31
0.0
  0
LINE
  5
1C505
330
1F
100
AcDbEntity
  8
0
100
AcDbLine
 10
4.261834473689825
 20
15.43819480616168
 30
0.0
 11
4.271834473689825
 21
15.43819480616168
 31
0.0
  0
LINE
  5
1C506
330
1F
100
AcDbEntity
  8
0
100
AcDbLine
 10
4.271834473689825
 20
15.43819480616168
 30
0.0
 11
4.271834473689825
 21
15.38819480616168
 31
0.0
  0
LINE
  5
1C507
330
1F
100
AcDbEntity
  8
0
100
AcDbLine
 10
4.271834473689825
 20
15.38819480616168
 30
0.0
 11
4.221834473689826
 21
15.38819480616168
 31
0.0
  0
LINE
  5
1C508
330
1F
100
AcDbEntity
  8
0
100
AcDbLine
 10
4.221834473689826
 20
15.38819480616168
 30
0.0
 11
4.221834473689836
 21
15.43819480616168
 31
0.0
  0
LINE
  5
1C509
330
1F
100
AcDbEntity
  8
0
100
AcDbLine
 10
4.221834473689836
 20
15.43819480616168
 30
0.0
 11
4.231834473689824
 21
15.43819480616168
 31
0.0
  0
LINE
  5
1C50A
330
1F
100
AcDbEntity
  8
0
100
AcDbLine
 10
4.231834473689824
 20
16.91819480616169
 30
0.0
 11
4.261834473689825
 21
16.91819480616169
 31
0.0
  0
LINE
  5
1C50B
330
1F
100
AcDbEntity
  8
0
100
AcDbLine
 10
4.231834473689824
 20
16.89819480616168
 30
0.0
 11
4.221834473689826
 21
16.89819480616168
 31
0.0
  0
LINE
  5
1C50C
330
1F
100
AcDbEntity
  8
0
100
AcDbLine
 10
4.221834473689826
 20
16.89819480616168
 30
0.0
 11
4.221834473689826
 21
16.94819480616169
 31
0.0
  0
LINE
  5
1C50D
330
1F
100
AcDbEntity
  8
0
100
AcDbLine
 10
4.221834473689826
 20
16.94819480616169
 30
0.0
 11
4.271834473689825
 21
16.94819480616169
 31
0.0
  0
LINE
  5
1C50E
330
1F
100
AcDbEntity
  8
0
100
AcDbLine
 10
4.271834473689825
 20
16.94819480616169
 30
0.0
 11
4.271834473689814
 21
16.89819480616168
 31
0.0
  0
LINE
  5
1C50F
330
1F
100
AcDbEntity
  8
0
100
AcDbLine
 10
4.271834473689814
 20
16.89819480616168
 30
0.0
 11
4.261834473689825
 21
16.89819480616168
 31
0.0
  0
LINE
  5
1C805
330
1F
100
AcDbEntity
  8
0
100
AcDbLine
 10
4.296698884891039
 20
16.99189630429209
 30
0.0
 11
4.296698884891039
 21
17.09189630429209
 31
0.0
  0
LINE
  5
1C806
330
1F
100
AcDbEntity
  8
0
100
AcDbLine
 10
4.296698884891039
 20
17.09189630429209
 30
0.0
 11
4.196698884891029
 21
17.09189630429208
 31
0.0
  0
LINE
  5
1C970
330
1F
100
AcDbEntity
  8
0
100
AcDbLine
 10
5.813446280110239
 20
18.08770097427859
 30
0.0
 11
5.813446280110239
 21
17.98770097427859
 31
0.0
  0
LINE
  5
1C977
330
1F
100
AcDbEntity
  8
0
100
AcDbLine
 10
5.813446280110239
 20
17.98770097427859
 30
0.0
 11
5.813446280110239
 21
17.88770097427859
 31
0.0
  0
LINE
  5
1C978
330
1F
100
AcDbEntity
  8
0
100
AcDbLine
 10
5.813446280110239
 20
17.88770097427859
 30
0.0
 11
5.713446280110238
 21
17.88770097427859
 31
0.0
  0
LINE
  5
1C979
330
1F
100
AcDbEntity
  8
0
100
AcDbLine
 10
5.713446280110238
 20
17.88770097427859
 30
0.0
 11
5.713446280110238
 21
17.98770097427859
 31
0.0
  0
LINE
  5
1C97C
330
1F
100
AcDbEntity
  8
0
100
AcDbLine
 10
4.558426707111769
 20
17.98770097427859
 30
0.0
 11
4.298658564715493
 21
17.98770097427857
 31
0.0
  0
LINE
  5
1C97D
330
1F
100
AcDbEntity
  8
0
100
AcDbLine
 10
5.857844640766044
 20
17.86324727456353
 30
0.0
 11
5.887544640766043
 21
17.86324727456353
 31
0.0
  0
LINE
  5
1C97E
330
1F
100
AcDbEntity
  8
0
100
AcDbLine
 10
5.857844640766044
 20
17.08738060296484
 30
0.0
 11
5.887544640766043
 21
17.08738060296484
 31
0.0
  0
LINE
  5
1C97F
330
1F
100
AcDbEntity
  8
0
100
AcDbLine
 10
5.845899481937889
 20
17.0857009742786
 30
0.0
 11
5.845899481937889
 21
17.09778617872077
 31
0.0
  0
LINE
  5
1C980
330
1F
100
AcDbEntity
  8
0
100
AcDbLine
 10
5.903900477712843
 20
17.09778617872077
 30
0.0
 11
5.899900477712838
 21
17.09778617872077
 31
0.0
  0
LINE
  5
1C981
330
1F
100
AcDbEntity
  8
0
100
AcDbLine
 10
5.845899481937889
 20
17.09778617872077
 30
0.0
 11
5.839900477712843
 21
17.09778617872077
 31
0.0
  0
LINE
  5
1C982
330
1F
100
AcDbEntity
  8
0
100
AcDbLine
 10
5.903900477712843
 20
17.85670837040629
 30
0.0
 11
5.899900477712838
 21
17.85670837040629
 31
0.0
  0
LINE
  5
1C983
330
1F
100
AcDbEntity
  8
0
100
AcDbLine
 10
5.845899481937889
 20
17.85670837040629
 30
0.0
 11
5.839900477712843
 21
17.85670837040629
 31
0.0
  0
LINE
  5
1C984
330
1F
100
AcDbEntity
  8
0
100
AcDbLine
 10
5.805839979825384
 20
17.9675719355042
 30
0.0
 11
5.813446280110239
 21
17.9675719355042
 31
0.0
  0
LINE
  5
1C985
330
1F
100
AcDbEntity
  8
0
100
AcDbLine
 10
6.817486600285787
 20
17.86879357484846
 30
0.0
 11
6.817486600285787
 21
17.56179154890151
 31
0.0
  0
LINE
  5
1C986
330
1F
100
AcDbEntity
  8
0
100
AcDbLine
 10
6.817486600285787
 20
17.43079154890151
 30
0.0
 11
6.817486600285787
 21
17.0857009742786
 31
0.0
  0
LINE
  5
1C987
330
1F
100
AcDbEntity
  8
0
100
AcDbLine
 10
6.718899979825378
 20
17.84160261362286
 30
0.0
 11
5.923521055754823
 21
17.84160261362286
 31
0.0
  0
LINE
  5
1C988
330
1F
100
AcDbEntity
  8
0
100
AcDbLine
 10
5.923521055754823
 20
17.74308200975835
 30
0.0
 11
6.718899979825378
 21
17.74308200975835
 31
0.0
  0
LINE
  5
1C989
330
1F
100
AcDbEntity
  8
0
100
AcDbLine
 10
6.718899979825378
 20
17.64607704802724
 30
0.0
 11
5.923521055754823
 21
17.64607704802724
 31
0.0
  0
LINE
  5
1C98A
330
1F
100
AcDbEntity
  8
0
100
AcDbLine
 10
5.923521055754831
 20
17.54001794077267
 30
0.0
 11
6.718899979825385
 21
17.54001794077267
 31
0.0
  0
LINE
  5
1C98B
330
1F
100
AcDbEntity
  8
0
100
AcDbLine
 10
6.718899979825385
 20
17.43978504648153
 30
0.0
 11
5.923521055754831
 21
17.43978504648153
 31
0.0
  0
LINE
  5
1C98C
330
1F
100
AcDbEntity
  8
0
100
AcDbLine
 10
5.923521055754831
 20
17.33747970167038
 30
0.0
 11
6.718899979825385
 21
17.33747970167038
 31
0.0
  0
LINE
  5
1C98D
330
1F
100
AcDbEntity
  8
0
100
AcDbLine
 10
6.718899979825385
 20
17.23379375081846
 30
0.0
 11
5.923521055754831
 21
17.23379375081846
 31
0.0
  0
LINE
  5
1C98E
330
1F
100
AcDbEntity
  8
0
100
AcDbLine
 10
5.923521055754831
 20
17.13867114778561
 30
0.0
 11
6.718899979825385
 21
17.13867114778561
 31
0.0
  0
LINE
  5
1C990
330
1F
100
AcDbEntity
  8
0
100
AcDbLine
 10
5.934968981201562
 20
17.93944980731828
 30
0.0
 11
5.934968981201562
 21
17.96914980731828
 31
0.0
  0
LINE
  5
1C9B3
330
1F
100
AcDbEntity
  8
0
100
AcDbLine
 10
6.729956590949603
 20
17.98770097427859
 30
0.0
 11
6.719446280110245
 21
17.98770097427859
 31
0.0
  0
LINE
  5
1C9B4
330
1F
100
AcDbEntity
  8
0
100
AcDbLine
 10
6.719446280110245
 20
17.98770097427859
 30
0.0
 11
6.719446280110245
 21
17.98150564426508
 31
0.0
  0
LINE
  5
1C9B5
330
1F
100
AcDbEntity
  8
0
100
AcDbLine
 10
6.817486600285787
 20
17.86879357484846
 30
0.0
 11
6.838353679540373
 21
17.86879357484846
 31
0.0
  0
LINE
  5
1C9B6
330
1F
100
AcDbEntity
  8
0
100
AcDbLine
 10
6.838353679540373
 20
17.9675719355042
 30
0.0
 11
6.838353679540373
 21
17.98770097427859
 31
0.0
  0
LINE
  5
1C9B7
330
1F
100
AcDbEntity
  8
0
100
AcDbLine
 10
5.899900477712838
 20
17.86879357484846
 30
0.0
 11
5.899900477712838
 21
17.866543565878
 31
0.0
  0
LINE
  5
1C9B8
330
1F
100
AcDbEntity
  8
0
100
AcDbLine
 10
5.899900477712838
 20
17.866543565878
 30
0.0
 11
5.899900477712838
 21
17.85670837040629
 31
0.0
  0
LINE
  5
1C9B9
330
1F
100
AcDbEntity
  8
0
100
AcDbLine
 10
5.932353679540367
 20
17.98770097427859
 30
0.0
 11
5.911981371453526
 21
17.98770097427859
 31
0.0
  0
LINE
  5
1C9BA
330
1F
100
AcDbEntity
  8
0
100
AcDbLine
 10
5.813446280110239
 20
17.8818919355042
 30
0.0
 11
5.813446280110239
 21
17.86879357484846
 31
0.0
  0
LINE
  5
1C9BB
330
1F
100
AcDbEntity
  8
0
100
AcDbLine
 10
5.932353679540367
 20
17.98150564426508
 30
0.0
 11
5.932353679540367
 21
17.98770097427859
 31
0.0
  0
LINE
  5
1C9BC
330
1F
100
AcDbEntity
  8
0
100
AcDbLine
 10
5.899900477712838
 20
17.866543565878
 30
0.0
 11
5.923521055754823
 21
17.866543565878
 31
0.0
  0
LINE
  5
1C9BD
330
1F
100
AcDbEntity
  8
0
100
AcDbLine
 10
6.725828912013517
 20
17.86879357484846
 30
0.0
 11
6.725828912013517
 21
17.866543565878
 31
0.0
  0
LINE
  5
1C9BE
330
1F
100
AcDbEntity
  8
0
100
AcDbLine
 10
6.725828912013517
 20
17.866543565878
 30
0.0
 11
6.725828912013524
 21
17.0857009742786
 31
0.0
  0
LINE
  5
1C9BF
330
1F
100
AcDbEntity
  8
0
100
AcDbLine
 10
6.718899979825378
 20
17.866543565878
 30
0.0
 11
6.718899979825378
 21
17.84160261362286
 31
0.0
  0
LINE
  5
1C9C0
330
1F
100
AcDbEntity
  8
0
100
AcDbLine
 10
5.923521055754823
 20
17.866543565878
 30
0.0
 11
5.923521055754823
 21
17.84160261362286
 31
0.0
  0
LINE
  5
1C9C4
330
1F
100
AcDbEntity
  8
0
100
AcDbLine
 10
6.838353679540373
 20
17.98770097427859
 30
0.0
 11
6.734956590949606
 21
17.98770097427859
 31
0.0
  0
LINE
  5
1C9C5
330
1F
100
AcDbEntity
  8
0
100
AcDbLine
 10
6.734956590949606
 20
17.98770097427859
 30
0.0
 11
6.729956590949603
 21
17.98770097427859
 31
0.0
  0
LINE
  5
1C9C6
330
1F
100
AcDbEntity
  8
0
100
AcDbLine
 10
6.719446280110245
 20
17.98150564426508
 30
0.0
 11
6.719446280110245
 21
17.92750464849013
 31
0.0
  0
LINE
  5
1C9C7
330
1F
100
AcDbEntity
  8
0
100
AcDbLine
 10
6.719446280110245
 20
17.92750464849013
 30
0.0
 11
6.719446280110245
 21
17.86879357484846
 31
0.0
  0
LINE
  5
1C9C8
330
1F
100
AcDbEntity
  8
0
100
AcDbLine
 10
6.719446280110245
 20
17.86879357484846
 30
0.0
 11
6.725828912013517
 21
17.86879357484846
 31
0.0
  0
LINE
  5
1C9C9
330
1F
100
AcDbEntity
  8
0
100
AcDbLine
 10
6.725828912013517
 20
17.86879357484846
 30
0.0
 11
6.817486600285787
 21
17.86879357484846
 31
0.0
  0
LINE
  5
1C9CA
330
1F
100
AcDbEntity
  8
0
100
AcDbLine
 10
6.838353679540373
 20
17.86879357484846
 30
0.0
 11
6.838353679540373
 21
17.8818919355042
 31
0.0
  0
LINE
  5
1C9CB
330
1F
100
AcDbEntity
  8
0
100
AcDbLine
 10
6.838353679540373
 20
17.8818919355042
 30
0.0
 11
6.838353679540373
 21
17.9675719355042
 31
0.0
  0
LINE
  5
1C9CC
330
1F
100
AcDbEntity
  8
0
100
AcDbLine
 10
5.845899481937889
 20
17.86879357484846
 30
0.0
 11
5.845899481937889
 21
17.85670837040629
 31
0.0
  0
LINE
  5
1C9CD
330
1F
100
AcDbEntity
  8
0
100
AcDbLine
 10
5.911981371453526
 20
17.98770097427859
 30
0.0
 11
5.906981371453523
 21
17.98770097427859
 31
0.0
  0
LINE
  5
1C9CE
330
1F
100
AcDbEntity
  8
0
100
AcDbLine
 10
5.906981371453523
 20
17.98770097427859
 30
0.0
 11
5.813446280110239
 21
17.98770097427859
 31
0.0
  0
LINE
  5
1C9CF
330
1F
100
AcDbEntity
  8
0
100
AcDbLine
 10
5.813446280110239
 20
17.98770097427859
 30
0.0
 11
5.813446280110239
 21
17.9675719355042
 31
0.0
  0
LINE
  5
1C9D0
330
1F
100
AcDbEntity
  8
0
100
AcDbLine
 10
5.813446280110239
 20
17.9675719355042
 30
0.0
 11
5.813446280110239
 21
17.8818919355042
 31
0.0
  0
LINE
  5
1C9D1
330
1F
100
AcDbEntity
  8
0
100
AcDbLine
 10
5.813446280110239
 20
17.86879357484846
 30
0.0
 11
5.83186336748256
 21
17.86879357484846
 31
0.0
  0
LINE
  5
1C9D2
330
1F
100
AcDbEntity
  8
0
100
AcDbLine
 10
5.83186336748256
 20
17.86879357484846
 30
0.0
 11
5.845899481937889
 21
17.86879357484846
 31
0.0
  0
LINE
  5
1C9D3
330
1F
100
AcDbEntity
  8
0
100
AcDbLine
 10
5.845899481937889
 20
17.86879357484846
 30
0.0
 11
5.899900477712838
 21
17.86879357484846
 31
0.0
  0
LINE
  5
1C9D4
330
1F
100
AcDbEntity
  8
0
100
AcDbLine
 10
5.899900477712838
 20
17.86879357484846
 30
0.0
 11
5.932353679540367
 21
17.86879357484846
 31
0.0
  0
LINE
  5
1C9D5
330
1F
100
AcDbEntity
  8
0
100
AcDbLine
 10
5.932353679540367
 20
17.86879357484846
 30
0.0
 11
5.932353679540367
 21
17.92750464849012
 31
0.0
  0
LINE
  5
1C9D6
330
1F
100
AcDbEntity
  8
0
100
AcDbLine
 10
5.932353679540367
 20
17.92750464849012
 30
0.0
 11
5.932353679540367
 21
17.98150564426508
 31
0.0
  0
LINE
  5
1C9D7
330
1F
100
AcDbEntity
  8
0
100
AcDbLine
 10
6.817486600285787
 20
17.0857009742786
 30
0.0
 11
6.725828912013524
 21
17.0857009742786
 31
0.0
  0
LINE
  5
1C9D8
330
1F
100
AcDbEntity
  8
0
100
AcDbLine
 10
6.725828912013524
 20
17.0857009742786
 30
0.0
 11
6.719446280110245
 21
17.0857009742786
 31
0.0
  0
LINE
  5
1C9D9
330
1F
100
AcDbEntity
  8
0
100
AcDbLine
 10
5.923521055754831
 20
17.08220125415026
 30
0.0
 11
6.718899979825385
 21
17.08220125415027
 31
0.0
  0
LINE
  5
1C9DA
330
1F
100
AcDbEntity
  8
0
100
AcDbLine
 10
5.923521055754823
 20
17.866543565878
 30
0.0
 11
6.718899979825378
 21
17.866543565878
 31
0.0
  0
LINE
  5
1C9DB
330
1F
100
AcDbEntity
  8
0
100
AcDbLine
 10
6.718899979825378
 20
17.866543565878
 30
0.0
 11
6.725828912013517
 21
17.866543565878
 31
0.0
  0
LINE
  5
1C9DC
330
1F
100
AcDbEntity
  8
0
100
AcDbLine
 10
6.817486600285787
 20
17.56179154890151
 30
0.0
 11
6.817486600285787
 21
17.43079154890151
 31
0.0
  0
LINE
  5
1C9DD
330
1F
100
AcDbEntity
  8
0
100
AcDbLine
 10
6.718899979825378
 20
17.84160261362286
 30
0.0
 11
6.718899979825378
 21
17.74308200975835
 31
0.0
  0
LINE
  5
1C9DE
330
1F
100
AcDbEntity
  8
0
100
AcDbLine
 10
5.923521055754823
 20
17.84160261362286
 30
0.0
 11
5.923521055754823
 21
17.74308200975835
 31
0.0
  0
LINE
  5
1C9E5
330
1F
100
AcDbEntity
  8
0
100
AcDbLine
 10
5.899900477712842
 20
17.08570097427859
 30
0.0
 11
5.899900477712838
 21
17.09778617872077
 31
0.0
  0
LINE
  5
1C9E6
330
1F
100
AcDbEntity
  8
0
100
AcDbLine
 10
6.718899979825378
 20
17.74308200975835
 30
0.0
 11
6.718899979825378
 21
17.64607704802724
 31
0.0
  0
LINE
  5
1C9E7
330
1F
100
AcDbEntity
  8
0
100
AcDbLine
 10
5.923521055754823
 20
17.74308200975835
 30
0.0
 11
5.923521055754823
 21
17.64607704802724
 31
0.0
  0
LINE
  5
1C9E8
330
1F
100
AcDbEntity
  8
0
100
AcDbLine
 10
6.718899979825378
 20
17.64607704802724
 30
0.0
 11
6.718899979825385
 21
17.54001794077267
 31
0.0
  0
LINE
  5
1C9E9
330
1F
100
AcDbEntity
  8
0
100
AcDbLine
 10
5.923521055754823
 20
17.64607704802724
 30
0.0
 11
5.923521055754831
 21
17.54001794077267
 31
0.0
  0
LINE
  5
1C9EA
330
1F
100
AcDbEntity
  8
0
100
AcDbLine
 10
6.718899979825385
 20
17.54001794077267
 30
0.0
 11
6.718899979825385
 21
17.43978504648153
 31
0.0
  0
LINE
  5
1C9EB
330
1F
100
AcDbEntity
  8
0
100
AcDbLine
 10
5.923521055754831
 20
17.54001794077267
 30
0.0
 11
5.923521055754831
 21
17.43978504648153
 31
0.0
  0
LINE
  5
1C9EC
330
1F
100
AcDbEntity
  8
0
100
AcDbLine
 10
6.718899979825385
 20
17.43978504648153
 30
0.0
 11
6.718899979825385
 21
17.33747970167038
 31
0.0
  0
LINE
  5
1C9ED
330
1F
100
AcDbEntity
  8
0
100
AcDbLine
 10
5.923521055754831
 20
17.43978504648153
 30
0.0
 11
5.923521055754831
 21
17.33747970167038
 31
0.0
  0
LINE
  5
1C9EE
330
1F
100
AcDbEntity
  8
0
100
AcDbLine
 10
6.718899979825385
 20
17.33747970167038
 30
0.0
 11
6.718899979825385
 21
17.23379375081846
 31
0.0
  0
LINE
  5
1C9EF
330
1F
100
AcDbEntity
  8
0
100
AcDbLine
 10
5.923521055754831
 20
17.33747970167038
 30
0.0
 11
5.923521055754831
 21
17.23379375081846
 31
0.0
  0
LINE
  5
1C9F0
330
1F
100
AcDbEntity
  8
0
100
AcDbLine
 10
6.718899979825385
 20
17.23379375081846
 30
0.0
 11
6.718899979825385
 21
17.13867114778561
 31
0.0
  0
LINE
  5
1C9F1
330
1F
100
AcDbEntity
  8
0
100
AcDbLine
 10
6.718899979825385
 20
17.13867114778561
 30
0.0
 11
6.718899979825385
 21
17.08220125415027
 31
0.0
  0
LINE
  5
1C9F2
330
1F
100
AcDbEntity
  8
0
100
AcDbLine
 10
5.923521055754831
 20
17.23379375081846
 30
0.0
 11
5.923521055754831
 21
17.13867114778561
 31
0.0
  0
LINE
  5
1C9F3
330
1F
100
AcDbEntity
  8
0
100
AcDbLine
 10
5.923521055754831
 20
17.13867114778561
 30
0.0
 11
5.923521055754831
 21
17.08220125415026
 31
0.0
  0
LINE
  5
1CA06
330
1F
100
AcDbEntity
  8
0
100
AcDbLine
 10
5.919359491665984
 20
17.08570097427859
 30
0.0
 11
6.019359491665982
 21
17.08570097427859
 31
0.0
  0
LINE
  5
1CA08
330
1F
100
AcDbEntity
  8
0
100
AcDbLine
 10
6.71748660028579
 20
17.0857009742786
 30
0.0
 11
6.817486600285787
 21
17.0857009742786
 31
0.0
  0
LINE
  5
1CA0A
330
1F
100
AcDbEntity
  8
0
100
AcDbLine
 10
5.919359491665984
 20
17.08570097427859
 30
0.0
 11
5.819359491665982
 21
17.08570097427859
 31
0.0
  0
LINE
  5
1CA2C
330
1F
100
AcDbEntity
  8
0
100
AcDbLine
 10
6.819156685301047
 20
17.0857009742786
 30
0.0
 11
6.817486600285787
 21
17.0857009742786
 31
0.0
  0
LINE
  5
1CA2D
330
1F
100
AcDbEntity
  8
0
100
AcDbLine
 10
6.817486600285787
 20
17.0857009742786
 30
0.0
 11
6.764760679856996
 21
17.0857009742786
 31
0.0
  0
LINE
  5
1CA2E
330
1F
100
AcDbEntity
  8
0
100
AcDbLine
 10
6.764760679856996
 20
17.0857009742786
 30
0.0
 11
6.756599160121366
 21
17.0857009742786
 31
0.0
  0
LINE
  5
1CA2F
330
1F
100
AcDbEntity
  8
0
100
AcDbLine
 10
5.813446280110239
 20
17.86879357484846
 30
0.0
 11
5.813446280110239
 21
17.00744295872352
 31
0.0
  0
LINE
  5
1CA36
330
1F
100
AcDbEntity
  8
0
100
AcDbLine
 10
4.396698884891035
 20
17.87498890486196
 30
0.0
 11
4.396698884891035
 21
17.56798687891501
 31
0.0
  0
LINE
  5
1CA37
330
1F
100
AcDbEntity
  8
0
100
AcDbLine
 10
4.396698884891035
 20
17.43698687891501
 30
0.0
 11
4.396698884891035
 21
17.09189630429209
 31
0.0
  0
LINE
  5
1CA38
330
1F
100
AcDbEntity
  8
0
100
AcDbLine
 10
4.298112264430626
 20
17.84779794363636
 30
0.0
 11
3.502733340360071
 21
17.84779794363636
 31
0.0
  0
LINE
  5
1CA39
330
1F
100
AcDbEntity
  8
0
100
AcDbLine
 10
3.502733340360071
 20
17.74927733977184
 30
0.0
 11
4.298112264430626
 21
17.74927733977184
 31
0.0
  0
LINE
  5
1CA3A
330
1F
100
AcDbEntity
  8
0
100
AcDbLine
 10
4.298112264430626
 20
17.65227237804074
 30
0.0
 11
3.502733340360071
 21
17.65227237804074
 31
0.0
  0
LINE
  5
1CA3B
330
1F
100
AcDbEntity
  8
0
100
AcDbLine
 10
3.502733340360078
 20
17.54621327078617
 30
0.0
 11
4.298112264430633
 21
17.54621327078617
 31
0.0
  0
LINE
  5
1CA3C
330
1F
100
AcDbEntity
  8
0
100
AcDbLine
 10
4.298112264430633
 20
17.44598037649502
 30
0.0
 11
3.502733340360078
 21
17.44598037649502
 31
0.0
  0
LINE
  5
1CA3D
330
1F
100
AcDbEntity
  8
0
100
AcDbLine
 10
3.502733340360078
 20
17.34367503168388
 30
0.0
 11
4.298112264430633
 21
17.34367503168388
 31
0.0
  0
LINE
  5
1CA3E
330
1F
100
AcDbEntity
  8
0
100
AcDbLine
 10
4.298112264430633
 20
17.23998908083196
 30
0.0
 11
3.502733340360078
 21
17.23998908083196
 31
0.0
  0
LINE
  5
1CA3F
330
1F
100
AcDbEntity
  8
0
100
AcDbLine
 10
3.502733340360078
 20
17.1448664777991
 30
0.0
 11
4.298112264430633
 21
17.1448664777991
 31
0.0
  0
LINE
  5
1CA40
330
1F
100
AcDbEntity
  8
0
100
AcDbLine
 10
3.573581265806813
 20
17.91466843692135
 30
0.0
 11
4.230647937405505
 21
17.91466843692135
 31
0.0
  0
LINE
  5
1CA41
330
1F
100
AcDbEntity
  8
0
100
AcDbLine
 10
3.51418126580681
 20
17.94564513733177
 30
0.0
 11
3.51418126580681
 21
17.97534513733178
 31
0.0
  0
LINE
  5
1CA42
330
1F
100
AcDbEntity
  8
0
100
AcDbLine
 10
3.573581265806813
 20
17.91466843692135
 30
0.0
 11
3.573581265806813
 21
17.94436843692136
 31
0.0
  0
LINE
  5
1CA43
330
1F
100
AcDbEntity
  8
0
100
AcDbLine
 10
3.573581265806813
 20
17.94436843692136
 30
0.0
 11
4.230647937405505
 21
17.94436843692136
 31
0.0
  0
LINE
  5
1CA44
330
1F
100
AcDbEntity
  8
0
100
AcDbLine
 10
4.230647937405505
 20
17.91466843692135
 30
0.0
 11
4.230647937405505
 21
17.94436843692136
 31
0.0
  0
LINE
  5
1CA45
330
1F
100
AcDbEntity
  8
0
100
AcDbLine
 10
4.290047937405502
 20
17.91466843692135
 30
0.0
 11
4.290047937405502
 21
17.94436843692136
 31
0.0
  0
LINE
  5
1CA46
330
1F
100
AcDbEntity
  8
0
100
AcDbLine
 10
4.298658564715493
 20
17.9027232780932
 30
0.0
 11
4.279642361649569
 21
17.9027232780932
 31
0.0
  0
LINE
  5
1CA47
330
1F
100
AcDbEntity
  8
0
100
AcDbLine
 10
4.267642361649569
 20
17.9027232780932
 30
0.0
 11
4.254562734014113
 21
17.9027232780932
 31
0.0
  0
LINE
  5
1CA48
330
1F
100
AcDbEntity
  8
0
100
AcDbLine
 10
4.254562734014113
 20
17.9027232780932
 30
0.0
 11
4.254562734014113
 21
17.91466843692135
 31
0.0
  0
LINE
  5
1CA49
330
1F
100
AcDbEntity
  8
0
100
AcDbLine
 10
4.254562734014113
 20
17.94436843692136
 30
0.0
 11
4.254562734014113
 21
17.95672427386815
 31
0.0
  0
LINE
  5
1CA4A
330
1F
100
AcDbEntity
  8
0
100
AcDbLine
 10
4.267642361649569
 20
17.96072427386815
 30
0.0
 11
4.267642361649569
 21
17.95672427386815
 31
0.0
  0
LINE
  5
1CA4B
330
1F
100
AcDbEntity
  8
0
100
AcDbLine
 10
4.267642361649569
 20
17.9027232780932
 30
0.0
 11
4.267642361649569
 21
17.89672427386815
 31
0.0
  0
LINE
  5
1CA4C
330
1F
100
AcDbEntity
  8
0
100
AcDbLine
 10
4.279642361649569
 20
17.96072427386815
 30
0.0
 11
4.279642361649569
 21
17.95672427386815
 31
0.0
  0
LINE
  5
1CA4D
330
1F
100
AcDbEntity
  8
0
100
AcDbLine
 10
4.279642361649569
 20
17.9027232780932
 30
0.0
 11
4.279642361649569
 21
17.89672427386815
 31
0.0
  0
LINE
  5
1CA4E
330
1F
100
AcDbEntity
  8
0
100
AcDbLine
 10
3.511565964145615
 20
17.95672427386815
 30
0.0
 11
3.520720169964056
 21
17.95672427386815
 31
0.0
  0
LINE
  5
1CA4F
330
1F
100
AcDbEntity
  8
0
100
AcDbLine
 10
3.532720169964056
 20
17.95672427386815
 30
0.0
 11
3.545799797599512
 21
17.95672427386815
 31
0.0
  0
LINE
  5
1CA50
330
1F
100
AcDbEntity
  8
0
100
AcDbLine
 10
3.545799797599512
 20
17.9027232780932
 30
0.0
 11
3.545799797599512
 21
17.91466843692135
 31
0.0
  0
LINE
  5
1CA51
330
1F
100
AcDbEntity
  8
0
100
AcDbLine
 10
3.545799797599512
 20
17.94436843692136
 30
0.0
 11
3.545799797599512
 21
17.95672427386815
 31
0.0
  0
LINE
  5
1CA53
330
1F
100
AcDbEntity
  8
0
100
AcDbLine
 10
3.486193656058771
 20
17.99389630429208
 30
0.0
 11
3.484536604866141
 21
17.99605581545042
 31
0.0
  0
LINE
  5
1CA56
330
1F
100
AcDbEntity
  8
0
100
AcDbLine
 10
3.532720169964056
 20
17.96072427386815
 30
0.0
 11
3.532720169964056
 21
17.95672427386815
 31
0.0
  0
LINE
  5
1CA57
330
1F
100
AcDbEntity
  8
0
100
AcDbLine
 10
3.532720169964056
 20
17.9027232780932
 30
0.0
 11
3.532720169964056
 21
17.89672427386815
 31
0.0
  0
LINE
  5
1CA58
330
1F
100
AcDbEntity
  8
0
100
AcDbLine
 10
3.520720169964056
 20
17.96072427386815
 30
0.0
 11
3.520720169964056
 21
17.95672427386815
 31
0.0
  0
LINE
  5
1CA59
330
1F
100
AcDbEntity
  8
0
100
AcDbLine
 10
3.520720169964056
 20
17.9027232780932
 30
0.0
 11
3.520720169964056
 21
17.89672427386815
 31
0.0
  0
LINE
  5
1CA5D
330
1F
100
AcDbEntity
  8
0
100
AcDbLine
 10
4.298658564715493
 20
17.99389630429208
 30
0.0
 11
4.298658564715493
 21
17.98770097427857
 31
0.0
  0
LINE
  5
1CA5E
330
1F
100
AcDbEntity
  8
0
100
AcDbLine
 10
4.396698884891035
 20
17.87498890486196
 30
0.0
 11
4.417565964145621
 21
17.87498890486196
 31
0.0
  0
LINE
  5
1CA5F
330
1F
100
AcDbEntity
  8
0
100
AcDbLine
 10
4.298658564715493
 20
17.96757193550418
 30
0.0
 11
4.298658564715493
 21
17.98770097427857
 31
0.0
  0
LINE
  5
1CA60
330
1F
100
AcDbEntity
  8
0
100
AcDbLine
 10
3.479112762318086
 20
17.87498890486196
 30
0.0
 11
3.479112762318086
 21
17.87273889589149
 31
0.0
  0
LINE
  5
1CA62
330
1F
100
AcDbEntity
  8
0
100
AcDbLine
 10
3.511565964145615
 20
17.99389630429208
 30
0.0
 11
3.491193656058774
 21
17.99389630429208
 31
0.0
  0
LINE
  5
1CA63
330
1F
100
AcDbEntity
  8
0
100
AcDbLine
 10
3.511565964145615
 20
17.98770097427857
 30
0.0
 11
3.511565964145615
 21
17.99389630429208
 31
0.0
  0
LINE
  5
1CA64
330
1F
100
AcDbEntity
  8
0
100
AcDbLine
 10
3.479112762318086
 20
17.87273889589149
 30
0.0
 11
3.502733340360071
 21
17.87273889589149
 31
0.0
  0
LINE
  5
1CA65
330
1F
100
AcDbEntity
  8
0
100
AcDbLine
 10
4.305041196618764
 20
17.87498890486196
 30
0.0
 11
4.305041196618764
 21
17.8727388958915
 31
0.0
  0
LINE
  5
1CA66
330
1F
100
AcDbEntity
  8
0
100
AcDbLine
 10
4.305041196618764
 20
17.8727388958915
 30
0.0
 11
4.305041196618772
 21
17.09189630429209
 31
0.0
  0
LINE
  5
1CA67
330
1F
100
AcDbEntity
  8
0
100
AcDbLine
 10
4.298112264430626
 20
17.8727388958915
 30
0.0
 11
4.298112264430626
 21
17.84779794363636
 31
0.0
  0
LINE
  5
1CA68
330
1F
100
AcDbEntity
  8
0
100
AcDbLine
 10
3.502733340360071
 20
17.87273889589149
 30
0.0
 11
3.502733340360071
 21
17.84779794363636
 31
0.0
  0
LINE
  5
1CA69
330
1F
100
AcDbEntity
  8
0
100
AcDbLine
 10
4.267642361649569
 20
17.95672427386815
 30
0.0
 11
4.254562734014113
 21
17.95672427386815
 31
0.0
  0
LINE
  5
1CA6A
330
1F
100
AcDbEntity
  8
0
100
AcDbLine
 10
3.511565964145615
 20
17.9027232780932
 30
0.0
 11
3.520720169964056
 21
17.9027232780932
 31
0.0
  0
LINE
  5
1CA6C
330
1F
100
AcDbEntity
  8
0
100
AcDbLine
 10
4.298658564715493
 20
17.98770097427857
 30
0.0
 11
4.298658564715493
 21
17.93369997850362
 31
0.0
  0
LINE
  5
1CA6D
330
1F
100
AcDbEntity
  8
0
100
AcDbLine
 10
4.298658564715493
 20
17.93369997850362
 30
0.0
 11
4.298658564715493
 21
17.87498890486196
 31
0.0
  0
LINE
  5
1CA6E
330
1F
100
AcDbEntity
  8
0
100
AcDbLine
 10
4.298658564715493
 20
17.87498890486196
 30
0.0
 11
4.305041196618764
 21
17.87498890486196
 31
0.0
  0
LINE
  5
1CA6F
330
1F
100
AcDbEntity
  8
0
100
AcDbLine
 10
4.305041196618764
 20
17.87498890486196
 30
0.0
 11
4.396698884891035
 21
17.87498890486196
 31
0.0
  0
LINE
  5
1CA70
330
1F
100
AcDbEntity
  8
0
100
AcDbLine
 10
4.417565964145621
 20
17.87498890486196
 30
0.0
 11
4.417565964145621
 21
17.8880872655177
 31
0.0
  0
LINE
  5
1CA71
330
1F
100
AcDbEntity
  8
0
100
AcDbLine
 10
4.417565964145621
 20
17.8880872655177
 30
0.0
 11
4.417565964145621
 21
17.97376726551769
 31
0.0
  0
LINE
  5
1CA72
330
1F
100
AcDbEntity
  8
0
100
AcDbLine
 10
3.491193656058774
 20
17.99389630429208
 30
0.0
 11
3.486193656058771
 21
17.99389630429208
 31
0.0
  0
LINE
  5
1CA73
330
1F
100
AcDbEntity
  8
0
100
AcDbLine
 10
3.486193656058771
 20
17.99389630429208
 30
0.0
 11
3.392658564715487
 21
17.99389630429208
 31
0.0
  0
LINE
  5
1CA74
330
1F
100
AcDbEntity
  8
0
100
AcDbLine
 10
3.425111766543137
 20
17.87498890486196
 30
0.0
 11
3.479112762318086
 21
17.87498890486196
 31
0.0
  0
LINE
  5
1CA75
330
1F
100
AcDbEntity
  8
0
100
AcDbLine
 10
3.479112762318086
 20
17.87498890486196
 30
0.0
 11
3.511565964145615
 21
17.87498890486196
 31
0.0
  0
LINE
  5
1CA76
330
1F
100
AcDbEntity
  8
0
100
AcDbLine
 10
3.511565964145615
 20
17.87498890486196
 30
0.0
 11
3.511565964145615
 21
17.93369997850362
 31
0.0
  0
LINE
  5
1CA77
330
1F
100
AcDbEntity
  8
0
100
AcDbLine
 10
3.511565964145615
 20
17.93369997850362
 30
0.0
 11
3.511565964145615
 21
17.98770097427857
 31
0.0
  0
LINE
  5
1CA78
330
1F
100
AcDbEntity
  8
0
100
AcDbLine
 10
4.396698884891035
 20
17.09189630429209
 30
0.0
 11
4.305041196618772
 21
17.09189630429209
 31
0.0
  0
LINE
  5
1CA79
330
1F
100
AcDbEntity
  8
0
100
AcDbLine
 10
4.305041196618772
 20
17.09189630429209
 30
0.0
 11
4.298658564715493
 21
17.09189630429209
 31
0.0
  0
LINE
  5
1CA7B
330
1F
100
AcDbEntity
  8
0
100
AcDbLine
 10
3.502733340360071
 20
17.87273889589149
 30
0.0
 11
4.298112264430626
 21
17.8727388958915
 31
0.0
  0
LINE
  5
1CA7C
330
1F
100
AcDbEntity
  8
0
100
AcDbLine
 10
4.298112264430626
 20
17.8727388958915
 30
0.0
 11
4.305041196618764
 21
17.8727388958915
 31
0.0
  0
LINE
  5
1CA7D
330
1F
100
AcDbEntity
  8
0
100
AcDbLine
 10
4.396698884891035
 20
17.56798687891501
 30
0.0
 11
4.396698884891035
 21
17.43698687891501
 31
0.0
  0
LINE
  5
1CA7E
330
1F
100
AcDbEntity
  8
0
100
AcDbLine
 10
4.298112264430626
 20
17.84779794363636
 30
0.0
 11
4.298112264430626
 21
17.74927733977184
 31
0.0
  0
LINE
  5
1CA7F
330
1F
100
AcDbEntity
  8
0
100
AcDbLine
 10
3.502733340360071
 20
17.84779794363636
 30
0.0
 11
3.502733340360071
 21
17.74927733977184
 31
0.0
  0
LINE
  5
1CA80
330
1F
100
AcDbEntity
  8
0
100
AcDbLine
 10
4.298658564715493
 20
17.95672427386815
 30
0.0
 11
4.279642361649569
 21
17.95672427386815
 31
0.0
  0
LINE
  5
1CA81
330
1F
100
AcDbEntity
  8
0
100
AcDbLine
 10
4.279642361649569
 20
17.95672427386815
 30
0.0
 11
4.267642361649569
 21
17.95672427386815
 31
0.0
  0
LINE
  5
1CA82
330
1F
100
AcDbEntity
  8
0
100
AcDbLine
 10
4.279642361649569
 20
17.9027232780932
 30
0.0
 11
4.267642361649569
 21
17.9027232780932
 31
0.0
  0
LINE
  5
1CA83
330
1F
100
AcDbEntity
  8
0
100
AcDbLine
 10
3.520720169964056
 20
17.95672427386815
 30
0.0
 11
3.532720169964056
 21
17.95672427386815
 31
0.0
  0
LINE
  5
1CA84
330
1F
100
AcDbEntity
  8
0
100
AcDbLine
 10
3.520720169964056
 20
17.9027232780932
 30
0.0
 11
3.532720169964056
 21
17.9027232780932
 31
0.0
  0
LINE
  5
1CA85
330
1F
100
AcDbEntity
  8
0
100
AcDbLine
 10
3.532720169964056
 20
17.9027232780932
 30
0.0
 11
3.545799797599512
 21
17.9027232780932
 31
0.0
  0
LINE
  5
1CA87
330
1F
100
AcDbEntity
  8
0
100
AcDbLine
 10
4.298112264430626
 20
17.74927733977184
 30
0.0
 11
4.298112264430626
 21
17.65227237804074
 31
0.0
  0
LINE
  5
1CA88
330
1F
100
AcDbEntity
  8
0
100
AcDbLine
 10
3.502733340360071
 20
17.74927733977184
 30
0.0
 11
3.502733340360071
 21
17.65227237804074
 31
0.0
  0
LINE
  5
1CA89
330
1F
100
AcDbEntity
  8
0
100
AcDbLine
 10
4.298112264430626
 20
17.65227237804074
 30
0.0
 11
4.298112264430633
 21
17.54621327078617
 31
0.0
  0
LINE
  5
1CA8A
330
1F
100
AcDbEntity
  8
0
100
AcDbLine
 10
3.502733340360071
 20
17.65227237804074
 30
0.0
 11
3.502733340360078
 21
17.54621327078617
 31
0.0
  0
LINE
  5
1CA8B
330
1F
100
AcDbEntity
  8
0
100
AcDbLine
 10
4.298112264430633
 20
17.54621327078617
 30
0.0
 11
4.298112264430633
 21
17.44598037649502
 31
0.0
  0
LINE
  5
1CA8C
330
1F
100
AcDbEntity
  8
0
100
AcDbLine
 10
3.502733340360078
 20
17.54621327078617
 30
0.0
 11
3.502733340360078
 21
17.44598037649502
 31
0.0
  0
LINE
  5
1CA8D
330
1F
100
AcDbEntity
  8
0
100
AcDbLine
 10
4.298112264430633
 20
17.44598037649502
 30
0.0
 11
4.298112264430633
 21
17.34367503168388
 31
0.0
  0
LINE
  5
1CA8E
330
1F
100
AcDbEntity
  8
0
100
AcDbLine
 10
3.502733340360078
 20
17.44598037649502
 30
0.0
 11
3.502733340360078
 21
17.34367503168388
 31
0.0
  0
LINE
  5
1CA8F
330
1F
100
AcDbEntity
  8
0
100
AcDbLine
 10
4.298112264430633
 20
17.34367503168388
 30
0.0
 11
4.298112264430633
 21
17.23998908083196
 31
0.0
  0
LINE
  5
1CA90
330
1F
100
AcDbEntity
  8
0
100
AcDbLine
 10
3.502733340360078
 20
17.34367503168388
 30
0.0
 11
3.502733340360078
 21
17.23998908083196
 31
0.0
  0
LINE
  5
1CA91
330
1F
100
AcDbEntity
  8
0
100
AcDbLine
 10
4.298112264430633
 20
17.23998908083196
 30
0.0
 11
4.298112264430633
 21
17.1448664777991
 31
0.0
  0
LINE
  5
1CA92
330
1F
100
AcDbEntity
  8
0
100
AcDbLine
 10
4.298112264430633
 20
17.1448664777991
 30
0.0
 11
4.298112264430633
 21
17.08839658416376
 31
0.0
  0
LINE
  5
1CA93
330
1F
100
AcDbEntity
  8
0
100
AcDbLine
 10
3.502733340360078
 20
17.23998908083196
 30
0.0
 11
3.502733340360078
 21
17.1448664777991
 31
0.0
  0
LINE
  5
1CA94
330
1F
100
AcDbEntity
  8
0
100
AcDbLine
 10
3.502733340360078
 20
17.1448664777991
 30
0.0
 11
3.502733340360078
 21
17.08839658416376
 31
0.0
  0
LINE
  5
1CA95
330
1F
100
AcDbEntity
  8
0
100
AcDbLine
 10
3.545799797599512
 20
17.91466843692135
 30
0.0
 11
3.51418126580681
 21
17.91466843692135
 31
0.0
  0
LINE
  5
1CA96
330
1F
100
AcDbEntity
  8
0
100
AcDbLine
 10
4.254562734014113
 20
17.91466843692135
 30
0.0
 11
4.290047937405502
 21
17.91466843692135
 31
0.0
  0
LINE
  5
1CA97
330
1F
100
AcDbEntity
  8
0
100
AcDbLine
 10
4.230647937405505
 20
17.91466843692135
 30
0.0
 11
4.254562734014113
 21
17.91466843692135
 31
0.0
  0
LINE
  5
1CA98
330
1F
100
AcDbEntity
  8
0
100
AcDbLine
 10
3.545799797599512
 20
17.94436843692136
 30
0.0
 11
3.51418126580681
 21
17.94436843692136
 31
0.0
  0
LINE
  5
1CA99
330
1F
100
AcDbEntity
  8
0
100
AcDbLine
 10
4.290047937405502
 20
17.94436843692136
 30
0.0
 11
4.254562734014113
 21
17.94436843692136
 31
0.0
  0
LINE
  5
1CA9A
330
1F
100
AcDbEntity
  8
0
100
AcDbLine
 10
4.230647937405505
 20
17.94436843692136
 30
0.0
 11
4.254562734014113
 21
17.94436843692136
 31
0.0
  0
LINE
  5
1CA9B
330
1F
100
AcDbEntity
  8
0
100
AcDbLine
 10
3.545799797599512
 20
17.91466843692135
 30
0.0
 11
3.573581265806813
 21
17.91466843692135
 31
0.0
  0
LINE
  5
1CA9C
330
1F
100
AcDbEntity
  8
0
100
AcDbLine
 10
3.545799797599512
 20
17.94436843692136
 30
0.0
 11
3.573581265806813
 21
17.94436843692136
 31
0.0
  0
LINE
  5
1CA9D
330
1F
100
AcDbEntity
  8
0
100
AcDbLine
 10
4.267642361649569
 20
17.96072427386815
 30
0.0
 11
4.279642361649569
 21
17.96072427386815
 31
0.0
  0
LINE
  5
1CA9E
330
1F
100
AcDbEntity
  8
0
100
AcDbLine
 10
4.279642361649569
 20
17.89672427386815
 30
0.0
 11
4.267642361649569
 21
17.89672427386815
 31
0.0
  0
LINE
  5
1CA9F
330
1F
100
AcDbEntity
  8
0
100
AcDbLine
 10
3.532720169964056
 20
17.96072427386815
 30
0.0
 11
3.520720169964056
 21
17.96072427386815
 31
0.0
  0
LINE
  5
1CAA0
330
1F
100
AcDbEntity
  8
0
100
AcDbLine
 10
3.520720169964056
 20
17.89672427386815
 30
0.0
 11
3.532720169964056
 21
17.89672427386815
 31
0.0
  0
LINE
  5
1CAA3
330
1F
100
AcDbEntity
  8
0
100
AcDbLine
 10
3.498571776271232
 20
16.99189630429209
 30
0.0
 11
3.498571776271232
 21
17.09189630429209
 31
0.0
  0
LINE
  5
1CAA4
330
1F
100
AcDbEntity
  8
0
100
AcDbLine
 10
3.498571776271232
 20
17.09189630429209
 30
0.0
 11
3.59857177627123
 21
17.09189630429209
 31
0.0
  0
LINE
  5
1CAA5
330
1F
100
AcDbEntity
  8
0
100
AcDbLine
 10
4.19669888489104
 20
17.09189630429209
 30
0.0
 11
4.296698884891037
 21
17.09189630429209
 31
0.0
  0
LINE
  5
1CAA6
330
1F
100
AcDbEntity
  8
0
100
AcDbLine
 10
4.296698884891037
 20
17.09189630429209
 30
0.0
 11
4.396698884891035
 21
17.09189630429209
 31
0.0
  0
LINE
  5
1CAA7
330
1F
100
AcDbEntity
  8
0
100
AcDbLine
 10
4.396698884891035
 20
17.09189630429209
 30
0.0
 11
4.396698884891035
 21
16.99189630429209
 31
0.0
  0
LINE
  5
1CAA8
330
1F
100
AcDbEntity
  8
0
100
AcDbLine
 10
3.498571776271232
 20
17.09189630429209
 30
0.0
 11
3.39857177627123
 21
17.09189630429209
 31
0.0
  0
LINE
  5
1CAA9
330
1F
100
AcDbEntity
  8
0
100
AcDbLine
 10
3.39857177627123
 20
17.09189630429209
 30
0.0
 11
3.39857177627123
 21
16.99189630429209
 31
0.0
  0
LINE
  5
1CAAA
330
1F
100
AcDbEntity
  8
0
100
AcDbLine
 10
3.579122719610991
 20
17.96436844595912
 30
0.0
 11
3.679122719610992
 21
17.96436844595912
 31
0.0
  0
LINE
  5
1CAAB
330
1F
100
AcDbEntity
  8
0
100
AcDbLine
 10
3.679122719610992
 20
17.96436844595912
 30
0.0
 11
3.679122719610992
 21
17.94436844595912
 31
0.0
  0
LINE
  5
1CAAC
330
1F
100
AcDbEntity
  8
0
100
AcDbLine
 10
3.696382798281751
 20
17.94436844595912
 30
0.0
 11
3.59638279828175
 21
17.94436844595912
 31
0.0
  0
LINE
  5
1CAAD
330
1F
100
AcDbEntity
  8
0
100
AcDbLine
 10
3.579122719610991
 20
17.94436844595912
 30
0.0
 11
3.579122719610991
 21
17.96436844595912
 31
0.0
  0
LINE
  5
1CAAE
330
1F
100
AcDbEntity
  8
0
100
AcDbLine
 10
4.121197936039356
 20
17.96436843692135
 30
0.0
 11
4.221197936039358
 21
17.96436843692135
 31
0.0
  0
LINE
  5
1CAAF
330
1F
100
AcDbEntity
  8
0
100
AcDbLine
 10
4.221197936039358
 20
17.96436843692135
 30
0.0
 11
4.221197936039358
 21
17.94436843692136
 31
0.0
  0
LINE
  5
1CAB0
330
1F
100
AcDbEntity
  8
0
100
AcDbLine
 10
4.201636481337358
 20
17.94436843692136
 30
0.0
 11
4.101636481337356
 21
17.94436843692136
 31
0.0
  0
LINE
  5
1CAB1
330
1F
100
AcDbEntity
  8
0
100
AcDbLine
 10
4.121197936039356
 20
17.94436843692136
 30
0.0
 11
4.121197936039356
 21
17.96436843692135
 31
0.0
  0
LINE
  5
1CAB2
330
1F
100
AcDbEntity
  8
0
100
AcDbLine
 10
3.847229343406395
 20
17.96479633436198
 30
0.0
 11
3.947229343406396
 21
17.96479633436198
 31
0.0
  0
LINE
  5
1CAB3
330
1F
100
AcDbEntity
  8
0
100
AcDbLine
 10
3.947229343406396
 20
17.96479633436198
 30
0.0
 11
3.947229343406396
 21
17.94479633436198
 31
0.0
  0
LINE
  5
1CAB4
330
1F
100
AcDbEntity
  8
0
100
AcDbLine
 10
3.947229343406396
 20
17.94479633436198
 30
0.0
 11
3.847229343406395
 21
17.94479633436198
 31
0.0
  0
LINE
  5
1CAB5
330
1F
100
AcDbEntity
  8
0
100
AcDbLine
 10
3.847229343406395
 20
17.94479633436198
 30
0.0
 11
3.847229343406395
 21
17.96479633436198
 31
0.0
  0
LINE
  5
1CAB6
330
1F
100
AcDbEntity
  8
0
100
AcDbLine
 10
3.985310033163328
 20
17.96479633436198
 30
0.0
 11
4.085310033163329
 21
17.96479633436198
 31
0.0
  0
LINE
  5
1CAB7
330
1F
100
AcDbEntity
  8
0
100
AcDbLine
 10
4.085310033163329
 20
17.96479633436198
 30
0.0
 11
4.085310033163329
 21
17.94479633436198
 31
0.0
  0
LINE
  5
1CAB8
330
1F
100
AcDbEntity
  8
0
100
AcDbLine
 10
4.085310033163329
 20
17.94479633436198
 30
0.0
 11
3.985310033163328
 21
17.94479633436198
 31
0.0
  0
LINE
  5
1CAB9
330
1F
100
AcDbEntity
  8
0
100
AcDbLine
 10
3.985310033163328
 20
17.94479633436198
 30
0.0
 11
3.985310033163328
 21
17.96479633436198
 31
0.0
  0
LINE
  5
1CABA
330
1F
100
AcDbEntity
  8
0
100
AcDbLine
 10
3.713751345321069
 20
17.96479633436198
 30
0.0
 11
3.813751345321071
 21
17.96479633436198
 31
0.0
  0
LINE
  5
1CABB
330
1F
100
AcDbEntity
  8
0
100
AcDbLine
 10
3.813751345321071
 20
17.96479633436198
 30
0.0
 11
3.813751345321071
 21
17.94479633436198
 31
0.0
  0
LINE
  5
1CABC
330
1F
100
AcDbEntity
  8
0
100
AcDbLine
 10
3.813751345321071
 20
17.94479633436198
 30
0.0
 11
3.713751345321069
 21
17.94479633436198
 31
0.0
  0
LINE
  5
1CABD
330
1F
100
AcDbEntity
  8
0
100
AcDbLine
 10
3.713751345321069
 20
17.94479633436198
 30
0.0
 11
3.713751345321069
 21
17.96479633436198
 31
0.0
  0
LINE
  5
1CABE
330
1F
100
AcDbEntity
  8
0
100
AcDbLine
 10
3.579122719610991
 20
17.96436844595912
 30
0.0
 11
3.59912271961099
 21
17.96436844595912
 31
0.0
  0
LINE
  5
1CABF
330
1F
100
AcDbEntity
  8
0
100
AcDbLine
 10
3.59912271961099
 20
17.96436844595912
 30
0.0
 11
3.599122719610994
 21
17.94436843692136
 31
0.0
  0
LINE
  5
1CAC0
330
1F
100
AcDbEntity
  8
0
100
AcDbLine
 10
3.679122719610992
 20
17.96436844595912
 30
0.0
 11
3.659122719610993
 21
17.96436844595912
 31
0.0
  0
LINE
  5
1CAC1
330
1F
100
AcDbEntity
  8
0
100
AcDbLine
 10
3.659122719610993
 20
17.96436844595912
 30
0.0
 11
3.659122719611003
 21
17.94436844595912
 31
0.0
  0
LINE
  5
1CAC2
330
1F
100
AcDbEntity
  8
0
100
AcDbLine
 10
3.732582781602035
 20
17.96479633261392
 30
0.0
 11
3.732582781602038
 21
17.94479632357615
 31
0.0
  0
LINE
  5
1CAC3
330
1F
100
AcDbEntity
  8
0
100
AcDbLine
 10
3.792582781602037
 20
17.96479633261392
 30
0.0
 11
3.792582781602048
 21
17.94479633261392
 31
0.0
  0
LINE
  5
1CAC4
330
1F
100
AcDbEntity
  8
0
100
AcDbLine
 10
3.868030428560546
 20
17.96479633261392
 30
0.0
 11
3.868030428560549
 21
17.94479632357615
 31
0.0
  0
LINE
  5
1CAC5
330
1F
100
AcDbEntity
  8
0
100
AcDbLine
 10
3.928030428560548
 20
17.96479633261392
 30
0.0
 11
3.928030428560559
 21
17.94479633261392
 31
0.0
  0
LINE
  5
1CAC6
330
1F
100
AcDbEntity
  8
0
100
AcDbLine
 10
4.005985203312095
 20
17.96479633261392
 30
0.0
 11
4.005985203312098
 21
17.94479632357615
 31
0.0
  0
LINE
  5
1CAC7
330
1F
100
AcDbEntity
  8
0
100
AcDbLine
 10
4.065985203312097
 20
17.96479633261392
 30
0.0
 11
4.065985203312107
 21
17.94479633261392
 31
0.0
  0
LINE
  5
1CAC8
330
1F
100
AcDbEntity
  8
0
100
AcDbLine
 10
4.140876227438655
 20
17.96436843517329
 30
0.0
 11
4.140876227438658
 21
17.94436842613552
 31
0.0
  0
LINE
  5
1CAC9
330
1F
100
AcDbEntity
  8
0
100
AcDbLine
 10
4.200876227438657
 20
17.96436843517329
 30
0.0
 11
4.200876227438667
 21
17.94436843517329
 31
0.0
  0
LINE
  5
1CACA
330
1F
100
AcDbEntity
  8
0
100
AcDbLine
 10
4.398368969906295
 20
17.09189630429209
 30
0.0
 11
4.396698884891035
 21
17.09189630429209
 31
0.0
  0
LINE
  5
1CACB
330
1F
100
AcDbEntity
  8
0
100
AcDbLine
 10
4.396698884891035
 20
17.09189630429209
 30
0.0
 11
4.343972964462244
 21
17.09189630429209
 31
0.0
  0
LINE
  5
1CACC
330
1F
100
AcDbEntity
  8
0
100
AcDbLine
 10
4.343972964462244
 20
17.09189630429209
 30
0.0
 11
4.335811444726614
 21
17.09189630429209
 31
0.0
  0
LINE
  5
1CACD
330
1F
100
AcDbEntity
  8
0
100
AcDbLine
 10
3.392658564715487
 20
17.87498890486196
 30
0.0
 11
3.392658564715487
 21
17.01363828873701
 31
0.0
  0
LINE
  5
1CACE
330
1F
100
AcDbEntity
  8
0
100
AcDbLine
 10
4.298658564715493
 20
18.08770097427859
 30
0.0
 11
4.298658564715493
 21
17.98770097427857
 31
0.0
  0
LINE
  5
1CACF
330
1F
100
AcDbEntity
  8
0
100
AcDbLine
 10
3.392658564715487
 20
17.99389630429208
 30
0.0
 11
3.392658564715487
 21
17.87498890486196
 31
0.0
  0
LINE
  5
1CAD1
330
1F
100
AcDbEntity
  8
0
100
AcDbLine
 10
4.396698884891035
 20
16.99189630429209
 30
0.0
 11
4.296698884891039
 21
16.99189630429209
 31
0.0
  0
LINE
  5
1CBB6
330
1F
100
AcDbEntity
  8
0
100
AcDbLine
 10
4.322985332836131
 20
17.81697360419784
 30
0.0
 11
4.322985332836131
 21
17.15990693259915
 31
0.0
  0
LINE
  5
1CBB7
330
1F
100
AcDbEntity
  8
0
100
AcDbLine
 10
4.322985332836131
 20
17.81697360419784
 30
0.0
 11
4.352685332836136
 21
17.81697360419784
 31
0.0
  0
LINE
  5
1CBB8
330
1F
100
AcDbEntity
  8
0
100
AcDbLine
 10
4.352685332836136
 20
17.81697360419784
 30
0.0
 11
4.352685332836136
 21
17.15990693259915
 31
0.0
  0
LINE
  5
1CBB9
330
1F
100
AcDbEntity
  8
0
100
AcDbLine
 10
4.322985332836131
 20
17.15990693259915
 30
0.0
 11
4.352685332836136
 21
17.15990693259915
 31
0.0
  0
LINE
  5
1CBBA
330
1F
100
AcDbEntity
  8
0
100
AcDbLine
 10
4.311040174007983
 20
17.09189630528916
 30
0.0
 11
4.311040174007983
 21
17.11091250835508
 31
0.0
  0
LINE
  5
1CBBB
330
1F
100
AcDbEntity
  8
0
100
AcDbLine
 10
4.311040174007983
 20
17.12291250835508
 30
0.0
 11
4.311040174007983
 21
17.13599213599054
 31
0.0
  0
LINE
  5
1CBBC
330
1F
100
AcDbEntity
  8
0
100
AcDbLine
 10
4.311040174007983
 20
17.13599213599054
 30
0.0
 11
4.322985332836131
 21
17.13599213599054
 31
0.0
  0
LINE
  5
1CBBD
330
1F
100
AcDbEntity
  8
0
100
AcDbLine
 10
4.352685332836136
 20
17.13599213599054
 30
0.0
 11
4.365041169782932
 21
17.13599213599054
 31
0.0
  0
LINE
  5
1CBBE
330
1F
100
AcDbEntity
  8
0
100
AcDbLine
 10
4.36904116978293
 20
17.12291250835508
 30
0.0
 11
4.365041169782932
 21
17.12291250835508
 31
0.0
  0
LINE
  5
1CBBF
330
1F
100
AcDbEntity
  8
0
100
AcDbLine
 10
4.311040174007983
 20
17.12291250835508
 30
0.0
 11
4.30504116978293
 21
17.12291250835508
 31
0.0
  0
LINE
  5
1CBC0
330
1F
100
AcDbEntity
  8
0
100
AcDbLine
 10
4.36904116978293
 20
17.11091250835508
 30
0.0
 11
4.365041169782932
 21
17.11091250835508
 31
0.0
  0
LINE
  5
1CBC1
330
1F
100
AcDbEntity
  8
0
100
AcDbLine
 10
4.311040174007983
 20
17.11091250835508
 30
0.0
 11
4.30504116978293
 21
17.11091250835508
 31
0.0
  0
LINE
  5
1CBC2
330
1F
100
AcDbEntity
  8
0
100
AcDbLine
 10
4.365041169782932
 20
17.87898890585904
 30
0.0
 11
4.365041169782932
 21
17.8698347000406
 31
0.0
  0
LINE
  5
1CBC3
330
1F
100
AcDbEntity
  8
0
100
AcDbLine
 10
4.365041169782932
 20
17.8578347000406
 30
0.0
 11
4.365041169782932
 21
17.84475507240514
 31
0.0
  0
LINE
  5
1CBC4
330
1F
100
AcDbEntity
  8
0
100
AcDbLine
 10
4.311040174007976
 20
17.84475507240514
 30
0.0
 11
4.322985332836131
 21
17.84475507240514
 31
0.0
  0
LINE
  5
1CBC5
330
1F
100
AcDbEntity
  8
0
100
AcDbLine
 10
4.352685332836136
 20
17.84475507240514
 30
0.0
 11
4.365041169782932
 21
17.84475507240514
 31
0.0
  0
LINE
  5
1CBC6
330
1F
100
AcDbEntity
  8
0
100
AcDbLine
 10
4.36904116978293
 20
17.8578347000406
 30
0.0
 11
4.365041169782932
 21
17.8578347000406
 31
0.0
  0
LINE
  5
1CBC7
330
1F
100
AcDbEntity
  8
0
100
AcDbLine
 10
4.311040174007976
 20
17.8578347000406
 30
0.0
 11
4.30504116978293
 21
17.8578347000406
 31
0.0
  0
LINE
  5
1CBC8
330
1F
100
AcDbEntity
  8
0
100
AcDbLine
 10
4.36904116978293
 20
17.8698347000406
 30
0.0
 11
4.365041169782932
 21
17.8698347000406
 31
0.0
  0
LINE
  5
1CBC9
330
1F
100
AcDbEntity
  8
0
100
AcDbLine
 10
4.311040174007976
 20
17.8698347000406
 30
0.0
 11
4.30504116978293
 21
17.8698347000406
 31
0.0
  0
LINE
  5
1CBCA
330
1F
100
AcDbEntity
  8
0
100
AcDbLine
 10
4.365041169782932
 20
17.12291250835508
 30
0.0
 11
4.365041169782932
 21
17.13599213599054
 31
0.0
  0
LINE
  5
1CBCB
330
1F
100
AcDbEntity
  8
0
100
AcDbLine
 10
4.311040174007976
 20
17.87898890585904
 30
0.0
 11
4.311040174007976
 21
17.8698347000406
 31
0.0
  0
LINE
  5
1CBCC
330
1F
100
AcDbEntity
  8
0
100
AcDbLine
 10
4.365041169782932
 20
17.09189630528916
 30
0.0
 11
4.365041169782932
 21
17.11091250835508
 31
0.0
  0
LINE
  5
1CBCD
330
1F
100
AcDbEntity
  8
0
100
AcDbLine
 10
4.365041169782932
 20
17.11091250835508
 30
0.0
 11
4.365041169782932
 21
17.12291250835508
 31
0.0
  0
LINE
  5
1CBCE
330
1F
100
AcDbEntity
  8
0
100
AcDbLine
 10
4.311040174007983
 20
17.11091250835508
 30
0.0
 11
4.311040174007983
 21
17.12291250835508
 31
0.0
  0
LINE
  5
1CBCF
330
1F
100
AcDbEntity
  8
0
100
AcDbLine
 10
4.365041169782932
 20
17.8698347000406
 30
0.0
 11
4.365041169782932
 21
17.8578347000406
 31
0.0
  0
LINE
  5
1CBD0
330
1F
100
AcDbEntity
  8
0
100
AcDbLine
 10
4.311040174007976
 20
17.8698347000406
 30
0.0
 11
4.311040174007976
 21
17.8578347000406
 31
0.0
  0
LINE
  5
1CBD1
330
1F
100
AcDbEntity
  8
0
100
AcDbLine
 10
4.311040174007976
 20
17.8578347000406
 30
0.0
 11
4.311040174007976
 21
17.84475507240514
 31
0.0
  0
LINE
  5
1CBD2
330
1F
100
AcDbEntity
  8
0
100
AcDbLine
 10
4.322985332836131
 20
17.84475507240514
 30
0.0
 11
4.322985332836131
 21
17.87637360419784
 31
0.0
  0
LINE
  5
1CBD3
330
1F
100
AcDbEntity
  8
0
100
AcDbLine
 10
4.322985332836131
 20
17.13599213599054
 30
0.0
 11
4.322985332836131
 21
17.10050693259915
 31
0.0
  0
LINE
  5
1CBD4
330
1F
100
AcDbEntity
  8
0
100
AcDbLine
 10
4.322985332836131
 20
17.15990693259915
 30
0.0
 11
4.322985332836131
 21
17.13599213599054
 31
0.0
  0
LINE
  5
1CBD5
330
1F
100
AcDbEntity
  8
0
100
AcDbLine
 10
4.352685332836136
 20
17.84475507240514
 30
0.0
 11
4.352685332836136
 21
17.87637360419784
 31
0.0
  0
LINE
  5
1CBD6
330
1F
100
AcDbEntity
  8
0
100
AcDbLine
 10
4.352685332836136
 20
17.10050693259915
 30
0.0
 11
4.352685332836136
 21
17.13599213599054
 31
0.0
  0
LINE
  5
1CBD7
330
1F
100
AcDbEntity
  8
0
100
AcDbLine
 10
4.352685332836136
 20
17.15990693259915
 30
0.0
 11
4.352685332836136
 21
17.13599213599054
 31
0.0
  0
LINE
  5
1CBD8
330
1F
100
AcDbEntity
  8
0
100
AcDbLine
 10
4.322985332836131
 20
17.84475507240514
 30
0.0
 11
4.322985332836131
 21
17.81697360419784
 31
0.0
  0
LINE
  5
1CBD9
330
1F
100
AcDbEntity
  8
0
100
AcDbLine
 10
4.352685332836136
 20
17.84475507240514
 30
0.0
 11
4.352685332836136
 21
17.81697360419784
 31
0.0
  0
LINE
  5
1CBDA
330
1F
100
AcDbEntity
  8
0
100
AcDbLine
 10
4.36904116978293
 20
17.12291250835508
 30
0.0
 11
4.36904116978293
 21
17.11091250835508
 31
0.0
  0
LINE
  5
1CBDB
330
1F
100
AcDbEntity
  8
0
100
AcDbLine
 10
4.30504116978293
 20
17.11091250835508
 30
0.0
 11
4.30504116978293
 21
17.12291250835508
 31
0.0
  0
LINE
  5
1CBDC
330
1F
100
AcDbEntity
  8
0
100
AcDbLine
 10
4.36904116978293
 20
17.8578347000406
 30
0.0
 11
4.36904116978293
 21
17.8698347000406
 31
0.0
  0
LINE
  5
1CBDD
330
1F
100
AcDbEntity
  8
0
100
AcDbLine
 10
4.30504116978293
 20
17.8698347000406
 30
0.0
 11
4.30504116978293
 21
17.8578347000406
 31
0.0
  0
LINE
  5
1CBDE
330
1F
100
AcDbEntity
  8
0
100
AcDbLine
 10
4.372685341873902
 20
17.81143215039366
 30
0.0
 11
4.372685341873902
 21
17.71143215039366
 31
0.0
  0
LINE
  5
1CBDF
330
1F
100
AcDbEntity
  8
0
100
AcDbLine
 10
4.372685341873902
 20
17.71143215039366
 30
0.0
 11
4.352685341873899
 21
17.71143215039366
 31
0.0
  0
LINE
  5
1CBE0
330
1F
100
AcDbEntity
  8
0
100
AcDbLine
 10
4.352685341873899
 20
17.6941720717229
 30
0.0
 11
4.352685341873902
 21
17.7941720717229
 31
0.0
  0
LINE
  5
1CBE1
330
1F
100
AcDbEntity
  8
0
100
AcDbLine
 10
4.352685341873902
 20
17.81143215039366
 30
0.0
 11
4.372685341873902
 21
17.81143215039366
 31
0.0
  0
LINE
  5
1CBE2
330
1F
100
AcDbEntity
  8
0
100
AcDbLine
 10
4.372685332836132
 20
17.2693569339653
 30
0.0
 11
4.372685332836132
 21
17.1693569339653
 31
0.0
  0
LINE
  5
1CBE3
330
1F
100
AcDbEntity
  8
0
100
AcDbLine
 10
4.372685332836132
 20
17.1693569339653
 30
0.0
 11
4.352685332836136
 21
17.1693569339653
 31
0.0
  0
LINE
  5
1CBE4
330
1F
100
AcDbEntity
  8
0
100
AcDbLine
 10
4.352685332836136
 20
17.1889183886673
 30
0.0
 11
4.352685332836136
 21
17.28891838866729
 31
0.0
  0
LINE
  5
1CBE5
330
1F
100
AcDbEntity
  8
0
100
AcDbLine
 10
4.352685332836136
 20
17.2693569339653
 30
0.0
 11
4.372685332836132
 21
17.2693569339653
 31
0.0
  0
LINE
  5
1CBE6
330
1F
100
AcDbEntity
  8
0
100
AcDbLine
 10
4.373113230276755
 20
17.54332552659826
 30
0.0
 11
4.373113230276755
 21
17.44332552659826
 31
0.0
  0
LINE
  5
1CBE7
330
1F
100
AcDbEntity
  8
0
100
AcDbLine
 10
4.373113230276755
 20
17.44332552659826
 30
0.0
 11
4.353113230276759
 21
17.44332552659826
 31
0.0
  0
LINE
  5
1CBE8
330
1F
100
AcDbEntity
  8
0
100
AcDbLine
 10
4.353113230276759
 20
17.44332552659826
 30
0.0
 11
4.353113230276759
 21
17.54332552659826
 31
0.0
  0
LINE
  5
1CBE9
330
1F
100
AcDbEntity
  8
0
100
AcDbLine
 10
4.353113230276759
 20
17.54332552659826
 30
0.0
 11
4.373113230276755
 21
17.54332552659826
 31
0.0
  0
LINE
  5
1CBEA
330
1F
100
AcDbEntity
  8
0
100
AcDbLine
 10
4.373113230276755
 20
17.40524483684132
 30
0.0
 11
4.373113230276755
 21
17.30524483684132
 31
0.0
  0
LINE
  5
1CBEB
330
1F
100
AcDbEntity
  8
0
100
AcDbLine
 10
4.373113230276755
 20
17.30524483684132
 30
0.0
 11
4.353113230276759
 21
17.30524483684132
 31
0.0
  0
LINE
  5
1CBEC
330
1F
100
AcDbEntity
  8
0
100
AcDbLine
 10
4.353113230276759
 20
17.30524483684132
 30
0.0
 11
4.353113230276759
 21
17.40524483684132
 31
0.0
  0
LINE
  5
1CBED
330
1F
100
AcDbEntity
  8
0
100
AcDbLine
 10
4.353113230276759
 20
17.40524483684132
 30
0.0
 11
4.373113230276755
 21
17.40524483684132
 31
0.0
  0
LINE
  5
1CBEE
330
1F
100
AcDbEntity
  8
0
100
AcDbLine
 10
4.373113230276755
 20
17.67680352468358
 30
0.0
 11
4.373113230276755
 21
17.57680352468358
 31
0.0
  0
LINE
  5
1CBEF
330
1F
100
AcDbEntity
  8
0
100
AcDbLine
 10
4.373113230276755
 20
17.57680352468358
 30
0.0
 11
4.353113230276759
 21
17.57680352468358
 31
0.0
  0
LINE
  5
1CBF0
330
1F
100
AcDbEntity
  8
0
100
AcDbLine
 10
4.353113230276759
 20
17.57680352468358
 30
0.0
 11
4.353113230276759
 21
17.67680352468358
 31
0.0
  0
LINE
  5
1CBF1
330
1F
100
AcDbEntity
  8
0
100
AcDbLine
 10
4.353113230276759
 20
17.67680352468358
 30
0.0
 11
4.373113230276755
 21
17.67680352468358
 31
0.0
  0
LINE
  5
1CBF2
330
1F
100
AcDbEntity
  8
0
100
AcDbLine
 10
4.372685341873902
 20
17.81143215039366
 30
0.0
 11
4.372685341873902
 21
17.79143215039367
 31
0.0
  0
LINE
  5
1CBF3
330
1F
100
AcDbEntity
  8
0
100
AcDbLine
 10
4.372685341873902
 20
17.79143215039367
 30
0.0
 11
4.352685332836136
 21
17.79143215039366
 31
0.0
  0
LINE
  5
1CBF4
330
1F
100
AcDbEntity
  8
0
100
AcDbLine
 10
4.372685341873902
 20
17.71143215039366
 30
0.0
 11
4.372685341873902
 21
17.73143215039366
 31
0.0
  0
LINE
  5
1CBF5
330
1F
100
AcDbEntity
  8
0
100
AcDbLine
 10
4.372685341873902
 20
17.73143215039366
 30
0.0
 11
4.352685341873899
 21
17.73143215039365
 31
0.0
  0
LINE
  5
1CBF6
330
1F
100
AcDbEntity
  8
0
100
AcDbLine
 10
4.373113228528696
 20
17.65797208840262
 30
0.0
 11
4.35311321949093
 21
17.65797208840261
 31
0.0
  0
LINE
  5
1CBF7
330
1F
100
AcDbEntity
  8
0
100
AcDbLine
 10
4.373113228528696
 20
17.59797208840262
 30
0.0
 11
4.353113228528696
 21
17.5979720884026
 31
0.0
  0
LINE
  5
1CBF8
330
1F
100
AcDbEntity
  8
0
100
AcDbLine
 10
4.373113228528696
 20
17.52252444144411
 30
0.0
 11
4.35311321949093
 21
17.5225244414441
 31
0.0
  0
LINE
  5
1CBF9
330
1F
100
AcDbEntity
  8
0
100
AcDbLine
 10
4.373113228528696
 20
17.46252444144411
 30
0.0
 11
4.353113228528696
 21
17.46252444144409
 31
0.0
  0
LINE
  5
1CBFA
330
1F
100
AcDbEntity
  8
0
100
AcDbLine
 10
4.373113228528696
 20
17.38456966669256
 30
0.0
 11
4.35311321949093
 21
17.38456966669255
 31
0.0
  0
LINE
  5
1CBFB
330
1F
100
AcDbEntity
  8
0
100
AcDbLine
 10
4.373113228528696
 20
17.32456966669256
 30
0.0
 11
4.353113228528696
 21
17.32456966669255
 31
0.0
  0
LINE
  5
1CBFC
330
1F
100
AcDbEntity
  8
0
100
AcDbLine
 10
4.372685331088069
 20
17.249678642566
 30
0.0
 11
4.352685322050303
 21
17.24967864256599
 31
0.0
  0
LINE
  5
1CBFD
330
1F
100
AcDbEntity
  8
0
100
AcDbLine
 10
4.372685331088069
 20
17.189678642566
 30
0.0
 11
4.352685331088069
 21
17.18967864256599
 31
0.0
  0
LINE
  5
1CFB2
330
1F
100
AcDbEntity
  8
0
100
AcDbLine
 10
1.263195933282512
 20
17.74502563797148
 30
0.0
 11
1.26888960622473
 21
17.74580934396683
 31
0.0
  0
LINE
  5
1CFB3
330
1F
100
AcDbEntity
  8
0
100
AcDbLine
 10
1.257890274742059
 20
17.74272792825387
 30
0.0
 11
1.263195933282512
 21
17.74502563797148
 31
0.0
  0
LINE
  5
1CFB4
330
1F
100
AcDbEntity
  8
0
100
AcDbLine
 10
1.253334202464904
 20
17.73907279993412
 30
0.0
 11
1.257890274742059
 21
17.74272792825387
 31
0.0
  0
LINE
  5
1CFB5
330
1F
100
AcDbEntity
  8
0
100
AcDbLine
 10
1.249838205247458
 20
17.73430934396683
 30
0.0
 11
1.253334202464904
 21
17.73907279993412
 31
0.0
  0
LINE
  5
1CFB6
330
1F
100
AcDbEntity
  8
0
100
AcDbLine
 10
1.247640529522682
 20
17.72876218200419
 30
0.0
 11
1.249838205247458
 21
17.73430934396683
 31
0.0
  0
LINE
  5
1CFB7
330
1F
100
AcDbEntity
  8
0
100
AcDbLine
 10
1.246890943259398
 20
17.72280934396684
 30
0.0
 11
1.247640529522682
 21
17.72876218200419
 31
0.0
  0
LINE
  5
1CFB8
330
1F
100
AcDbEntity
  8
0
100
AcDbLine
 10
1.24764052952268
 20
17.71685650592948
 30
0.0
 11
1.246890943259398
 21
17.72280934396684
 31
0.0
  0
LINE
  5
1CFB9
330
1F
100
AcDbEntity
  8
0
100
AcDbLine
 10
1.249838205247456
 20
17.71130934396683
 30
0.0
 11
1.24764052952268
 21
17.71685650592948
 31
0.0
  0
LINE
  5
1CFBA
330
1F
100
AcDbEntity
  8
0
100
AcDbLine
 10
1.253334202464905
 20
17.70654588799954
 30
0.0
 11
1.249838205247456
 21
17.71130934396683
 31
0.0
  0
LINE
  5
1CFBB
330
1F
100
AcDbEntity
  8
0
100
AcDbLine
 10
1.257890274742061
 20
17.70289075967979
 30
0.0
 11
1.253334202464905
 21
17.70654588799954
 31
0.0
  0
LINE
  5
1CFBC
330
1F
100
AcDbEntity
  8
0
100
AcDbLine
 10
1.263195933282514
 20
17.70059304996218
 30
0.0
 11
1.257890274742061
 21
17.70289075967979
 31
0.0
  0
LINE
  5
1CFBD
330
1F
100
AcDbEntity
  8
0
100
AcDbLine
 10
1.268889606224732
 20
17.69980934396683
 30
0.0
 11
1.263195933282514
 21
17.70059304996218
 31
0.0
  0
LINE
  5
1CFBE
330
1F
100
AcDbEntity
  8
0
100
AcDbLine
 10
1.287631303588934
 20
17.22580025744896
 30
0.0
 11
1.287933671414377
 21
17.69980934396683
 31
0.0
  0
LINE
  5
1CFBF
330
1F
100
AcDbEntity
  8
0
100
AcDbLine
 10
1.262600945269371
 20
17.22484954756655
 30
0.0
 11
1.268271300581123
 21
17.22580025744895
 31
0.0
  0
LINE
  5
1CFC0
330
1F
100
AcDbEntity
  8
0
100
AcDbLine
 10
1.257359151809227
 20
17.222396834232
 30
0.0
 11
1.262600945269371
 21
17.22484954756655
 31
0.0
  0
LINE
  5
1CFC1
330
1F
100
AcDbEntity
  8
0
100
AcDbLine
 10
1.252903139762519
 20
17.21860926580573
 30
0.0
 11
1.257359151809227
 21
17.222396834232
 31
0.0
  0
LINE
  5
1CFC2
330
1F
100
AcDbEntity
  8
0
100
AcDbLine
 10
1.249536578986326
 20
17.21374495881674
 30
0.0
 11
1.252903139762519
 21
17.21860926580573
 31
0.0
  0
LINE
  5
1CFC3
330
1F
100
AcDbEntity
  8
0
100
AcDbLine
 10
1.247488895034042
 20
17.20813540774769
 30
0.0
 11
1.249536578986326
 21
17.21374495881674
 31
0.0
  0
LINE
  5
1CFC4
330
1F
100
AcDbEntity
  8
0
100
AcDbLine
 10
1.246899634183058
 20
17.20216289423371
 30
0.0
 11
1.247488895034042
 21
17.20813540774769
 31
0.0
  0
LINE
  5
1CFC5
330
1F
100
AcDbEntity
  8
0
100
AcDbLine
 10
1.247808953586567
 20
17.19623443520073
 30
0.0
 11
1.246899634183058
 21
17.20216289423371
 31
0.0
  0
LINE
  5
1CFC6
330
1F
100
AcDbEntity
  8
0
100
AcDbLine
 10
1.250154884629939
 20
17.19075404533461
 30
0.0
 11
1.247808953586567
 21
17.19623443520073
 31
0.0
  0
LINE
  5
1CFC7
330
1F
100
AcDbEntity
  8
0
100
AcDbLine
 10
1.253777555989403
 20
17.18609520414796
 30
0.0
 11
1.250154884629939
 21
17.19075404533461
 31
0.0
  0
LINE
  5
1CFC8
330
1F
100
AcDbEntity
  8
0
100
AcDbLine
 10
1.258430088598561
 20
17.18257540396854
 30
0.0
 11
1.253777555989403
 21
17.18609520414796
 31
0.0
  0
LINE
  5
1CFC9
330
1F
100
AcDbEntity
  8
0
100
AcDbLine
 10
1.263795420048772
 20
17.18043451336184
 30
0.0
 11
1.258430088598561
 21
17.18257540396854
 31
0.0
  0
LINE
  5
1CFCA
330
1F
100
AcDbEntity
  8
0
100
AcDbLine
 10
1.269507911868338
 20
17.17981843048471
 30
0.0
 11
1.263795420048772
 21
17.18043451336184
 31
0.0
  0
LINE
  5
1CFCB
330
1F
100
AcDbEntity
  8
0
100
AcDbLine
 10
1.56813863407447
 20
17.74502563797147
 30
0.0
 11
1.568729980157877
 21
17.74580934396683
 31
0.0
  0
LINE
  5
1CFCC
330
1F
100
AcDbEntity
  8
0
100
AcDbLine
 10
1.567587587249402
 20
17.74272792825387
 30
0.0
 11
1.56813863407447
 21
17.74502563797147
 31
0.0
  0
LINE
  5
1CFCD
330
1F
100
AcDbEntity
  8
0
100
AcDbLine
 10
1.567165752506877
 20
17.73946952252492
 30
0.0
 11
1.567587587249402
 21
17.74272792825387
 31
0.0
  0
LINE
  5
1CFCE
330
1F
100
AcDbEntity
  8
0
100
AcDbLine
 10
1.567587587249402
 20
17.70289075967979
 30
0.0
 11
1.567165752506877
 21
17.70614916540874
 31
0.0
  0
LINE
  5
1CFCF
330
1F
100
AcDbEntity
  8
0
100
AcDbLine
 10
1.568138634074472
 20
17.70059304996218
 30
0.0
 11
1.567587587249402
 21
17.70289075967979
 31
0.0
  0
LINE
  5
1CFD0
330
1F
100
AcDbEntity
  8
0
100
AcDbLine
 10
1.568729980157876
 20
17.69980934396683
 30
0.0
 11
1.568138634074472
 21
17.70059304996218
 31
0.0
  0
LINE
  5
1CFD1
330
1F
100
AcDbEntity
  8
0
100
AcDbLine
 10
1.570676496834401
 20
17.22580025744896
 30
0.0
 11
1.570707900821098
 21
17.69980934396683
 31
0.0
  0
LINE
  5
1CFD2
330
1F
100
AcDbEntity
  8
0
100
AcDbLine
 10
1.56807683849281
 20
17.22484954756656
 30
0.0
 11
1.568665762802154
 21
17.22580025744896
 31
0.0
  0
LINE
  5
1CFD3
330
1F
100
AcDbEntity
  8
0
100
AcDbLine
 10
1.567532424708579
 20
17.222396834232
 30
0.0
 11
1.56807683849281
 21
17.22484954756656
 31
0.0
  0
LINE
  5
1CFD4
330
1F
100
AcDbEntity
  8
0
100
AcDbLine
 10
1.567430113600035
 20
17.22155952146451
 30
0.0
 11
1.567532424708579
 21
17.222396834232
 31
0.0
  0
LINE
  5
1CFD5
330
1F
100
AcDbEntity
  8
0
100
AcDbLine
 10
1.567643652431414
 20
17.18257540396854
 30
0.0
 11
1.567439955251883
 21
17.18405916646915
 31
0.0
  0
LINE
  5
1CFD6
330
1F
100
AcDbEntity
  8
0
100
AcDbLine
 10
1.568200896897586
 20
17.18043451336183
 30
0.0
 11
1.567643652431414
 21
17.18257540396854
 31
0.0
  0
LINE
  5
1CFD7
330
1F
100
AcDbEntity
  8
0
100
AcDbLine
 10
1.568794197513597
 20
17.17981843048471
 30
0.0
 11
1.568200896897586
 21
17.18043451336183
 31
0.0
  0
LINE
  5
1CFD8
330
1F
100
AcDbEntity
  8
0
100
AcDbLine
 10
3.027554207966336
 20
17.74502563797148
 30
0.0
 11
3.02954977800455
 21
17.74580934396682
 31
0.0
  0
LINE
  5
1CFD9
330
1F
100
AcDbEntity
  8
0
100
AcDbLine
 10
3.025694632728395
 20
17.74272792825387
 30
0.0
 11
3.027554207966336
 21
17.74502563797148
 31
0.0
  0
LINE
  5
1CFDA
330
1F
100
AcDbEntity
  8
0
100
AcDbLine
 10
3.024271099543875
 20
17.73946952252492
 30
0.0
 11
3.025694632728395
 21
17.74272792825387
 31
0.0
  0
LINE
  5
1CFDB
330
1F
100
AcDbEntity
  8
0
100
AcDbLine
 10
3.025694632728395
 20
17.70289075967979
 30
0.0
 11
3.024271099543875
 21
17.70614916540874
 31
0.0
  0
LINE
  5
1CFDC
330
1F
100
AcDbEntity
  8
0
100
AcDbLine
 10
3.027554207966336
 20
17.70059304996218
 30
0.0
 11
3.025694632728395
 21
17.70289075967979
 31
0.0
  0
LINE
  5
1CFDD
330
1F
100
AcDbEntity
  8
0
100
AcDbLine
 10
3.029549778004554
 20
17.69980934396683
 30
0.0
 11
3.027554207966336
 21
17.70059304996218
 31
0.0
  0
LINE
  5
1CFDE
330
1F
100
AcDbEntity
  8
0
100
AcDbLine
 10
3.036118539798852
 20
17.22580934396683
 30
0.0
 11
3.036224514380162
 21
17.69980934396683
 31
0.0
  0
LINE
  5
1CFDF
330
1F
100
AcDbEntity
  8
0
100
AcDbLine
 10
3.029276988836134
 20
17.22577343059149
 30
0.0
 11
3.029333068644994
 21
17.22580025744895
 31
0.0
  0
LINE
  5
1CFE0
330
1F
100
AcDbEntity
  8
0
100
AcDbLine
 10
3.45052509492477
 20
17.74272792825387
 30
0.0
 11
3.446495698805042
 21
17.74447674800374
 31
0.0
  0
LINE
  5
1CFE1
330
1F
100
AcDbEntity
  8
0
100
AcDbLine
 10
3.455071220044462
 20
17.73907279993412
 30
0.0
 11
3.45052509492477
 21
17.74272792825387
 31
0.0
  0
LINE
  5
1CFE2
330
1F
100
AcDbEntity
  8
0
100
AcDbLine
 10
3.458559584539536
 20
17.73430934396683
 30
0.0
 11
3.455071220044462
 21
17.73907279993412
 31
0.0
  0
LINE
  5
1CFE3
330
1F
100
AcDbEntity
  8
0
100
AcDbLine
 10
3.460752462134443
 20
17.72876218200419
 30
0.0
 11
3.458559584539536
 21
17.73430934396683
 31
0.0
  0
LINE
  5
1CFE4
330
1F
100
AcDbEntity
  8
0
100
AcDbLine
 10
3.461500411844985
 20
17.72280934396683
 30
0.0
 11
3.460752462134443
 21
17.72876218200419
 31
0.0
  0
LINE
  5
1CFE5
330
1F
100
AcDbEntity
  8
0
100
AcDbLine
 10
3.460752462134443
 20
17.71685650592947
 30
0.0
 11
3.461500411844985
 21
17.72280934396683
 31
0.0
  0
LINE
  5
1CFE6
330
1F
100
AcDbEntity
  8
0
100
AcDbLine
 10
3.458559584539537
 20
17.71130934396683
 30
0.0
 11
3.460752462134443
 21
17.71685650592947
 31
0.0
  0
LINE
  5
1CFE7
330
1F
100
AcDbEntity
  8
0
100
AcDbLine
 10
3.455071220044466
 20
17.70654588799954
 30
0.0
 11
3.458559584539537
 21
17.71130934396683
 31
0.0
  0
LINE
  5
1CFE8
330
1F
100
AcDbEntity
  8
0
100
AcDbLine
 10
3.45052509492477
 20
17.70289075967979
 30
0.0
 11
3.455071220044466
 21
17.70654588799954
 31
0.0
  0
LINE
  5
1CFE9
330
1F
100
AcDbEntity
  8
0
100
AcDbLine
 10
3.446495698805556
 20
17.70114193993014
 30
0.0
 11
3.45052509492477
 21
17.70289075967979
 31
0.0
  0
LINE
  5
1CFEA
330
1F
100
AcDbEntity
  8
0
100
AcDbLine
 10
3.420848998914578
 20
17.22580025744895
 30
0.0
 11
3.420547291241156
 21
17.69980934396683
 31
0.0
  0
LINE
  5
1CFEC
330
1F
100
AcDbEntity
  8
0
100
AcDbLine
 10
3.451055058270327
 20
17.222396834232
 30
0.0
 11
3.446495698811203
 21
17.2245348944928
 31
0.0
  0
LINE
  5
1CFED
330
1F
100
AcDbEntity
  8
0
100
AcDbLine
 10
3.455501341618543
 20
17.21860926580572
 30
0.0
 11
3.451055058270327
 21
17.222396834232
 31
0.0
  0
LINE
  5
1CFEE
330
1F
100
AcDbEntity
  8
0
100
AcDbLine
 10
3.458860552267671
 20
17.21374495881674
 30
0.0
 11
3.455501341618543
 21
17.21860926580572
 31
0.0
  0
LINE
  5
1CFEF
330
1F
100
AcDbEntity
  8
0
100
AcDbLine
 10
3.460903765563333
 20
17.20813540774769
 30
0.0
 11
3.458860552267671
 21
17.21374495881674
 31
0.0
  0
LINE
  5
1CFF0
330
1F
100
AcDbEntity
  8
0
100
AcDbLine
 10
3.461491739895993
 20
17.20216289423371
 30
0.0
 11
3.460903765563333
 21
17.20813540774769
 31
0.0
  0
LINE
  5
1CFF1
330
1F
100
AcDbEntity
  8
0
100
AcDbLine
 10
3.460584405786562
 20
17.19623443520073
 30
0.0
 11
3.461491739895993
 21
17.20216289423371
 31
0.0
  0
LINE
  5
1CFF2
330
1F
100
AcDbEntity
  8
0
100
AcDbLine
 10
3.458243596555149
 20
17.19075404533461
 30
0.0
 11
3.460584405786562
 21
17.19623443520073
 31
0.0
  0
LINE
  5
1CFF3
330
1F
100
AcDbEntity
  8
0
100
AcDbLine
 10
3.454628834482512
 20
17.18609520414796
 30
0.0
 11
3.458243596555149
 21
17.19075404533461
 31
0.0
  0
LINE
  5
1CFF4
330
1F
100
AcDbEntity
  8
0
100
AcDbLine
 10
3.449986459630219
 20
17.18257540396854
 30
0.0
 11
3.454628834482512
 21
17.18609520414796
 31
0.0
  0
LINE
  5
1CFF5
330
1F
100
AcDbEntity
  8
0
100
AcDbLine
 10
3.446495698811716
 20
17.18117946241953
 30
0.0
 11
3.449986459630219
 21
17.18257540396854
 31
0.0
  0
LINE
  5
1CFF6
330
1F
100
AcDbEntity
  8
0
100
AcDbLine
 10
3.024128993047256
 20
17.70920712622249
 30
0.0
 11
3.020793188807672
 21
17.71107361293912
 31
0.0
  0
LINE
  5
1CFF7
330
1F
100
AcDbEntity
  8
0
100
AcDbLine
 10
3.027443206613856
 20
17.73729960255988
 30
0.0
 11
3.031265341185701
 21
17.73735107976724
 31
0.0
  0
LINE
  5
1CFF8
330
1F
100
AcDbEntity
  8
0
100
AcDbLine
 10
3.023764631401016
 20
17.73626063817568
 30
0.0
 11
3.027443206613856
 21
17.73729960255988
 31
0.0
  0
LINE
  5
1CFF9
330
1F
100
AcDbEntity
  8
0
100
AcDbLine
 10
3.018054131650913
 20
17.71373987033107
 30
0.0
 11
3.016098483795698
 21
17.71702419736329
 31
0.0
  0
LINE
  5
1CFFA
330
1F
100
AcDbEntity
  8
0
100
AcDbLine
 10
3.020793188807672
 20
17.71107361293912
 30
0.0
 11
3.018054131650913
 21
17.71373987033107
 31
0.0
  0
LINE
  5
1CFFB
330
1F
100
AcDbEntity
  8
0
100
AcDbLine
 10
3.017814046976848
 20
17.73156593316371
 30
0.0
 11
3.020480304368801
 21
17.73430499032047
 31
0.0
  0
LINE
  5
1CFFC
330
1F
100
AcDbEntity
  8
0
100
AcDbLine
 10
3.015947560260219
 20
17.72823012892413
 30
0.0
 11
3.017814046976848
 21
17.73156593316371
 31
0.0
  0
LINE
  5
1CFFD
330
1F
100
AcDbEntity
  8
0
100
AcDbLine
 10
3.015008042204142
 20
17.72452490714798
 30
0.0
 11
3.015947560260219
 21
17.72823012892413
 31
0.0
  0
LINE
  5
1CFFE
330
1F
100
AcDbEntity
  8
0
100
AcDbLine
 10
3.015059519411501
 20
17.72070277257613
 30
0.0
 11
3.015008042204142
 21
17.72452490714798
 31
0.0
  0
LINE
  5
1CFFF
330
1F
100
AcDbEntity
  8
0
100
AcDbLine
 10
3.016098483795698
 20
17.71702419736329
 30
0.0
 11
3.015059519411501
 21
17.72070277257613
 31
0.0
  0
LINE
  5
1D000
330
1F
100
AcDbEntity
  8
0
100
AcDbLine
 10
3.01804977800455
 20
17.22272792825387
 30
0.0
 11
3.023596939967195
 21
17.22502563797148
 31
0.0
  0
LINE
  5
1D001
330
1F
100
AcDbEntity
  8
0
100
AcDbLine
 10
3.388619251640308
 20
17.73430499032047
 30
0.0
 11
3.385334924608093
 21
17.73626063817568
 31
0.0
  0
LINE
  5
1D002
330
1F
100
AcDbEntity
  8
0
100
AcDbLine
 10
3.391285509032263
 20
17.73156593316371
 30
0.0
 11
3.388619251640308
 21
17.73430499032047
 31
0.0
  0
LINE
  5
1D003
330
1F
100
AcDbEntity
  8
0
100
AcDbLine
 10
3.393151995748887
 20
17.72823012892413
 30
0.0
 11
3.391285509032263
 21
17.73156593316371
 31
0.0
  0
LINE
  5
1D004
330
1F
100
AcDbEntity
  8
0
100
AcDbLine
 10
3.394091513804969
 20
17.72452490714798
 30
0.0
 11
3.393151995748887
 21
17.72823012892413
 31
0.0
  0
LINE
  5
1D005
330
1F
100
AcDbEntity
  8
0
100
AcDbLine
 10
3.394040036597605
 20
17.72070277257614
 30
0.0
 11
3.394091513804969
 21
17.72452490714798
 31
0.0
  0
LINE
  5
1D006
330
1F
100
AcDbEntity
  8
0
100
AcDbLine
 10
3.393001072213408
 20
17.71702419736329
 30
0.0
 11
3.394040036597605
 21
17.72070277257614
 31
0.0
  0
LINE
  5
1D007
330
1F
100
AcDbEntity
  8
0
100
AcDbLine
 10
3.391045424358196
 20
17.71373987033107
 30
0.0
 11
3.393001072213408
 21
17.71702419736329
 31
0.0
  0
LINE
  5
1D008
330
1F
100
AcDbEntity
  8
0
100
AcDbLine
 10
3.388306367201433
 20
17.71107361293912
 30
0.0
 11
3.391045424358196
 21
17.71373987033107
 31
0.0
  0
LINE
  5
1D009
330
1F
100
AcDbEntity
  8
0
100
AcDbLine
 10
3.384970562961852
 20
17.7092071262225
 30
0.0
 11
3.388306367201433
 21
17.71107361293912
 31
0.0
  0
LINE
  5
1D00A
330
1F
100
AcDbEntity
  8
0
100
AcDbLine
 10
3.023596939967193
 20
17.18059304996218
 30
0.0
 11
3.018049778004549
 21
17.18289075967978
 31
0.0
  0
LINE
  5
1D00B
330
1F
100
AcDbEntity
  8
0
100
AcDbLine
 10
3.007333483999907
 20
17.20876218200418
 30
0.0
 11
3.00963119371751
 21
17.21430934396683
 31
0.0
  0
LINE
  5
1D00C
330
1F
100
AcDbEntity
  8
0
100
AcDbLine
 10
3.006549778004552
 20
17.20280934396682
 30
0.0
 11
3.007333483999907
 21
17.20876218200418
 31
0.0
  0
LINE
  5
1D00D
330
1F
100
AcDbEntity
  8
0
100
AcDbLine
 10
3.007333483999904
 20
17.19685650592947
 30
0.0
 11
3.006549778004552
 21
17.20280934396682
 31
0.0
  0
LINE
  5
1D00E
330
1F
100
AcDbEntity
  8
0
100
AcDbLine
 10
3.009631193717513
 20
17.19130934396683
 30
0.0
 11
3.007333483999904
 21
17.19685650592947
 31
0.0
  0
LINE
  5
1D00F
330
1F
100
AcDbEntity
  8
0
100
AcDbLine
 10
3.013286322037263
 20
17.18654588799953
 30
0.0
 11
3.009631193717513
 21
17.19130934396683
 31
0.0
  0
LINE
  5
1D010
330
1F
100
AcDbEntity
  8
0
100
AcDbLine
 10
3.00963119371751
 20
17.21430934396683
 30
0.0
 11
3.013286322037266
 21
17.21907279993412
 31
0.0
  0
LINE
  5
1D011
330
1F
100
AcDbEntity
  8
0
100
AcDbLine
 10
3.391049778004552
 20
17.22272792825387
 30
0.0
 11
3.385502616041907
 21
17.22502563797148
 31
0.0
  0
LINE
  5
1D012
330
1F
100
AcDbEntity
  8
0
100
AcDbLine
 10
3.39569569881127
 20
17.21916298783486
 30
0.0
 11
3.391049778004552
 21
17.22272792825387
 31
0.0
  0
LINE
  5
1D013
330
1F
100
AcDbEntity
  8
0
100
AcDbLine
 10
3.39104977800455
 20
17.18289075967978
 30
0.0
 11
3.395695698811655
 21
17.18645570009909
 31
0.0
  0
LINE
  5
1D014
330
1F
100
AcDbEntity
  8
0
100
AcDbLine
 10
3.385502616041909
 20
17.18059304996218
 30
0.0
 11
3.39104977800455
 21
17.18289075967978
 31
0.0
  0
LINE
  5
1D015
330
1F
100
AcDbEntity
  8
0
100
AcDbLine
 10
3.023083171692105
 20
17.73635756175194
 30
0.0
 11
3.022798504467047
 21
17.73568535926839
 31
0.0
  0
LINE
  5
1D016
330
1F
100
AcDbEntity
  8
0
100
AcDbLine
 10
3.024799432095038
 20
17.73844636055808
 30
0.0
 11
3.023083171692105
 21
17.73635756175194
 31
0.0
  0
LINE
  5
1D017
330
1F
100
AcDbEntity
  8
0
100
AcDbLine
 10
3.02683942072139
 20
17.73946952252492
 30
0.0
 11
3.024799432095038
 21
17.73844636055808
 31
0.0
  0
LINE
  5
1D018
330
1F
100
AcDbEntity
  8
0
100
AcDbLine
 10
3.029064115717513
 20
17.73935732085527
 30
0.0
 11
3.02683942072139
 21
17.73946952252492
 31
0.0
  0
LINE
  5
1D019
330
1F
100
AcDbEntity
  8
0
100
AcDbLine
 10
3.031321907795899
 20
17.7381174019075
 30
0.0
 11
3.029064115717513
 21
17.73935732085527
 31
0.0
  0
LINE
  5
1D01A
330
1F
100
AcDbEntity
  8
0
100
AcDbLine
 10
3.032039187796947
 20
17.73735107976724
 30
0.0
 11
3.031321907795899
 21
17.7381174019075
 31
0.0
  0
LINE
  5
1D01B
330
1F
100
AcDbEntity
  8
0
100
AcDbLine
 10
3.032260135287719
 20
17.70614916540874
 30
0.0
 11
3.034300123914068
 21
17.70717232737557
 31
0.0
  0
LINE
  5
1D01C
330
1F
100
AcDbEntity
  8
0
100
AcDbLine
 10
3.030035440291598
 20
17.70626136707839
 30
0.0
 11
3.032260135287719
 21
17.70614916540874
 31
0.0
  0
LINE
  5
1D01D
330
1F
100
AcDbEntity
  8
0
100
AcDbLine
 10
3.034300123914068
 20
17.70717232737557
 30
0.0
 11
3.035200060780127
 21
17.70826760816641
 31
0.0
  0
LINE
  5
1D01E
330
1F
100
AcDbEntity
  8
0
100
AcDbLine
 10
3.027777648213211
 20
17.70750128602616
 30
0.0
 11
3.030035440291598
 21
17.70626136707839
 31
0.0
  0
LINE
  5
1D01F
330
1F
100
AcDbEntity
  8
0
100
AcDbLine
 10
3.02681954887398
 20
17.70852489289537
 30
0.0
 11
3.027777648213211
 21
17.70750128602616
 31
0.0
  0
LINE
  5
1D020
330
1F
100
AcDbEntity
  8
0
100
AcDbLine
 10
3.446495698805556
 20
17.70114193993014
 30
0.0
 11
3.44649569880557
 21
17.69980934396752
 31
0.0
  0
LINE
  5
1D021
330
1F
100
AcDbEntity
  8
0
100
AcDbLine
 10
3.446495698811196
 20
17.22518417457255
 30
0.0
 11
3.446495698811203
 21
17.2245348944928
 31
0.0
  0
LINE
  5
1D023
330
1F
100
AcDbEntity
  8
0
100
AcDbLine
 10
1.568729980157876
 20
17.69980934396683
 30
0.0
 11
1.570707900821098
 21
17.69980934396683
 31
0.0
  0
LINE
  5
1D024
330
1F
100
AcDbEntity
  8
0
100
AcDbLine
 10
1.568665762802154
 20
17.22580025744896
 30
0.0
 11
1.570676496834401
 21
17.22580025744896
 31
0.0
  0
LINE
  5
1D025
330
1F
100
AcDbEntity
  8
0
100
AcDbLine
 10
3.02954977800455
 20
17.74580934396682
 30
0.0
 11
3.314243177062209
 21
17.74580934396683
 31
0.0
  0
LINE
  5
1D026
330
1F
100
AcDbEntity
  8
0
100
AcDbLine
 10
3.029549778004554
 20
17.69980934396683
 30
0.0
 11
3.036224514380162
 21
17.69980934396683
 31
0.0
  0
LINE
  5
1D027
330
1F
100
AcDbEntity
  8
0
100
AcDbLine
 10
3.031265341185701
 20
17.73735107976724
 30
0.0
 11
3.032039187796947
 21
17.73735107976724
 31
0.0
  0
LINE
  5
1D028
330
1F
100
AcDbEntity
  8
0
100
AcDbLine
 10
3.027834214823405
 20
17.70826760816641
 30
0.0
 11
3.02681954887398
 21
17.70852489289537
 31
0.0
  0
LINE
  5
1D029
330
1F
100
AcDbEntity
  8
0
100
AcDbLine
 10
3.02681954887398
 20
17.70852489289537
 30
0.0
 11
3.024128993047256
 21
17.70920712622249
 31
0.0
  0
LINE
  5
1D02A
330
1F
100
AcDbEntity
  8
0
100
AcDbLine
 10
3.020480304368801
 20
17.73430499032047
 30
0.0
 11
3.022798504467047
 21
17.73568535926839
 31
0.0
  0
LINE
  5
1D02B
330
1F
100
AcDbEntity
  8
0
100
AcDbLine
 10
3.022798504467047
 20
17.73568535926839
 30
0.0
 11
3.023764631401016
 21
17.73626063817568
 31
0.0
  0
LINE
  5
1D02C
330
1F
100
AcDbEntity
  8
0
100
AcDbLine
 10
3.029333068644994
 20
17.22580025744895
 30
0.0
 11
3.029480759049029
 21
17.22580025744895
 31
0.0
  0
LINE
  5
1D02D
330
1F
100
AcDbEntity
  8
0
100
AcDbLine
 10
3.029480759049029
 20
17.22580025744895
 30
0.0
 11
3.029549778004554
 21
17.22580934396683
 31
0.0
  0
LINE
  5
1D02E
330
1F
100
AcDbEntity
  8
0
100
AcDbLine
 10
3.013286322037266
 20
17.21907279993412
 30
0.0
 11
3.016527080630853
 21
17.2215595214645
 31
0.0
  0
LINE
  5
1D02F
330
1F
100
AcDbEntity
  8
0
100
AcDbLine
 10
3.016527080630853
 20
17.2215595214645
 30
0.0
 11
3.01804977800455
 21
17.22272792825387
 31
0.0
  0
LINE
  5
1D030
330
1F
100
AcDbEntity
  8
0
100
AcDbLine
 10
3.027834214823405
 20
17.70826760816641
 30
0.0
 11
3.035200060780127
 21
17.70826760816641
 31
0.0
  0
LINE
  5
1D031
330
1F
100
AcDbEntity
  8
0
100
AcDbLine
 10
3.018049778004549
 20
17.18289075967978
 30
0.0
 11
3.016527080630849
 21
17.18405916646915
 31
0.0
  0
LINE
  5
1D032
330
1F
100
AcDbEntity
  8
0
100
AcDbLine
 10
3.016527080630849
 20
17.18405916646915
 30
0.0
 11
3.013286322037263
 21
17.18654588799953
 31
0.0
  0
LINE
  5
1D033
330
1F
100
AcDbEntity
  8
0
100
AcDbLine
 10
3.029549778004554
 20
17.22580934396683
 30
0.0
 11
3.036118539798852
 21
17.22580934396683
 31
0.0
  0
LINE
  5
1D034
330
1F
100
AcDbEntity
  8
0
100
AcDbLine
 10
3.029480759049009
 20
17.17981843048471
 30
0.0
 11
3.023596939967193
 21
17.18059304996218
 31
0.0
  0
LINE
  5
1D035
330
1F
100
AcDbEntity
  8
0
100
AcDbLine
 10
3.02683942072139
 20
17.73946952252492
 30
0.0
 11
3.024271099543875
 21
17.73946952252492
 31
0.0
  0
LINE
  5
1D036
330
1F
100
AcDbEntity
  8
0
100
AcDbLine
 10
3.016527080630849
 20
17.18405916646915
 30
0.0
 11
1.567439955251883
 21
17.18405916646915
 31
0.0
  0
LINE
  5
1D037
330
1F
100
AcDbEntity
  8
0
100
AcDbLine
 10
1.567439955251883
 20
17.18405916646915
 30
0.0
 11
1.506428655364263
 21
17.18405916646916
 31
0.0
  0
LINE
  5
1D038
330
1F
100
AcDbEntity
  8
0
100
AcDbLine
 10
3.024271099543875
 20
17.70614916540874
 30
0.0
 11
3.032260135287719
 21
17.70614916540874
 31
0.0
  0
LINE
  5
1D039
330
1F
100
AcDbEntity
  8
0
100
AcDbLine
 10
3.016527080630853
 20
17.2215595214645
 30
0.0
 11
1.567430113600035
 21
17.22155952146451
 31
0.0
  0
LINE
  5
1D03A
330
1F
100
AcDbEntity
  8
0
100
AcDbLine
 10
1.567430113600035
 20
17.22155952146451
 30
0.0
 11
1.506428655364267
 21
17.22155952146451
 31
0.0
  0
LINE
  5
1D03B
330
1F
100
AcDbEntity
  8
0
100
AcDbLine
 10
3.39569569881127
 20
17.21916298783486
 30
0.0
 11
3.395695698811195
 21
17.22518417457195
 31
0.0
  0
LINE
  5
1D03C
330
1F
100
AcDbEntity
  8
0
100
AcDbLine
 10
3.395695698811195
 20
17.22518417457195
 30
0.0
 11
3.420848998914578
 21
17.22518417457225
 31
0.0
  0
LINE
  5
1D03D
330
1F
100
AcDbEntity
  8
0
100
AcDbLine
 10
3.395695698805571
 20
17.69980934396683
 30
0.0
 11
3.395695698805027
 21
17.74580934396683
 31
0.0
  0
LINE
  5
1D03E
330
1F
100
AcDbEntity
  8
0
100
AcDbLine
 10
3.395695698805571
 20
17.69980934396683
 30
0.0
 11
3.420547291241156
 21
17.69980934396683
 31
0.0
  0
LINE
  5
1D040
330
1F
100
AcDbEntity
  8
0
100
AcDbLine
 10
3.023596939967195
 20
17.22502563797148
 30
0.0
 11
3.029276988836134
 21
17.22577343059149
 31
0.0
  0
LINE
  5
1D041
330
1F
100
AcDbEntity
  8
0
100
AcDbLine
 10
3.024271099543875
 20
17.73946952252492
 30
0.0
 11
1.567165752506877
 21
17.73946952252492
 31
0.0
  0
LINE
  5
1D042
330
1F
100
AcDbEntity
  8
0
100
AcDbLine
 10
1.567165752506877
 20
17.73946952252492
 30
0.0
 11
1.511458454524259
 21
17.73946952252492
 31
0.0
  0
LINE
  5
1D043
330
1F
100
AcDbEntity
  8
0
100
AcDbLine
 10
1.511458454524255
 20
17.70614916540874
 30
0.0
 11
1.567165752506877
 21
17.70614916540874
 31
0.0
  0
LINE
  5
1D044
330
1F
100
AcDbEntity
  8
0
100
AcDbLine
 10
1.567165752506877
 20
17.70614916540874
 30
0.0
 11
3.024271099543875
 21
17.70614916540874
 31
0.0
  0
LINE
  5
1D045
330
1F
100
AcDbEntity
  8
0
100
AcDbLine
 10
3.395695698811655
 20
17.18645570009909
 30
0.0
 11
3.39569569881127
 21
17.21916298783486
 31
0.0
  0
LINE
  5
1D046
330
1F
100
AcDbEntity
  8
0
100
AcDbLine
 10
3.446495698811716
 20
17.18117946241953
 30
0.0
 11
3.446495698811203
 21
17.2245348944928
 31
0.0
  0
LINE
  5
1D047
330
1F
100
AcDbEntity
  8
0
100
AcDbLine
 10
3.395695698811735
 20
17.17981843048471
 30
0.0
 11
3.395695698811655
 21
17.18645570009909
 31
0.0
  0
LINE
  5
1D048
330
1F
100
AcDbEntity
  8
0
100
AcDbLine
 10
1.287933671414377
 20
17.69980934396683
 30
0.0
 11
1.268889606224732
 21
17.69980934396683
 31
0.0
  0
LINE
  5
1D049
330
1F
100
AcDbEntity
  8
0
100
AcDbLine
 10
1.287631303588934
 20
17.22580025744896
 30
0.0
 11
1.268271300581123
 21
17.22580025744895
 31
0.0
  0
LINE
  5
1D04A
330
1F
100
AcDbEntity
  8
0
100
AcDbLine
 10
1.568729980157877
 20
17.74580934396683
 30
0.0
 11
1.26888960622473
 21
17.74580934396683
 31
0.0
  0
LINE
  5
1D04B
330
1F
100
AcDbEntity
  8
0
100
AcDbLine
 10
1.568729980157876
 20
17.69980934396683
 30
0.0
 11
1.287933671414377
 21
17.69980934396683
 31
0.0
  0
LINE
  5
1D04C
330
1F
100
AcDbEntity
  8
0
100
AcDbLine
 10
1.568665762802154
 20
17.22580025744896
 30
0.0
 11
1.287631303588934
 21
17.22580025744896
 31
0.0
  0
LINE
  5
1D04D
330
1F
100
AcDbEntity
  8
0
100
AcDbLine
 10
1.568794197513597
 20
17.17981843048471
 30
0.0
 11
1.269507911868338
 21
17.17981843048471
 31
0.0
  0
LINE
  5
1D04E
330
1F
100
AcDbEntity
  8
0
100
AcDbLine
 10
3.395695698805571
 20
17.69980934396683
 30
0.0
 11
3.036224514380162
 21
17.69980934396683
 31
0.0
  0
LINE
  5
1D04F
330
1F
100
AcDbEntity
  8
0
100
AcDbLine
 10
3.029549778004554
 20
17.69980934396683
 30
0.0
 11
1.570707900821098
 21
17.69980934396683
 31
0.0
  0
LINE
  5
1D050
330
1F
100
AcDbEntity
  8
0
100
AcDbLine
 10
3.02954977800455
 20
17.74580934396682
 30
0.0
 11
1.568729980157877
 21
17.74580934396683
 31
0.0
  0
LINE
  5
1D051
330
1F
100
AcDbEntity
  8
0
100
AcDbLine
 10
3.029333068644994
 20
17.22580025744895
 30
0.0
 11
1.570676496834401
 21
17.22580025744896
 31
0.0
  0
LINE
  5
1D052
330
1F
100
AcDbEntity
  8
0
100
AcDbLine
 10
3.029480759049009
 20
17.17981843048471
 30
0.0
 11
1.568794197513597
 21
17.17981843048471
 31
0.0
  0
LINE
  5
1D053
330
1F
100
AcDbEntity
  8
0
100
AcDbLine
 10
3.395695698805027
 20
17.74580934396683
 30
0.0
 11
3.371070943791014
 21
17.74580934396683
 31
0.0
  0
LINE
  5
1D054
330
1F
100
AcDbEntity
  8
0
100
AcDbLine
 10
3.395695698811735
 20
17.17981843048471
 30
0.0
 11
3.379534419297879
 21
17.17981843048471
 31
0.0
  0
LINE
  5
1D055
330
1F
100
AcDbEntity
  8
0
100
AcDbLine
 10
3.420848998914578
 20
17.22580025744895
 30
0.0
 11
3.379565136711226
 21
17.22580025744895
 31
0.0
  0
LINE
  5
1D057
330
1F
100
AcDbEntity
  8
0
100
AcDbLine
 10
3.377834214823405
 20
17.73735107976724
 30
0.0
 11
3.032039187796947
 21
17.73735107976724
 31
0.0
  0
LINE
  5
1D058
330
1F
100
AcDbEntity
  8
0
100
AcDbLine
 10
3.381265341185702
 20
17.70826760816641
 30
0.0
 11
3.035200060780127
 21
17.70826760816641
 31
0.0
  0
LINE
  5
1D059
330
1F
100
AcDbEntity
  8
0
100
AcDbLine
 10
3.314243177062209
 20
17.17980934396683
 30
0.0
 11
3.029480759049009
 21
17.17981843048471
 31
0.0
  0
LINE
  5
1D05A
330
1F
100
AcDbEntity
  8
0
100
AcDbLine
 10
3.379565136711226
 20
17.22580025744895
 30
0.0
 11
3.036118539798852
 21
17.22580934396683
 31
0.0
  0
LINE
  5
1D05B
330
1F
100
AcDbEntity
  8
0
100
AcDbLine
 10
3.446495698805556
 20
17.70114193993014
 30
0.0
 11
3.446495698805042
 21
17.74447674800374
 31
0.0
  0
LINE
  5
1D05C
330
1F
100
AcDbEntity
  8
0
100
AcDbLine
 10
3.44649569880557
 20
17.69980934396752
 30
0.0
 11
3.446495698811196
 21
17.22518417457255
 31
0.0
  0
ARC
  5
1D05D
330
1F
100
AcDbEntity
  8
0
100
AcDbCircle
 10
1.515081136371753
 20
17.72280934396683
 30
0.0
 40
0.0170494977449672
100
AcDbArc
 50
102.2677420048599
 51
257.7322579951261
  0
ARC
  5
1D05E
330
1F
100
AcDbEntity
  8
0
100
AcDbCircle
 10
1.512644636753929
 20
17.20280934396683
 30
0.0
 40
0.0197536725909634
100
AcDbArc
 50
108.3411780541485
 51
251.6588219458415
  0
LINE
  5
1D05F
330
1F
100
AcDbEntity
  8
0
100
AcDbLine
 10
3.379534419297879
 20
17.17981843048471
 30
0.0
 11
3.314243177062209
 21
17.17980934396683
 31
0.0
  0
LINE
  5
1D060
330
1F
100
AcDbEntity
  8
0
100
AcDbLine
 10
3.314243177062209
 20
17.74580934396683
 30
0.0
 11
3.371070943791014
 21
17.74580934396683
 31
0.0
  0
LINE
  5
1D061
330
1F
100
AcDbEntity
  8
0
100
AcDbLine
 10
3.420547291241156
 20
17.74515743192437
 30
0.0
 11
3.395695698805027
 21
17.74580934396683
 31
0.0
  0
LINE
  5
1D062
330
1F
100
AcDbEntity
  8
0
100
AcDbLine
 10
3.395695698811735
 20
17.17981843048471
 30
0.0
 11
3.420848998914578
 21
17.18049233687656
 31
0.0
  0
LINE
  5
1D063
330
1F
100
AcDbEntity
  8
0
100
AcDbLine
 10
3.420547291241156
 20
17.69980934396683
 30
0.0
 11
3.420547291241156
 21
17.87498890486195
 31
0.0
  0
LINE
  5
1D064
330
1F
100
AcDbEntity
  8
0
100
AcDbLine
 10
3.420547291241156
 20
17.87498890486195
 30
0.0
 11
3.446495698803496
 21
17.87498890486196
 31
0.0
  0
LINE
  5
1D066
330
1F
100
AcDbEntity
  8
0
100
AcDbLine
 10
3.446495698803496
 20
17.87498890486196
 30
0.0
 11
3.446495698803494
 21
17.09189630429209
 31
0.0
  0
LINE
  5
1D067
330
1F
100
AcDbEntity
  8
0
100
AcDbLine
 10
3.420848998914578
 20
17.22580025744895
 30
0.0
 11
3.420848998914577
 21
17.09189630429209
 31
0.0
  0
LINE
  5
1D068
330
1F
100
AcDbEntity
  8
0
100
AcDbLine
 10
3.420547291241156
 20
17.87498890486195
 30
0.0
 11
3.392658564715487
 21
17.87498890486196
 31
0.0
  0
LINE
  5
1D077
330
1F
100
AcDbEntity
  8
0
100
AcDbLine
 10
5.383961836451007
 20
17.98753866453652
 30
0.0
 11
5.383961836451007
 21
17.93753866453652
 31
0.0
  0
LINE
  5
1D078
330
1F
100
AcDbEntity
  8
0
100
AcDbLine
 10
5.383961836451007
 20
17.93753866453652
 30
0.0
 11
5.433961836451007
 21
17.93753866453652
 31
0.0
  0
LINE
  5
1D079
330
1F
100
AcDbEntity
  8
0
100
AcDbLine
 10
5.433961836451007
 20
17.93753866453652
 30
0.0
 11
5.43396183645101
 21
17.98753866453652
 31
0.0
  0
LINE
  5
1D07A
330
1F
100
AcDbEntity
  8
0
100
AcDbLine
 10
5.402778816136041
 20
17.98753866453652
 30
0.0
 11
5.352778816136037
 21
17.98753866453652
 31
0.0
  0
LINE
  5
1D093
330
1F
100
AcDbEntity
  8
0
100
AcDbLine
 10
4.718590362582219
 20
17.98760568047839
 30
0.0
 11
4.718590362582219
 21
17.93760568047838
 31
0.0
  0
LINE
  5
1D094
330
1F
100
AcDbEntity
  8
0
100
AcDbLine
 10
4.718590362582219
 20
17.93760568047838
 30
0.0
 11
4.768590362582219
 21
17.93760568047838
 31
0.0
  0
LINE
  5
1D095
330
1F
100
AcDbEntity
  8
0
100
AcDbLine
 10
4.768590362582219
 20
17.93760568047838
 30
0.0
 11
4.768590362582222
 21
17.98760568047839
 31
0.0
  0
LINE
  5
1D096
330
1F
100
AcDbEntity
  8
0
100
AcDbLine
 10
4.833791273461833
 20
17.98760568047839
 30
0.0
 11
4.783791273461829
 21
17.98760568047839
 31
0.0
  0
LINE
  5
1D3C6
330
1F
100
AcDbEntity
  8
0
100
AcDbLine
 10
5.896027406348197
 20
17.14771628435891
 30
0.0
 11
5.896027406348197
 21
17.8047829559576
 31
0.0
  0
LINE
  5
1D3C7
330
1F
100
AcDbEntity
  8
0
100
AcDbLine
 10
5.896027406348197
 20
17.14771628435891
 30
0.0
 11
5.866327406348196
 21
17.14771628435891
 31
0.0
  0
LINE
  5
1D3C8
330
1F
100
AcDbEntity
  8
0
100
AcDbLine
 10
5.866327406348196
 20
17.14771628435891
 30
0.0
 11
5.866327406348196
 21
17.8047829559576
 31
0.0
  0
LINE
  5
1D3C9
330
1F
100
AcDbEntity
  8
0
100
AcDbLine
 10
5.896027406348197
 20
17.8047829559576
 30
0.0
 11
5.866327406348196
 21
17.8047829559576
 31
0.0
  0
LINE
  5
1D3CA
330
1F
100
AcDbEntity
  8
0
100
AcDbLine
 10
5.896027406348197
 20
17.8641829559576
 30
0.0
 11
5.866327406348196
 21
17.8641829559576
 31
0.0
  0
LINE
  5
1D3CB
330
1F
100
AcDbEntity
  8
0
100
AcDbLine
 10
5.907972565176349
 20
17.87279358326759
 30
0.0
 11
5.907972565176349
 21
17.85377738020167
 31
0.0
  0
LINE
  5
1D3CC
330
1F
100
AcDbEntity
  8
0
100
AcDbLine
 10
5.907972565176349
 20
17.84177738020167
 30
0.0
 11
5.907972565176349
 21
17.82869775256621
 31
0.0
  0
LINE
  5
1D3CD
330
1F
100
AcDbEntity
  8
0
100
AcDbLine
 10
5.907972565176349
 20
17.82869775256621
 30
0.0
 11
5.896027406348197
 21
17.82869775256621
 31
0.0
  0
LINE
  5
1D3CE
330
1F
100
AcDbEntity
  8
0
100
AcDbLine
 10
5.866327406348196
 20
17.82869775256621
 30
0.0
 11
5.853971569401396
 21
17.82869775256621
 31
0.0
  0
LINE
  5
1D3CF
330
1F
100
AcDbEntity
  8
0
100
AcDbLine
 10
5.849971569401398
 20
17.84177738020167
 30
0.0
 11
5.853971569401396
 21
17.84177738020167
 31
0.0
  0
LINE
  5
1D3D0
330
1F
100
AcDbEntity
  8
0
100
AcDbLine
 10
5.907972565176349
 20
17.84177738020167
 30
0.0
 11
5.913971569401399
 21
17.84177738020167
 31
0.0
  0
LINE
  5
1D3D1
330
1F
100
AcDbEntity
  8
0
100
AcDbLine
 10
5.849971569401398
 20
17.85377738020167
 30
0.0
 11
5.853971569401396
 21
17.85377738020167
 31
0.0
  0
LINE
  5
1D3D2
330
1F
100
AcDbEntity
  8
0
100
AcDbLine
 10
5.907972565176349
 20
17.85377738020167
 30
0.0
 11
5.913971569401399
 21
17.85377738020167
 31
0.0
  0
LINE
  5
1D3D3
330
1F
100
AcDbEntity
  8
0
100
AcDbLine
 10
5.853971569401396
 20
17.08570098269771
 30
0.0
 11
5.853971569401396
 21
17.09485518851615
 31
0.0
  0
LINE
  5
1D3D4
330
1F
100
AcDbEntity
  8
0
100
AcDbLine
 10
5.853971569401396
 20
17.10685518851615
 30
0.0
 11
5.853971569401396
 21
17.11993481615161
 31
0.0
  0
LINE
  5
1D3D5
330
1F
100
AcDbEntity
  8
0
100
AcDbLine
 10
5.907972565176352
 20
17.11993481615161
 30
0.0
 11
5.896027406348197
 21
17.11993481615161
 31
0.0
  0
LINE
  5
1D3D6
330
1F
100
AcDbEntity
  8
0
100
AcDbLine
 10
5.866327406348196
 20
17.11993481615161
 30
0.0
 11
5.853971569401396
 21
17.11993481615161
 31
0.0
  0
LINE
  5
1D3D7
330
1F
100
AcDbEntity
  8
0
100
AcDbLine
 10
5.849971569401398
 20
17.10685518851615
 30
0.0
 11
5.853971569401396
 21
17.10685518851615
 31
0.0
  0
LINE
  5
1D3D8
330
1F
100
AcDbEntity
  8
0
100
AcDbLine
 10
5.907972565176352
 20
17.10685518851615
 30
0.0
 11
5.913971569401399
 21
17.10685518851615
 31
0.0
  0
LINE
  5
1D3D9
330
1F
100
AcDbEntity
  8
0
100
AcDbLine
 10
5.849971569401398
 20
17.09485518851615
 30
0.0
 11
5.853971569401396
 21
17.09485518851615
 31
0.0
  0
LINE
  5
1D3DA
330
1F
100
AcDbEntity
  8
0
100
AcDbLine
 10
5.907972565176352
 20
17.09485518851615
 30
0.0
 11
5.913971569401399
 21
17.09485518851615
 31
0.0
  0
LINE
  5
1D3DB
330
1F
100
AcDbEntity
  8
0
100
AcDbLine
 10
5.853971569401396
 20
17.84177738020167
 30
0.0
 11
5.853971569401396
 21
17.82869775256621
 31
0.0
  0
LINE
  5
1D3DC
330
1F
100
AcDbEntity
  8
0
100
AcDbLine
 10
5.907972565176352
 20
17.08570098269771
 30
0.0
 11
5.907972565176352
 21
17.09485518851615
 31
0.0
  0
LINE
  5
1D3DD
330
1F
100
AcDbEntity
  8
0
100
AcDbLine
 10
5.853971569401396
 20
17.87279358326759
 30
0.0
 11
5.853971569401396
 21
17.85377738020167
 31
0.0
  0
LINE
  5
1D3DE
330
1F
100
AcDbEntity
  8
0
100
AcDbLine
 10
5.853971569401396
 20
17.85377738020167
 30
0.0
 11
5.853971569401396
 21
17.84177738020167
 31
0.0
  0
LINE
  5
1D3DF
330
1F
100
AcDbEntity
  8
0
100
AcDbLine
 10
5.907972565176349
 20
17.85377738020167
 30
0.0
 11
5.907972565176349
 21
17.84177738020167
 31
0.0
  0
LINE
  5
1D3E0
330
1F
100
AcDbEntity
  8
0
100
AcDbLine
 10
5.853971569401396
 20
17.09485518851615
 30
0.0
 11
5.853971569401396
 21
17.10685518851615
 31
0.0
  0
LINE
  5
1D3E1
330
1F
100
AcDbEntity
  8
0
100
AcDbLine
 10
5.907972565176352
 20
17.09485518851615
 30
0.0
 11
5.907972565176352
 21
17.10685518851615
 31
0.0
  0
LINE
  5
1D3E2
330
1F
100
AcDbEntity
  8
0
100
AcDbLine
 10
5.907972565176352
 20
17.10685518851615
 30
0.0
 11
5.907972565176352
 21
17.11993481615161
 31
0.0
  0
LINE
  5
1D3E3
330
1F
100
AcDbEntity
  8
0
100
AcDbLine
 10
5.896027406348197
 20
17.11993481615161
 30
0.0
 11
5.896027406348197
 21
17.08831628435891
 31
0.0
  0
LINE
  5
1D3E4
330
1F
100
AcDbEntity
  8
0
100
AcDbLine
 10
5.896027406348197
 20
17.82869775256621
 30
0.0
 11
5.896027406348197
 21
17.8641829559576
 31
0.0
  0
LINE
  5
1D3E5
330
1F
100
AcDbEntity
  8
0
100
AcDbLine
 10
5.896027406348197
 20
17.8047829559576
 30
0.0
 11
5.896027406348197
 21
17.82869775256621
 31
0.0
  0
LINE
  5
1D3E6
330
1F
100
AcDbEntity
  8
0
100
AcDbLine
 10
5.866327406348196
 20
17.11993481615161
 30
0.0
 11
5.866327406348196
 21
17.08831628435891
 31
0.0
  0
LINE
  5
1D3E7
330
1F
100
AcDbEntity
  8
0
100
AcDbLine
 10
5.866327406348196
 20
17.8641829559576
 30
0.0
 11
5.866327406348196
 21
17.82869775256621
 31
0.0
  0
LINE
  5
1D3E8
330
1F
100
AcDbEntity
  8
0
100
AcDbLine
 10
5.866327406348196
 20
17.8047829559576
 30
0.0
 11
5.866327406348196
 21
17.82869775256621
 31
0.0
  0
LINE
  5
1D3E9
330
1F
100
AcDbEntity
  8
0
100
AcDbLine
 10
5.896027406348197
 20
17.11993481615161
 30
0.0
 11
5.896027406348197
 21
17.14771628435891
 31
0.0
  0
LINE
  5
1D3EA
330
1F
100
AcDbEntity
  8
0
100
AcDbLine
 10
5.866327406348196
 20
17.11993481615161
 30
0.0
 11
5.866327406348196
 21
17.14771628435891
 31
0.0
  0
LINE
  5
1D3EB
330
1F
100
AcDbEntity
  8
0
100
AcDbLine
 10
5.849971569401398
 20
17.84177738020167
 30
0.0
 11
5.849971569401398
 21
17.85377738020167
 31
0.0
  0
LINE
  5
1D3EC
330
1F
100
AcDbEntity
  8
0
100
AcDbLine
 10
5.913971569401399
 20
17.85377738020167
 30
0.0
 11
5.913971569401399
 21
17.84177738020167
 31
0.0
  0
LINE
  5
1D3ED
330
1F
100
AcDbEntity
  8
0
100
AcDbLine
 10
5.849971569401398
 20
17.10685518851615
 30
0.0
 11
5.849971569401398
 21
17.09485518851615
 31
0.0
  0
LINE
  5
1D3EE
330
1F
100
AcDbEntity
  8
0
100
AcDbLine
 10
5.913971569401399
 20
17.09485518851615
 30
0.0
 11
5.913971569401399
 21
17.10685518851615
 31
0.0
  0
LINE
  5
1D3EF
330
1F
100
AcDbEntity
  8
0
100
AcDbLine
 10
5.84632739731043
 20
17.15325773816309
 30
0.0
 11
5.84632739731043
 21
17.25325773816309
 31
0.0
  0
LINE
  5
1D3F0
330
1F
100
AcDbEntity
  8
0
100
AcDbLine
 10
5.84632739731043
 20
17.25325773816309
 30
0.0
 11
5.866327397310429
 21
17.25325773816309
 31
0.0
  0
LINE
  5
1D3F1
330
1F
100
AcDbEntity
  8
0
100
AcDbLine
 10
5.866327397310429
 20
17.27051781683385
 30
0.0
 11
5.866327397310426
 21
17.17051781683385
 31
0.0
  0
LINE
  5
1D3F2
330
1F
100
AcDbEntity
  8
0
100
AcDbLine
 10
5.866327397310426
 20
17.15325773816309
 30
0.0
 11
5.84632739731043
 21
17.15325773816309
 31
0.0
  0
LINE
  5
1D3F3
330
1F
100
AcDbEntity
  8
0
100
AcDbLine
 10
5.846327406348196
 20
17.69533295459146
 30
0.0
 11
5.846327406348196
 21
17.79533295459146
 31
0.0
  0
LINE
  5
1D3F4
330
1F
100
AcDbEntity
  8
0
100
AcDbLine
 10
5.846327406348196
 20
17.79533295459146
 30
0.0
 11
5.866327406348196
 21
17.79533295459146
 31
0.0
  0
LINE
  5
1D3F5
330
1F
100
AcDbEntity
  8
0
100
AcDbLine
 10
5.866327406348196
 20
17.77577149988946
 30
0.0
 11
5.866327406348196
 21
17.67577149988946
 31
0.0
  0
LINE
  5
1D3F6
330
1F
100
AcDbEntity
  8
0
100
AcDbLine
 10
5.866327406348196
 20
17.69533295459146
 30
0.0
 11
5.846327406348196
 21
17.69533295459146
 31
0.0
  0
LINE
  5
1D3F7
330
1F
100
AcDbEntity
  8
0
100
AcDbLine
 10
5.845899508907573
 20
17.42136436195849
 30
0.0
 11
5.845899508907573
 21
17.5213643619585
 31
0.0
  0
LINE
  5
1D3F8
330
1F
100
AcDbEntity
  8
0
100
AcDbLine
 10
5.845899508907573
 20
17.5213643619585
 30
0.0
 11
5.865899508907572
 21
17.5213643619585
 31
0.0
  0
LINE
  5
1D3F9
330
1F
100
AcDbEntity
  8
0
100
AcDbLine
 10
5.865899508907572
 20
17.5213643619585
 30
0.0
 11
5.865899508907572
 21
17.42136436195849
 31
0.0
  0
LINE
  5
1D3FA
330
1F
100
AcDbEntity
  8
0
100
AcDbLine
 10
5.865899508907572
 20
17.42136436195849
 30
0.0
 11
5.845899508907573
 21
17.42136436195849
 31
0.0
  0
LINE
  5
1D3FB
330
1F
100
AcDbEntity
  8
0
100
AcDbLine
 10
5.845899508907573
 20
17.55944505171543
 30
0.0
 11
5.845899508907573
 21
17.65944505171543
 31
0.0
  0
LINE
  5
1D3FC
330
1F
100
AcDbEntity
  8
0
100
AcDbLine
 10
5.845899508907573
 20
17.65944505171543
 30
0.0
 11
5.865899508907572
 21
17.65944505171543
 31
0.0
  0
LINE
  5
1D3FD
330
1F
100
AcDbEntity
  8
0
100
AcDbLine
 10
5.865899508907572
 20
17.65944505171543
 30
0.0
 11
5.865899508907572
 21
17.55944505171543
 31
0.0
  0
LINE
  5
1D3FE
330
1F
100
AcDbEntity
  8
0
100
AcDbLine
 10
5.865899508907572
 20
17.55944505171543
 30
0.0
 11
5.845899508907573
 21
17.55944505171543
 31
0.0
  0
LINE
  5
1D3FF
330
1F
100
AcDbEntity
  8
0
100
AcDbLine
 10
5.845899508907573
 20
17.28788636387317
 30
0.0
 11
5.845899508907573
 21
17.38788636387317
 31
0.0
  0
LINE
  5
1D400
330
1F
100
AcDbEntity
  8
0
100
AcDbLine
 10
5.845899508907573
 20
17.38788636387317
 30
0.0
 11
5.865899508907572
 21
17.38788636387317
 31
0.0
  0
LINE
  5
1D401
330
1F
100
AcDbEntity
  8
0
100
AcDbLine
 10
5.865899508907572
 20
17.38788636387317
 30
0.0
 11
5.865899508907572
 21
17.28788636387317
 31
0.0
  0
LINE
  5
1D402
330
1F
100
AcDbEntity
  8
0
100
AcDbLine
 10
5.865899508907572
 20
17.28788636387317
 30
0.0
 11
5.845899508907573
 21
17.28788636387317
 31
0.0
  0
LINE
  5
1D403
330
1F
100
AcDbEntity
  8
0
100
AcDbLine
 10
5.84632739731043
 20
17.15325773816309
 30
0.0
 11
5.84632739731043
 21
17.17325773816309
 31
0.0
  0
LINE
  5
1D404
330
1F
100
AcDbEntity
  8
0
100
AcDbLine
 10
5.84632739731043
 20
17.17325773816309
 30
0.0
 11
5.866327406348196
 21
17.17325773816309
 31
0.0
  0
LINE
  5
1D405
330
1F
100
AcDbEntity
  8
0
100
AcDbLine
 10
5.84632739731043
 20
17.25325773816309
 30
0.0
 11
5.84632739731043
 21
17.23325773816309
 31
0.0
  0
LINE
  5
1D406
330
1F
100
AcDbEntity
  8
0
100
AcDbLine
 10
5.84632739731043
 20
17.23325773816309
 30
0.0
 11
5.866327397310433
 21
17.2332577381631
 31
0.0
  0
LINE
  5
1D407
330
1F
100
AcDbEntity
  8
0
100
AcDbLine
 10
5.845899510655632
 20
17.30671780015413
 30
0.0
 11
5.865899519693398
 21
17.30671780015414
 31
0.0
  0
LINE
  5
1D408
330
1F
100
AcDbEntity
  8
0
100
AcDbLine
 10
5.845899510655632
 20
17.36671780015413
 30
0.0
 11
5.865899510655635
 21
17.36671780015415
 31
0.0
  0
LINE
  5
1D409
330
1F
100
AcDbEntity
  8
0
100
AcDbLine
 10
5.845899510655632
 20
17.44216544711264
 30
0.0
 11
5.865899519693398
 21
17.44216544711265
 31
0.0
  0
LINE
  5
1D40A
330
1F
100
AcDbEntity
  8
0
100
AcDbLine
 10
5.845899510655632
 20
17.50216544711264
 30
0.0
 11
5.865899510655635
 21
17.50216544711266
 31
0.0
  0
LINE
  5
1D40B
330
1F
100
AcDbEntity
  8
0
100
AcDbLine
 10
5.845899510655632
 20
17.58012022186419
 30
0.0
 11
5.865899519693398
 21
17.5801202218642
 31
0.0
  0
LINE
  5
1D40C
330
1F
100
AcDbEntity
  8
0
100
AcDbLine
 10
5.845899510655632
 20
17.64012022186419
 30
0.0
 11
5.865899510655635
 21
17.64012022186421
 31
0.0
  0
LINE
  5
1D40D
330
1F
100
AcDbEntity
  8
0
100
AcDbLine
 10
5.846327408096259
 20
17.71501124599075
 30
0.0
 11
5.866327417134025
 21
17.71501124599076
 31
0.0
  0
LINE
  5
1D40E
330
1F
100
AcDbEntity
  8
0
100
AcDbLine
 10
5.846327408096259
 20
17.77501124599075
 30
0.0
 11
5.866327408096259
 21
17.77501124599077
 31
0.0
  0
LINE
  5
1D4F6
330
1F
100
AcDbEntity
  8
0
100
AcDbLine
 10
6.751876922046854
 20
17.81077828788886
 30
0.0
 11
6.751876922046854
 21
17.15371161629017
 31
0.0
  0
LINE
  5
1D4F7
330
1F
100
AcDbEntity
  8
0
100
AcDbLine
 10
6.751876922046854
 20
17.81077828788886
 30
0.0
 11
6.781576922046856
 21
17.81077828788886
 31
0.0
  0
LINE
  5
1D4F8
330
1F
100
AcDbEntity
  8
0
100
AcDbLine
 10
6.781576922046856
 20
17.81077828788886
 30
0.0
 11
6.781576922046856
 21
17.15371161629017
 31
0.0
  0
LINE
  5
1D4F9
330
1F
100
AcDbEntity
  8
0
100
AcDbLine
 10
6.751876922046854
 20
17.15371161629017
 30
0.0
 11
6.781576922046856
 21
17.15371161629017
 31
0.0
  0
LINE
  5
1D4FA
330
1F
100
AcDbEntity
  8
0
100
AcDbLine
 10
6.751876922046854
 20
17.09431161629017
 30
0.0
 11
6.781576922046856
 21
17.09431161629017
 31
0.0
  0
LINE
  5
1D4FB
330
1F
100
AcDbEntity
  8
0
100
AcDbLine
 10
6.739931763218702
 20
17.08570098898018
 30
0.0
 11
6.739931763218702
 21
17.1047171920461
 31
0.0
  0
LINE
  5
1D4FC
330
1F
100
AcDbEntity
  8
0
100
AcDbLine
 10
6.739931763218702
 20
17.1167171920461
 30
0.0
 11
6.739931763218702
 21
17.12979681968156
 31
0.0
  0
LINE
  5
1D4FD
330
1F
100
AcDbEntity
  8
0
100
AcDbLine
 10
6.739931763218702
 20
17.12979681968156
 30
0.0
 11
6.751876922046854
 21
17.12979681968156
 31
0.0
  0
LINE
  5
1D4FE
330
1F
100
AcDbEntity
  8
0
100
AcDbLine
 10
6.781576922046856
 20
17.12979681968156
 30
0.0
 11
6.793932758993655
 21
17.12979681968156
 31
0.0
  0
LINE
  5
1D4FF
330
1F
100
AcDbEntity
  8
0
100
AcDbLine
 10
6.797932758993653
 20
17.1167171920461
 30
0.0
 11
6.793932758993655
 21
17.1167171920461
 31
0.0
  0
LINE
  5
1D500
330
1F
100
AcDbEntity
  8
0
100
AcDbLine
 10
6.739931763218702
 20
17.1167171920461
 30
0.0
 11
6.733932758993653
 21
17.1167171920461
 31
0.0
  0
LINE
  5
1D501
330
1F
100
AcDbEntity
  8
0
100
AcDbLine
 10
6.797932758993653
 20
17.1047171920461
 30
0.0
 11
6.793932758993655
 21
17.1047171920461
 31
0.0
  0
LINE
  5
1D502
330
1F
100
AcDbEntity
  8
0
100
AcDbLine
 10
6.739931763218702
 20
17.1047171920461
 30
0.0
 11
6.733932758993653
 21
17.1047171920461
 31
0.0
  0
LINE
  5
1D503
330
1F
100
AcDbEntity
  8
0
100
AcDbLine
 10
6.793932758993655
 20
17.87279358955006
 30
0.0
 11
6.793932758993655
 21
17.86363938373162
 31
0.0
  0
LINE
  5
1D504
330
1F
100
AcDbEntity
  8
0
100
AcDbLine
 10
6.793932758993655
 20
17.85163938373162
 30
0.0
 11
6.793932758993655
 21
17.83855975609616
 31
0.0
  0
LINE
  5
1D505
330
1F
100
AcDbEntity
  8
0
100
AcDbLine
 10
6.739931763218699
 20
17.83855975609616
 30
0.0
 11
6.751876922046854
 21
17.83855975609616
 31
0.0
  0
LINE
  5
1D506
330
1F
100
AcDbEntity
  8
0
100
AcDbLine
 10
6.781576922046856
 20
17.83855975609616
 30
0.0
 11
6.793932758993655
 21
17.83855975609616
 31
0.0
  0
LINE
  5
1D507
330
1F
100
AcDbEntity
  8
0
100
AcDbLine
 10
6.797932758993653
 20
17.85163938373162
 30
0.0
 11
6.793932758993655
 21
17.85163938373162
 31
0.0
  0
LINE
  5
1D508
330
1F
100
AcDbEntity
  8
0
100
AcDbLine
 10
6.739931763218699
 20
17.85163938373162
 30
0.0
 11
6.733932758993653
 21
17.85163938373162
 31
0.0
  0
LINE
  5
1D509
330
1F
100
AcDbEntity
  8
0
100
AcDbLine
 10
6.797932758993653
 20
17.86363938373162
 30
0.0
 11
6.793932758993655
 21
17.86363938373162
 31
0.0
  0
LINE
  5
1D50A
330
1F
100
AcDbEntity
  8
0
100
AcDbLine
 10
6.739931763218699
 20
17.86363938373162
 30
0.0
 11
6.733932758993653
 21
17.86363938373162
 31
0.0
  0
LINE
  5
1D50B
330
1F
100
AcDbEntity
  8
0
100
AcDbLine
 10
6.793932758993655
 20
17.1167171920461
 30
0.0
 11
6.793932758993655
 21
17.12979681968156
 31
0.0
  0
LINE
  5
1D50C
330
1F
100
AcDbEntity
  8
0
100
AcDbLine
 10
6.739931763218699
 20
17.87279358955006
 30
0.0
 11
6.739931763218699
 21
17.86363938373162
 31
0.0
  0
LINE
  5
1D50D
330
1F
100
AcDbEntity
  8
0
100
AcDbLine
 10
6.793932758993655
 20
17.08570098898018
 30
0.0
 11
6.793932758993655
 21
17.1047171920461
 31
0.0
  0
LINE
  5
1D50E
330
1F
100
AcDbEntity
  8
0
100
AcDbLine
 10
6.793932758993655
 20
17.1047171920461
 30
0.0
 11
6.793932758993655
 21
17.1167171920461
 31
0.0
  0
LINE
  5
1D50F
330
1F
100
AcDbEntity
  8
0
100
AcDbLine
 10
6.739931763218702
 20
17.1047171920461
 30
0.0
 11
6.739931763218702
 21
17.1167171920461
 31
0.0
  0
LINE
  5
1D510
330
1F
100
AcDbEntity
  8
0
100
AcDbLine
 10
6.793932758993655
 20
17.86363938373162
 30
0.0
 11
6.793932758993655
 21
17.85163938373162
 31
0.0
  0
LINE
  5
1D511
330
1F
100
AcDbEntity
  8
0
100
AcDbLine
 10
6.739931763218699
 20
17.86363938373162
 30
0.0
 11
6.739931763218699
 21
17.85163938373162
 31
0.0
  0
LINE
  5
1D512
330
1F
100
AcDbEntity
  8
0
100
AcDbLine
 10
6.739931763218699
 20
17.85163938373162
 30
0.0
 11
6.739931763218699
 21
17.83855975609616
 31
0.0
  0
LINE
  5
1D513
330
1F
100
AcDbEntity
  8
0
100
AcDbLine
 10
6.751876922046854
 20
17.83855975609616
 30
0.0
 11
6.751876922046854
 21
17.87017828788886
 31
0.0
  0
LINE
  5
1D514
330
1F
100
AcDbEntity
  8
0
100
AcDbLine
 10
6.751876922046854
 20
17.12979681968156
 30
0.0
 11
6.751876922046854
 21
17.09431161629017
 31
0.0
  0
LINE
  5
1D515
330
1F
100
AcDbEntity
  8
0
100
AcDbLine
 10
6.751876922046854
 20
17.15371161629017
 30
0.0
 11
6.751876922046854
 21
17.12979681968156
 31
0.0
  0
LINE
  5
1D516
330
1F
100
AcDbEntity
  8
0
100
AcDbLine
 10
6.781576922046856
 20
17.83855975609616
 30
0.0
 11
6.781576922046856
 21
17.87017828788886
 31
0.0
  0
LINE
  5
1D517
330
1F
100
AcDbEntity
  8
0
100
AcDbLine
 10
6.781576922046856
 20
17.09431161629017
 30
0.0
 11
6.781576922046856
 21
17.12979681968156
 31
0.0
  0
LINE
  5
1D518
330
1F
100
AcDbEntity
  8
0
100
AcDbLine
 10
6.781576922046856
 20
17.15371161629017
 30
0.0
 11
6.781576922046856
 21
17.12979681968156
 31
0.0
  0
LINE
  5
1D519
330
1F
100
AcDbEntity
  8
0
100
AcDbLine
 10
6.751876922046854
 20
17.83855975609616
 30
0.0
 11
6.751876922046854
 21
17.81077828788886
 31
0.0
  0
LINE
  5
1D51A
330
1F
100
AcDbEntity
  8
0
100
AcDbLine
 10
6.781576922046856
 20
17.83855975609616
 30
0.0
 11
6.781576922046856
 21
17.81077828788886
 31
0.0
  0
LINE
  5
1D51B
330
1F
100
AcDbEntity
  8
0
100
AcDbLine
 10
6.797932758993653
 20
17.1167171920461
 30
0.0
 11
6.797932758993653
 21
17.1047171920461
 31
0.0
  0
LINE
  5
1D51C
330
1F
100
AcDbEntity
  8
0
100
AcDbLine
 10
6.733932758993653
 20
17.1047171920461
 30
0.0
 11
6.733932758993653
 21
17.1167171920461
 31
0.0
  0
LINE
  5
1D51D
330
1F
100
AcDbEntity
  8
0
100
AcDbLine
 10
6.797932758993653
 20
17.85163938373162
 30
0.0
 11
6.797932758993653
 21
17.86363938373162
 31
0.0
  0
LINE
  5
1D51E
330
1F
100
AcDbEntity
  8
0
100
AcDbLine
 10
6.733932758993653
 20
17.86363938373162
 30
0.0
 11
6.733932758993653
 21
17.85163938373162
 31
0.0
  0
LINE
  5
1D51F
330
1F
100
AcDbEntity
  8
0
100
AcDbLine
 10
6.801576931084621
 20
17.80523683408468
 30
0.0
 11
6.801576931084621
 21
17.70523683408468
 31
0.0
  0
LINE
  5
1D520
330
1F
100
AcDbEntity
  8
0
100
AcDbLine
 10
6.801576931084621
 20
17.70523683408468
 30
0.0
 11
6.781576931084622
 21
17.70523683408468
 31
0.0
  0
LINE
  5
1D521
330
1F
100
AcDbEntity
  8
0
100
AcDbLine
 10
6.781576931084622
 20
17.68797675541392
 30
0.0
 11
6.781576931084625
 21
17.78797675541392
 31
0.0
  0
LINE
  5
1D522
330
1F
100
AcDbEntity
  8
0
100
AcDbLine
 10
6.781576931084625
 20
17.80523683408468
 30
0.0
 11
6.801576931084621
 21
17.80523683408468
 31
0.0
  0
LINE
  5
1D523
330
1F
100
AcDbEntity
  8
0
100
AcDbLine
 10
6.801576922046855
 20
17.26316161765632
 30
0.0
 11
6.801576922046855
 21
17.16316161765632
 31
0.0
  0
LINE
  5
1D524
330
1F
100
AcDbEntity
  8
0
100
AcDbLine
 10
6.801576922046855
 20
17.16316161765632
 30
0.0
 11
6.781576922046856
 21
17.16316161765632
 31
0.0
  0
LINE
  5
1D525
330
1F
100
AcDbEntity
  8
0
100
AcDbLine
 10
6.781576922046856
 20
17.18272307235832
 30
0.0
 11
6.781576922046856
 21
17.28272307235832
 31
0.0
  0
LINE
  5
1D526
330
1F
100
AcDbEntity
  8
0
100
AcDbLine
 10
6.781576922046856
 20
17.26316161765632
 30
0.0
 11
6.801576922046855
 21
17.26316161765632
 31
0.0
  0
LINE
  5
1D527
330
1F
100
AcDbEntity
  8
0
100
AcDbLine
 10
6.802004819487478
 20
17.53713021028928
 30
0.0
 11
6.802004819487478
 21
17.43713021028928
 31
0.0
  0
LINE
  5
1D528
330
1F
100
AcDbEntity
  8
0
100
AcDbLine
 10
6.802004819487478
 20
17.43713021028928
 30
0.0
 11
6.782004819487479
 21
17.43713021028928
 31
0.0
  0
LINE
  5
1D529
330
1F
100
AcDbEntity
  8
0
100
AcDbLine
 10
6.782004819487479
 20
17.43713021028928
 30
0.0
 11
6.782004819487479
 21
17.53713021028928
 31
0.0
  0
LINE
  5
1D52A
330
1F
100
AcDbEntity
  8
0
100
AcDbLine
 10
6.782004819487479
 20
17.53713021028928
 30
0.0
 11
6.802004819487478
 21
17.53713021028928
 31
0.0
  0
LINE
  5
1D52B
330
1F
100
AcDbEntity
  8
0
100
AcDbLine
 10
6.802004819487478
 20
17.39904952053235
 30
0.0
 11
6.802004819487478
 21
17.29904952053234
 31
0.0
  0
LINE
  5
1D52C
330
1F
100
AcDbEntity
  8
0
100
AcDbLine
 10
6.802004819487478
 20
17.29904952053234
 30
0.0
 11
6.782004819487479
 21
17.29904952053234
 31
0.0
  0
LINE
  5
1D52D
330
1F
100
AcDbEntity
  8
0
100
AcDbLine
 10
6.782004819487479
 20
17.29904952053234
 30
0.0
 11
6.782004819487479
 21
17.39904952053235
 31
0.0
  0
LINE
  5
1D52E
330
1F
100
AcDbEntity
  8
0
100
AcDbLine
 10
6.782004819487479
 20
17.39904952053235
 30
0.0
 11
6.802004819487478
 21
17.39904952053235
 31
0.0
  0
LINE
  5
1D52F
330
1F
100
AcDbEntity
  8
0
100
AcDbLine
 10
6.802004819487478
 20
17.6706082083746
 30
0.0
 11
6.802004819487478
 21
17.5706082083746
 31
0.0
  0
LINE
  5
1D530
330
1F
100
AcDbEntity
  8
0
100
AcDbLine
 10
6.802004819487478
 20
17.5706082083746
 30
0.0
 11
6.782004819487479
 21
17.5706082083746
 31
0.0
  0
LINE
  5
1D531
330
1F
100
AcDbEntity
  8
0
100
AcDbLine
 10
6.782004819487479
 20
17.5706082083746
 30
0.0
 11
6.782004819487479
 21
17.6706082083746
 31
0.0
  0
LINE
  5
1D532
330
1F
100
AcDbEntity
  8
0
100
AcDbLine
 10
6.782004819487479
 20
17.6706082083746
 30
0.0
 11
6.802004819487478
 21
17.6706082083746
 31
0.0
  0
LINE
  5
1D533
330
1F
100
AcDbEntity
  8
0
100
AcDbLine
 10
6.801576931084621
 20
17.80523683408468
 30
0.0
 11
6.801576931084621
 21
17.78523683408469
 31
0.0
  0
LINE
  5
1D534
330
1F
100
AcDbEntity
  8
0
100
AcDbLine
 10
6.801576931084621
 20
17.78523683408469
 30
0.0
 11
6.781576922046856
 21
17.78523683408468
 31
0.0
  0
LINE
  5
1D535
330
1F
100
AcDbEntity
  8
0
100
AcDbLine
 10
6.801576931084621
 20
17.70523683408468
 30
0.0
 11
6.801576931084621
 21
17.72523683408468
 31
0.0
  0
LINE
  5
1D536
330
1F
100
AcDbEntity
  8
0
100
AcDbLine
 10
6.801576931084621
 20
17.72523683408468
 30
0.0
 11
6.781576931084618
 21
17.72523683408467
 31
0.0
  0
LINE
  5
1D537
330
1F
100
AcDbEntity
  8
0
100
AcDbLine
 10
6.802004817739419
 20
17.65177677209364
 30
0.0
 11
6.782004808701653
 21
17.65177677209363
 31
0.0
  0
LINE
  5
1D538
330
1F
100
AcDbEntity
  8
0
100
AcDbLine
 10
6.802004817739419
 20
17.59177677209364
 30
0.0
 11
6.782004817739416
 21
17.59177677209363
 31
0.0
  0
LINE
  5
1D539
330
1F
100
AcDbEntity
  8
0
100
AcDbLine
 10
6.802004817739419
 20
17.51632912513513
 30
0.0
 11
6.782004808701653
 21
17.51632912513512
 31
0.0
  0
LINE
  5
1D53A
330
1F
100
AcDbEntity
  8
0
100
AcDbLine
 10
6.802004817739419
 20
17.45632912513513
 30
0.0
 11
6.782004817739416
 21
17.45632912513511
 31
0.0
  0
LINE
  5
1D53B
330
1F
100
AcDbEntity
  8
0
100
AcDbLine
 10
6.802004817739419
 20
17.37837435038358
 30
0.0
 11
6.782004808701653
 21
17.37837435038358
 31
0.0
  0
LINE
  5
1D53C
330
1F
100
AcDbEntity
  8
0
100
AcDbLine
 10
6.802004817739419
 20
17.31837435038358
 30
0.0
 11
6.782004817739416
 21
17.31837435038357
 31
0.0
  0
LINE
  5
1D53D
330
1F
100
AcDbEntity
  8
0
100
AcDbLine
 10
6.801576920298792
 20
17.24348332625702
 30
0.0
 11
6.781576911261026
 21
17.24348332625702
 31
0.0
  0
LINE
  5
1D53E
330
1F
100
AcDbEntity
  8
0
100
AcDbLine
 10
6.801576920298792
 20
17.18348332625702
 30
0.0
 11
6.781576920298792
 21
17.18348332625701
 31
0.0
  0
LINE
  5
1D53F
330
1F
100
AcDbEntity
  8
0
100
AcDbLine
 10
5.813446280110239
 20
18.08770097427859
 30
0.0
 11
6.838353679540373
 21
18.08770097427858
 31
0.0
  0
LINE
  5
1D540
330
1F
100
AcDbEntity
  8
0
100
AcDbLine
 10
6.838353679540373
 20
18.08770097427858
 30
0.0
 11
6.838353679540373
 21
17.98770097427859
 31
0.0
  0
LINE
  5
1D541
330
1F
100
AcDbEntity
  8
0
100
AcDbLine
 10
6.838353679540373
 20
17.98770097427859
 30
0.0
 11
6.719446280110245
 21
17.98770097427859
 31
0.0
  0
LINE
  5
1D543
330
1F
100
AcDbEntity
  8
0
100
AcDbLine
 10
5.932353679540367
 20
17.98770097427859
 30
0.0
 11
6.729956590949603
 21
17.98770097427859
 31
0.0
  0
LINE
  5
1D5B3
330
1F
100
AcDbEntity
  8
0
100
AcDbLine
 10
6.297877861094292
 20
18.43734654951777
 30
0.0
 11
6.296878856869248
 21
18.4349347399688
 31
0.0
  0
LINE
  5
1D5B4
330
1F
100
AcDbEntity
  8
0
100
AcDbLine
 10
6.299467047320277
 20
18.18871489515961
 30
0.0
 11
6.297877861094292
 21
18.18841792065084
 31
0.0
  0
LINE
  5
1D5B5
330
1F
100
AcDbEntity
  8
0
100
AcDbLine
 10
6.303949924681113
 20
18.18908602090614
 30
0.0
 11
6.301538115132139
 21
18.18894277171493
 31
0.0
  0
LINE
  5
1D5B6
330
1F
100
AcDbEntity
  8
0
100
AcDbLine
 10
6.299467047320277
 20
18.43941761732964
 30
0.0
 11
6.297877861094292
 21
18.43734654951777
 31
0.0
  0
LINE
  5
1D5B7
330
1F
100
AcDbEntity
  8
0
100
AcDbLine
 10
6.301538115132139
 20
18.18894277171493
 30
0.0
 11
6.299467047320277
 21
18.18871489515961
 31
0.0
  0
LINE
  5
1D5B8
330
1F
100
AcDbEntity
  8
0
100
AcDbLine
 10
6.296878856869248
 20
18.4349347399688
 30
0.0
 11
6.296538115132136
 21
18.43234654951778
 31
0.0
  0
LINE
  5
1D5B9
330
1F
100
AcDbEntity
  8
0
100
AcDbLine
 10
6.297877861094292
 20
18.18841792065084
 30
0.0
 11
6.296878856869248
 21
18.18807208651063
 31
0.0
  0
LINE
  5
1D5BA
330
1F
100
AcDbEntity
  8
0
100
AcDbLine
 10
6.316197373395027
 20
18.4349347399688
 30
0.0
 11
6.315198369169984
 21
18.43734654951777
 31
0.0
  0
LINE
  5
1D5BB
330
1F
100
AcDbEntity
  8
0
100
AcDbLine
 10
6.315198369169984
 20
18.43734654951777
 30
0.0
 11
6.313609182944006
 21
18.43941761732964
 31
0.0
  0
LINE
  5
1D5BC
330
1F
100
AcDbEntity
  8
0
100
AcDbLine
 10
6.316197373395027
 20
18.18807208651063
 30
0.0
 11
6.315198369169984
 21
18.18841792065084
 31
0.0
  0
LINE
  5
1D5BD
330
1F
100
AcDbEntity
  8
0
100
AcDbLine
 10
6.306538115132141
 20
18.44234654951777
 30
0.0
 11
6.303949924681113
 21
18.44200580778067
 31
0.0
  0
LINE
  5
1D5BE
330
1F
100
AcDbEntity
  8
0
100
AcDbLine
 10
6.313609182944006
 20
18.43941761732964
 30
0.0
 11
6.311538115132137
 21
18.44100680355562
 31
0.0
  0
LINE
  5
1D5BF
330
1F
100
AcDbEntity
  8
0
100
AcDbLine
 10
6.301538115132139
 20
18.44100680355562
 30
0.0
 11
6.299467047320277
 21
18.43941761732964
 31
0.0
  0
LINE
  5
1D5C0
330
1F
100
AcDbEntity
  8
0
100
AcDbLine
 10
6.313609182944006
 20
18.18871489515961
 30
0.0
 11
6.311538115132137
 21
18.18894277171493
 31
0.0
  0
LINE
  5
1D5C1
330
1F
100
AcDbEntity
  8
0
100
AcDbLine
 10
6.316538115132139
 20
18.26929169702605
 30
0.0
 11
6.316197373395027
 21
18.26966282277258
 31
0.0
  0
LINE
  5
1D5C2
330
1F
100
AcDbEntity
  8
0
100
AcDbLine
 10
6.296878856869248
 20
18.26966282277258
 30
0.0
 11
6.296538115132136
 21
18.26929169702605
 31
0.0
  0
LINE
  5
1D5C3
330
1F
100
AcDbEntity
  8
0
100
AcDbLine
 10
6.316538115132139
 20
18.43234654951778
 30
0.0
 11
6.316197373395027
 21
18.4349347399688
 31
0.0
  0
LINE
  5
1D5C4
330
1F
100
AcDbEntity
  8
0
100
AcDbLine
 10
6.309126305583163
 20
18.18908602090614
 30
0.0
 11
6.306538115132141
 21
18.18913488053758
 31
0.0
  0
LINE
  5
1D5C5
330
1F
100
AcDbEntity
  8
0
100
AcDbLine
 10
6.311538115132137
 20
18.44100680355562
 30
0.0
 11
6.309126305583163
 21
18.44200580778067
 31
0.0
  0
LINE
  5
1D5C6
330
1F
100
AcDbEntity
  8
0
100
AcDbLine
 10
6.311538115132137
 20
18.18894277171493
 30
0.0
 11
6.309126305583163
 21
18.18908602090614
 31
0.0
  0
LINE
  5
1D5C7
330
1F
100
AcDbEntity
  8
0
100
AcDbLine
 10
6.315198369169984
 20
18.18841792065084
 30
0.0
 11
6.313609182944006
 21
18.18871489515961
 31
0.0
  0
LINE
  5
1D5C8
330
1F
100
AcDbEntity
  8
0
100
AcDbLine
 10
6.306538115132141
 20
18.18913488053758
 30
0.0
 11
6.303949924681113
 21
18.18908602090614
 31
0.0
  0
LINE
  5
1D5C9
330
1F
100
AcDbEntity
  8
0
100
AcDbLine
 10
6.29653811513214
 20
18.1877009607641
 30
0.0
 11
6.296538115132136
 21
18.26929169702605
 31
0.0
  0
LINE
  5
1D5CA
330
1F
100
AcDbEntity
  8
0
100
AcDbLine
 10
6.316538115132139
 20
18.1877009607641
 30
0.0
 11
6.316538115132139
 21
18.26929169702605
 31
0.0
  0
LINE
  5
1D5CB
330
1F
100
AcDbEntity
  8
0
100
AcDbLine
 10
6.303949924681113
 20
18.44200580778067
 30
0.0
 11
6.301538115132139
 21
18.44100680355562
 31
0.0
  0
LINE
  5
1D5CC
330
1F
100
AcDbEntity
  8
0
100
AcDbLine
 10
6.660061038587379
 20
18.4420874821948
 30
0.0
 11
6.657472848138887
 21
18.44242822393191
 31
0.0
  0
LINE
  5
1D5CD
330
1F
100
AcDbEntity
  8
0
100
AcDbLine
 10
6.662472848133987
 20
18.44108847796975
 30
0.0
 11
6.660061038587379
 21
18.4420874821948
 31
0.0
  0
LINE
  5
1D5CE
330
1F
100
AcDbEntity
  8
0
100
AcDbLine
 10
6.664543915943816
 20
18.43949929174377
 30
0.0
 11
6.662472848133987
 21
18.44108847796975
 31
0.0
  0
LINE
  5
1D5CF
330
1F
100
AcDbEntity
  8
0
100
AcDbLine
 10
6.666133102168238
 20
18.43742822393191
 30
0.0
 11
6.664543915943816
 21
18.43949929174377
 31
0.0
  0
LINE
  5
1D5D0
330
1F
100
AcDbEntity
  8
0
100
AcDbLine
 10
6.667132106392308
 20
18.43501641438293
 30
0.0
 11
6.666133102168238
 21
18.43742822393191
 31
0.0
  0
LINE
  5
1D5D1
330
1F
100
AcDbEntity
  8
0
100
AcDbLine
 10
6.667472848129079
 20
18.43242822393191
 30
0.0
 11
6.667132106392308
 21
18.43501641438293
 31
0.0
  0
LINE
  5
1D5D2
330
1F
100
AcDbEntity
  8
0
100
AcDbLine
 10
6.667132106392308
 20
18.42984003348088
 30
0.0
 11
6.667472848129079
 21
18.43242822393191
 31
0.0
  0
LINE
  5
1D5D3
330
1F
100
AcDbEntity
  8
0
100
AcDbLine
 10
6.666133102168238
 20
18.42742822393191
 30
0.0
 11
6.667132106392308
 21
18.42984003348088
 31
0.0
  0
LINE
  5
1D5D4
330
1F
100
AcDbEntity
  8
0
100
AcDbLine
 10
6.664543915943816
 20
18.42535715612004
 30
0.0
 11
6.666133102168238
 21
18.42742822393191
 31
0.0
  0
LINE
  5
1D5D5
330
1F
100
AcDbEntity
  8
0
100
AcDbLine
 10
6.662472848133987
 20
18.42376796989406
 30
0.0
 11
6.664543915943816
 21
18.42535715612004
 31
0.0
  0
LINE
  5
1D5D6
330
1F
100
AcDbEntity
  8
0
100
AcDbLine
 10
6.660061038587379
 20
18.42276896566902
 30
0.0
 11
6.662472848133987
 21
18.42376796989406
 31
0.0
  0
LINE
  5
1D5D7
330
1F
100
AcDbEntity
  8
0
100
AcDbLine
 10
6.657472848138887
 20
18.42242822393191
 30
0.0
 11
6.660061038587379
 21
18.42276896566902
 31
0.0
  0
LINE
  5
1D5D8
330
1F
100
AcDbEntity
  8
0
100
AcDbLine
 10
5.997813589884685
 20
18.43501641438293
 30
0.0
 11
5.997472848147879
 21
18.43242822393191
 31
0.0
  0
LINE
  5
1D5D9
330
1F
100
AcDbEntity
  8
0
100
AcDbLine
 10
5.998812594108834
 20
18.43742822393191
 30
0.0
 11
5.997813589884685
 21
18.43501641438293
 31
0.0
  0
LINE
  5
1D5DA
330
1F
100
AcDbEntity
  8
0
100
AcDbLine
 10
6.000401780333383
 20
18.43949929174377
 30
0.0
 11
5.998812594108834
 21
18.43742822393191
 31
0.0
  0
LINE
  5
1D5DB
330
1F
100
AcDbEntity
  8
0
100
AcDbLine
 10
6.002472848143383
 20
18.44108847796975
 30
0.0
 11
6.000401780333383
 21
18.43949929174377
 31
0.0
  0
LINE
  5
1D5DC
330
1F
100
AcDbEntity
  8
0
100
AcDbLine
 10
6.00488465769019
 20
18.4420874821948
 30
0.0
 11
6.002472848143383
 21
18.44108847796975
 31
0.0
  0
LINE
  5
1D5DD
330
1F
100
AcDbEntity
  8
0
100
AcDbLine
 10
6.002472848143383
 20
18.42376796989406
 30
0.0
 11
6.00488465769019
 21
18.42276896566902
 31
0.0
  0
LINE
  5
1D5DE
330
1F
100
AcDbEntity
  8
0
100
AcDbLine
 10
6.000401780333383
 20
18.42535715612004
 30
0.0
 11
6.002472848143383
 21
18.42376796989406
 31
0.0
  0
LINE
  5
1D5DF
330
1F
100
AcDbEntity
  8
0
100
AcDbLine
 10
5.998812594108834
 20
18.42742822393191
 30
0.0
 11
6.000401780333383
 21
18.42535715612004
 31
0.0
  0
LINE
  5
1D5E0
330
1F
100
AcDbEntity
  8
0
100
AcDbLine
 10
5.997813589884685
 20
18.42984003348088
 30
0.0
 11
5.998812594108834
 21
18.42742822393191
 31
0.0
  0
LINE
  5
1D5E1
330
1F
100
AcDbEntity
  8
0
100
AcDbLine
 10
5.997472848147879
 20
18.43242822393191
 30
0.0
 11
5.997813589884685
 21
18.42984003348088
 31
0.0
  0
LINE
  5
1D5E2
330
1F
100
AcDbEntity
  8
0
100
AcDbLine
 10
6.560061038587591
 20
18.4420874821948
 30
0.0
 11
6.557472848138885
 21
18.44242822393191
 31
0.0
  0
LINE
  5
1D5E3
330
1F
100
AcDbEntity
  8
0
100
AcDbLine
 10
6.562472848134397
 20
18.44108847796975
 30
0.0
 11
6.560061038587591
 21
18.4420874821948
 31
0.0
  0
LINE
  5
1D5E4
330
1F
100
AcDbEntity
  8
0
100
AcDbLine
 10
6.564543915944398
 20
18.43949929174377
 30
0.0
 11
6.562472848134397
 21
18.44108847796975
 31
0.0
  0
LINE
  5
1D5E5
330
1F
100
AcDbEntity
  8
0
100
AcDbLine
 10
6.566133102168947
 20
18.43742822393191
 30
0.0
 11
6.564543915944398
 21
18.43949929174377
 31
0.0
  0
LINE
  5
1D5E6
330
1F
100
AcDbEntity
  8
0
100
AcDbLine
 10
6.567132106393096
 20
18.43501641438293
 30
0.0
 11
6.566133102168947
 21
18.43742822393191
 31
0.0
  0
LINE
  5
1D5E7
330
1F
100
AcDbEntity
  8
0
100
AcDbLine
 10
6.567472848129895
 20
18.43242822393191
 30
0.0
 11
6.567132106393096
 21
18.43501641438293
 31
0.0
  0
LINE
  5
1D5E8
330
1F
100
AcDbEntity
  8
0
100
AcDbLine
 10
6.567132106393096
 20
18.42984003348088
 30
0.0
 11
6.567472848129895
 21
18.43242822393191
 31
0.0
  0
LINE
  5
1D5E9
330
1F
100
AcDbEntity
  8
0
100
AcDbLine
 10
6.566133102168947
 20
18.42742822393191
 30
0.0
 11
6.567132106393096
 21
18.42984003348088
 31
0.0
  0
LINE
  5
1D5EA
330
1F
100
AcDbEntity
  8
0
100
AcDbLine
 10
6.564543915944398
 20
18.42535715612004
 30
0.0
 11
6.566133102168947
 21
18.42742822393191
 31
0.0
  0
LINE
  5
1D5EB
330
1F
100
AcDbEntity
  8
0
100
AcDbLine
 10
6.562472848134397
 20
18.42376796989406
 30
0.0
 11
6.564543915944398
 21
18.42535715612004
 31
0.0
  0
LINE
  5
1D5EC
330
1F
100
AcDbEntity
  8
0
100
AcDbLine
 10
6.560061038587591
 20
18.42276896566902
 30
0.0
 11
6.562472848134397
 21
18.42376796989406
 31
0.0
  0
LINE
  5
1D5ED
330
1F
100
AcDbEntity
  8
0
100
AcDbLine
 10
6.557472848138885
 20
18.42242822393191
 30
0.0
 11
6.560061038587591
 21
18.42276896566902
 31
0.0
  0
LINE
  5
1D5EE
330
1F
100
AcDbEntity
  8
0
100
AcDbLine
 10
6.307472848138885
 20
18.44242822393191
 30
0.0
 11
6.30729466098181
 21
18.44224694836713
 31
0.0
  0
LINE
  5
1D5EF
330
1F
100
AcDbEntity
  8
0
100
AcDbLine
 10
6.30770400880187
 20
18.44219305670423
 30
0.0
 11
6.307472848138885
 21
18.44242822393191
 31
0.0
  0
LINE
  5
1D5F0
330
1F
100
AcDbEntity
  8
0
100
AcDbLine
 10
6.30729466098181
 20
18.44224694836713
 30
0.0
 11
6.306538115132141
 21
18.44234654951777
 31
0.0
  0
LINE
  5
1D5F1
330
1F
100
AcDbEntity
  8
0
100
AcDbLine
 10
6.309126305583163
 20
18.44200580778067
 30
0.0
 11
6.30770400880187
 21
18.44219305670423
 31
0.0
  0
LINE
  5
1D5F2
330
1F
100
AcDbEntity
  8
0
100
AcDbLine
 10
6.30770400880187
 20
18.44219305670423
 30
0.0
 11
6.30729466098181
 21
18.44224694836713
 31
0.0
  0
LINE
  5
1D5F3
330
1F
100
AcDbEntity
  8
0
100
AcDbLine
 10
6.316538115132139
 20
18.43234654951778
 30
0.0
 11
6.316538115132139
 21
18.42242822393191
 31
0.0
  0
LINE
  5
1D5F4
330
1F
100
AcDbEntity
  8
0
100
AcDbLine
 10
6.296538115132136
 20
18.43234654951778
 30
0.0
 11
6.296538115132136
 21
18.42242822393191
 31
0.0
  0
LINE
  5
1D5F5
330
1F
100
AcDbEntity
  8
0
100
AcDbLine
 10
6.316538115132139
 20
18.26929169702605
 30
0.0
 11
6.316538115132139
 21
18.42242822393191
 31
0.0
  0
LINE
  5
1D5F6
330
1F
100
AcDbEntity
  8
0
100
AcDbLine
 10
6.296538115132136
 20
18.26929169702605
 30
0.0
 11
6.296538115132136
 21
18.42242822393191
 31
0.0
  0
LINE
  5
1D5F7
330
1F
100
AcDbEntity
  8
0
100
AcDbLine
 10
6.657472848138887
 20
18.44242822393191
 30
0.0
 11
6.557472848138885
 21
18.44242822393191
 31
0.0
  0
LINE
  5
1D5F8
330
1F
100
AcDbEntity
  8
0
100
AcDbLine
 10
6.657472848138887
 20
18.42242822393191
 30
0.0
 11
6.557472848138885
 21
18.42242822393191
 31
0.0
  0
LINE
  5
1D5F9
330
1F
100
AcDbEntity
  8
0
100
AcDbLine
 10
6.007472848138888
 20
18.44242822393191
 30
0.0
 11
6.307472848138885
 21
18.44242822393191
 31
0.0
  0
LINE
  5
1D5FA
330
1F
100
AcDbEntity
  8
0
100
AcDbLine
 10
6.007472848138888
 20
18.42242822393191
 30
0.0
 11
6.296538115132136
 21
18.42242822393191
 31
0.0
  0
LINE
  5
1D5FB
330
1F
100
AcDbEntity
  8
0
100
AcDbLine
 10
6.557472848138885
 20
18.44242822393191
 30
0.0
 11
6.307472848138885
 21
18.44242822393191
 31
0.0
  0
LINE
  5
1D5FC
330
1F
100
AcDbEntity
  8
0
100
AcDbLine
 10
6.557472848138885
 20
18.42242822393191
 30
0.0
 11
6.316538115132139
 21
18.42242822393191
 31
0.0
  0
LINE
  5
1D5FD
330
1F
100
AcDbEntity
  8
0
100
AcDbLine
 10
6.400647703941451
 20
18.43242822393191
 30
0.0
 11
6.482472847386112
 21
18.43242822393191
 31
0.0
  0
LINE
  5
1D5FE
330
1F
100
AcDbEntity
  8
0
100
AcDbLine
 10
6.482472847386112
 20
18.43242822393191
 30
0.0
 11
6.554960220632217
 21
18.43242822393191
 31
0.0
  0
LINE
  5
1D5FF
330
1F
100
AcDbEntity
  8
0
100
AcDbLine
 10
6.554960220632217
 20
18.43242822393191
 30
0.0
 11
6.610581738594206
 21
18.43242822393191
 31
0.0
  0
LINE
  5
1D600
330
1F
100
AcDbEntity
  8
0
100
AcDbLine
 10
6.610581738594206
 20
18.43242822393191
 30
0.0
 11
6.64554688677763
 21
18.43242822393191
 31
0.0
  0
LINE
  5
1D601
330
1F
100
AcDbEntity
  8
0
100
AcDbLine
 10
6.64554688677763
 20
18.43242822393191
 30
0.0
 11
6.657472848138887
 21
18.43242822393191
 31
0.0
  0
LINE
  5
1D602
330
1F
100
AcDbEntity
  8
0
100
AcDbLine
 10
6.657472848138887
 20
18.43242822393191
 30
0.0
 11
6.645546888127469
 21
18.43242822393191
 31
0.0
  0
LINE
  5
1D603
330
1F
100
AcDbEntity
  8
0
100
AcDbLine
 10
6.645546888127469
 20
18.43242822393191
 30
0.0
 11
6.610581741201912
 21
18.43242822393191
 31
0.0
  0
LINE
  5
1D604
330
1F
100
AcDbEntity
  8
0
100
AcDbLine
 10
6.610581741201912
 20
18.43242822393191
 30
0.0
 11
6.554960224320069
 21
18.43242822393191
 31
0.0
  0
LINE
  5
1D605
330
1F
100
AcDbEntity
  8
0
100
AcDbLine
 10
6.554960224320069
 20
18.43242822393191
 30
0.0
 11
6.482472851902784
 21
18.43242822393191
 31
0.0
  0
LINE
  5
1D606
330
1F
100
AcDbEntity
  8
0
100
AcDbLine
 10
6.482472851902784
 20
18.43242822393191
 30
0.0
 11
6.398059518542659
 21
18.43242822393191
 31
0.0
  0
LINE
  5
1D607
330
1F
100
AcDbEntity
  8
0
100
AcDbLine
 10
6.398059518542659
 20
18.43242822393191
 30
0.0
 11
6.316527362491534
 21
18.43242822393191
 31
0.0
  0
LINE
  5
1D608
330
1F
100
AcDbEntity
  8
0
100
AcDbLine
 10
6.227238944159438
 20
18.43242822393191
 30
0.0
 11
6.157472848138887
 21
18.43242822393191
 31
0.0
  0
LINE
  5
1D609
330
1F
100
AcDbEntity
  8
0
100
AcDbLine
 10
6.157472848138887
 20
18.43242822393191
 30
0.0
 11
6.095340813782925
 21
18.43242822393191
 31
0.0
  0
LINE
  5
1D60A
330
1F
100
AcDbEntity
  8
0
100
AcDbLine
 10
6.095340813782925
 20
18.43242822393191
 30
0.0
 11
6.047665227003555
 21
18.43242822393191
 31
0.0
  0
LINE
  5
1D60B
330
1F
100
AcDbEntity
  8
0
100
AcDbLine
 10
6.047665227003555
 20
18.43242822393191
 30
0.0
 11
6.095340813782925
 21
18.43242822393191
 31
0.0
  0
LINE
  5
1D60C
330
1F
100
AcDbEntity
  8
0
100
AcDbLine
 10
6.095340813782925
 20
18.43242822393191
 30
0.0
 11
6.157472848138887
 21
18.43242822393191
 31
0.0
  0
LINE
  5
1D60D
330
1F
100
AcDbEntity
  8
0
100
AcDbLine
 10
6.157472848138887
 20
18.43242822393191
 30
0.0
 11
6.229827134608129
 21
18.43242822393191
 31
0.0
  0
LINE
  5
1D60E
330
1F
100
AcDbEntity
  8
0
100
AcDbLine
 10
6.369589418965823
 20
18.43242822393191
 30
0.0
 11
6.372177609414521
 21
18.43242822393191
 31
0.0
  0
LINE
  5
1D60F
330
1F
100
AcDbEntity
  8
0
100
AcDbLine
 10
6.372177609414521
 20
18.43242822393191
 30
0.0
 11
6.432472848138893
 21
18.43242822393191
 31
0.0
  0
LINE
  5
1D610
330
1F
100
AcDbEntity
  8
0
100
AcDbLine
 10
6.432472848138893
 20
18.43242822393191
 30
0.0
 11
6.484249543435524
 21
18.43242822393191
 31
0.0
  0
LINE
  5
1D611
330
1F
100
AcDbEntity
  8
0
100
AcDbLine
 10
6.484249543435524
 20
18.43242822393191
 30
0.0
 11
6.523979199084998
 21
18.43242822393191
 31
0.0
  0
LINE
  5
1D612
330
1F
100
AcDbEntity
  8
0
100
AcDbLine
 10
6.523979199084998
 20
18.43242822393191
 30
0.0
 11
6.548954304711152
 21
18.43242822393191
 31
0.0
  0
LINE
  5
1D613
330
1F
100
AcDbEntity
  8
0
100
AcDbLine
 10
6.548954304711152
 20
18.43242822393191
 30
0.0
 11
6.557472848138885
 21
18.43242822393191
 31
0.0
  0
LINE
  5
1D614
330
1F
100
AcDbEntity
  8
0
100
AcDbLine
 10
6.557472848138885
 20
18.43242822393191
 30
0.0
 11
6.548954304711152
 21
18.43242822393191
 31
0.0
  0
LINE
  5
1D615
330
1F
100
AcDbEntity
  8
0
100
AcDbLine
 10
6.548954304711152
 20
18.43242822393191
 30
0.0
 11
6.523979199084998
 21
18.43242822393191
 31
0.0
  0
LINE
  5
1D616
330
1F
100
AcDbEntity
  8
0
100
AcDbLine
 10
6.523979199084998
 20
18.43242822393191
 30
0.0
 11
6.484249543435524
 21
18.43242822393191
 31
0.0
  0
LINE
  5
1D617
330
1F
100
AcDbEntity
  8
0
100
AcDbLine
 10
6.484249543435524
 20
18.43242822393191
 30
0.0
 11
6.432472848138885
 21
18.43242822393191
 31
0.0
  0
LINE
  5
1D618
330
1F
100
AcDbEntity
  8
0
100
AcDbLine
 10
6.432472848138885
 20
18.43242822393191
 30
0.0
 11
6.372177609414521
 21
18.43242822393191
 31
0.0
  0
LINE
  5
1D619
330
1F
100
AcDbEntity
  8
0
100
AcDbLine
 10
6.372177609414521
 20
18.43242822393191
 30
0.0
 11
6.316527362491534
 21
18.43242822393191
 31
0.0
  0
LINE
  5
1D61A
330
1F
100
AcDbEntity
  8
0
100
AcDbLine
 10
6.29653811513214
 20
18.0877009607641
 30
0.0
 11
6.29653811513214
 21
18.1877009607641
 31
0.0
  0
LINE
  5
1D61B
330
1F
100
AcDbEntity
  8
0
100
AcDbLine
 10
6.316538115132139
 20
18.0877009607641
 30
0.0
 11
6.316538115132139
 21
18.1877009607641
 31
0.0
  0
LINE
  5
1D65F
330
1F
100
AcDbEntity
  8
0
100
AcDbLine
 10
6.55021009923751
 20
17.91874946609305
 30
0.0
 11
6.552621908786484
 21
17.91775046186801
 31
0.0
  0
LINE
  5
1D660
330
1F
100
AcDbEntity
  8
0
100
AcDbLine
 10
6.548139031425645
 20
17.92033865231904
 30
0.0
 11
6.55021009923751
 21
17.91874946609305
 31
0.0
  0
LINE
  5
1D661
330
1F
100
AcDbEntity
  8
0
100
AcDbLine
 10
6.552621908786484
 20
17.93706897839379
 30
0.0
 11
6.55021009923751
 21
17.93606997416874
 31
0.0
  0
LINE
  5
1D662
330
1F
100
AcDbEntity
  8
0
100
AcDbLine
 10
6.55021009923751
 20
17.93606997416874
 30
0.0
 11
6.548139031425645
 21
17.93448078794277
 31
0.0
  0
LINE
  5
1D663
330
1F
100
AcDbEntity
  8
0
100
AcDbLine
 10
6.548139031425645
 20
17.93448078794277
 30
0.0
 11
6.546549845199667
 21
17.9324097201309
 31
0.0
  0
LINE
  5
1D664
330
1F
100
AcDbEntity
  8
0
100
AcDbLine
 10
6.546549845199667
 20
17.9224097201309
 30
0.0
 11
6.548139031425645
 21
17.92033865231904
 31
0.0
  0
LINE
  5
1D665
330
1F
100
AcDbEntity
  8
0
100
AcDbLine
 10
6.555210099237509
 20
17.9374097201309
 30
0.0
 11
6.565128424823377
 21
17.9374097201309
 31
0.0
  0
LINE
  5
1D666
330
1F
100
AcDbEntity
  8
0
100
AcDbLine
 10
6.555210099237509
 20
17.9174097201309
 30
0.0
 11
6.565128424823377
 21
17.9174097201309
 31
0.0
  0
LINE
  5
1D667
330
1F
100
AcDbEntity
  8
0
100
AcDbLine
 10
6.718264951729231
 20
17.9374097201309
 30
0.0
 11
6.565128424823377
 21
17.9374097201309
 31
0.0
  0
LINE
  5
1D668
330
1F
100
AcDbEntity
  8
0
100
AcDbLine
 10
6.718264951729231
 20
17.9174097201309
 30
0.0
 11
6.565128424823377
 21
17.9174097201309
 31
0.0
  0
LINE
  5
1D669
330
1F
100
AcDbEntity
  8
0
100
AcDbLine
 10
6.546549845199667
 20
17.9324097201309
 30
0.0
 11
6.546549845199667
 21
17.9224097201309
 31
0.0
  0
LINE
  5
1D697
330
1F
100
AcDbEntity
  8
0
100
AcDbLine
 10
6.100408513203593
 20
17.93343141516077
 30
0.0
 11
6.097996703654619
 21
17.93443041938581
 31
0.0
  0
LINE
  5
1D698
330
1F
100
AcDbEntity
  8
0
100
AcDbLine
 10
6.102479581015458
 20
17.93184222893478
 30
0.0
 11
6.100408513203593
 21
17.93343141516077
 31
0.0
  0
LINE
  5
1D699
330
1F
100
AcDbEntity
  8
0
100
AcDbLine
 10
6.097996703654619
 20
17.91511190286003
 30
0.0
 11
6.100408513203593
 21
17.91611090708508
 31
0.0
  0
LINE
  5
1D69A
330
1F
100
AcDbEntity
  8
0
100
AcDbLine
 10
6.100408513203593
 20
17.91611090708508
 30
0.0
 11
6.102479581015458
 21
17.91770009331105
 31
0.0
  0
LINE
  5
1D69B
330
1F
100
AcDbEntity
  8
0
100
AcDbLine
 10
6.102479581015458
 20
17.91770009331105
 30
0.0
 11
6.104068767241436
 21
17.91977116112292
 31
0.0
  0
LINE
  5
1D69C
330
1F
100
AcDbEntity
  8
0
100
AcDbLine
 10
6.104068767241436
 20
17.92977116112292
 30
0.0
 11
6.102479581015458
 21
17.93184222893478
 31
0.0
  0
LINE
  5
1D69D
330
1F
100
AcDbEntity
  8
0
100
AcDbLine
 10
6.095408513203594
 20
17.91477116112292
 30
0.0
 11
6.085490187617725
 21
17.91477116112292
 31
0.0
  0
LINE
  5
1D69E
330
1F
100
AcDbEntity
  8
0
100
AcDbLine
 10
6.095408513203594
 20
17.93477116112292
 30
0.0
 11
6.085490187617725
 21
17.93477116112292
 31
0.0
  0
LINE
  5
1D69F
330
1F
100
AcDbEntity
  8
0
100
AcDbLine
 10
5.932353660711871
 20
17.91477116112292
 30
0.0
 11
6.085490187617725
 21
17.91477116112292
 31
0.0
  0
LINE
  5
1D6A0
330
1F
100
AcDbEntity
  8
0
100
AcDbLine
 10
5.932353660711871
 20
17.93477116112292
 30
0.0
 11
6.085490187617725
 21
17.93477116112292
 31
0.0
  0
LINE
  5
1D6A1
330
1F
100
AcDbEntity
  8
0
100
AcDbLine
 10
6.104068767241436
 20
17.91977116112292
 30
0.0
 11
6.104068767241436
 21
17.92977116112292
 31
0.0
  0
LINE
  5
1D6AA
330
1F
100
AcDbEntity
  8
0
100
AcDbLine
 10
6.71891097969091
 20
17.03397250196274
 30
0.0
 11
6.061844308092219
 21
17.03397250196274
 31
0.0
  0
LINE
  5
1D6AB
330
1F
100
AcDbEntity
  8
0
100
AcDbLine
 10
6.71891097969091
 20
17.00427250196273
 30
0.0
 11
6.061844308092219
 21
17.00427250196273
 31
0.0
  0
LINE
  5
1D6B9
330
1F
100
AcDbEntity
  8
0
100
AcDbLine
 10
6.817486600285787
 20
16.96679357484847
 30
0.0
 11
6.838353679540373
 21
16.96679357484847
 31
0.0
  0
LINE
  5
1D6BA
330
1F
100
AcDbEntity
  8
0
100
AcDbLine
 10
6.838353679540373
 20
17.0655719355042
 30
0.0
 11
6.838353679540373
 21
17.0857009742786
 31
0.0
  0
LINE
  5
1D6BB
330
1F
100
AcDbEntity
  8
0
100
AcDbLine
 10
6.719446280110245
 20
17.07950564426508
 30
0.0
 11
6.719446280110245
 21
17.02550464849013
 31
0.0
  0
LINE
  5
1D6BC
330
1F
100
AcDbEntity
  8
0
100
AcDbLine
 10
6.719446280110245
 20
17.02550464849013
 30
0.0
 11
6.719446280110245
 21
16.96679357484847
 31
0.0
  0
LINE
  5
1D6BD
330
1F
100
AcDbEntity
  8
0
100
AcDbLine
 10
6.725828912013517
 20
16.96679357484847
 30
0.0
 11
6.817486600285787
 21
16.96679357484847
 31
0.0
  0
LINE
  5
1D6BE
330
1F
100
AcDbEntity
  8
0
100
AcDbLine
 10
6.838353679540373
 20
16.97989193550421
 30
0.0
 11
6.838353679540373
 21
17.0655719355042
 31
0.0
  0
LINE
  5
1D6BF
330
1F
100
AcDbEntity
  8
0
100
AcDbLine
 10
6.838353679540373
 20
17.0857009742786
 30
0.0
 11
6.719446280110245
 21
17.0857009742786
 31
0.0
  0
LINE
  5
1D6C0
330
1F
100
AcDbEntity
  8
0
100
AcDbLine
 10
6.719446280110245
 20
17.0857009742786
 30
0.0
 11
6.719446280110245
 21
16.96679357484847
 31
0.0
  0
LINE
  5
1D6C1
330
1F
100
AcDbEntity
  8
0
100
AcDbLine
 10
6.719446280110245
 20
16.96679357484847
 30
0.0
 11
6.838353679540373
 21
16.96679357484847
 31
0.0
  0
LINE
  5
1D6C2
330
1F
100
AcDbEntity
  8
0
100
AcDbLine
 10
6.838353679540373
 20
16.96679357484847
 30
0.0
 11
6.838353679540373
 21
17.0857009742786
 31
0.0
  0
LINE
  5
1D6D3
330
1F
100
AcDbEntity
  8
0
100
AcDbLine
 10
5.911486600285781
 20
16.96679357484846
 30
0.0
 11
5.932353679540367
 21
16.96679357484846
 31
0.0
  0
LINE
  5
1D6D4
330
1F
100
AcDbEntity
  8
0
100
AcDbLine
 10
5.932353679540367
 20
17.0655719355042
 30
0.0
 11
5.932353679540367
 21
17.08570097427859
 31
0.0
  0
LINE
  5
1D6D5
330
1F
100
AcDbEntity
  8
0
100
AcDbLine
 10
5.813446280110239
 20
17.07950564426508
 30
0.0
 11
5.813446280110239
 21
17.02550464849013
 31
0.0
  0
LINE
  5
1D6D6
330
1F
100
AcDbEntity
  8
0
100
AcDbLine
 10
5.813446280110239
 20
17.02550464849013
 30
0.0
 11
5.813446280110239
 21
16.96679357484846
 31
0.0
  0
LINE
  5
1D6D7
330
1F
100
AcDbEntity
  8
0
100
AcDbLine
 10
5.819828912013511
 20
16.96679357484846
 30
0.0
 11
5.911486600285781
 21
16.96679357484846
 31
0.0
  0
LINE
  5
1D6D8
330
1F
100
AcDbEntity
  8
0
100
AcDbLine
 10
5.932353679540367
 20
16.9798919355042
 30
0.0
 11
5.932353679540367
 21
17.0655719355042
 31
0.0
  0
LINE
  5
1D6D9
330
1F
100
AcDbEntity
  8
0
100
AcDbLine
 10
5.932353679540367
 20
17.08570097427859
 30
0.0
 11
5.813446280110239
 21
17.08570097427859
 31
0.0
  0
LINE
  5
1D6DA
330
1F
100
AcDbEntity
  8
0
100
AcDbLine
 10
5.813446280110239
 20
17.08570097427859
 30
0.0
 11
5.813446280110239
 21
16.96679357484846
 31
0.0
  0
LINE
  5
1D6DB
330
1F
100
AcDbEntity
  8
0
100
AcDbLine
 10
5.813446280110239
 20
16.96679357484846
 30
0.0
 11
5.932353679540367
 21
16.96679357484846
 31
0.0
  0
LINE
  5
1D6DC
330
1F
100
AcDbEntity
  8
0
100
AcDbLine
 10
5.932353679540367
 20
16.96679357484846
 30
0.0
 11
5.932353679540367
 21
17.08570097427859
 31
0.0
  0
LINE
  5
1D6DD
330
1F
100
AcDbEntity
  8
0
100
AcDbLine
 10
5.819359491665982
 20
17.08570097427859
 30
0.0
 11
5.813446280110239
 21
17.08570097427859
 31
0.0
  0
LINE
  5
1D6F9
330
1F
100
AcDbEntity
  8
0
100
AcDbLine
 10
6.061844308092219
 20
17.00427250196273
 30
0.0
 11
5.932353679540367
 21
17.00427250196273
 31
0.0
  0
LINE
  5
1D6FA
330
1F
100
AcDbEntity
  8
0
100
AcDbLine
 10
5.932353679540367
 20
17.00427250196273
 30
0.0
 11
5.932353679540369
 21
17.03397250196274
 31
0.0
  0
LINE
  5
1D6FB
330
1F
100
AcDbEntity
  8
0
100
AcDbLine
 10
5.932353679540369
 20
17.03397250196274
 30
0.0
 11
6.061844308092219
 21
17.03397250196274
 31
0.0
  0
LINE
  5
1D70F
330
1F
100
AcDbEntity
  8
0
100
AcDbLine
 10
6.60939358061446
 20
16.74198706597477
 30
0.0
 11
6.60187287505018
 21
16.74198706597477
 31
0.0
  0
ARC
  5
1D710
330
1F
100
AcDbEntity
  8
0
100
AcDbCircle
 10
6.567391690016041
 20
16.95376590278145
 30
0.0
 40
0.2159037622021181
100
AcDbArc
 50
281.2178455459637
 51
338.0698885819904
  0
ARC
  5
1D711
330
1F
100
AcDbEntity
  8
0
100
AcDbCircle
 10
6.571733531397258
 20
16.95228625420303
 30
0.0
 40
0.172945637548428
100
AcDbArc
 50
280.0362155609729
 51
332.7620031105482
  0
LINE
  5
1D712
330
1F
100
AcDbEntity
  8
0
100
AcDbLine
 10
6.60187287505018
 20
16.78198706597477
 30
0.0
 11
6.326787291155916
 21
16.78198706597477
 31
0.0
  0
LINE
  5
1D713
330
1F
100
AcDbEntity
  8
0
100
AcDbLine
 10
6.326787291155914
 20
16.74198706597474
 30
0.0
 11
6.60939358061446
 21
16.74198706597477
 31
0.0
  0
LINE
  5
1D714
330
1F
100
AcDbEntity
  8
0
100
AcDbLine
 10
6.044181001697369
 20
16.74198706597477
 30
0.0
 11
6.051701707261649
 21
16.74198706597477
 31
0.0
  0
ARC
  5
1D715
330
1F
100
AcDbEntity
  8
0
100
AcDbCircle
 10
6.086182892295788
 20
16.95376590278145
 30
0.0
 40
0.2159037622021181
100
AcDbArc
 50
201.93011141801
 51
258.7821544540363
  0
ARC
  5
1D716
330
1F
100
AcDbEntity
  8
0
100
AcDbCircle
 10
6.081841050914571
 20
16.95228625420303
 30
0.0
 40
0.172945637548428
100
AcDbArc
 50
207.2379968894518
 51
259.9637844390271
  0
LINE
  5
1D717
330
1F
100
AcDbEntity
  8
0
100
AcDbLine
 10
6.051701707261649
 20
16.78198706597477
 30
0.0
 11
6.326787291155913
 21
16.78198706597477
 31
0.0
  0
LINE
  5
1D718
330
1F
100
AcDbEntity
  8
0
100
AcDbLine
 10
6.326787291155914
 20
16.74198706597474
 30
0.0
 11
6.044181001697369
 21
16.74198706597477
 31
0.0
  0
LINE
  5
1D719
330
1F
100
AcDbEntity
  8
0
100
AcDbLine
 10
5.885901903761816
 20
16.87313116978825
 30
0.0
 11
5.870672534555045
 21
16.96679357484846
 31
0.0
  0
LINE
  5
1D71A
330
1F
100
AcDbEntity
  8
0
100
AcDbLine
 10
5.928072828715309
 20
16.87313116978825
 30
0.0
 11
5.909504951403404
 21
16.96679357484846
 31
0.0
  0
LINE
  5
1D71B
330
1F
100
AcDbEntity
  8
0
100
AcDbLine
 10
6.725501753596519
 20
16.87313116978825
 30
0.0
 11
6.744069630908425
 21
16.96679357484847
 31
0.0
  0
LINE
  5
1D71C
330
1F
100
AcDbEntity
  8
0
100
AcDbLine
 10
6.767672678550012
 20
16.87313116978825
 30
0.0
 11
6.782902047756784
 21
16.96679357484847
 31
0.0
  0
LINE
  5
1D71F
330
1F
100
AcDbEntity
  8
STREFA BEZPIECZEŃSTWA
100
AcDbLine
 10
5.911278541614756
 20
10.10548629607798
 30
0.0
 11
5.911278541614756
 21
13.04015504537832
 31
0.0
  0
LINE
  5
1D720
330
1F
100
AcDbEntity
  8
STREFA BEZPIECZEŃSTWA
100
AcDbLine
 10
5.911278541614756
 20
13.04015504537832
 30
0.0
 11
6.22027038574464
 21
13.04015504537832
 31
0.0
  0
LINE
  5
1D723
330
1F
100
AcDbEntity
  8
STREFA BEZPIECZEŃSTWA
100
AcDbLine
 10
6.220270385744648
 20
15.24198706597477
 30
0.0
 11
6.22027038574464
 21
13.04015504537832
 31
0.0
  0
LINE
  5
1D726
330
1F
100
AcDbEntity
  8
STREFA BEZPIECZEŃSTWA
100
AcDbLine
 10
8.338353679540372
 20
15.24198706597478
 30
0.0
 11
8.338353679540356
 21
18.42984003348088
 31
0.0
  0
LINE
  5
1D727
330
1F
100
AcDbEntity
  8
STREFA BEZPIECZEŃSTWA
100
AcDbLine
 10
8.338353679540356
 20
18.42984003348088
 30
0.0
 11
8.338353679540356
 21
19.92984003348088
 31
0.0
  0
LINE
  5
1D732
102
{ACAD_REACTORS
330
1D764
102
}
330
1F
100
AcDbEntity
  8
STREFA BEZPIECZEŃSTWA
100
AcDbLine
 10
2.101921556703118
 20
19.92984003348088
 30
0.0
 11
2.101921556703118
 21
19.620848189351
 31
0.0
  0
LINE
  5
1D737
330
1F
100
AcDbEntity
  8
STREFA BEZPIECZEŃSTWA
100
AcDbLine
 10
1.37880996940088
 20
15.63833781308149
 30
0.0
 11
1.37880996940088
 21
13.04015504537832
 31
0.0
  0
LINE
  5
1D738
330
1F
100
AcDbEntity
  8
STREFA BEZPIECZEŃSTWA
100
AcDbLine
 10
1.37880996940088
 20
13.04015504537832
 30
0.0
 11
1.911278541614766
 21
13.04015504537831
 31
0.0
  0
LINE
  5
1D739
102
{ACAD_REACTORS
330
1D764
102
}
330
1F
100
AcDbEntity
  8
STREFA BEZPIECZEŃSTWA
100
AcDbLine
 10
1.911278541614766
 20
13.04015504537831
 30
0.0
 11
1.911278541614766
 21
10.10548629607798
 31
0.0
  0
LINE
  5
1D73A
330
1F
100
AcDbEntity
  8
STREFA BEZPIECZEŃSTWA
100
AcDbLine
 10
1.37880996940088
 20
15.63833781308149
 30
0.0
 11
-0.8327471925972176
 21
15.6383378130815
 31
0.0
  0
DIMENSION
  5
1D751
102
{ACAD_XDICTIONARY
360
1D75C
102
}
102
{ACAD_REACTORS
330
1D764
102
}
330
1F
100
AcDbEntity
  8
WYMIAR
100
AcDbDimension
  2
*D3
 10
-1.743778571278952
 20
10.10548629607798
 30
0.0
 11
-1.956174675175057
 21
15.01766316477944
 31
0.0
 70
    32
 71
     5
 42
9.824353737402899
  3
AR SKALA 1-50
100
AcDbAlignedDimension
 13
2.101921556703118
 23
19.92984003348088
 33
0.0
 14
1.911278541614766
 24
10.10548629607798
 34
0.0
 50
90.0
100
AcDbRotatedDimension
  0
LINE
  5
1D781
330
1F
100
AcDbEntity
  8
WYMIAR
100
AcDbLine
 10
1.37880996940088
 20
15.63833781308149
 30
0.0
 11
-0.7771128577538987
 21
15.6383378130815
 31
0.0
  0
LINE
  5
1D782
330
1F
100
AcDbEntity
  8
STREFA BEZPIECZEŃSTWA
100
AcDbLine
 10
-0.7771128577538987
 20
15.6383378130815
 30
0.0
 11
-0.7771128577538989
 21
19.620848189351
 31
0.0
  0
LINE
  5
1D783
102
{ACAD_REACTORS
330
1D7DF
102
}
330
1F
100
AcDbEntity
  8
STREFA BEZPIECZEŃSTWA
100
AcDbLine
 10
-0.7771128577538989
 20
19.620848189351
 30
0.0
 11
1.937705538342285
 21
19.620848189351
 31
0.0
  0
LINE
  5
1D784
330
1F
100
AcDbEntity
  8
WYMIAR
100
AcDbLine
 10
1.937705538342285
 20
19.620848189351
 30
0.0
 11
2.101921556703118
 21
19.620848189351
 31
0.0
  0
DIMENSION
  5
1D7CC
102
{ACAD_XDICTIONARY
360
1D7D7
102
}
102
{ACAD_REACTORS
330
1D7DF
102
}
330
1F
100
AcDbEntity
  8
WYMIAR
100
AcDbDimension
  2
*D4
 10
8.338353679540356
 20
20.96871595941035
 30
0.0
 11
3.780620410893228
 21
21.17871595941035
 31
0.0
 70
    32
 71
     5
 42
9.115466537294254
  3
AR SKALA 1-50
100
AcDbAlignedDimension
 13
-0.7771128577538989
 23
19.620848189351
 33
0.0
 14
8.338353679540356
 24
19.92984003348088
 34
0.0
100
AcDbRotatedDimension
  0
LINE
  5
1D7EE
330
1F
100
AcDbEntity
  8
0
100
AcDbLine
 10
4.298658564715493
 20
18.08770097427859
 30
0.0
 11
5.813446280110239
 21
18.08770097427859
 31
0.0
  0
LINE
  5
1D7EF
330
1F
100
AcDbEntity
  8
0
100
AcDbLine
 10
5.813446280110239
 20
18.08770097427859
 30
0.0
 11
5.813446280110239
 21
17.98770097427859
 31
0.0
  0
LINE
  5
1D7F0
330
1F
100
AcDbEntity
  8
0
100
AcDbLine
 10
5.813446280110239
 20
17.98770097427859
 30
0.0
 11
4.558426707111769
 21
17.98770097427859
 31
0.0
  0
LINE
  5
1D7FA
330
1F
100
AcDbEntity
  8
0
100
AcDbLine
 10
5.06836743550383
 20
17.98631633436903
 30
0.0
 11
5.06836743550383
 21
17.93631633436903
 31
0.0
  0
LINE
  5
1D7FB
330
1F
100
AcDbEntity
  8
0
100
AcDbLine
 10
5.06836743550383
 20
17.93631633436903
 30
0.0
 11
5.11836743550383
 21
17.93631633436903
 31
0.0
  0
LINE
  5
1D7FC
330
1F
100
AcDbEntity
  8
0
100
AcDbLine
 10
5.11836743550383
 20
17.93631633436903
 30
0.0
 11
5.118367435503833
 21
17.98631633436903
 31
0.0
  0
LINE
  5
1D7FD
330
1F
100
AcDbEntity
  8
STREFA BEZPIECZEŃSTWA
100
AcDbLine
 10
2.101921556703118
 20
19.92984003348088
 30
0.0
 11
8.338353679540356
 21
19.92984003348088
 31
0.0
  0
LINE
  5
1D7FE
330
1F
100
AcDbEntity
  8
STREFA BEZPIECZEŃSTWA
100
AcDbLine
 10
8.338353679540372
 20
15.24198706597478
 30
0.0
 11
6.220270385744648
 21
15.24198706597477
 31
0.0
  0
VIEWPORT
  5
7CA
330
1B
100
AcDbEntity
 67
     1
  8
0
100
AcDbViewport
 10
163.4989016524326
 20
195.3375876413696
 30
0.0
 40
698.2942801405966
 41
353.4951741932161
 68
     1
 69
     1
 12
163.4989016524326
 22
195.3375876413696
 13
0.0
 23
0.0
 14
10.0
 24
10.0
 15
10.0
 25
10.0
 16
0.0
 26
0.0
 36
1.0
 17
0.0
 27
0.0
 37
0.0
 42
50.0
 43
0.0
 44
0.0
 45
353.4951741932161
 50
0.0
 51
0.0
 72
   100
 90
   819232
  1

281
     0
 71
     1
 74
     0
110
0.0
120
0.0
130
0.0
111
1.0
121
0.0
131
0.0
112
0.0
122
1.0
132
0.0
 79
     0
146
0.0
170
     0
  0
VIEWPORT
  5
99A
330
1B
100
AcDbEntity
 67
     1
  8
Defpoints
100
AcDbViewport
 10
211.6374382675827
 20
146.9348621411756
 30
0.0
 40
410.1517866444555
 41
287.3053455326816
 68
     2
 69
     2
 12
11.12905232541961
 22
6.670544030772823
 13
0.0
 23
0.0
 14
0.5
 24
0.5
 15
0.5
 25
0.5
 16
0.0
 26
0.0
 36
1.0
 17
0.0
 27
0.0
 37
-1000.0
 42
50.0
 43
4.148984367261674
 44
9.217858496371269
 45
14.36526866548176
 50
0.0
 51
0.0
 72
   100
 90
   819296
  1

281
     0
 71
     1
 74
     0
110
0.0
120
0.0
130
0.0
111
1.0
121
0.0
131
0.0
112
0.0
122
1.0
132
0.0
 79
     0
146
0.0
170
     0
  0
ENDSEC
  0
SECTION
  2
OBJECTS
  0
DICTIONARY
  5
C
330
0
100
AcDbDictionary
281
     1
  3
ACAD_COLOR
350
4B9
  3
ACAD_GROUP
350
D
  3
ACAD_LAYOUT
350
1A
  3
ACAD_MATERIAL
350
3B
  3
ACAD_MLEADERSTYLE
350
489
  3
ACAD_MLINESTYLE
350
17
  3
ACAD_PLOTSETTINGS
350
19
  3
ACAD_PLOTSTYLENAME
350
E
  3
ACAD_SCALELIST
350
10523
  3
ACAD_TABLESTYLE
350
4BA
  3
ACAD_VISUALSTYLE
350
2A
  3
ACDB_RECOMPOSE_DATA
350
1055C
  3
AcDbVariableDictionary
350
487
  0
DICTIONARY
  5
84C
330
8
100
AcDbDictionary
280
     1
281
     1
  0
DICTIONARY
  5
7D1
330
2
100
AcDbDictionary
280
     1
281
     1
  3
ACAD_LAYERFILTERS
360
1D7B3
  3
ACAD_LAYERSTATES
360
7D2
  3
ACLYDICTIONARY
360
1D7B2
  0
DICTIONARY
  5
10554
330
10
100
AcDbDictionary
280
     1
281
     1
  3
ADSK_XREC_LAYER_RECONCILED
360
10555
  0
DICTIONARY
  5
10556
330
87B
100
AcDbDictionary
280
     1
281
     1
  3
ADSK_XREC_LAYER_RECONCILED
360
10557
  0
DICTIONARY
  5
10558
330
87D
100
AcDbDictionary
280
     1
281
     1
  3
ADSK_XREC_LAYER_RECONCILED
360
10559
  0
DICTIONARY
  5
5F8
330
1F
100
AcDbDictionary
280
     1
281
     1
  3
ACAD_SORTENTS
360
5F9
  0
DICTIONARY
  5
1D631
330
1D61C
100
AcDbDictionary
280
     1
281
     1
  3
ACAD_SORTENTS
360
1D632
  0
DICTIONARY
  5
1D75C
330
1D751
100
AcDbDictionary
280
     1
281
     1
  3
ACAD_DIMASSOC
360
1D764
  0
DICTIONARY
  5
1D7D7
330
1D7CC
100
AcDbDictionary
280
     1
281
     1
  3
ACAD_DIMASSOC
360
1D7DF
  0
DICTIONARY
  5
4B9
102
{ACAD_REACTORS
330
C
102
}
330
C
100
AcDbDictionary
281
     1
  0
DICTIONARY
  5
D
102
{ACAD_REACTORS
330
C
102
}
330
C
100
AcDbDictionary
281
     1
  0
DICTIONARY
  5
1A
102
{ACAD_REACTORS
330
C
102
}
330
C
100
AcDbDictionary
281
     1
  3
Layout1
350
1E
  3
Model
350
22
  0
DICTIONARY
  5
3B
102
{ACAD_REACTORS
330
C
102
}
330
C
100
AcDbDictionary
281
     1
  3
ByBlock
350
3D
  3
ByLayer
350
3C
  3
Global
350
3E
  0
DICTIONARY
  5
489
102
{ACAD_REACTORS
330
C
102
}
330
C
100
AcDbDictionary
281
     1
  3
Standard
350
10545
  0
DICTIONARY
  5
17
102
{ACAD_REACTORS
330
C
102
}
330
C
100
AcDbDictionary
281
     1
  3
Standard
350
18
  0
DICTIONARY
  5
19
102
{ACAD_REACTORS
330
C
102
}
330
C
100
AcDbDictionary
281
     1
  0
ACDBDICTIONARYWDFLT
  5
E
102
{ACAD_REACTORS
330
C
102
}
330
C
100
AcDbDictionary
281
     1
  3
Normal
350
F
100
AcDbDictionaryWithDefault
340
F
  0
DICTIONARY
  5
10523
102
{ACAD_REACTORS
330
C
102
}
330
C
100
AcDbDictionary
281
     1
  3
A0
350
10524
  3
A1
350
10525
  3
A2
350
10526
  3
A3
350
10527
  3
A4
350
10528
  3
A5
350
10529
  3
A6
350
1052A
  3
A7
350
1052B
  3
A8
350
1052C
  3
A9
350
1052D
  3
B0
350
1052E
  3
B1
350
1052F
  3
B2
350
10530
  3
B3
350
10531
  3
B4
350
10532
  3
B5
350
10533
  3
B6
350
10534
  3
B7
350
10535
  3
B8
350
10536
  3
B9
350
10537
  3
C0
350
10538
  3
C1
350
10539
  3
C2
350
1053A
  3
C3
350
1053B
  3
C4
350
1053C
  3
C5
350
1053D
  3
C6
350
1053E
  3
C7
350
1053F
  3
C8
350
10540
  3
C9
350
10541
  3
D0
350
10542
  3
D1
350
10543
  3
D2
350
10544
  0
DICTIONARY
  5
4BA
102
{ACAD_REACTORS
330
C
102
}
330
C
100
AcDbDictionary
281
     1
  3
Standard
350
4BB
  0
DICTIONARY
  5
2A
102
{ACAD_REACTORS
330
C
102
}
330
C
100
AcDbDictionary
281
     1
  3
2dWireframe
350
2F
  3
3D Hidden
350
A47
  3
3dWireframe
350
A48
  3
Basic
350
32
  3
Brighten
350
36
  3
ColorChange
350
3A
  3
Conceptual
350
A4B
  3
Dim
350
35
  3
Facepattern
350
39
  3
Flat
350
2B
  3
FlatWithEdges
350
2C
  3
Gouraud
350
2D
  3
GouraudWithEdges
350
2E
  3
Linepattern
350
38
  3
Realistic
350
A4C
  3
Thicken
350
37
  0
XRECORD
  5
1055C
102
{ACAD_REACTORS
330
C
102
}
330
C
100
AcDbXrecord
280
     1
 90
        1
330
4BB
  0
DICTIONARY
  5
487
102
{ACAD_REACTORS
330
C
102
}
330
C
100
AcDbDictionary
281
     1
  3
CANNOSCALE
350
1055F
  3
CMLEADERSTYLE
350
1055D
  3
CTABLESTYLE
350
5FE
  3
DIMASSOC
350
48A
  3
HIDETEXT
350
48B
  3
INDEXCTL
350
86B
  3
LIGHTINGUNITS
350
10560
  3
MSLTSCALE
350
1055E
  3
SORTENTS
350
86A
  0
DICTIONARY
  5
1D7B3
102
{ACAD_REACTORS
330
7D1
102
}
330
7D1
100
AcDbDictionary
281
     1
  0
DICTIONARY
  5
7D2
102
{ACAD_REACTORS
330
7D1
102
}
330
7D1
100
AcDbDictionary
281
     1
  0
DICTIONARY
  5
1D7B2
102
{ACAD_REACTORS
330
7D1
102
}
330
7D1
100
AcDbDictionary
281
     1
1001
ACAD
1000
<All
  0
XRECORD
  5
10555
102
{ACAD_REACTORS
330
10554
102
}
330
10554
100
AcDbXrecord
280
     1
290
     1
  0
XRECORD
  5
10557
102
{ACAD_REACTORS
330
10556
102
}
330
10556
100
AcDbXrecord
280
     1
290
     1
  0
XRECORD
  5
10559
102
{ACAD_REACTORS
330
10558
102
}
330
10558
100
AcDbXrecord
280
     1
290
     1
  0
SORTENTSTABLE
  5
5F9
102
{ACAD_REACTORS
330
5F8
102
}
330
5F8
100
AcDbSortentsTable
330
1F
331
1D69A
  5
1D69A
331
1D605
  5
1D605
331
1D5C7
  5
1D5C7
331
1D5E6
  5
1D5E6
331
1D50A
  5
1D50A
331
1D3D5
  5
1D3D5
331
1D3EC
  5
1D3EC
331
1D040
  5
1D040
331
1D05F
  5
1D05F
331
1D40B
  5
1D40B
331
1D529
  5
1D529
331
1D00A
  5
1D00A
331
1CFB5
  5
1CFB5
331
1CFCC
  5
1CFCC
331
1CBC7
  5
1CBC7
331
1CBE6
  5
1CBE6
331
1D029
  5
1D029
331
1D540
  5
1D540
331
1CA7B
  5
1CA7B
331
1C9E7
  5
1C9E7
331
1CA9A
  5
1CA9A
331
1D6C1
  5
1D6C1
331
1D720
  5
1D720
331
1D6C2
  5
1D6C2
331
1D6F9
  5
1D6F9
331
1D69B
  5
1D69B
331
1D5E7
  5
1D5E7
331
1D52A
  5
1D52A
331
1D541
  5
1D541
331
1D40C
  5
1D40C
331
1D50B
  5
1D50B
331
1D3D6
  5
1D3D6
331
1D3ED
  5
1D3ED
331
1D5C8
  5
1D5C8
331
1D606
  5
1D606
331
1D02A
  5
1D02A
331
1D041
  5
1D041
331
1CFEC
  5
1CFEC
331
1D00B
  5
1D00B
331
1CBE7
  5
1CBE7
331
1CAD1
  5
1CAD1
331
1CA7C
  5
1CA7C
331
1CA9B
  5
1CA9B
331
1CA5D
  5
1CA5D
331
1CBC8
  5
1CBC8
331
1CFB6
  5
1CFB6
331
1CFCD
  5
1CFCD
331
1D060
  5
1D060
331
1D6FA
  5
1D6FA
331
1D69C
  5
1D69C
331
1D607
  5
1D607
331
1D5C9
  5
1D5C9
331
1D50C
  5
1D50C
331
1D3D7
  5
1D3D7
331
1D3EE
  5
1D3EE
331
1D042
  5
1D042
331
1D061
  5
1D061
331
1D40D
  5
1D40D
331
1D52B
  5
1D52B
331
1D5E8
  5
1D5E8
331
1D00C
  5
1D00C
331
1CFB7
  5
1CFB7
331
1CFCE
  5
1CFCE
331
1CBC9
  5
1CBC9
331
1CBE8
  5
1CBE8
331
1CFED
  5
1CFED
331
1D02B
  5
1D02B
331
1CA5E
  5
1CA5E
331
1CA7D
  5
1CA7D
331
1CA9C
  5
1CA9C
331
1D751
  5
1D751
331
1D6FB
  5
1D6FB
331
1D69D
  5
1D69D
331
1D5E9
  5
1D5E9
331
1D52C
  5
1D52C
331
1D543
  5
1D543
331
1D40E
  5
1D40E
331
1D50D
  5
1D50D
331
1D062
  5
1D062
331
1D02C
  5
1D02C
331
1D043
  5
1D043
331
1D3D8
  5
1D3D8
331
1CFEE
  5
1CFEE
331
1D00D
  5
1D00D
331
1D3EF
  5
1D3EF
331
1D5CA
  5
1D5CA
331
1D608
  5
1D608
331
1CBE9
  5
1CBE9
331
1CA7E
  5
1CA7E
331
1CA9D
  5
1CA9D
331
1CA5F
  5
1CA5F
331
1CBCA
  5
1CBCA
331
1CFCF
  5
1CFCF
331
1D65F
  5
1D65F
331
1D69E
  5
1D69E
331
1D609
  5
1D609
331
1D723
  5
1D723
331
1D5CB
  5
1D5CB
331
1D50E
  5
1D50E
331
1D3D9
  5
1D3D9
331
1D3F0
  5
1D3F0
331
1D044
  5
1D044
331
1D063
  5
1D063
331
1D52D
  5
1D52D
331
1D5EA
  5
1D5EA
331
1D00E
  5
1D00E
331
1CFD0
  5
1CFD0
331
1CA9E
  5
1CA9E
331
1CBCB
  5
1CBCB
331
1CA7F
  5
1CA7F
331
1CBEA
  5
1CBEA
331
1CFEF
  5
1CFEF
331
1D02D
  5
1D02D
331
1D660
  5
1D660
331
1D69F
  5
1D69F
331
1D5EB
  5
1D5EB
331
1D52E
  5
1D52E
331
1D50F
  5
1D50F
331
1D3DA
  5
1D3DA
331
1D3F1
  5
1D3F1
331
1D5CC
  5
1D5CC
331
1D064
  5
1D064
331
1D02E
  5
1D02E
331
1D045
  5
1D045
331
1CFD1
  5
1CFD1
331
1CBEB
  5
1CBEB
331
1CFF0
  5
1CFF0
331
1CA9F
  5
1CA9F
331
1CBCC
  5
1CBCC
331
1D00F
  5
1D00F
331
1D093
  5
1D093
331
1D60A
  5
1D60A
331
1D661
  5
1D661
331
1D60B
  5
1D60B
331
1D6A0
  5
1D6A0
331
1D5CD
  5
1D5CD
331
1D510
  5
1D510
331
1D3DB
  5
1D3DB
331
1D3F2
  5
1D3F2
331
1D02F
  5
1D02F
331
1D046
  5
1D046
331
1D010
  5
1D010
331
1D094
  5
1D094
331
1D52F
  5
1D52F
331
1D5EC
  5
1D5EC
331
1CFD2
  5
1CFD2
331
1CBCD
  5
1CBCD
331
1CBEC
  5
1CBEC
331
1CFF1
  5
1CFF1
331
1D6A1
  5
1D6A1
331
1D726
  5
1D726
331
1D60C
  5
1D60C
331
1D5ED
  5
1D5ED
331
1D662
  5
1D662
331
1D530
  5
1D530
331
1D511
  5
1D511
331
1D095
  5
1D095
331
1D066
  5
1D066
331
1D047
  5
1D047
331
1D3DC
  5
1D3DC
331
1D3F3
  5
1D3F3
331
1CFD3
  5
1CFD3
331
1CBED
  5
1CBED
331
1CFF2
  5
1CFF2
331
1CBCE
  5
1CBCE
331
1D011
  5
1D011
331
1D5CE
  5
1D5CE
331
1D663
  5
1D663
331
1D60D
  5
1D60D
331
1D727
  5
1D727
331
1D5CF
  5
1D5CF
331
1D512
  5
1D512
331
1D3DD
  5
1D3DD
331
1D3F4
  5
1D3F4
331
1D096
  5
1D096
331
1D048
  5
1D048
331
1CFF3
  5
1CFF3
331
1D012
  5
1D012
331
1CFD4
  5
1CFD4
331
1D067
  5
1D067
331
1CBCF
  5
1CBCF
331
1CBEE
  5
1CBEE
331
1D531
  5
1D531
331
1D5EE
  5
1D5EE
331
1D60E
  5
1D60E
331
1D5D0
  5
1D5D0
331
1D532
  5
1D532
331
1D5EF
  5
1D5EF
331
1D664
  5
1D664
331
1D513
  5
1D513
331
1D068
  5
1D068
331
1D3DE
  5
1D3DE
331
1D049
  5
1D049
331
1D3F5
  5
1D3F5
331
1CFD5
  5
1CFD5
331
1CBEF
  5
1CBEF
331
1CFF4
  5
1CFF4
331
1D013
  5
1D013
331
1D665
  5
1D665
331
1D6D3
  5
1D6D3
331
1D60F
  5
1D60F
331
1D5D1
  5
1D5D1
331
1D514
  5
1D514
331
1D3DF
  5
1D3DF
331
1D04A
  5
1D04A
331
1D3F6
  5
1D3F6
331
1CFF5
  5
1CFF5
331
1D014
  5
1D014
331
1CFD6
  5
1CFD6
331
1D533
  5
1D533
331
1D5F0
  5
1D5F0
331
1D732
  5
1D732
331
1D610
  5
1D610
331
1D5D2
  5
1D5D2
331
1D5F1
  5
1D5F1
331
1D534
  5
1D534
331
1D5B3
  5
1D5B3
331
1D666
  5
1D666
331
1D6D4
  5
1D6D4
331
1D3F7
  5
1D3F7
331
1D4F6
  5
1D4F6
331
1D515
  5
1D515
331
1D015
  5
1D015
331
1CFD7
  5
1CFD7
331
1CFF6
  5
1CFF6
331
1D04B
  5
1D04B
331
1D667
  5
1D667
331
1D6D5
  5
1D6D5
331
1D5F2
  5
1D5F2
331
1D535
  5
1D535
331
1D5B4
  5
1D5B4
331
1D516
  5
1D516
331
1D5D3
  5
1D5D3
331
1D611
  5
1D611
331
1D04C
  5
1D04C
331
1D3F8
  5
1D3F8
331
1CFF7
  5
1CFF7
331
1D016
  5
1D016
331
1D4F7
  5
1D4F7
331
1D612
  5
1D612
331
1D5D4
  5
1D5D4
331
1D5F3
  5
1D5F3
331
1D536
  5
1D536
331
1D5B5
  5
1D5B5
331
1D668
  5
1D668
331
1D6D6
  5
1D6D6
331
1D3F9
  5
1D3F9
331
1D4F8
  5
1D4F8
331
1D517
  5
1D517
331
1D017
  5
1D017
331
1D04D
  5
1D04D
331
1D669
  5
1D669
331
1D6D7
  5
1D6D7
331
1D5F4
  5
1D5F4
331
1D537
  5
1D537
331
1D5B6
  5
1D5B6
331
1D4F9
  5
1D4F9
331
1D518
  5
1D518
331
1D04E
  5
1D04E
331
1D3FA
  5
1D3FA
331
1D5D5
  5
1D5D5
331
1D613
  5
1D613
331
1D70F
  5
1D70F
331
1D614
  5
1D614
331
1D5D6
  5
1D5D6
331
1D5F5
  5
1D5F5
331
1D5B7
  5
1D5B7
331
1D6D8
  5
1D6D8
331
1D3FB
  5
1D3FB
331
1D4FA
  5
1D4FA
331
1D519
  5
1D519
331
1D04F
  5
1D04F
331
1D737
  5
1D737
331
1D6D9
  5
1D6D9
331
1D710
  5
1D710
331
1D5F6
  5
1D5F6
331
1D5B8
  5
1D5B8
331
1D4FB
  5
1D4FB
331
1D51A
  5
1D51A
331
1D3FC
  5
1D3FC
331
1D5D7
  5
1D5D7
331
1D3C6
  5
1D3C6
331
1D615
  5
1D615
331
1D6AA
  5
1D6AA
331
1C180
  5
1C180
331
1D711
  5
1D711
331
1D738
  5
1D738
331
1D616
  5
1D616
331
1D6AB
  5
1D6AB
331
1D5D8
  5
1D5D8
331
1D5F7
  5
1D5F7
331
1D51B
  5
1D51B
331
1D3FD
  5
1D3FD
331
1D3C7
  5
1D3C7
331
1D4FC
  5
1D4FC
331
1D5B9
  5
1D5B9
331
1D6DA
  5
1D6DA
331
1C181
  5
1C181
331
1C1A0
  5
1C1A0
331
1D739
  5
1D739
331
1D6DB
  5
1D6DB
331
1D712
  5
1D712
331
1D5F8
  5
1D5F8
331
1D5BA
  5
1D5BA
331
1D4FD
  5
1D4FD
331
1D51C
  5
1D51C
331
1D3FE
  5
1D3FE
331
1D5D9
  5
1D5D9
331
1D617
  5
1D617
331
1C1A1
  5
1C1A1
331
1C1C0
  5
1C1C0
331
1C182
  5
1C182
331
1D6DC
  5
1D6DC
331
1D713
  5
1D713
331
1D5DA
  5
1D5DA
331
1D5F9
  5
1D5F9
331
1D73A
  5
1D73A
331
1D51D
  5
1D51D
331
1D3FF
  5
1D3FF
331
1D4FE
  5
1D4FE
331
1D5BB
  5
1D5BB
331
1C1C1
  5
1C1C1
331
1C164
  5
1C164
331
1C183
  5
1C183
331
1C1A2
  5
1C1A2
331
1C1D8
  5
1C1D8
331
1D5FA
  5
1D5FA
331
1D6DD
  5
1D6DD
331
1D714
  5
1D714
331
1D5BC
  5
1D5BC
331
1D4FF
  5
1D4FF
331
1D51E
  5
1D51E
331
1D5DB
  5
1D5DB
331
1C1D9
  5
1C1D9
331
1C1A3
  5
1C1A3
331
1C1C2
  5
1C1C2
331
1C1F8
  5
1C1F8
331
1C165
  5
1C165
331
1C184
  5
1C184
331
1D715
  5
1D715
331
1D5DC
  5
1D5DC
331
1D5FB
  5
1D5FB
331
1D51F
  5
1D51F
331
1D5BD
  5
1D5BD
331
1C1F9
  5
1C1F9
331
1C218
  5
1C218
331
1C1C3
  5
1C1C3
331
1C166
  5
1C166
331
1C185
  5
1C185
331
1C1A4
  5
1C1A4
331
1C1DA
  5
1C1DA
331
1D5FC
  5
1D5FC
331
1D716
  5
1D716
331
1D5BE
  5
1D5BE
331
1D5DD
  5
1D5DD
331
1C219
  5
1C219
331
1C238
  5
1C238
331
1C1DB
  5
1C1DB
331
1C186
  5
1C186
331
1C1A5
  5
1C1A5
331
1C167
  5
1C167
331
1C1C4
  5
1C1C4
331
1C1FA
  5
1C1FA
331
1D717
  5
1D717
331
1D6B9
  5
1D6B9
331
1D5BF
  5
1D5BF
331
1D5DE
  5
1D5DE
331
1D5FD
  5
1D5FD
331
1C239
  5
1C239
331
1C250
  5
1C250
331
1C1FB
  5
1C1FB
331
1C21A
  5
1C21A
331
1C1C5
  5
1C1C5
331
1C168
  5
1C168
331
1C187
  5
1C187
331
1C1A6
  5
1C1A6
331
1C1DC
  5
1C1DC
331
1D6BA
  5
1D6BA
331
1D5FE
  5
1D5FE
331
1D718
  5
1D718
331
1D5DF
  5
1D5DF
331
1C251
  5
1C251
331
1C270
  5
1C270
331
1C21B
  5
1C21B
331
1C23A
  5
1C23A
331
1C1DD
  5
1C1DD
331
1C188
  5
1C188
331
1C1A7
  5
1C1A7
331
1C169
  5
1C169
331
1C1C6
  5
1C1C6
331
1C1FC
  5
1C1FC
331
1D719
  5
1D719
331
1D6BB
  5
1D6BB
331
1D5FF
  5
1D5FF
331
1C271
  5
1C271
331
1C2D8
  5
1C2D8
331
1C252
  5
1C252
331
1C1DE
  5
1C1DE
331
1C1A8
  5
1C1A8
331
1C1C7
  5
1C1C7
331
1C1FD
  5
1C1FD
331
1C16A
  5
1C16A
331
1C189
  5
1C189
331
1C21C
  5
1C21C
331
1D6BC
  5
1D6BC
331
1D71A
  5
1D71A
331
1C2D9
  5
1C2D9
331
1C253
  5
1C253
331
1C272
  5
1C272
331
1C21D
  5
1C21D
331
1C23C
  5
1C23C
331
1C1DF
  5
1C1DF
331
1C18A
  5
1C18A
331
1C1A9
  5
1C1A9
331
1C16B
  5
1C16B
331
1C1C8
  5
1C1C8
331
1C1FE
  5
1C1FE
331
1D71B
  5
1D71B
331
1D6BD
  5
1D6BD
331
1C273
  5
1C273
331
1C2DA
  5
1C2DA
331
1C254
  5
1C254
331
1C1E0
  5
1C1E0
331
1C1AA
  5
1C1AA
331
1C1C9
  5
1C1C9
331
1C1FF
  5
1C1FF
331
1C16C
  5
1C16C
331
1C18B
  5
1C18B
331
1C21E
  5
1C21E
331
1D6BE
  5
1D6BE
331
1D697
  5
1D697
331
1D71C
  5
1D71C
331
1C2DB
  5
1C2DB
331
1C4E0
  5
1C4E0
331
1C255
  5
1C255
331
1C274
  5
1C274
331
1C200
  5
1C200
331
1C21F
  5
1C21F
331
1C1CA
  5
1C1CA
331
1C18C
  5
1C18C
331
1C1AB
  5
1C1AB
331
1C1E1
  5
1C1E1
331
1C16D
  5
1C16D
331
1C23E
  5
1C23E
331
1D6BF
  5
1D6BF
331
1C500
  5
1C500
331
1C275
  5
1C275
331
1C2DC
  5
1C2DC
331
1C23F
  5
1C23F
331
1C256
  5
1C256
331
1C4E1
  5
1C4E1
331
1C1E2
  5
1C1E2
331
1C1AC
  5
1C1AC
331
1C1CB
  5
1C1CB
331
1C201
  5
1C201
331
1C16E
  5
1C16E
331
1C18D
  5
1C18D
331
1C220
  5
1C220
331
1C978
  5
1C978
331
1C4E2
  5
1C4E2
331
1C2DD
  5
1C2DD
331
1C4AC
  5
1C4AC
331
1C257
  5
1C257
331
1C276
  5
1C276
331
1C501
  5
1C501
331
1C202
  5
1C202
331
1C221
  5
1C221
331
1C1CC
  5
1C1CC
331
1C18E
  5
1C18E
331
1C1AD
  5
1C1AD
331
1C1E3
  5
1C1E3
331
1C16F
  5
1C16F
331
1C240
  5
1C240
331
1D71F
  5
1D71F
331
1C990
  5
1C990
331
1C502
  5
1C502
331
1C4C4
  5
1C4C4
331
1C277
  5
1C277
331
1C2DE
  5
1C2DE
331
1C222
  5
1C222
331
1C241
  5
1C241
331
1C1E4
  5
1C1E4
331
1C1AE
  5
1C1AE
331
1C1CD
  5
1C1CD
331
1C203
  5
1C203
331
1C170
  5
1C170
331
1C18F
  5
1C18F
331
1C258
  5
1C258
331
1C4E3
  5
1C4E3
331
1C979
  5
1C979
331
1C9C8
  5
1C9C8
331
1C4C5
  5
1C4C5
331
1C2DF
  5
1C2DF
331
1C4E4
  5
1C4E4
331
1C259
  5
1C259
331
1C278
  5
1C278
331
1C503
  5
1C503
331
1C204
  5
1C204
331
1C223
  5
1C223
331
1C1CE
  5
1C1CE
331
1C190
  5
1C190
331
1C1AF
  5
1C1AF
331
1C1E5
  5
1C1E5
331
1C171
  5
1C171
331
1C242
  5
1C242
331
1C9E8
  5
1C9E8
331
1C504
  5
1C504
331
1C9C9
  5
1C9C9
331
1C4C6
  5
1C4C6
331
1C279
  5
1C279
331
1C2E0
  5
1C2E0
331
1C224
  5
1C224
331
1C243
  5
1C243
331
1C1E6
  5
1C1E6
331
1C1B0
  5
1C1B0
331
1C1CF
  5
1C1CF
331
1C205
  5
1C205
331
1C172
  5
1C172
331
1C191
  5
1C191
331
1C25A
  5
1C25A
331
1C4E5
  5
1C4E5
331
1C9CA
  5
1C9CA
331
1C97C
  5
1C97C
331
1C9E9
  5
1C9E9
331
1C4C7
  5
1C4C7
331
1C2E1
  5
1C2E1
331
1C4E6
  5
1C4E6
331
1C244
  5
1C244
331
1C25B
  5
1C25B
331
1C206
  5
1C206
331
1C225
  5
1C225
331
1C1D0
  5
1C1D0
331
1C192
  5
1C192
331
1C1B1
  5
1C1B1
331
1C1E7
  5
1C1E7
331
1C27A
  5
1C27A
331
1C505
  5
1C505
331
1C173
  5
1C173
331
1CA40
  5
1CA40
331
1C9EA
  5
1C9EA
331
1C97D
  5
1C97D
331
1C4E7
  5
1C4E7
331
1C506
  5
1C506
331
1C4C8
  5
1C4C8
331
1C27B
  5
1C27B
331
1C2E2
  5
1C2E2
331
1C9CB
  5
1C9CB
331
1C226
  5
1C226
331
1C245
  5
1C245
331
1C1E8
  5
1C1E8
331
1C1B2
  5
1C1B2
331
1C1D1
  5
1C1D1
331
1C207
  5
1C207
331
1C174
  5
1C174
331
1C193
  5
1C193
331
1C25C
  5
1C25C
331
1CA60
  5
1CA60
331
1CA41
  5
1CA41
331
1C9CC
  5
1C9CC
331
1C97E
  5
1C97E
331
1C9EB
  5
1C9EB
331
1C2E3
  5
1C2E3
331
1C4E8
  5
1C4E8
331
1C246
  5
1C246
331
1C25D
  5
1C25D
331
1C208
  5
1C208
331
1C227
  5
1C227
331
1C1D2
  5
1C1D2
331
1C175
  5
1C175
331
1C194
  5
1C194
331
1C1B3
  5
1C1B3
331
1C1E9
  5
1C1E9
331
1C27C
  5
1C27C
331
1C507
  5
1C507
331
1CA80
  5
1CA80
331
1CA42
  5
1CA42
331
1C9EC
  5
1C9EC
331
1C97F
  5
1C97F
331
1C4E9
  5
1C4E9
331
1C508
  5
1C508
331
1C4CA
  5
1C4CA
331
1C25E
  5
1C25E
331
1C27D
  5
1C27D
331
1C228
  5
1C228
331
1C247
  5
1C247
331
1C1EA
  5
1C1EA
331
1C1B4
  5
1C1B4
331
1C1D3
  5
1C1D3
331
1C209
  5
1C209
331
1C2E4
  5
1C2E4
331
1C176
  5
1C176
331
1C195
  5
1C195
331
1C9CD
  5
1C9CD
331
1CAA0
  5
1CAA0
331
1CA62
  5
1CA62
331
1CA81
  5
1CA81
331
1CA2C
  5
1CA2C
331
1CA43
  5
1CA43
331
1C9CE
  5
1C9CE
331
1C509
  5
1C509
331
1C4CB
  5
1C4CB
331
1C980
  5
1C980
331
1C2E5
  5
1C2E5
331
1C4B4
  5
1C4B4
331
1C9ED
  5
1C9ED
331
1C248
  5
1C248
331
1C25F
  5
1C25F
331
1C20A
  5
1C20A
331
1C229
  5
1C229
331
1C1D4
  5
1C1D4
331
1C177
  5
1C177
331
1C196
  5
1C196
331
1C1B5
  5
1C1B5
331
1C1EB
  5
1C1EB
331
1C27E
  5
1C27E
331
1CAB8
  5
1CAB8
331
1CA82
  5
1CA82
331
1CA44
  5
1CA44
331
1CA63
  5
1CA63
331
1C9CF
  5
1C9CF
331
1C981
  5
1C981
331
1C9EE
  5
1C9EE
331
1C4EB
  5
1C4EB
331
1C50A
  5
1C50A
331
1C4B5
  5
1C4B5
331
1C4CC
  5
1C4CC
331
1CA2D
  5
1CA2D
331
1C260
  5
1C260
331
1C27F
  5
1C27F
331
1C22A
  5
1C22A
331
1C249
  5
1C249
331
1C1EC
  5
1C1EC
331
1C197
  5
1C197
331
1C1B6
  5
1C1B6
331
1C178
  5
1C178
331
1C1D5
  5
1C1D5
331
1C20B
  5
1C20B
331
1C2E6
  5
1C2E6
331
1CAB9
  5
1CAB9
331
1CA64
  5
1CA64
331
1CA83
  5
1CA83
331
1CA2E
  5
1CA2E
331
1CA45
  5
1CA45
331
1C9D0
  5
1C9D0
331
1C50B
  5
1C50B
331
1C4CD
  5
1C4CD
331
1C280
  5
1C280
331
1C2E7
  5
1C2E7
331
1C24A
  5
1C24A
331
1C261
  5
1C261
331
1C4EC
  5
1C4EC
331
1C982
  5
1C982
331
1C20C
  5
1C20C
331
1C22B
  5
1C22B
331
1C1D6
  5
1C1D6
331
1C179
  5
1C179
331
1C198
  5
1C198
331
1C1B7
  5
1C1B7
331
1C1ED
  5
1C1ED
331
1C9EF
  5
1C9EF
331
1CABA
  5
1CABA
331
1CA84
  5
1CA84
331
1CAA3
  5
1CAA3
331
1CA46
  5
1CA46
331
1CA65
  5
1CA65
331
1C9D1
  5
1C9D1
331
1C983
  5
1C983
331
1C9F0
  5
1C9F0
331
1C50C
  5
1C50C
331
1C4CE
  5
1C4CE
331
1CA2F
  5
1CA2F
331
1CBD0
  5
1CBD0
331
1C262
  5
1C262
331
1C281
  5
1C281
331
1C22C
  5
1C22C
331
1C24B
  5
1C24B
331
1C1EE
  5
1C1EE
331
1C199
  5
1C199
331
1C1B8
  5
1C1B8
331
1C17A
  5
1C17A
331
1C1D7
  5
1C1D7
331
1C20D
  5
1C20D
331
1C490
  5
1C490
331
1CBD1
  5
1CBD1
331
1CAA4
  5
1CAA4
331
1CABB
  5
1CABB
331
1CA66
  5
1CA66
331
1CA85
  5
1CA85
331
1CBF0
  5
1CBF0
331
1C9F1
  5
1C9F1
331
1C9B3
  5
1C9B3
331
1C9D2
  5
1C9D2
331
1C50D
  5
1C50D
331
1C4CF
  5
1C4CF
331
1C984
  5
1C984
331
1C282
  5
1C282
331
1C491
  5
1C491
331
1C24C
  5
1C24C
331
1C263
  5
1C263
331
1C1B9
  5
1C1B9
331
1C1EF
  5
1C1EF
331
1C20E
  5
1C20E
331
1C17B
  5
1C17B
331
1C19A
  5
1C19A
331
1C22D
  5
1C22D
331
1C4B8
  5
1C4B8
331
1CA47
  5
1CA47
331
1CBF1
  5
1CBF1
331
1CFB8
  5
1CFB8
331
1CABC
  5
1CABC
331
1CAA5
  5
1CAA5
331
1CA48
  5
1CA48
331
1C9D3
  5
1C9D3
331
1C9F2
  5
1C9F2
331
1C985
  5
1C985
331
1C50E
  5
1C50E
331
1C9B4
  5
1C9B4
331
1C492
  5
1C492
331
1C264
  5
1C264
331
1C283
  5
1C283
331
1C22E
  5
1C22E
331
1C24D
  5
1C24D
331
1C4D0
  5
1C4D0
331
1CA67
  5
1CA67
331
1C19B
  5
1C19B
331
1C1BA
  5
1C1BA
331
1C1F0
  5
1C1F0
331
1C17C
  5
1C17C
331
1C20F
  5
1C20F
331
1CBD2
  5
1CBD2
331
1CFB9
  5
1CFB9
331
1CFD8
  5
1CFD8
331
1CBD3
  5
1CBD3
331
1CAA6
  5
1CAA6
331
1CABD
  5
1CABD
331
1CA49
  5
1CA49
331
1C9F3
  5
1C9F3
331
1CA68
  5
1CA68
331
1C9B5
  5
1C9B5
331
1C9D4
  5
1C9D4
331
1C50F
  5
1C50F
331
1C4D1
  5
1C4D1
331
1C4F0
  5
1C4F0
331
1C986
  5
1C986
331
1CA87
  5
1CA87
331
1CBF2
  5
1CBF2
331
1C284
  5
1C284
331
1C493
  5
1C493
331
1C24E
  5
1C24E
331
1C265
  5
1C265
331
1C1BB
  5
1C1BB
331
1C1F1
  5
1C1F1
331
1C210
  5
1C210
331
1C17D
  5
1C17D
331
1C19C
  5
1C19C
331
1C22F
  5
1C22F
331
1C4BA
  5
1C4BA
331
1CFD9
  5
1CFD9
331
1CFF8
  5
1CFF8
331
1CBD4
  5
1CBD4
331
1CABE
  5
1CABE
331
1CBF3
  5
1CBF3
331
1CA88
  5
1CA88
331
1CAA7
  5
1CAA7
331
1CFBA
  5
1CFBA
331
1C9D5
  5
1C9D5
331
1CA4A
  5
1CA4A
331
1C4F1
  5
1C4F1
331
1C987
  5
1C987
331
1C9B6
  5
1C9B6
331
1C4BB
  5
1C4BB
331
1C266
  5
1C266
331
1C285
  5
1C285
331
1C211
  5
1C211
331
1C230
  5
1C230
331
1C19D
  5
1C19D
331
1C1BC
  5
1C1BC
331
1C1F2
  5
1C1F2
331
1C17E
  5
1C17E
331
1C24F
  5
1C24F
331
1C4D2
  5
1C4D2
331
1CA69
  5
1CA69
331
1CFF9
  5
1CFF9
331
1D018
  5
1D018
331
1CFBB
  5
1CFBB
331
1CFDA
  5
1CFDA
331
1CBB6
  5
1CBB6
331
1CBD5
  5
1CBD5
331
1CAA8
  5
1CAA8
331
1CABF
  5
1CABF
331
1CA4B
  5
1CA4B
331
1CA6A
  5
1CA6A
331
1C988
  5
1C988
331
1C9B7
  5
1C9B7
331
1C9D6
  5
1C9D6
331
1C286
  5
1C286
331
1C4D3
  5
1C4D3
331
1C267
  5
1C267
331
1C4F2
  5
1C4F2
331
1CA89
  5
1CA89
331
1C1BD
  5
1C1BD
331
1C1F3
  5
1C1F3
331
1C212
  5
1C212
331
1C17F
  5
1C17F
331
1C19E
  5
1C19E
331
1C231
  5
1C231
331
1CBF4
  5
1CBF4
331
1D019
  5
1D019
331
1D030
  5
1D030
331
1CFDB
  5
1CFDB
331
1CFFA
  5
1CFFA
331
1CBD6
  5
1CBD6
331
1CBF5
  5
1CBF5
331
1CAC0
  5
1CAC0
331
1CBB7
  5
1CBB7
331
1CA8A
  5
1CA8A
331
1C9D7
  5
1C9D7
331
1CA4C
  5
1CA4C
331
1C4F3
  5
1C4F3
331
1C989
  5
1C989
331
1C9B8
  5
1C9B8
331
1CAA9
  5
1CAA9
331
1CFBC
  5
1CFBC
331
1C4BD
  5
1C4BD
331
1C268
  5
1C268
331
1C213
  5
1C213
331
1C232
  5
1C232
331
1C19F
  5
1C19F
331
1C1BE
  5
1C1BE
331
1C1F4
  5
1C1F4
331
1C287
  5
1C287
331
1C4D4
  5
1C4D4
331
1D031
  5
1D031
331
1D050
  5
1D050
331
1CFFB
  5
1CFFB
331
1D01A
  5
1D01A
331
1CBF6
  5
1CBF6
331
1CFBD
  5
1CFBD
331
1CBB8
  5
1CBB8
331
1CBD7
  5
1CBD7
331
1CAAA
  5
1CAAA
331
1CAC1
  5
1CAC1
331
1CFDC
  5
1CFDC
331
1CA4D
  5
1CA4D
331
1CA6C
  5
1CA6C
331
1CA36
  5
1CA36
331
1C98A
  5
1C98A
331
1C9B9
  5
1C9B9
331
1C9D8
  5
1C9D8
331
1C4D5
  5
1C4D5
331
1C233
  5
1C233
331
1C1BF
  5
1C1BF
331
1C1F5
  5
1C1F5
331
1C214
  5
1C214
331
1C269
  5
1C269
331
1C4F4
  5
1C4F4
331
1CA8B
  5
1CA8B
331
1D051
  5
1D051
331
1D01B
  5
1D01B
331
1D032
  5
1D032
331
1CFDD
  5
1CFDD
331
1CFFC
  5
1CFFC
331
1CBD8
  5
1CBD8
331
1CBF7
  5
1CBF7
331
1CAC2
  5
1CAC2
331
1CBB9
  5
1CBB9
331
1CA6D
  5
1CA6D
331
1CA8C
  5
1CA8C
331
1CA37
  5
1CA37
331
1C9D9
  5
1C9D9
331
1CA4E
  5
1CA4E
331
1C4D6
  5
1C4D6
331
1C26A
  5
1C26A
331
1C4F5
  5
1C4F5
331
1C215
  5
1C215
331
1C234
  5
1C234
331
1C1F6
  5
1C1F6
331
1C98B
  5
1C98B
331
1C9BA
  5
1C9BA
331
1CAAB
  5
1CAAB
331
1CFBE
  5
1CFBE
331
1D3C8
  5
1D3C8
331
1D033
  5
1D033
331
1D052
  5
1D052
331
1CFFD
  5
1CFFD
331
1D01C
  5
1D01C
331
1CBF8
  5
1CBF8
331
1CFBF
  5
1CFBF
331
1CBBA
  5
1CBBA
331
1CBD9
  5
1CBD9
331
1CA8D
  5
1CA8D
331
1CAAC
  5
1CAAC
331
1CA38
  5
1CA38
331
1CA4F
  5
1CA4F
331
1CA6E
  5
1CA6E
331
1C98C
  5
1C98C
331
1C805
  5
1C805
331
1C9BB
  5
1C9BB
331
1C9DA
  5
1C9DA
331
1CAC3
  5
1CAC3
331
1CFDE
  5
1CFDE
331
1C4D7
  5
1C4D7
331
1C235
  5
1C235
331
1C1F7
  5
1C1F7
331
1C216
  5
1C216
331
1C26B
  5
1C26B
331
1C4F6
  5
1C4F6
331
1D053
  5
1D053
331
1D01D
  5
1D01D
331
1D034
  5
1D034
331
1D3C9
  5
1D3C9
331
1D3E0
  5
1D3E0
331
1CFC0
  5
1CFC0
331
1CFDF
  5
1CFDF
331
1CBDA
  5
1CBDA
331
1CBF9
  5
1CBF9
331
1CAC4
  5
1CAC4
331
1CBBB
  5
1CBBB
331
1CFFE
  5
1CFFE
331
1CA6F
  5
1CA6F
331
1CA8E
  5
1CA8E
331
1C9DB
  5
1C9DB
331
1CA39
  5
1CA39
331
1CA50
  5
1CA50
331
1C98D
  5
1C98D
331
1C4D8
  5
1C4D8
331
1C4F7
  5
1C4F7
331
1C26C
  5
1C26C
331
1C217
  5
1C217
331
1C236
  5
1C236
331
1C2D3
  5
1C2D3
331
1C806
  5
1C806
331
1C9BC
  5
1C9BC
331
1CAAD
  5
1CAAD
331
1D3CA
  5
1D3CA
331
1D3E1
  5
1D3E1
331
1D035
  5
1D035
331
1D054
  5
1D054
331
1D400
  5
1D400
331
1CFFF
  5
1CFFF
331
1D01E
  5
1D01E
331
1CBFA
  5
1CBFA
331
1CFC1
  5
1CFC1
331
1CBBC
  5
1CBBC
331
1CBDB
  5
1CBDB
331
1CA8F
  5
1CA8F
331
1CAAE
  5
1CAAE
331
1CA3A
  5
1CA3A
331
1CA51
  5
1CA51
331
1CA70
  5
1CA70
331
1C4F8
  5
1C4F8
331
1C98E
  5
1C98E
331
1C9BD
  5
1C9BD
331
1C2D4
  5
1C2D4
331
1C4D9
  5
1C4D9
331
1C9DC
  5
1C9DC
331
1CAC5
  5
1CAC5
331
1C237
  5
1C237
331
1C26D
  5
1C26D
331
1CFE0
  5
1CFE0
331
1D401
  5
1D401
331
1D500
  5
1D500
331
1D055
  5
1D055
331
1D01F
  5
1D01F
331
1D036
  5
1D036
331
1D3CB
  5
1D3CB
331
1D3E2
  5
1D3E2
331
1CFC2
  5
1CFC2
331
1CFE1
  5
1CFE1
331
1CBDC
  5
1CBDC
331
1CBFB
  5
1CBFB
331
1CAAF
  5
1CAAF
331
1CAC6
  5
1CAC6
331
1CA71
  5
1CA71
331
1CA90
  5
1CA90
331
1C9BE
  5
1C9BE
331
1C970
  5
1C970
331
1C9DD
  5
1C9DD
331
1C4DA
  5
1C4DA
331
1C4A4
  5
1C4A4
331
1C4F9
  5
1C4F9
331
1CA3B
  5
1CA3B
331
1CBBD
  5
1CBBD
331
1C26E
  5
1C26E
331
1C2D5
  5
1C2D5
331
1D000
  5
1D000
331
1D501
  5
1D501
331
1D037
  5
1D037
331
1D3CC
  5
1D3CC
331
1D3E3
  5
1D3E3
331
1D402
  5
1D402
331
1CFE2
  5
1CFE2
331
1D001
  5
1D001
331
1CBFC
  5
1CBFC
331
1CFC3
  5
1CFC3
331
1CBBE
  5
1CBBE
331
1CBDD
  5
1CBDD
331
1D020
  5
1D020
331
1D520
  5
1D520
331
1CA91
  5
1CA91
331
1CA3C
  5
1CA3C
331
1CA53
  5
1CA53
331
1CA72
  5
1CA72
331
1CAB0
  5
1CAB0
331
1C4FA
  5
1C4FA
331
1C9BF
  5
1C9BF
331
1C4DB
  5
1C4DB
331
1C26F
  5
1C26F
331
1C2D6
  5
1C2D6
331
1C4A5
  5
1C4A5
331
1C9DE
  5
1C9DE
331
1CAC7
  5
1CAC7
331
1D521
  5
1D521
331
1D538
  5
1D538
331
1D403
  5
1D403
331
1D502
  5
1D502
331
1D057
  5
1D057
331
1D021
  5
1D021
331
1D038
  5
1D038
331
1D3CD
  5
1D3CD
331
1D3E4
  5
1D3E4
331
1CFC4
  5
1CFC4
331
1CFE3
  5
1CFE3
331
1CBDE
  5
1CBDE
331
1CBFD
  5
1CBFD
331
1CAB1
  5
1CAB1
331
1CAC8
  5
1CAC8
331
1CA73
  5
1CA73
331
1CA92
  5
1CA92
331
1CA3D
  5
1CA3D
331
1C9C0
  5
1C9C0
331
1C4DC
  5
1C4DC
331
1C4FB
  5
1C4FB
331
1CA06
  5
1CA06
331
1CBBF
  5
1CBBF
331
1C2D7
  5
1C2D7
331
1D002
  5
1D002
331
1D539
  5
1D539
331
1D5C0
  5
1D5C0
331
1D503
  5
1D503
331
1D077
  5
1D077
331
1D3CE
  5
1D3CE
331
1D3E5
  5
1D3E5
331
1D039
  5
1D039
331
1CFE4
  5
1CFE4
331
1D003
  5
1D003
331
1CFC5
  5
1CFC5
331
1D058
  5
1D058
331
1CAC9
  5
1CAC9
331
1CBC0
  5
1CBC0
331
1CBDF
  5
1CBDF
331
1CA93
  5
1CA93
331
1C4FC
  5
1C4FC
331
1CA3E
  5
1CA3E
331
1C4DD
  5
1C4DD
331
1CA74
  5
1CA74
331
1CAB2
  5
1CAB2
331
1D404
  5
1D404
331
1D522
  5
1D522
331
1D5C1
  5
1D5C1
331
1D5E0
  5
1D5E0
331
1D523
  5
1D523
331
1D53A
  5
1D53A
331
1D3E6
  5
1D3E6
331
1D405
  5
1D405
331
1D504
  5
1D504
331
1D059
  5
1D059
331
1D078
  5
1D078
331
1D004
  5
1D004
331
1D023
  5
1D023
331
1CFC6
  5
1CFC6
331
1CBE0
  5
1CBE0
331
1CFE5
  5
1CFE5
331
1D03A
  5
1D03A
331
1D3CF
  5
1D3CF
331
1CAB3
  5
1CAB3
331
1CACA
  5
1CACA
331
1CA75
  5
1CA75
331
1CA94
  5
1CA94
331
1CA3F
  5
1CA3F
331
1CA56
  5
1CA56
331
1CBC1
  5
1CBC1
331
1C4DE
  5
1C4DE
331
1C4FD
  5
1C4FD
331
1CA08
  5
1CA08
331
1D5E1
  5
1D5E1
331
1D524
  5
1D524
331
1D53B
  5
1D53B
331
1D505
  5
1D505
331
1D5C2
  5
1D5C2
331
1D600
  5
1D600
331
1D079
  5
1D079
331
1D3D0
  5
1D3D0
331
1D3E7
  5
1D3E7
331
1D03B
  5
1D03B
331
1D05A
  5
1D05A
331
1D406
  5
1D406
331
1CFE6
  5
1CFE6
331
1D005
  5
1D005
331
1CFC7
  5
1CFC7
331
1CACB
  5
1CACB
331
1CBC2
  5
1CBC2
331
1CBE1
  5
1CBE1
331
1CA95
  5
1CA95
331
1C4FE
  5
1C4FE
331
1CA57
  5
1CA57
331
1C4DF
  5
1C4DF
331
1CA76
  5
1CA76
331
1CAB4
  5
1CAB4
331
1D024
  5
1D024
331
1D601
  5
1D601
331
1D618
  5
1D618
331
1D5C3
  5
1D5C3
331
1D5E2
  5
1D5E2
331
1D525
  5
1D525
331
1D53C
  5
1D53C
331
1D3E8
  5
1D3E8
331
1D407
  5
1D407
331
1D506
  5
1D506
331
1D05B
  5
1D05B
331
1D07A
  5
1D07A
331
1D006
  5
1D006
331
1D025
  5
1D025
331
1CFC8
  5
1CFC8
331
1CBC3
  5
1CBC3
331
1CBE2
  5
1CBE2
331
1CAB5
  5
1CAB5
331
1CACC
  5
1CACC
331
1CFE7
  5
1CFE7
331
1CA77
  5
1CA77
331
1CA96
  5
1CA96
331
1D03C
  5
1D03C
331
1D3D1
  5
1D3D1
331
1CA0A
  5
1CA0A
331
1C9C4
  5
1C9C4
331
1C4FF
  5
1C4FF
331
1CA58
  5
1CA58
331
1D5E3
  5
1D5E3
331
1D526
  5
1D526
331
1D53D
  5
1D53D
331
1D408
  5
1D408
331
1D507
  5
1D507
331
1D3D2
  5
1D3D2
331
1D3E9
  5
1D3E9
331
1D5C4
  5
1D5C4
331
1D602
  5
1D602
331
1D026
  5
1D026
331
1D03D
  5
1D03D
331
1CFE8
  5
1CFE8
331
1D007
  5
1D007
331
1CFB2
  5
1CFB2
331
1CFC9
  5
1CFC9
331
1D05C
  5
1D05C
331
1D619
  5
1D619
331
1CACD
  5
1CACD
331
1CBC4
  5
1CBC4
331
1CBE3
  5
1CBE3
331
1CA97
  5
1CA97
331
1CA59
  5
1CA59
331
1C9C5
  5
1C9C5
331
1C977
  5
1C977
331
1CA78
  5
1CA78
331
1CAB6
  5
1CAB6
331
1D698
  5
1D698
331
1D603
  5
1D603
331
1D61A
  5
1D61A
331
1D5C5
  5
1D5C5
331
1D5E4
  5
1D5E4
331
1D527
  5
1D527
331
1D53E
  5
1D53E
331
1D3EA
  5
1D3EA
331
1D409
  5
1D409
331
1D05D
  5
1D05D
331
1D008
  5
1D008
331
1D027
  5
1D027
331
1CFB3
  5
1CFB3
331
1CFCA
  5
1CFCA
331
1CBC5
  5
1CBC5
331
1CBE4
  5
1CBE4
331
1CAB7
  5
1CAB7
331
1CACE
  5
1CACE
331
1CFE9
  5
1CFE9
331
1CA79
  5
1CA79
331
1C9C6
  5
1C9C6
331
1C9E5
  5
1C9E5
331
1CA98
  5
1CA98
331
1D03E
  5
1D03E
331
1D3D3
  5
1D3D3
331
1D508
  5
1D508
331
1D6C0
  5
1D6C0
331
1D699
  5
1D699
331
1D5E5
  5
1D5E5
331
1D528
  5
1D528
331
1D53F
  5
1D53F
331
1D40A
  5
1D40A
331
1D509
  5
1D509
331
1D3D4
  5
1D3D4
331
1D3EB
  5
1D3EB
331
1D5C6
  5
1D5C6
331
1D604
  5
1D604
331
1D028
  5
1D028
331
1CFEA
  5
1CFEA
331
1D009
  5
1D009
331
1CBE5
  5
1CBE5
331
1CACF
  5
1CACF
331
1C9E6
  5
1C9E6
331
1CA99
  5
1CA99
331
1CBC6
  5
1CBC6
331
1CFB4
  5
1CFB4
331
1C9C7
  5
1C9C7
331
1CFCB
  5
1CFCB
331
1D05E
  5
1D05E
331
1D61B
  5
1D61B
  0
SORTENTSTABLE
  5
1D632
102
{ACAD_REACTORS
330
1D631
102
}
330
1D631
100
AcDbSortentsTable
330
1D61C
  0
DIMASSOC
  5
1D764
102
{ACAD_REACTORS
330
1D75C
102
}
330
1D75C
100
AcDbDimAssoc
330
1D751
 90
        3
 70
     0
 71
     0
  1
AcDbOsnapPointRef
 72
    13
331
1D732
 73
     2
 91
        0
 40
0.0
 10
0.0
 20
0.0
 30
2.000000000000000E+50
 75
     0
  1
AcDbOsnapPointRef
 72
     1
331
1D739
 73
     2
 91
        0
 40
1.0
 10
0.0
 20
0.0
 30
2.000000000000000E+50
 75
     0
  0
DIMASSOC
  5
1D7DF
102
{ACAD_REACTORS
330
1D7D7
102
}
330
1D7D7
100
AcDbDimAssoc
330
1D7CC
 90
        1
 70
     0
 71
     0
  1
AcDbOsnapPointRef
 72
    13
331
1D783
 73
     2
 91
        0
 40
0.0
 10
0.0
 20
0.0
 30
2.000000000000000E+50
 75
     0
  0
LAYOUT
  5
1E
102
{ACAD_XDICTIONARY
360
7D4
102
}
102
{ACAD_REACTORS
330
1A
102
}
330
1A
100
AcDbPlotSettings
  1

  2
Bullzip PDF Printer
  4
A3
  6

 40
3.174999952316284
 41
3.174999952316284
 42
3.17498779296875
 43
3.17498779296875
 44
297.0530090332031
 45
420.1583251953125
 46
0.0
 47
0.0
 48
6.561544945354853
 49
3.282189374834842
140
416.7133315898103
141
290.5875349075164
142
1.0
143
1.0
 70
   672
 72
     1
 73
     1
 74
     4
  7
monochrome.ctb
 75
    16
147
25.4
 76
     0
 77
     2
 78
   300
148
-6.561544945354853
149
-3.282189374834842
100
AcDbLayout
  1
Layout1
 70
     0
 71
     1
 10
3.386557152386103
 20
0.1071894225185588
 11
423.5448823476986
 21
297.1601984557217
 12
0.0
 22
0.0
 32
0.0
 14
6.561544945354853
 24
3.282189374834842
 34
0.0
 15
416.7133315898103
 25
290.5875349075164
 35
0.0
146
0.0
 13
0.0
 23
0.0
 33
0.0
 16
1.0
 26
0.0
 36
0.0
 17
0.0
 27
1.0
 37
0.0
 76
     0
330
1B
331
7CA
1001
ACAD_PSEXT
1000
Bullzip PDF Printer
1000
Bullzip PDF Printer
1000
BULLZIP
1000
Bullzip PDF Printer 7.2.0.1338
1070
     0
  0
LAYOUT
  5
22
102
{ACAD_REACTORS
330
1A
102
}
330
1A
100
AcDbPlotSettings
  1

  2
none_device
  4
Letter_(8.50_x_11.00_Inches)
  6

 40
6.349999904632568
 41
6.349999904632568
 42
6.350006103515625
 43
6.350006103515625
 44
215.8999938964844
 45
279.3999938964844
 46
0.0
 47
0.0
 48
0.0
 49
0.0
140
0.0
141
0.0
142
1.0
143
2.824612446927791
 70
 11952
 72
     0
 73
     1
 74
     0
  7

 75
     0
147
0.3540308692924073
 76
     0
 77
     2
 78
   300
148
305.9332761721584
149
-207.5229728516102
100
AcDbLayout
  1
Model
 70
     1
 71
     0
 10
0.0
 20
0.0
 11
12.0
 21
9.0
 12
0.0
 22
0.0
 32
0.0
 14
1.000000000000000E+20
 24
1.000000000000000E+20
 34
1.000000000000000E+20
 15
-1.000000000000000E+20
 25
-1.000000000000000E+20
 35
-1.000000000000000E+20
146
0.0
 13
0.0
 23
0.0
 33
0.0
 16
1.0
 26
0.0
 36
0.0
 17
0.0
 27
1.0
 37
0.0
 76
     0
330
1F
331
29
1001
ACAD_PSEXT
1000
Brak
1000
Brak
1000
Nie można zastosować.
1000
Arkusz nie zostanie wydrukowany dopóki nie wybrano konfiguracji plotera.
1070
     0
  0
MATERIAL
  5
3D
102
{ACAD_XDICTIONARY
360
1D832
102
}
102
{ACAD_REACTORS
330
3B
102
}
330
3B
100
AcDbMaterial
  1
ByBlock
 73
     1
 78
     1
172
     1
176
     1
270
     1
274
     1
  0
MATERIAL
  5
3C
102
{ACAD_XDICTIONARY
360
1D830
102
}
102
{ACAD_REACTORS
330
3B
102
}
330
3B
100
AcDbMaterial
  1
ByLayer
 73
     1
 78
     1
172
     1
176
     1
270
     1
274
     1
  0
MATERIAL
  5
3E
102
{ACAD_XDICTIONARY
360
1D834
102
}
102
{ACAD_REACTORS
330
3B
102
}
330
3B
100
AcDbMaterial
  1
Global
 73
     1
 78
     1
172
     1
176
     1
270
     1
274
     1
  0
MLEADERSTYLE
  5
10545
102
{ACAD_REACTORS
330
489
102
}
330
489
100
AcDbMLeaderStyle
170
     2
171
     1
172
     0
 90
        2
 40
0.0
 41
0.0
173
     1
 91
-1056964608
340
14
 92
       -2
290
     1
 42
0.09
291
     1
 43
0.36
  3
Standard
 44
0.18
300

342
11
174
     1
178
     6
175
     1
176
     0
 93
-1056964608
 45
0.18
292
     0
297
     0
 46
0.18
 94
-1056964608
 47
1.0
 49
1.0
140
1.0
293
     1
141
0.0
294
     1
177
     0
142
1.0
295
     0
296
     0
143
0.125
1001
ACAD_MLEADERVER
1070
     2
  0
MLINESTYLE
  5
18
102
{ACAD_REACTORS
330
17
102
}
330
17
100
AcDbMlineStyle
  2
STANDARD
 70
     0
  3

 62
   256
 51
90.0
 52
90.0
 71
     2
 49
0.5
 62
   256
  6
BYLAYER
 49
-0.5
 62
   256
  6
BYLAYER
  0
ACDBPLACEHOLDER
  5
F
102
{ACAD_REACTORS
330
E
102
}
330
E
  0
SCALE
  5
10524
102
{ACAD_REACTORS
330
10523
102
}
330
10523
100
AcDbScale
 70
     0
300
1:1
140
1.0
141
1.0
290
     1
  0
SCALE
  5
10525
102
{ACAD_REACTORS
330
10523
102
}
330
10523
100
AcDbScale
 70
     0
300
1:2
140
1.0
141
2.0
290
     0
  0
SCALE
  5
10526
102
{ACAD_REACTORS
330
10523
102
}
330
10523
100
AcDbScale
 70
     0
300
1:4
140
1.0
141
4.0
290
     0
  0
SCALE
  5
10527
102
{ACAD_REACTORS
330
10523
102
}
330
10523
100
AcDbScale
 70
     0
300
1:5
140
1.0
141
5.0
290
     0
  0
SCALE
  5
10528
102
{ACAD_REACTORS
330
10523
102
}
330
10523
100
AcDbScale
 70
     0
300
1:8
140
1.0
141
8.0
290
     0
  0
SCALE
  5
10529
102
{ACAD_REACTORS
330
10523
102
}
330
10523
100
AcDbScale
 70
     0
300
1:10
140
1.0
141
10.0
290
     0
  0
SCALE
  5
1052A
102
{ACAD_REACTORS
330
10523
102
}
330
10523
100
AcDbScale
 70
     0
300
1:16
140
1.0
141
16.0
290
     0
  0
SCALE
  5
1052B
102
{ACAD_REACTORS
330
10523
102
}
330
10523
100
AcDbScale
 70
     0
300
1:20
140
1.0
141
20.0
290
     0
  0
SCALE
  5
1052C
102
{ACAD_REACTORS
330
10523
102
}
330
10523
100
AcDbScale
 70
     0
300
1:30
140
1.0
141
30.0
290
     0
  0
SCALE
  5
1052D
102
{ACAD_REACTORS
330
10523
102
}
330
10523
100
AcDbScale
 70
     0
300
1:40
140
1.0
141
40.0
290
     0
  0
SCALE
  5
1052E
102
{ACAD_REACTORS
330
10523
102
}
330
10523
100
AcDbScale
 70
     0
300
1:50
140
1.0
141
50.0
290
     0
  0
SCALE
  5
1052F
102
{ACAD_REACTORS
330
10523
102
}
330
10523
100
AcDbScale
 70
     0
300
1:100
140
1.0
141
100.0
290
     0
  0
SCALE
  5
10530
102
{ACAD_REACTORS
330
10523
102
}
330
10523
100
AcDbScale
 70
     0
300
2:1
140
2.0
141
1.0
290
     0
  0
SCALE
  5
10531
102
{ACAD_REACTORS
330
10523
102
}
330
10523
100
AcDbScale
 70
     0
300
4:1
140
4.0
141
1.0
290
     0
  0
SCALE
  5
10532
102
{ACAD_REACTORS
330
10523
102
}
330
10523
100
AcDbScale
 70
     0
300
8:1
140
8.0
141
1.0
290
     0
  0
SCALE
  5
10533
102
{ACAD_REACTORS
330
10523
102
}
330
10523
100
AcDbScale
 70
     0
300
10:1
140
10.0
141
1.0
290
     0
  0
SCALE
  5
10534
102
{ACAD_REACTORS
330
10523
102
}
330
10523
100
AcDbScale
 70
     0
300
100:1
140
100.0
141
1.0
290
     0
  0
SCALE
  5
10535
102
{ACAD_REACTORS
330
10523
102
}
330
10523
100
AcDbScale
 70
     0
300
1/128" = 1'-0"
140
0.0078125
141
12.0
290
     0
  0
SCALE
  5
10536
102
{ACAD_REACTORS
330
10523
102
}
330
10523
100
AcDbScale
 70
     0
300
1/64" = 1'-0"
140
0.015625
141
12.0
290
     0
  0
SCALE
  5
10537
102
{ACAD_REACTORS
330
10523
102
}
330
10523
100
AcDbScale
 70
     0
300
1/32" = 1'-0"
140
0.03125
141
12.0
290
     0
  0
SCALE
  5
10538
102
{ACAD_REACTORS
330
10523
102
}
330
10523
100
AcDbScale
 70
     0
300
1/16" = 1'-0"
140
0.0625
141
12.0
290
     0
  0
SCALE
  5
10539
102
{ACAD_REACTORS
330
10523
102
}
330
10523
100
AcDbScale
 70
     0
300
3/32" = 1'-0"
140
0.09375
141
12.0
290
     0
  0
SCALE
  5
1053A
102
{ACAD_REACTORS
330
10523
102
}
330
10523
100
AcDbScale
 70
     0
300
1/8" = 1'-0"
140
0.125
141
12.0
290
     0
  0
SCALE
  5
1053B
102
{ACAD_REACTORS
330
10523
102
}
330
10523
100
AcDbScale
 70
     0
300
3/16" = 1'-0"
140
0.1875
141
12.0
290
     0
  0
SCALE
  5
1053C
102
{ACAD_REACTORS
330
10523
102
}
330
10523
100
AcDbScale
 70
     0
300
1/4" = 1'-0"
140
0.25
141
12.0
290
     0
  0
SCALE
  5
1053D
102
{ACAD_REACTORS
330
10523
102
}
330
10523
100
AcDbScale
 70
     0
300
3/8" = 1'-0"
140
0.375
141
12.0
290
     0
  0
SCALE
  5
1053E
102
{ACAD_REACTORS
330
10523
102
}
330
10523
100
AcDbScale
 70
     0
300
1/2" = 1'-0"
140
0.5
141
12.0
290
     0
  0
SCALE
  5
1053F
102
{ACAD_REACTORS
330
10523
102
}
330
10523
100
AcDbScale
 70
     0
300
3/4" = 1'-0"
140
0.75
141
12.0
290
     0
  0
SCALE
  5
10540
102
{ACAD_REACTORS
330
10523
102
}
330
10523
100
AcDbScale
 70
     0
300
1" = 1'-0"
140
1.0
141
12.0
290
     0
  0
SCALE
  5
10541
102
{ACAD_REACTORS
330
10523
102
}
330
10523
100
AcDbScale
 70
     0
300
1-1/2" = 1'-0"
140
1.5
141
12.0
290
     0
  0
SCALE
  5
10542
102
{ACAD_REACTORS
330
10523
102
}
330
10523
100
AcDbScale
 70
     0
300
3" = 1'-0"
140
3.0
141
12.0
290
     0
  0
SCALE
  5
10543
102
{ACAD_REACTORS
330
10523
102
}
330
10523
100
AcDbScale
 70
     0
300
6" = 1'-0"
140
6.0
141
12.0
290
     0
  0
SCALE
  5
10544
102
{ACAD_REACTORS
330
10523
102
}
330
10523
100
AcDbScale
 70
     0
300
1'-0" = 1'-0"
140
12.0
141
12.0
290
     0
  0
TABLESTYLE
  5
4BB
102
{ACAD_XDICTIONARY
360
1055A
102
}
102
{ACAD_REACTORS
330
4BA
102
}
330
4BA
100
AcDbTableStyle
  3
Standard
 70
     0
 71
     0
 40
0.06
 41
0.06
280
     0
281
     0
  7
Standard
140
0.18
170
     2
 62
     0
 63
     7
283
     0
274
    -2
284
     1
 64
     0
275
    -2
285
     1
 65
     0
276
    -2
286
     1
 66
     0
277
    -2
287
     1
 67
     0
278
    -2
288
     1
 68
     0
279
    -2
289
     1
 69
     0
  7
Standard
140
0.25
170
     5
 62
     0
 63
     7
283
     0
274
    -2
284
     1
 64
     0
275
    -2
285
     1
 65
     0
276
    -2
286
     1
 66
     0
277
    -2
287
     1
 67
     0
278
    -2
288
     1
 68
     0
279
    -2
289
     1
 69
     0
  7
Standard
140
0.18
170
     5
 62
     0
 63
     7
283
     0
274
    -2
284
     1
 64
     0
275
    -2
285
     1
 65
     0
276
    -2
286
     1
 66
     0
277
    -2
287
     1
 67
     0
278
    -2
288
     1
 68
     0
279
    -2
289
     1
 69
     0
  0
VISUALSTYLE
  5
2F
102
{ACAD_XDICTIONARY
360
49A
102
}
102
{ACAD_REACTORS
330
2A
102
}
330
2A
100
AcDbVisualStyle
  2
2dWireframe
 70
     4
 71
     0
 72
     2
 73
     0
 90
        0
 40
-0.6
 41
-30.0
 62
     5
 63
     7
 74
     1
 91
        4
 64
     7
 65
   257
 75
     1
175
     1
 42
1.0
 92
        0
 66
   257
 43
1.0
 76
     1
 77
     6
 78
     2
 67
     7
 79
     5
170
     0
171
     0
290
     0
174
     0
 93
        1
 44
0.0
173
     0
291
     0
 45
0.0
1001
ACAD
1000
AcDbSavedByObjectVersion
1070
     0
  0
VISUALSTYLE
  5
A47
102
{ACAD_REACTORS
330
2A
102
}
330
2A
100
AcDbVisualStyle
  2
3D Hidden
 70
     6
 71
     1
 72
     2
 73
     2
 90
        0
 40
-0.6
 41
-30.0
 62
     5
 63
     7
 74
     2
 91
        2
 64
     7
 65
   257
 75
     2
175
     1
 42
40.0
 92
        0
 66
   257
 43
1.0
 76
     1
 77
     6
 78
     2
 67
     7
 79
     3
170
     0
171
     0
290
     0
174
     0
 93
        1
 44
0.0
173
     0
291
     0
 45
0.0
1001
ACAD
1000
AcDbSavedByObjectVersion
1070
     0
  0
VISUALSTYLE
  5
A48
102
{ACAD_XDICTIONARY
360
A49
102
}
102
{ACAD_REACTORS
330
2A
102
}
330
2A
100
AcDbVisualStyle
  2
3dWireframe
 70
     5
 71
     0
 72
     2
 73
     0
 90
        0
 40
-0.6
 41
-30.0
 62
     5
 63
     7
 74
     1
 91
        4
 64
     7
 65
   257
 75
     1
175
     1
 42
1.0
 92
        0
 66
   257
 43
1.0
 76
     1
 77
     6
 78
     2
 67
     7
 79
     5
170
     0
171
     0
290
     0
174
     0
 93
        1
 44
0.0
173
     0
291
     0
 45
0.0
1001
ACAD
1000
AcDbSavedByObjectVersion
1070
     0
  0
VISUALSTYLE
  5
32
102
{ACAD_XDICTIONARY
360
4A0
102
}
102
{ACAD_REACTORS
330
2A
102
}
330
2A
100
AcDbVisualStyle
  2
Basic
 70
     7
 71
     1
 72
     0
 73
     1
 90
        0
 40
-0.6
 41
-30.0
 62
     5
 63
     7
 74
     0
 91
        4
 64
     7
 65
   257
 75
     1
175
     1
 42
1.0
 92
        8
 66
     7
 43
1.0
 76
     1
 77
     6
 78
     2
 67
     7
 79
     5
170
     0
171
     0
290
     0
174
     0
 93
        1
 44
0.0
173
     0
291
     1
 45
0.0
1001
ACAD
1000
AcDbSavedByObjectVersion
1070
     0
  0
VISUALSTYLE
  5
36
102
{ACAD_XDICTIONARY
360
4A8
102
}
102
{ACAD_REACTORS
330
2A
102
}
330
2A
100
AcDbVisualStyle
  2
Brighten
 70
    12
 71
     2
 72
     2
 73
     0
 90
        0
 40
-0.6
 41
-30.0
 62
     5
 63
     7
 74
     1
 91
        4
 64
     7
 65
   257
 75
     1
175
     1
 42
1.0
 92
        8
 66
     7
 43
1.0
 76
     1
 77
     6
 78
     2
 67
     7
 79
     5
170
     0
171
     0
290
     0
174
     0
 93
        1
 44
50.0
173
     0
291
     1
 45
0.0
1001
ACAD
1000
AcDbSavedByObjectVersion
1070
     0
  0
VISUALSTYLE
  5
3A
102
{ACAD_XDICTIONARY
360
4B0
102
}
102
{ACAD_REACTORS
330
2A
102
}
330
2A
100
AcDbVisualStyle
  2
ColorChange
 70
    16
 71
     2
 72
     2
 73
     3
 90
        0
 40
-0.6
 41
-30.0
 62
     5
 63
     8
 74
     1
 91
        4
 64
     7
 65
   257
 75
     1
175
     1
 42
1.0
 92
        8
 66
     8
 43
1.0
 76
     1
 77
     6
 78
     2
 67
     7
 79
     5
170
     0
171
     0
290
     0
174
     0
 93
        1
 44
0.0
173
     0
291
     1
 45
0.0
1001
ACAD
1000
AcDbSavedByObjectVersion
1070
     0
  0
VISUALSTYLE
  5
A4B
102
{ACAD_REACTORS
330
2A
102
}
330
2A
100
AcDbVisualStyle
  2
Conceptual
 70
     9
 71
     3
 72
     2
 73
     0
 90
        0
 40
-0.6
 41
-30.0
 62
     5
 63
     7
 74
     2
 91
        2
 64
     7
 65
   257
 75
     1
175
     1
 42
40.0
 92
        8
 66
     7
 43
1.0
 76
     1
 77
     6
 78
     2
 67
     7
 79
     3
170
     0
171
     0
290
     0
174
     0
 93
        1
 44
0.0
173
     0
291
     0
 45
0.0
1001
ACAD
1000
AcDbSavedByObjectVersion
1070
     0
  0
VISUALSTYLE
  5
35
102
{ACAD_XDICTIONARY
360
4A6
102
}
102
{ACAD_REACTORS
330
2A
102
}
330
2A
100
AcDbVisualStyle
  2
Dim
 70
    11
 71
     2
 72
     2
 73
     0
 90
        0
 40
-0.6
 41
-30.0
 62
     5
 63
     7
 74
     1
 91
        4
 64
     7
 65
   257
 75
     1
175
     1
 42
1.0
 92
        8
 66
     7
 43
1.0
 76
     1
 77
     6
 78
     2
 67
     7
 79
     5
170
     0
171
     0
290
     0
174
     0
 93
        1
 44
-50.0
173
     0
291
     1
 45
0.0
1001
ACAD
1000
AcDbSavedByObjectVersion
1070
     0
  0
VISUALSTYLE
  5
39
102
{ACAD_XDICTIONARY
360
4AE
102
}
102
{ACAD_REACTORS
330
2A
102
}
330
2A
100
AcDbVisualStyle
  2
Facepattern
 70
    15
 71
     2
 72
     2
 73
     0
 90
        0
 40
-0.6
 41
-30.0
 62
     5
 63
     7
 74
     1
 91
        4
 64
     7
 65
   257
 75
     1
175
     1
 42
1.0
 92
        8
 66
     7
 43
1.0
 76
     1
 77
     6
 78
     2
 67
     7
 79
     5
170
     0
171
     0
290
     0
174
     0
 93
        1
 44
0.0
173
     0
291
     1
 45
0.0
1001
ACAD
1000
AcDbSavedByObjectVersion
1070
     0
  0
VISUALSTYLE
  5
2B
102
{ACAD_XDICTIONARY
360
492
102
}
102
{ACAD_REACTORS
330
2A
102
}
330
2A
100
AcDbVisualStyle
  2
Flat
 70
     0
 71
     2
 72
     1
 73
     1
 90
        2
 40
-0.6
 41
30.0
 62
     5
 63
     7
 74
     0
 91
        4
 64
     7
 65
   257
 75
     1
175
     1
 42
1.0
 92
        8
 66
     7
 43
1.0
 76
     1
 77
     6
 78
     2
 67
     7
 79
     5
170
     0
171
     0
290
     0
174
     0
 93
       13
 44
0.0
173
     0
291
     1
 45
0.0
1001
ACAD
1000
AcDbSavedByObjectVersion
1070
     0
  0
VISUALSTYLE
  5
2C
102
{ACAD_XDICTIONARY
360
494
102
}
102
{ACAD_REACTORS
330
2A
102
}
330
2A
100
AcDbVisualStyle
  2
FlatWithEdges
 70
     1
 71
     2
 72
     1
 73
     1
 90
        2
 40
-0.6
 41
30.0
 62
     5
 63
     7
 74
     1
 91
        4
 64
     7
 65
   257
 75
     1
175
     1
 42
1.0
 92
        0
 66
   257
 43
1.0
 76
     1
 77
     6
 78
     2
 67
     7
 79
     5
170
     0
171
     0
290
     0
174
     0
 93
       13
 44
0.0
173
     0
291
     1
 45
0.0
1001
ACAD
1000
AcDbSavedByObjectVersion
1070
     0
  0
VISUALSTYLE
  5
2D
102
{ACAD_XDICTIONARY
360
496
102
}
102
{ACAD_REACTORS
330
2A
102
}
330
2A
100
AcDbVisualStyle
  2
Gouraud
 70
     2
 71
     2
 72
     2
 73
     1
 90
        2
 40
-0.6
 41
30.0
 62
     5
 63
     7
 74
     0
 91
        4
 64
     7
 65
   257
 75
     1
175
     1
 42
1.0
 92
        0
 66
     7
 43
1.0
 76
     1
 77
     6
 78
     2
 67
     7
 79
     5
170
     0
171
     0
290
     0
174
     0
 93
       13
 44
0.0
173
     0
291
     1
 45
0.0
1001
ACAD
1000
AcDbSavedByObjectVersion
1070
     0
  0
VISUALSTYLE
  5
2E
102
{ACAD_XDICTIONARY
360
498
102
}
102
{ACAD_REACTORS
330
2A
102
}
330
2A
100
AcDbVisualStyle
  2
GouraudWithEdges
 70
     3
 71
     2
 72
     2
 73
     1
 90
        2
 40
-0.6
 41
30.0
 62
     5
 63
     7
 74
     1
 91
        4
 64
     7
 65
   257
 75
     1
175
     1
 42
1.0
 92
        0
 66
   257
 43
1.0
 76
     1
 77
     6
 78
     2
 67
     7
 79
     5
170
     0
171
     0
290
     0
174
     0
 93
       13
 44
0.0
173
     0
291
     1
 45
0.0
1001
ACAD
1000
AcDbSavedByObjectVersion
1070
     0
  0
VISUALSTYLE
  5
38
102
{ACAD_XDICTIONARY
360
4AC
102
}
102
{ACAD_REACTORS
330
2A
102
}
330
2A
100
AcDbVisualStyle
  2
Linepattern
 70
    14
 71
     2
 72
     2
 73
     0
 90
        0
 40
-0.6
 41
-30.0
 62
     5
 63
     7
 74
     1
 91
        4
 64
     7
 65
   257
 75
     7
175
     7
 42
1.0
 92
        8
 66
     7
 43
1.0
 76
     1
 77
     6
 78
     2
 67
     7
 79
     5
170
     0
171
     0
290
     0
174
     0
 93
        1
 44
0.0
173
     0
291
     1
 45
0.0
1001
ACAD
1000
AcDbSavedByObjectVersion
1070
     0
  0
VISUALSTYLE
  5
A4C
102
{ACAD_XDICTIONARY
360
A4D
102
}
102
{ACAD_REACTORS
330
2A
102
}
330
2A
100
AcDbVisualStyle
  2
Realistic
 70
     8
 71
     2
 72
     2
 73
     0
 90
        0
 40
-0.6
 41
-30.0
 62
     5
 63
     7
 74
     1
 91
        0
 64
     7
 65
   257
 75
     1
175
     1
 42
1.0
 92
        8
 66
     8
 43
1.0
 76
     1
 77
     6
 78
     2
 67
     7
 79
     5
170
     0
171
     0
290
     0
174
     0
 93
       13
 44
0.0
173
     0
291
     0
 45
0.0
1001
ACAD
1000
AcDbSavedByObjectVersion
1070
     0
  0
VISUALSTYLE
  5
37
102
{ACAD_XDICTIONARY
360
4AA
102
}
102
{ACAD_REACTORS
330
2A
102
}
330
2A
100
AcDbVisualStyle
  2
Thicken
 70
    13
 71
     2
 72
     2
 73
     0
 90
        0
 40
-0.6
 41
-30.0
 62
     5
 63
     7
 74
     1
 91
        4
 64
     7
 65
   257
 75
     1
175
     1
 42
1.0
 92
       12
 66
     7
 43
1.0
 76
     1
 77
     6
 78
     2
 67
     7
 79
     5
170
     0
171
     0
290
     0
174
     0
 93
        1
 44
0.0
173
     0
291
     1
 45
0.0
1001
ACAD
1000
AcDbSavedByObjectVersion
1070
     0
  0
DICTIONARYVAR
  5
1055F
102
{ACAD_REACTORS
330
487
102
}
330
487
100
DictionaryVariables
280
     0
  1
1:1
  0
DICTIONARYVAR
  5
1055D
102
{ACAD_REACTORS
330
487
102
}
330
487
100
DictionaryVariables
280
     0
  1
STANDARD
  0
DICTIONARYVAR
  5
5FE
102
{ACAD_REACTORS
330
487
102
}
330
487
100
DictionaryVariables
280
     0
  1
STANDARD
  0
DICTIONARYVAR
  5
48A
102
{ACAD_REACTORS
330
487
102
}
330
487
100
DictionaryVariables
280
     0
  1
2
  0
DICTIONARYVAR
  5
48B
102
{ACAD_REACTORS
330
487
102
}
330
487
100
DictionaryVariables
280
     0
  1
1
  0
DICTIONARYVAR
  5
86B
102
{ACAD_REACTORS
330
487
102
}
330
487
100
DictionaryVariables
280
     0
  1
0
  0
DICTIONARYVAR
  5
10560
102
{ACAD_REACTORS
330
487
102
}
330
487
100
DictionaryVariables
280
     0
  1
0
  0
DICTIONARYVAR
  5
1055E
102
{ACAD_REACTORS
330
487
102
}
330
487
100
DictionaryVariables
280
     0
  1
0
  0
DICTIONARYVAR
  5
86A
102
{ACAD_REACTORS
330
487
102
}
330
487
100
DictionaryVariables
280
     0
  1
127
  0
DICTIONARY
  5
7D4
330
1E
100
AcDbDictionary
280
     1
281
     1
  3
ADSK_XREC_LAYOUTTHUMBNAIL
360
7D5
  0
DICTIONARY
  5
1D832
330
3D
100
AcDbDictionary
280
     1
281
     1
  3
ACAD_XREC_ROUNDTRIP
360
1D833
  0
DICTIONARY
  5
1D830
330
3C
100
AcDbDictionary
280
     1
281
     1
  3
ACAD_XREC_ROUNDTRIP
360
1D831
  0
DICTIONARY
  5
1D834
330
3E
100
AcDbDictionary
280
     1
281
     1
  3
ACAD_XREC_ROUNDTRIP
360
1D835
  0
DICTIONARY
  5
1055A
330
4BB
100
AcDbDictionary
280
     1
281
     1
  3
ACAD_ROUNDTRIP_2008_TABLESTYLE_CELLSTYLEMAP
360
1D82F
  3
ACAD_XREC_ROUNDTRIP
360
1D836
  0
DICTIONARY
  5
49A
330
2F
100
AcDbDictionary
280
     1
281
     1
  3
ACAD_XREC_ROUNDTRIP
360
49B
  0
DICTIONARY
  5
A49
330
A48
100
AcDbDictionary
280
     1
281
     1
  3
ACAD_XREC_ROUNDTRIP
360
A4A
  0
DICTIONARY
  5
4A0
330
32
100
AcDbDictionary
280
     1
281
     1
  3
ACAD_XREC_ROUNDTRIP
360
4A1
  0
DICTIONARY
  5
4A8
330
36
100
AcDbDictionary
280
     1
281
     1
  3
ACAD_XREC_ROUNDTRIP
360
4A9
  0
DICTIONARY
  5
4B0
330
3A
100
AcDbDictionary
280
     1
281
     1
  3
ACAD_XREC_ROUNDTRIP
360
4B1
  0
DICTIONARY
  5
4A6
330
35
100
AcDbDictionary
280
     1
281
     1
  3
ACAD_XREC_ROUNDTRIP
360
4A7
  0
DICTIONARY
  5
4AE
330
39
100
AcDbDictionary
280
     1
281
     1
  3
ACAD_XREC_ROUNDTRIP
360
4AF
  0
DICTIONARY
  5
492
330
2B
100
AcDbDictionary
280
     1
281
     1
  3
ACAD_XREC_ROUNDTRIP
360
493
  0
DICTIONARY
  5
494
330
2C
100
AcDbDictionary
280
     1
281
     1
  3
ACAD_XREC_ROUNDTRIP
360
495
  0
DICTIONARY
  5
496
330
2D
100
AcDbDictionary
280
     1
281
     1
  3
ACAD_XREC_ROUNDTRIP
360
497
  0
DICTIONARY
  5
498
330
2E
100
AcDbDictionary
280
     1
281
     1
  3
ACAD_XREC_ROUNDTRIP
360
499
  0
DICTIONARY
  5
4AC
330
38
100
AcDbDictionary
280
     1
281
     1
  3
ACAD_XREC_ROUNDTRIP
360
4AD
  0
DICTIONARY
  5
A4D
330
A4C
100
AcDbDictionary
280
     1
281
     1
  3
ACAD_XREC_ROUNDTRIP
360
A4E
  0
DICTIONARY
  5
4AA
330
37
100
AcDbDictionary
280
     1
281
     1
  3
ACAD_XREC_ROUNDTRIP
360
4AB
  0
XRECORD
  5
7D5
102
{ACAD_REACTORS
330
7D4
102
}
330
7D4
100
AcDbXrecord
280
     1
310
28000000B40000007F00000001000800000000004C59000000000000000000000001000000000000FFFFFF0000000000FFFFFF000000000000000000000000000000000000000000000000000000000000000000330000006600000099000000CC000000FF00000000330000333300006633000099330000CC330000FF3300
310
0000660000336600006666000099660000CC660000FF66000000990000339900006699000099990000CC990000FF99000000CC000033CC000066CC000099CC0000CCCC0000FFCC000000FF000033FF000066FF000099FF0000CCFF0000FFFF000000003300330033006600330099003300CC003300FF003300003333003333
310
33006633330099333300CC333300FF33330000663300336633006666330099663300CC663300FF66330000993300339933006699330099993300CC993300FF99330000CC330033CC330066CC330099CC3300CCCC3300FFCC330000FF330033FF330066FF330099FF3300CCFF3300FFFF330000006600330066006600660099
310
006600CC006600FF00660000336600333366006633660099336600CC336600FF33660000666600336666006666660099666600CC666600FF66660000996600339966006699660099996600CC996600FF99660000CC660033CC660066CC660099CC6600CCCC6600FFCC660000FF660033FF660066FF660099FF6600CCFF6600
310
FFFF660000009900330099006600990099009900CC009900FF00990000339900333399006633990099339900CC339900FF33990000669900336699006666990099669900CC669900FF66990000999900339999006699990099999900CC999900FF99990000CC990033CC990066CC990099CC9900CCCC9900FFCC990000FF99
310
0033FF990066FF990099FF9900CCFF9900FFFF99000000CC003300CC006600CC009900CC00CC00CC00FF00CC000033CC003333CC006633CC009933CC00CC33CC00FF33CC000066CC003366CC006666CC009966CC00CC66CC00FF66CC000099CC003399CC006699CC009999CC00CC99CC00FF99CC0000CCCC0033CCCC0066CC
310
CC0099CCCC00CCCCCC00FFCCCC0000FFCC0033FFCC0066FFCC0099FFCC00CCFFCC00FFFFCC000000FF003300FF006600FF009900FF00CC00FF00FF00FF000033FF003333FF006633FF009933FF00CC33FF00FF33FF000066FF003366FF006666FF009966FF00CC66FF00FF66FF000099FF003399FF006699FF009999FF00CC
310
99FF00FF99FF0000CCFF0033CCFF0066CCFF0099CCFF00CCCCFF00FFCCFF0000FFFF0033FFFF0066FFFF0099FFFF00CCFFFF00FFFFFF00000000000D0D0D001A1A1A00282828003535350043434300505050005D5D5D006B6B6B00787878008686860093939300A1A1A100AEAEAE00BBBBBB00C9C9C900D6D6D600E4E4E400
310
F1F1F100FFFFFF0000000000000000000000000000000000000000000000000000000000000000000000000000000000E2E2E2E2E2E2E2E2E2E2E2E2E2E2E2E2E2E2E2E2E2E2E2E2E2E2E2E2E2E2E2E2E2E2E2E2E2E2E2E2E2E2E2E2E2E2E2E2E2E2E2E2E2E2E2E2E2E2E2E2E2E2E2E2E2E2E2E2E2E2E2E2E2E2E2E2E2E2E2
310
E2E2E2E2E2E2E2E2E2E2E2E2E2E2E2E2E2E2E2E2E2E2E2E2E2E2E2E2E2E2E2E2E2E2E2E2E2E2E2E2E2E2E2E2E2E2E2E2E2E2E2E2E2E2E2E2E2E2E2E2E2E2E2E2E2E2E2E2E2E2E2E2E2E2E2E2E2E2E2E2E2E2E2E2E2E2E2E2E2E2E2E2E2E2E2E2E2E2E2E2EFE2E2E2E2E2E2E2E2E2E2E2E2E2E2E2E2E2E2E2E2E2E2E2E2E2E2
310
E2E2E2E2E2E2E2E2E2E2E2E2E2E2E2E2E2E2E2E2E2E2E2E2E2E2E2E2E2E2E2E2E2E2E2E2E2E2E2E2E2E2E2E2E2E2E2E2E2E2E2E2E2E2E2E2E2E2E2E2E2E2E2E2E2E2E2E2E2E2E2E2E2E2E2E2E2E2E2E2E2E2E2E2E2E2E2E2E2E2E2E2E2E2E2E2E2E2E2E2E2E2E2E2E2E2E2E2E2E2E2E2E2E2E2E2E2E2E2E2E2E2E2E2E2E2E2
310
E2E2E2E2E2E2E2E2E2E2E2E2E2E2E2E2E2E2E2E2E2E2E2E2E2E2EFE2E2F5F5F5F5F5F5F5F5F5F5F5F5F5F5F5F5F5F5F5F5F5F5F5F5F5F5F5F5F5F5F5F5F5F5F5F5F5F5F5F5F5F5F5F5F5F5F5F5F5F5F5F5F5F5F5F5F5F5F5F5F5F5F5F5F5F5F5F5F5F5F5F5F5F5F5F5F5F5F5F5F5F5F5F5F5F5F5F5F5F5F5F5F5F5F5F5F5F5
310
F5F5F5F5F5F5F5F5F5F5F5F5F5F5F5F5F5F5F5F5F5F5F5F5F5F5F5F5F5F5F5F5F5F5F5F5F5F5F5F5F5F5F5F5F5F5F5F5F5F5F5F5F5F5F5F5F5F5F5F5F5F5F5F5F5F5F5F5F5F5F5F5F5F5F5E2E2E2E2EFE2E2F5F5F5F5F5F5F5F5F5F5F5F5F5F5F5F5F5F5F5F5F5F5F5F5F5F5F5F5F5F5F5F5F5F5F5F5F5F5F5F5F5F5F5F5F5
310
F5F5F5F5F5F5F5F5F5F5F5F5F5F5F5F5F5F5F5F5F5F5F5F5F5F5F5F5F5F5F5F5F5F5F5F5F5F5F5F5F5F5F5F5F5F5F5F5F5F5F5F5F5F5F5F5F5F5F5F5F5F5F5F5F5F5F5F5F5F5F5F5F5F5F5F5F5F5F5F5F5F5F5F5F5F5F5F5F5F5F5F5F5F5F5F5F5F5F5F5F5F5F5F5F5F5F5F5F5F5F5F5F5F5F5F5F5F5F5F5F5F5F5F5F5F5F5
310
F5E2E2E2E2EFE2E2F5F5F5F5F5F5F5F5F5F5F5F5F5F5F5F5F5F5F5F5F5F5F5F5F5F5F5F5F5F5F5F5F5F5F5F5F5F5F5F5F5F5F5F5F5F5F5F5F5F5F5F5F5F5F5F5F5F5F5F5F5F5F5F5F5F5F5F5F5F5F5F5F5F5F5F5F5F5F5F5F5F5F5F5F5F5F5F5F5F5F5F5F5F5F5F5F5F5F5F5F5F5F5F5F5F5F5F5F5F5F5F5F5F5F5F5F5F5F5
310
F5F5F5F5F5F5F5F5F5F5F5F5F5F5F5F5F5F5F5F5F5F5F5F5F5F5F5F5F5F5F5F5F5F5F5F5F5F5F5F5F5F5F5F5F5F5F5F5F5F5F5F5F5F5E2E2E2E2EFE2E2F5F5F5F5F5F5F5F5F5F5F5F5F5F5F5F5F5F5F5F5F5F5F5F5F5F5F5F5F5F5F5F5F5F5F5F5F5F5F5F5F5F5F5F5F5F5F5F5F5F5F5F5F5F5F5F5F5F5F5F5F5F5F5F5F5F5
310
F5F5F5F5F5F5F5F5F5F5F5F5F5F5F5F5F5F5F5F5F5F5F5F5F5F5F5F5F5F5F5F5F5F5F5F5F5F5F5F5F5F5F5F5F5F5F5F5F5F5F5F5F5F5F5F5F5F5F5F5F5F5F5F5F5F5F5F5F5F5F5F5F5F5F5F5F5F5F5F5F5F5F5F5F5F5F5F5F5F5F5F5F5F5F5F5F5F5F5F5F5F5F5F5F5F5F5E2E2E2E2EFE2E2F5F5F5F5F5F5F5F5F5F5F5F5F5
310
F5F5F5F5F5F5F5F5F5F5F5F5F5F5F5F5F5F5F5F5F5F5F5F5F5F5F5F5F5F5F5F5F5F5F5F5F5F5F5F5F5F5F5F5F5F5F5F5F5F5F5F5F5F5F5F5F5F5F5F5F5F5F5F5F5F5F5F5F5F5F5F5F5F5F5F5F5F5F5F5F5F5F5F5F5F5F5F5F5F5F5F5F5F5F5F5F5F5F5F5F5F5F5F5F5F5F5F5F5F5F5F5F5F5F5F5F5F5F5F5F5F5F5F5F5F5F5
310
F5F5F5F5F5F5F5F5F5F5F5F5F5F5F5F5F5F5F5F5F5F5F5F5F5F5F5F5F5F5F5F5F5E2E2E2E2EFE2E2F5F5F5F5F5F5F5F5F5F5F5F5F5F5F5F5F5F5F5F5F5F5F5F5F5F5F5F5F5F5F5F5F5F5F5F5F5F5F5F5F5F5F5F5F5F5F5F5F5F5F5F5F5F5F5F5F5F5F5F5F5F5F5F5F5F5F5F5F5F5F5F5F5F5F5F5F5F5F5F5F5F5F5F5F5F5F5
310
F5F5F5F5F5F5F5F5F5F5F5F5F5F5F5F5F5F5F5F5F5F5F5F5F5F5F5F5F5F5F5F5F5F5F5F5F5F5F5F5F5F5F5F5F5F5F5F5F5F5F5F5F5F5F5F5F5F5F5F5F5F5F5F5F5F5F5F5F5F5F5F5F5F5F5F5F5F5F5F5F5F5F5F5F5F5E2E2E2E2EFE2E2F5F5F5F5F5F5F5F5F5F5F5F5F5F5F5F5F5F5F5F5F5F5F5F5F5F5F5F5F5F5F5F5F5F5
310
F5F5F5F5F5F5F5F5F5F5F5F5F5F5F5F5F5F5F5F5F5F5F5F5F5F5F5F5F5F5F5F5F5F5F5F5F5F5F5F5F5F5F5F5F5F5F5F5F5F5F5F5F5F5F5F5F5F5F5F5F5F5F5F5F5F5F5F5F5F5F5F5F5F5F5F5F5F5F5F5F5F5F5F5F5F5F5F5F5F5F5F5F5F5F5F5F5F5F5F5F5F5F5F5F5F5F5F5F5F5F5F5F5F5F5F5F5F5F5F5F5F5F5F5F5F5F5
310
F5F5F5F5F5F5F5F5F5F5F5F5E2E2E2E2EFE2E2F5F5F5F5F5F5F5F5F5F5F5F5F5F5F5F5F5F5F5F5F5F5F5F5F5F5F5F5F5F5F5F5F5F5F5F5F5F5F5F5F5F5F5F5F5F5F5F5F5F5F5F5F5F5F5F5F5F5F5F5F5F5F5F5F5F5F5F5F5F5F5F5F5F5F5F5F5F5F5F5F5F5F5F5F5F5F5F5F5F5F5F5F5F5F5F5F5F5F5F5F5F5F5F5F5F5F5F5
310
F5F5F5F5F5F5F5F5F5F5F5F5F5F5F5F5F5F5F5F5F5F5F5F5F5F5F5F5F5F5F5F5F5F5F5F5F5F5F5F5F5F5F5F5F5F5F5F5F5F5F5F5F5F5F5F5F5F5F5F5F5F5F5F5F5E2F5E2E2EFE2E2F5F5F5F5F5F5F5F5F5F5F5F5F5F5F5F5F5F5F5F5F5F5F5F5F5F5F5F5F5F5F5F5F5F5F5F5F5F5F5F5F5F5F5F5F5F5F5F5F5F5F5F5F5F5F5
310
F5F5F5F5F5F5F5F5F5F5F5F5F5F5F5F5F5F5F5F5F5F5F5F5F5F5F5F5F5F5F5F5F5F5F5F5F5F5F5F5F5F5F5F5F5F5F5F5F5F5F5F5F5F5F5F5F5F5F5F5F5F5F5F5F5F5F5F5F5F5F5F5F5F5F5F5F5F5F5F5F5F5F5F5F5F5F5F5F5F5F5F5F5F5F5F5F5F5F5F5F5F5F5F5F5F5F5F5F5F5F5F5F5F5F5F5F5F5E2F5E2E2EFE2E2F5F5
310
F5F5F5F5F5F5F5F5F5F5F5F5F5F5F5F5F5F5F5F5F5F5F5F5F5F5F5F5F5F5F5F5F5F5F5F5F5F5F5F5F5F5F5F5F5F5F5F5F5F5F5F5F5F5F5F5F5F5F5F5F5F5F5F5F5F5F5F5F5F5F5F5F5F5F5F5F5F5F5F5F5F5F5F5F5F5F5F5F5F5F5F5F5F5F5F5F5F5F5F5F5F5F5F5F5F5F5F5F5F5F5F5F5F5F5F5F5F5F5F5F5F5F5F5F5F5F5
310
F5F5F5F5F5F5F5F5F5F5F5F5F5F5F5F5F5F5F5F5F5F5F5F5F5F5F5F5F5F5F5F5F5F5F5F5F5F5F5F5F5F5F5F5E2F5E2E2EFE2E2F5F5F5F5F5F5F5F5F5F5F5F5F5F5F5F5F5F5F5F5F5F5F5F5F5F5F5F5F5F5F5F5F5F5F5F5F5F5F5F5F5F5F5F5F5F5F5F5F5F5F5F5F5F5F5F5F5F5F5F5F5F5F5F5F5F5F5F5F5F5F5F5F5F5F5F5
310
F5F5F5F5F5F5F5F5F5F5F5F5F5F5F5F5F5F5F5F5F5F5F5F5F5F5F5F5F5F5F5F5F5F5F5F5F5F5F5F5F5F5F5F5F5F5F5F5F5F5F5F5F5F5F5F5F5F5F5F5F5F5F5F5F5F5F5F5F5F5F5F5F5F5F5F5F5F5F5F5F5F5F5F5F5F5F5F5F5F5F5F5F5F5F5F5F5E2F5E2E2EFE2E2F5F5F5F5F5F5F5F5F5F5F5F5F5F5F5F5F5F5F5F5F5F5F5
310
F5F5F5F5F5F5F5F5F5F5F5F5F5F5F5F5F5F5F5F5F5F5F5F5F5F5F5F5F5F5F5F5F5F5F5F5F5F5F5F5F5F5F5F5F5F5F5F5F5F5F5F5F5F5F5F5F5F5F5F5F5F5F5F5F5F5F5F5F5F5F5F5F5F5F5F5F5F5F5F5F5F5F5F5F5F5F5F5F5F5F5F5F5F5F5F5F5F5F5F5F5F5F5F5F5F5F5F5F5F5F5F5F5F5F5F5F5F5F5F5F5F5F5F5F5F5F5
310
F5F5F5F5F5F5F5F5F5F5F5F5F5F5F5F5F5F5F5F5F5F5F5E2F5E2E2EFE2E2F5F5F5F5F5F5F5F5F5F5F5F5F5F5F5F5F5F5F5F5F5F5F5F5F5F5F5F5F5F5F5F5F5F5F5F5F5F5F5F5F5F5F5F5F5F5F5F5F5F5F5F5F5F5F5F5F5F5F5F5F5F5F5F5F5F5F5F5F5F5F5F5F5F5F5F5F5F5F5F5F5F5F5F5F5F5F5F5F5F5F5F5F5F5F5F5F5
310
F5F5F5F5F5F5F5F5F5F5F5F5F5F5F5F5F5F5F5F5F5F5F5F5F5F5F5F5F5F5F5F5F5F5F5F5F5F5F5F5F5F5F5F5F5F5F5F5F5F5F5F5F5F5F5F5F5F5F5F5F5F5F5F5F5F5F5F5F5F5F5F5F5F5F5F5E2F5E2E2EFE2E2F5F5F5F5F5F5F5F5F5F5F5F5F5F5F5F5F5F5F5F5F5F5F5F5F5F5F5F5F5F5F5F5F5F5F5F5F5F5F5F5F5F5F5F5
310
F5F5F5F5F5F5F5F5F5F5F5F5F5F5F5F5F5F5F5F5F5F5F5F5F5F5E2E2E2E2E2E2E2E2E2E2E2E2E2E2E2E2E2E2E2E2E2E2E2E2E2E2E2E2E2E2E2E2F5F5F5F5F5F5F5F5F5F5F5F5F5F5F5F5F5F5F5F5F5F5F5F5F5F5F5F5F5F5F5F5F5F5F5F5F5F5F5F5F5F5F5F5F5F5F5F5F5F5F5F5F5F5F5F5F5F5F5F5F5F5F5F5F5F5F5F5F5
310
F5F5E2F5E2E2EFE2E2F5F5F5F5F5F5F5F5F5F5F5F5F5F5F5F5F5F5F5F5F5F5F5F5F5F5F5F5F5F5F5F5F5F5F5F5F5F5F5F5F5F5F5F5F5F5F5F5F5F5F5F5F5F5F5F5F5F5F5F5F5F5F5F5F5F5F5F5F5F5E2E2E2E2E2E2E2E2E2E2E2E2E2E2E2E2E2E2E2E2E2E2E2E2E2E2E2E2E2E2E2E2F5F5F5F5F5F5F5F5F5F5F5F5F5F5F5F5
310
F5F5F5F5F5F5F5F5F5F5F5F5F5F5F5F5F5F5F5F5F5F5F5F5F5F5F5F5F5F5F5F5F5F5F5F5F5F5F5F5F5F5F5F5F5F5F5F5F5F5F5F5F5F5F5E2F5E2E2EFE2E2F5F5F5F5F5F5F5F5F5F5F5F5F5F5F5F5F5F5F5F5F5F5F5F5F5F5F5F5F5F5F5F5F5F5F5F5F5F5F5F5F5F5F5F5F5F5F5F5F5F5F5F5F5F5F5F5F5F5F5F5F5F5F5F5F5
310
F5F5F5F5F5F5F5F5F5F5F5F5F5F5F5F5F5F5F5F5F5F5F5F5F5F5F5F5F5F5F5F5F5F5F5F5F5F5F5F5F5F5F5F5F5F5F5F5F5F5F5F5F5F5F5F5F5F5F5F5F5F5F5F5F5F5F5F5F5F5F5F5F5F5F5F5F5F5F5F5F5F5F5F5F5F5F5F5F5F5F5F5F5F5F5F5F5F5F5F5F5F5F5F5F5F5F5F5E2F5E2E2EFE2E2F5F5F5F5F5F5F5F5F5F5F5F5
310
F5F5F5F5F5F5F5F5F5F5F5F5F5F5F5F5F5F5F5F5F5F5F5F5F5F5F5F5F5F5F5F5F5F5F5F5F5F5F5F5F5F5F5F5F5F5F5F5F5F5F5F5F5F5F5F5F5F5F5F5F5F5F5F5F5F5F5F5F5F5F5F5F5F5F5F5F5F5F5F5F5F5F5F5F5F5F5F5F5F5F5F5F5F5F5F5F5F5F5F5F5F5F5F5F5F5F5F5F5F5F5F5F5F5F5F5F5F5F5F5F5F5F5F5F5F5F5
310
F5F5F5F5F5F5F5F5F5F5F5F5F5F5F5F5F5F5F5F5F5F5F5F5F5F5F5F5F5F5F5F5F5F5E2E2E2E2EFE2E2F5F5F5F5F5F5F5F5F5F5F5F5F5F5F5F5F5F5F5F5F5F5F5F5F5F5F5F5F5F5F5F5F5E2BEF5F5F5F5F5F5F5F5F5F5F5F5F5F5F5F5F5F5F5F5F5F5F5F5F5F5F5F5F5F5F5F5F5F5F5F5F5F5F5F5F5F5F5F5F5F5F5F5F5F5F5
310
F5F5F5F5F5F5F5F5F5F5F5F5F5F5F5F5F5F5F5F5F5F5F5F5F5F5F5F5F5F5F5F5F5F5F5F5F5F5F5F5F5F5F5F5F5F5F5F5F5F5F5F5F5F5F5F5F5F5F5F5F5F5F5F5F5F5F5F5F5F5F5F5F5F5F5F5F5F5F5F5F5F5F5F5F5F5F5E2E2E2E2EFE2E2F5F5F5F5F5F5F5F5F5F5F5F5F5F5F5F5F5F5F5F5F5F5F5F5F5F5F5F5F5F5F5F5E2
310
E2BEE2F5F5F5F5F5F5F5F5F5F5F5F5F5F5F5F5F5F5F5F5F5F5F5F5F5F5F5F5F5F5F5F5F5F5E2E2E2E2F5E2E2E2E2E2E2F5E2E2E2E2E2F5E2E2E2E2E2F5E2E2E2E2E2E2F5E2E2E2E2E2F5E2E2E2E2E2F5F5F5F5F5F5F5F5F5F5F5F5F5F5F5F5F5F5F5F5F5F5F5F5F5F5F5F5F5F5F5F5F5F5F5F5F5F5F5F5F5F5F5F5F5F5F5F5
310
F5F5F5F5F5F5F5F5F5F5F5F5F5E2E2E2E2EFE2E2F5F5F5F5F5F5F5F5F5F5F5F5F5F5F5F5F5F5F5F5F5F5F5F5F5F5F5F5F5F5F5F5F5E2F5F5F5F5F5F5F5F5F5F5F5F5F5F5F5F5F5F5F5F5F5F5F5F5F5F5F5F5F5F5F5F5F5F5F5F5E2F5F5F5F5F5F5F5F5F5F5F5F5F5F5F5F5F5F5F5F5F5F5F5F5F5F5F5F5F5F5F5F5F5F5F5F5
310
F5F5F5F5E2F5F5F5F5F5F5F5F5F5F5F5F5F5F5F5F5F5F5F5F5F5F5F5F5F5F5F5F5F5F5F5F5F5F5F5F5F5F5F5F5F5F5F5F5F5F5F5F5F5F5F5F5F5F5F5F5F5F5F5F5F5E2E2E2E2EFE2E2F5F5F5F5F5F5F5F5F5F5F5F5F5F5F5F5F5F5F5F5F5F5F5F5F5F5F5F5F5F5F5F5F5E2F5F5F5F5F5F5F5F5F5F5F5F5F5F5F5F5F5F5F5F5
310
F5F5F5F5F5F5F5F5F5F5F5F5F5F5F5F5E2F5F5F5F5F5F5F5F5F5F5F5F5F5F5F5F5F5F5F5F5F5F5F5F5F5F5F5F5F5F5F5F5F5F5F5F5F5F5F5F5E2F5F5F5F5F5F5F5F5F5F5F5F5F5F5F5F5F5F5F5F5F5F5F5F5F5F5F5F5F5F5F5F5F5F5F5F5F5F5F5F5F5F5F5F5F5F5F5F5F5F5F5F5F5F5F5F5F5F5F5F5F5E2E2E2E2EFE2E2F5
310
F5F5F5F5F5F5F5F5F5F5F5F5F5F5F5F5F5F5F5F5F5F5F5F5F5F5F5F5F5F5F5F5E2F5F5F5F5F5F5F5F5F5F5F5F5F5F5F5F5F5F5F5F5F5F5F5F5F5F5F5F5F5F5F5F5F5F5F5F5E2F5F5F5F5F5F5F5F5F5F5F5F5F5F5F5F5F5F5F5F5F5F5F5F5F5F5F5F5F5F5F5F5F5F5F5F5F5F5F5F5E2F5F5F5F5F5F5F5F5F5F5F5F5F5F5F5F5
310
F5F5F5F5F5F5F5F5F5F5F5F5F5F5F5F5F5F5F5F5F5F5F5F5F5F5F5F5F5F5F5F5F5F5F5F5F5F5F5F5F5F5F5F5F5E2E2E2E2EFE2E2F5F5F5F5F5F5F5F5F5F5F5F5F5F5F5F5F5F5F5F5F5F5F5F5F5F5F5F5F5F5F5F5F5E2F5F5F5F5F5F5F5F5F5F5F5F5F5F5F5F5F5F5F5F5F5F5F5F5F5F5F5F5F5F5F5F5F5F5F5F5F5F5F5F5F5
310
F5F5F5F5F5F5F5F5F5F5F5F5F5F5F5F5F5F5F5F5F5F5F5F5F5F5F5F5F5F5F5F5F5F5F5F5E2F5F5F5F5F5F5F5F5F5F5F5F5F5F5F5F5F5F5F5F5F5F5F5F5F5F5F5F5F5F5F5F5F5F5F5F5F5F5F5F5F5F5F5F5F5F5F5F5F5F5F5F5F5F5F5F5F5F5F5F5F5E2E2E2E2EFE2E2F5F5F5F5F5F5F5F5F5F5F5F5F5F5F5F5F5F5F5F5F5F5
310
F5F5F5F5F5F5F5F5F5F5F5E2F5F5F5F5F5F5F5F5F5F5F5F5F5F5F5F5F5F5F5F5F5F5F5F5F5F5F5F5F5F5F5F5F5F5F5F5E2F5F5F5F5F5F5F5F5F5F5F5F5F5F5F5F5F5F5F5F5F5F5F5F5F5F5F5F5F5F5F5F5F5F5F5F5F5F5F5F5F5F5F5F5F5F5F5F5F5F5F5F5F5F5F5F5F5F5F5F5F5F5F5F5F5F5F5F5F5F5F5F5F5F5F5F5F5F5
310
F5F5F5F5F5F5F5F5F5F5F5F5F5F5F5F5F5F5F5F5F5F5F5F5E2E2E2E2EFE2E2F5F5F5F5F5F5F5F5F5F5F5F5F5F5F5F5F5F5F5F5F5F5F5F5F5F5F5F5F5F5F5F5F5E2F5F5F5F5F5F5F5F5F5F5F5F5F5F5F5F5F5F5F5F5F5F5F5F5F5F5F5F5F5F5F5F5F5F5F5F5E2F5F5F5F5F5F5F5F5F5F5F5F5F5F5F5F5F5F5F5F5F5F5F5F5F5
310
F5F5F5F5F5F5F5F5F5F5F5F5F5F5F5E2F5F5F5F5F5F5F5F5F5F5F5F5F5F5F5F5F5F5F5F5F5F5F5F5F5F5F5F5F5F5F5F5F5F5F5F5F5F5F5F5F5F5F5F5F5F5F5F5F5F5F5F5F5F5F5F5F5F5F5F5F5E2E2E2E2EFE2E2F5F5F5F5F5F5F5F5F5F5F5F5F5F5F5F5F5F5F5F5F5F5F5F5F5F5F5F5F5F5F5F5F5E2F5F5F5F5F5F5F5F5F5
310
F5F5F5F5F5F5F5F5F5F5F5F5F5F5F5F5F5F5F5F5F5F5F5F5F5F5F5E2F5F5F5F5F5F5F5F5F5F5F5F5F5F5F5F5F5F5F5F5F5F5F5F5F5F5F5F5F5F5F5F5F5F5F5F5F5F5F5F5E2F5F5F5F5F5F5F5F5F5F5F5F5F5F5F5F5F5F5F5F5F5F5F5F5F5F5F5F5F5F5F5F5F5F5F5F5F5F5F5F5F5F5F5F5F5F5F5F5F5F5F5F5F5F5F5F5F5F5
310
F5F5F5E2E2E2E2EFE2E2F5F5F5F5F5F5F5F5F5F5F5F5F5F5F5F5F5F5F5F5F5F5F5F5F5F5F5F5F5F5F5F5F5E2F5F5F5F5F5F5F5F5F5F5F5F5F5F5F5F5F5F5F5F5F5F5F5F5F5F5F5F5F5F5F5F5F5F5F5F5E2F5F5F5F5F5F5F5F5F5F5F5F5F5F5F5F5F5F5F5F5F5F5F5F5F5F5F5F5F5F5F5F5F5F5F5F5F5F5F5F5E2F5F5F5F5F5
310
F5F5F5F5F5F5F5F5F5F5F5F5F5F5F5F5F5F5F5F5F5F5F5F5F5F5F5F5F5F5F5F5F5F5F5F5F5F5F5F5F5F5F5F5F5F5F5F5F5F5F5F5F5F5F5F5E2E2E2E2EFE2E2F5F5F5F5F5F5F5F5F5F5F5F5F5F5F5F5F5F5F5F5F5F5F5F5F5F5F5F5F5F5F5F5F5E2F5F5F5F5F5F5F5F5F5F5F5F5F5F5F5F5F5F5F5F5F5F5F5F5F5F5F5F5F5F5
310
F5F5F5F5F5F5E2F5F5F5F5F5F5F5F5F5F5F5F5F5F5F5F5F5F5F5F5F5F5F5F5F5F5F5F5F5F5F5F5F5F5F5F5F5F5F5F5E2F5F5F5F5F5F5F5F5F5F5F5F5F5F5F5F5F5F5F5F5F5F5F5F5F5F5F5F5F5F5F5F5F5F5F5F5F5F5F5F5F5F5F5F5F5F5F5F5F5F5F5F5F5F5F5F5F5F5F5F5F5E2E2E2E2EFE2E2F5F5F5F5F5F5F5F5F5F5F5
310
F5F5F5F5F5F5F5F5F5F5F5F5F5F5F5F5F5F5F5F5F5F5E2F5F5F5F5F5F5F5F5F5F5F5F5F5F5F5F5F5F5F5F5F5F5F5F5F5F5F5F5F5F5F5F5F5F5F5F5E2F5F5F5F5F5F5F5F5F5F5F5F5F5F5F5F5F5F5F5F5F5F5F5F5F5F5F5F5F5F5F5F5F5F5F5F5F5F5F5F5E2F5F5F5F5F5F5F5F5F5F5F5F5F5F5F5F5F5F5F5F5F5F5F5F5F5F5
310
F5F5F5F5F5F5F5F5F5F5F5F5F5F5F5F5F5F5F5F5F5F5F5F5F5F5F5F5F5F5F5F5F5F5F5E2E2E2E2EFE2E2F5F5F5F5F5F5F5F5F5F5F5F5F5F5F5F5F5F5F5F5F5F5F5F5F5F5F5F5F5F5F5F5F5E2F5F5F5F5F5F5F5F5F5F5F5F5F5F5F5F5F5F5F5F5F5F5F5F5F5F5F5F5F5F5F5F5F5F5F5F5F5F5F5F5F5F5F5F5F5F5F5F5F5F5F5
310
F5F5F5F5F5F5F5F5F5F5F5F5F5F5F5F5F5F5F5F5F5F5F5F5F5F5F5F5F5F5F5F5F5F5F5F5F5F5F5F5F5F5F5F5F5F5F5F5F5F5F5F5F5F5F5F5F5F5F5F5F5F5F5F5F5F5F5F5F5F5F5F5F5F5F5F5F5F5F5F5F5F5F5F5F5F5F5F5E2E2E2E2EFE2E2F5F5F5F5F5F5F5F5F5F5F5F5F5F5F5F5F5F5F5F5F5F5F5F5F5F5F5F5F5F5F5F5
310
F5E2F5F5F5F5F5F5F5F5F5F5F5F5F5F5F5F5F5F5F5F5F5F5F5F5F5F5F5F5F5F5F5F5F5F5F5F5E2F5F5F5F5F5F5F5F5F5F5F5F5F5F5F5F5F5F5F5F5F5F5F5F5F5F5F5F5F5F5F5F5F5F5F5F5F5F5F5F5E2F5F5F5F5F5F5F5F5F5F5F5F5F5F5F5F5F5F5F5F5F5F5F5F5F5F5F5F5F5F5F5F5F5F5F5F5F5F5F5F5F5F5F5F5F5F5F5
310
F5F5F5F5F5F5F5F5F5F5F5F5F5F5E2E2E2E2EFE2E2F5F5F5F5F5F5F5F5F5F5F5F5F5F5F5F5F5F5F5F5F5F5F5F5F5F5F5F5F5F5F5F5F5E2F5F5F5F5F5F5F5F5F5F5F5F5F5F5F5F5F5F5F5F5F5F5F5F5F5F5F5F5F5F5F5F5F5F5F5F5E2F5F5F5F5F5F5F5F5F5F5F5F5F5F5F5F5F5F5F5F5F5F5F5F5F5F5F5F5F5F5F5F5F5F5F5
310
F5F5F5F5F5E2F5F5F5F5F5F5F5F5F5F5F5F5F5F5F5F5F5F5F5F5F5F5F5F5F5F5F5F5F5F5F5F5F5F5F5F5F5F5F5F5F5F5F5F5F5F5F5F5F5F5F5F5F5F5F5F5F5F5F5F5F5E2E2E2E2EFE2E2F5F5F5F5F5F5F5F5F5F5F5F5F5F5F5F5F5F5F5F5F5F5F5F5F5F5F5F5F5F5F5F5F5E2F5F5F5F5F5F5F5F5F5F5F5F5F5F5F5F5F5F5F5
310
F5F5F5F5F5F5F5F5F5F5F5F5F5F5F5F5F5E2F5F5F5F5F5F5F5F5F5F5F5F5F5F5F5F5F5F5F5F5F5F5F5F5F5F5F5F5F5F5F5F5F5F5F5F5F5F5F5F5E2F5F5F5F5F5F5F5F5F5F5F5F5F5F5F5F5F5F5F5F5F5F5F5F5F5F5F5F5F5F5F5F5F5F5F5F5F5F5F5F5F5F5F5F5F5F5F5F5F5F5F5F5F5F5F5F5F5F5F5F5F5E2F5E2E2EFE2E2
310
F5F5F5F5F5F5F5F5F5F5F5F5F5F5F5F5F5F5F5F5F5F5F5F5F5F5F5F5F5F5F5F5F5E2F5F5F5F5F5F5F5F5F5F5F5F5F5F5F5F5F5F5F5F5F5F5F5F5F5F5F5F5F5F5F5F5F5F5F5F5E2F5F5F5F5F5F5F5F5F5F5F5F5F5F5F5F5F5F5F5F5F5F5F5F5F5F5F5F5F5F5F5F5F5F5F5F5F5F5F5F5E2F5F5F5F5F5F5F5F5F5F5F5F5F5F5F5
310
F5F5F5F5F5F5F5F5F5F5F5F5F5F5F5F5F5F5F5F5F5F5F5F5F5F5F5F5F5F5F5F5F5F5F5F5F5F5F5F5F5F5F5F5F5F5E2F5E2E2EFE2E2F5F5F5F5F5F5F5F5F5F5F5F5F5F5F5F5F5F5F5F5F5F5F5F5F5F5F5F5F5F5F5F5F5E2F5F5F5F5F5F5F5F5F5F5F5F5F5F5F5F5F5F5F5F5F5F5F5F5F5F5F5F5F5F5F5F5F5F5F5F5E2F5F5F5
310
F5F5F5F5F5F5F5F5F5F5F5F5F5F5F5F5F5F5F5F5F5F5F5F5F5F5F5F5F5F5F5F5F5F5F5F5F5E2F5F5F5F5F5F5F5F5F5F5F5F5F5F5F5F5F5F5F5F5F5F5F5F5F5F5F5F5F5F5F5F5F5F5F5F5F5F5F5F5F5F5F5F5F5F5F5F5F5F5F5F5F5F5F5F5F5F5F5F5F5E2F5E2E2EFE2E2F5F5F5F5F5F5F5F5F5F5F5F5F5F5F5F5F5F5F5F5F5
310
F5F5F5F5F5F5F5F5F5F5F5F5E2F5F5F5F5F5F5F5F5F5F5F5F5F5F5F5F5F5F5F5F5F5F5F5F5F5F5F5F5F5F5F5F5F5F5F5F5F5F5F5F5F5F5F5F5F5F5F5F5F5F5F5F5F5F5F5F5F5F5F5F5F5F5F5F5F5F5F5F5F5F5F5F5F5F5F5F5F5E2F5F5F5F5F5F5F5F5F5F5F5F5F5F5F5F5F5F5F5F5F5F5F5F5F5F5F5F5F5F5F5F5F5F5F5F5
310
F5F5F5F5F5F5F5F5F5F5F5F5F5F5F5F5F5F5F5F5F5F5F5F5F5E2F5E2E2EFE2E2F5F5F5F5F5F5F5F5F5F5F5F5F5F5F5F5F5F5F5F5F5F5F5F5F5F5F5F5F5F5F5F5F5E2F5F5F5F5F5F5F5F5F5F5F5F5F5F5F5F5F5F5F5F5F5F5F5F5F5F5F5F5F5F5F5F5F5F5F5F5E2F5F5F5F5F5F5F5F5F5F5F5F5F5F5F5F5F5F5F5F5F5F5F5F5
310
F5F5F5F5F5F5F5F5F5F5F5F5F5F5F5F5F5F5F5F5F5F5F5F5F5F5F5F5F5F5F5F5F5F5F5F5F5F5F5F5F5F5F5F5F5F5F5F5F5F5F5F5F5F5F5F5F5F5F5F5F5F5F5F5F5F5F5F5F5F5F5F5F5F5F5F5F5F5E2F5E2E2EFE2E2F5F5F5F5F5F5F5F5F5F5F5F5F5F5F5F5F5F5F5F5F5F5F5F5F5F5F5F5F5F5F5F5F5E2F5F5F5F5F5F5F5F5
310
F5F5F5F5F5F5F5F5F5F5F5F5F5F5F5F5F5F5F5F5F5F5F5F5F5F5F5F5E2F5F5F5F5F5F5F5F5F5F5F5F5F5F5F5F5F5F5F5F5F5F5F5F5F5F5F5F5F5F5F5F5F5F5F5F5F5F5F5F5E2F5F5F5F5F5F5F5F5F5F5F5F5F5F5F5F5F5F5F5F5F5F5F5F5F5F5F5F5F5F5F5F5F5F5F5F5F5F5F5F5F5F5F5F5F5F5F5F5F5F5F5F5F5F5F5F5F5
310
F5F5F5F5E2F5E2E2EFE2E2F5F5F5F5F5F5F5F5F5F5F5F5F5F5F5F5F5F5F5F5F5F5F5F5F5F5F5F5F5F5F5F5F5E2F5F5F5F5F5F5F5F5F5F5F5F5F5F5F5F5F5F5F5F5F5F5F5F5F5F5F5F5F5F5F5F5F5F5F5F5E2F5F5F5F5F5F5F5F5F5F5F5F5F5F5F5F5E2E2E2E2E2E2E2E2F5F5F5F5F5F5F5F5F5F5F5F5F5F5F5F5E2F5F5F5F5
310
F5F5F5F5F5F5F5F5F5F5F5F5F5F5F5F5F5F5F5F5F5F5F5F5F5F5F5F5F5F5F5F5F5F5F5F5F5F5F5F5F5F5F5F5F5F5F5F5F5F5F5F5F5F5F5F5F5E2F5E2E2EFE2E2F5F5F5F5F5F5F5F5F5F5F5F5F5F5F5F5F5F5F5F5F5F5F5F5F5F5F5F5F5F5F5F5F5E2F5F5F5F5F5F5F5F5F5F5F5F5F5F5F5F5F5F5F5F5F5F5F5F5F5F5F5F5F5
310
F5F5F5F5F5F5F5E2F5F5F5F5F5F5F5F5F5F5F5F5F5F5F5F5E2F5F5E2F5F5F5E2F5F5F5F5F5F5F5F5F5F5F5F5F5F5F5F5E2F5F5F5F5F5F5F5F5F5F5F5F5F5F5F5F5F5F5F5F5F5F5F5F5F5F5F5F5F5F5F5F5F5F5F5F5F5F5F5F5F5F5F5F5F5F5F5F5F5F5F5F5F5F5F5F5F5F5F5F5F5E2F5E2E2EFE2E2F5F5F5F5F5F5F5F5F5F5
310
F5F5F5F5F5F5F5F5F5F5F5F5F5F5F5F5F5F5F5F5F5F5F5E2F5F5F5F5F5F5F5F5F5F5F5F5F5F5F5F5F5F5F5F5F5F5F5F5F5F5F5F5F5F5F5F5F5F5F5F5E2F5F5F5F5F5F5F5F5F5F5F5F5F5F5F5F5E2F5F5E2F5F5F5E2F5F5F5F5F5F5F5F5F5F5F5F5F5F5F5F5E2F5F5F5F5F5F5F5F5F5F5F5F5F5F5F5F5F5F5F5F5F5F5F5F5F5
310
F5F5F5F5F5F5F5F5F5F5F5F5F5F5F5F5F5F5F5F5F5F5F5F5F5F5F5F5F5F5F5F5F5F5F5F5E2F5E2E2EFE2E2F5F5F5F5F5F5F5F5F5F5F5F5F5F5F5F5F5F5F5F5F5F5F5F5F5F5F5F5F5F5F5F5F5E2F5F5F5F5F5F5F5F5F5F5F5F5F5F5F5F5F5F5F5F5F5F5F5F5F5F5F5F5F5F5F5F5F5F5F5F5F5F5F5F5F5F5F5F5F5F5F5F5F5F5
310
F5F5F5E2F5F5E2F5F5F5E2F5F5F5F5F5F5F5F5F5F5F5F5F5F5F5F5E2F5F5F5F5F5F5F5F5F5F5F5F5F5F5F5F5F5F5F5F5F5F5F5F5F5F5F5F5F5F5F5F5F5F5F5F5F5F5F5F5F5F5F5F5F5F5F5F5F5F5F5F5F5F5F5F5F5F5F5F5F5E2E2E2E2EFE2E2F5F5F5F5F5F5F5F5F5F5F5F5F5F5F5F5F5F5F5F5F5F5F5F5F5F5F5F5F5F5F5
310
F5F5E2F5F5F5F5F5F5F5F5F5F5F5F5F5F5F5F5F5F5F5F5F5F5F5F5F5F5F5F5F5F5F5F5F5F5F5F5E2F5F5F5F5F5F5F5F5F5F5F5F5F5F5F5F5E2F5F5E2F5F5F5E2F5F5F5F5F5F5F5F5F5F5F5F5F5F5F5F5F5F5F5F5F5F5F5F5F5F5F5F5F5F5F5F5F5F5F5F5F5F5F5F5F5F5F5F5F5F5F5F5F5F5F5F5F5F5F5F5F5F5F5F5F5F5F5
310
F5F5F5F5F5F5F5F5F5F5F5F5F5F5F5E2E2E2E2EFE2E2F5F5F5F5F5F5F5F5F5F5F5F5F5F5F5F5F5F5F5F5F5F5F5F5F5F5F5F5F5F5F5F5F5E2F5F5F5F5F5F5F5F5F5F5F5F5F5F5F5F5F5F5F5F5F5F5F5F5F5F5F5F5F5F5F5F5F5F5F5F5E2F5F5F5F5F5F5F5F5F5F5F5F5F5F5F5F5E2F5F5E2F5F5F5E2F5F5F5F5F5F5F5F5F5F5
310
F5F5F5F5F5F5E2F5F5F5F5F5F5F5F5F5F5F5F5F5F5F5F5F5F5F5F5F5F5F5F5F5F5F5F5F5F5F5F5F5F5F5F5F5F5F5F5F5F5F5F5F5F5F5F5F5F5F5F5F5F5F5F5F5F5F5F5F5E2E2E2E2EFE2E2F5F5F5F5F5F5F5F5F5F5F5F5F5F5F5F5F5F5F5F5F5F5F5F5F5F5F5F5F5F5F5F5F5E2F5F5F5F5F5F5F5F5F5F5F5F5F5F5F5F5F5F5
310
F5F5F5F5F5F5F5F5F5F5F5F5F5F5F5F5F5F5E2F5F5F5F5F5F5F5F5F5F5F5F5F5F5F5F5E2F5F5E2F5F5F5E2F5F5F5F5F5F5F5F5F5F5F5F5F5F5F5F5E2F5F5F5F5F5F5F5F5F5F5F5F5F5F5F5F5F5F5F5F5F5F5F5F5F5F5F5F5F5F5F5F5F5F5F5F5F5F5F5F5F5F5F5F5F5F5F5F5F5F5F5F5F5F5F5F5F5F5F5F5F5E2E2E2E2EFE2
310
E2F5F5F5F5F5F5F5F5F5F5F5F5F5F5F5F5F5F5F5F5F5F5F5F5F5F5F5F5F5F5F5F5F5E2F5F5F5F5F5F5F5E2E2E2E2E2F5E2E2E2E2E2F5E2E2E2E2E2F5E2E2E2E2E2E2F5E2E2E2E2E2F5F5F5F5F5F5F5F5F5F5F5F5F5F5F5F5E2F5F5E2F5F5F5E2F5F5F5F5F5F5F5F5F5F5F5F5F5F5F5F5E2F5F5F5F5F5F5F5F5F5F5F5F5F5F5
310
F5F5F5F5F5F5F5F5F5F5F5F5F5F5F5F5F5F5F5F5F5F5F5F5F5F5F5F5F5F5F5F5F5F5F5F5F5F5F5F5F5F5F5F5F5F5F5E2E2E2E2EFE2E2F5F5F5F5F5F5F5F5F5F5F5F5F5F5F5F5F5F5F5F5F5F5F5F5F5F5F5F5F5F5F5F5F5E2F5F5F5F5F5F5F5E2F5F5F5F5F5F5F5F5F5F5F5F5F5F5F5F5F5F5F5F5F5F5F5F5F5F5F5F5F5F5F5
310
F5F5F5F5F5F5F5F5F5F5F5F5F5F5E2F5F5E2F5F5F5E2F5F5F5F5F5F5F5F5F5F5F5F5F5F5F5F5E2F5F5F5F5F5F5F5F5F5F5F5F5F5F5F5F5F5F5F5F5F5F5F5F5F5F5F5F5F5F5F5F5F5F5F5F5F5F5F5F5F5F5F5F5F5F5F5F5F5F5F5F5F5F5F5F5F5F5F5F5F5E2E2E2E2EFE2E2F5F5F5F5F5F5F5F5F5F5F5F5F5F5F5F5F5F5F5F5
310
F5F5F5F5F5F5F5F5F5F5F5F5F5E2F5F5F5F5F5F5F5E2F5F5F5F5F5F5F5F5F5F5F5F5F5F5F5F5F5F5F5F5F5F5F5F5F5F5F5F5F5F5F5F5F5F5F5F5F5F5F5F5F5F5F5F5F5E2F5F5E2F5F5F5E2F5F5F5F5F5F5F5F5F5F5F5F5F5F5F5F5E2F5F5F5F5F5F5F5F5F5F5F5F5F5F5F5F5F5F5F5F5F5F5F5F5F5F5F5F5F5F5F5F5F5F5F5
310
F5F5F5F5F5F5F5F5F5F5F5F5F5F5F5F5F5F5F5F5F5F5F5F5F5F5E2E2E2E2EFE2E2F5F5F5F5F5F5F5F5F5F5F5F5F5F5F5F5F5F5F5F5F5F5F5F5F5F5F5F5F5F5F5F5F5E2F5F5F5F5F5F5F5E2F5F5F5F5F5F5F5F5F5F5F5F5F5F5F5F5F5F5F5F5F5F5F5F5F5F5F5F5F5F5F5F5F5F5F5F5F5F5F5F5F5F5F5F5F5E2F5F5E2F5F5F5
310
E2F5F5F5F5F5F5F5F5F5F5F5F5F5F5F5F5F5F5F5F5F5F5F5F5F5F5F5F5F5F5F5F5F5F5F5F5F5F5F5F5F5F5F5F5F5F5F5F5F5F5F5F5F5F5F5F5F5F5F5F5F5F5F5F5F5F5F5F5F5F5F5F5F5F5F5F5F5F5E2E2E2E2EFE2E2F5F5F5F5F5F5F5F5F5F5F5F5F5F5F5F5F5F5F5F5F5F5F5F5F5F5F5F5F5F5F5F5F5E2F5F5F5F5F5F5F5
310
E2F5F5F5F5F5F5F5F5F5F5F5F5F5F5F5F5F5F5F5F5F5F5F5F5F5F5F5F5F5F5F5F5F5F5F5F5F5F5F5F5F5F5F5F5F5E2F5F5E2F5F5F5E2F5F5F5F5F5F5F5F5F5F5F5F5F5F5F5F5E2F5F5F5F5F5F5F5F5F5F5F5F5F5F5F5F5F5F5F5F5F5F5F5F5F5F5F5F5F5F5F5F5F5F5F5F5F5F5F5F5F5F5F5F5F5F5F5F5F5F5F5F5F5F5F5F5
310
F5F5F5F5F5E2E2E2E2EFE2E2F5F5F5F5F5F5F5F5F5F5F5F5F5F5F5F5F5F5F5F5F5F5F5F5F5F5F5F5F5F5F5F5F5E2F5F5F5F5F5F5F5F5F5F5F5F5F5F5F5F5F5F5F5F5F5F5F5F5F5F5F5F5F5F5F5F5F5F5F5F5F5F5F5F5F5F5F5F5F5F5F5F5F5F5F5F5F5E2F5F5E2F5F5F5E2F5F5F5F5F5F5F5F5F5F5F5F5F5F5F5F5E2F5F5F5
310
F5F5F5F5F5F5F5F5F5F5F5F5F5F5F5F5F5F5F5F5F5F5F5F5F5F5F5F5F5F5F5F5F5F5F5F5F5F5F5F5F5F5F5F5F5F5F5F5F5F5F5F5F5F5F5F5F5F5E2E2E2E2EFE2E2F5F5F5F5F5F5F5F5F5F5F5F5F5F5F5F5F5F5F5F5F5F5F5F5F5F5F5F5F5F5F5F5F5E2F5F5F5F5F5F5F5E2F5F5F5F5F5F5F5F5F5F5F5F5F5F5F5F5F5F5F5F5
310
F5F5F5F5F5F5F5F5F5F5F5F5F5F5F5F5F5F5F5F5F5F5F5F5F5E2F5F5E2F5F5F5E2F5F5F5F5F5F5F5F5F5F5F5F5F5F5F5F5E2F5F5F5F5F5F5F5F5F5F5F5F5F5F5F5F5F5F5F5F5F5F5F5F5F5F5F5F5F5F5F5F5F5F5F5F5F5F5F5F5F5F5F5F5F5F5F5F5F5F5F5F5F5F5F5F5F5F5F5F5F5E2E2E2E2EFE2E2F5F5F5F5F5F5F5F5F5
310
F5F5F5F5F5F5F5F5F5F5F5F5F5F5F5F5F5F5F5F5F5F5F5F5E2F5F5F5F5F5F5F5E2F5F5F5F5F5F5F5F5F5F5F5F5F5F5F5F5F5F5F5F5F5F5F5F5F5F5F5F5F5F5F5F5F5F5F5F5F5F5F5F5F5F5F5F5F5E2F5F5E2F5F5F5E2F5F5F5F5F5F5F5F5F5F5F5F5F5F5F5F5E2F5F5F5F5F5F5F5F5F5F5F5F5F5F5F5F5F5F5F5F5F5F5F5F5
310
F5F5F5F5F5F5F5F5F5F5F5F5F5F5F5F5F5F5F5F5F5F5F5F5F5F5F5F5F5F5F5F5F5F5F5F5F5E2E2E2E2EFE2E2F5F5F5F5F5F5F5F5F5F5F5F5F5F5F5F5F5F5F5F5F5F5F5F5F5F5F5F5F5F5F5F5F5E2F5F5F5F5F5F5F5E2F5F5F5F5F5F5F5F5F5F5F5F5F5F5F5F5F5F5F5F5F5F5F5F5F5F5F5F5F5F5F5F5F5F5F5F5F5F5F5F5F5
310
F5F5F5F5E2F5F5E2F5F5F5E2F5F5F5F5F5F5F5F5F5F5F5F5F5F5F5F5E2F5F5F5F5F5F5F5F5F5F5F5F5F5F5F5F5F5F5F5F5F5F5F5F5F5F5F5F5F5F5F5F5F5F5F5F5F5F5F5F5F5F5F5F5F5F5F5F5F5F5F5F5F5F5F5F5F5F5F5F5F5E2E2E2E2EFE2E2F5F5F5F5F5F5F5F5F5F5F5F5F5F5F5F5F5F5F5F5F5F5F5F5F5F5F5F5F5F5
310
F5F5F5E2F5F5F5F5F5F5F5E2F5F5F5F5F5F5F5F5F5F5F5F5F5F5F5F5F5F5F5F5F5F5F5F5F5F5F5F5F5F5F5F5F5F5F5F5F5F5F5F5F5F5F5F5F5E2F5F5E2F5F5F5E2F5F5F5F5F5F5F5F5F5F5F5F5F5F5F5F5E2F5F5F5F5F5F5F5F5F5F5F5F5F5F5F5F5F5F5F5F5F5F5F5F5F5F5F5F5F5F5F5F5F5F5F5F5F5F5F5F5F5F5F5F5F5
310
F5F5F5F5F5F5F5F5F5F5F5F5F5F5F5F5E2E2E2E2EFE2E2F5F5F5F5F5F5F5F5F5F5F5F5F5F5F5F5F5F5F5F5F5F5F5F5F5F5F5F5F5F5F5F5F5E2F5F5F5F5F5F5F5E2F5F5F5F5F5F5F5F5F5F5F5F5F5F5F5F5F5F5F5F5F5F5F5F5F5F5F5F5F5F5F5F5F5F5F5F5F5F5F5F5F5F5F5E2E2E2E2E2E2E2E2E2E2E2F5F5F5F5F5F5F5F5
310
F5F5F5F5F5F5F5F5F5F5F5F5F5F5F5F5F5F5F5F5F5F5F5F5F5F5F5F5F5F5F5F5F5F5F5F5F5F5F5F5F5F5F5F5F5F5F5F5F5F5F5F5F5F5F5F5F5F5F5F5F5F5F5F5F5F5F5F5F5E2E2E2E2EFE2E2F5F5F5F5F5F5F5F5F5F5F5F5F5F5F5F5F5F5F5F5F5F5F5F5F5F5F5F5F5F5E2E2E2E2F5F5F5F5F5F5F5F5F5F5F5F5F5F5F5F5F5
310
F5F5F5F5F5F5F5F5F5F5F5F5F5F5F5F5F5F5F5F5F5F5F5F5F5F5F5F5E2E2E2E2E2E2E2F5F5F5F5E2E2F5F5F5E2F5F5F5F5F5F5F5F5F5F5F5F5F5F5F5E2F5F5F5F5F5F5F5F5F5F5F5F5F5F5F5F5F5F5F5F5F5F5F5F5F5F5F5F5F5F5F5F5F5F5F5F5F5F5F5F5F5F5F5F5F5F5F5F5F5F5F5F5F5F5F5F5F5F5F5F5F5E2E2E2E2EF
310
E2E2F5F5F5F5F5F5F5F5F5F5F5F5F5F5F5F5F5F5F5F5F5F5F5F5F5F5F5F5F5F5E2E2E2E2F5F5F5F5F5F5F5E2F5F5F5F5F5F5F5F5F5F5F5F5F5F5F5F5F5F5F5F5F5F5F5F5F5F5F5F5F5F5F5F5F5F5F5F5F5E2E2E2E2E2E2E2F5F5F5F5E2E2F5F5F5E2F5F5F5F5F5F5F5F5F5F5F5F5F5F5F5E2F5F5F5F5F5F5F5F5F5F5F5F5F5
310
F5F5F5F5F5F5F5F5F5F5F5F5F5F5F5F5F5F5F5F5F5F5F5F5F5F5F5F5F5F5F5F5F5F5F5F5F5F5F5F5F5F5F5F5F5F5F5F5E2F5E2E2EFE2E2F5F5F5F5F5F5F5F5F5F5F5F5F5F5F5F5F5F5F5F5F5F5F5F5F5F5F5F5F5F5E2E2E2E2F5F5F5F5F5F5F5E2F5F5F5F5F5F5F5F5F5F5F5F5F5F5F5F5F5F5F5F5F5F5F5F5F5F5F5F5F5F5
310
F5F5F5F5F5F5F5F5F5E2E2E2E2E2F5F5F5F5E2E2F5F5F5E2F5F5F5F5F5F5F5F5F5F5F5F5F5F5F5E2F5F5F5F5F5F5F5F5F5F5F5F5F5F5F5F5F5F5F5F5F5F5F5F5F5F5F5F5F5F5F5F5F5F5F5F5F5F5F5F5F5F5F5F5F5F5F5F5F5F5F5F5F5F5F5F5F5F5F5F5F5E2F5E2E2EFE2E2F5F5F5F5F5F5F5F5F5F5F5F5F5F5F5F5F5F5F5
310
F5F5F5F5F5F5F5F5F5F5F5E2E2E2E2F5F5F5F5F5F5F5E2F5F5F5F5F5F5F5F5F5F5F5F5F5F5F5F5F5F5F5F5F5F5F5F5F5F5F5F5F5F5F5F5F5F5F5F5F5F5F5E2E2E2E2E2F5F5F5F5E2E2F5F5F5E2F5F5F5F5F5F5F5F5F5F5F5F5F5F5F5E2F5F5F5F5F5F5F5F5F5F5F5F5F5F5F5F5F5F5F5F5F5F5F5F5F5F5F5F5F5F5F5F5F5F5
310
F5F5F5F5F5F5F5F5F5F5F5F5F5F5F5F5F5F5F5F5F5F5F5F5F5F5F5E2F5E2E2EFE2E2F5F5F5F5F5F5F5F5F5F5F5F5F5F5F5F5F5F5F5F5F5F5F5F5F5F5F5F5F5F5F5F5F5E2F5F5F5F5F5F5F5E2F5F5F5F5F5F5F5F5F5F5F5F5F5F5F5F5F5F5F5F5F5F5F5F5F5F5F5F5F5F5F5F5F5F5F5F5F5F5F5E2E2E2E2E2F5F5F5F5E2E2F5
310
F5F5E2E2E2E2F5F5F5F5F5F5F5F5F5F5F5F5E2E2E2E2E2E2F5F5F5F5F5F5F5F5F5F5F5F5F5F5F5F5F5F5F5F5F5F5F5F5F5F5F5F5F5F5F5F5F5F5F5F5F5F5F5F5F5F5F5F5F5F5F5F5F5F5F5F5F5F5F5F5E2F5E2E2EFE2E2F5F5F5F5F5F5F5F5F5F5F5F5F5F5F5F5F5F5F5F5F5F5F5F5F5F5F5F5F5F5F5F5F5E2F5F5F5F5F5F5
310
F5E2F5F5F5F5F5F5F5F5F5F5F5F5F5F5F5F5F5F5F5F5F5F5F5F5F5F5F5F5F5F5F5F5F5F5F5F5F5F5F5E2E2E2E2E2F5F5F5F5E2E2F5F5F5E2F5F5F5F5F5F5F5F5F5F5F5F5F5F5F5F5F5F5F5F5E2F5F5F5F5F5F5F5F5F5F5F5F5F5F5F5F5F5F5F5F5F5F5F5F5F5F5F5F5F5F5F5F5F5F5F5F5F5F5F5F5F5F5F5F5F5F5F5F5F5F5
310
F5F5F5F5F5F5E2F5E2E2EFE2E2F5F5F5F5F5F5F5F5F5F5F5F5F5F5F5F5F5F5F5F5F5F5F5F5F5F5F5F5F5F5F5F5F5E2F5F5F5F5F5F5F5F5F5F5F5F5F5F5F5F5F5F5F5F5F5F5F5F5E2E2F5F5F5F5F5F5F5F5F5F5F5F5F5F5F5F5F5F5F5E2E2E2E2E2E2E2F5F5F5F5E2E2F5F5F5E2F5F5F5F5F5F5F5F5F5F5F5F5F5F5F5F5F5F5
310
F5F5E2F5F5F5F5F5F5F5F5F5F5F5F5F5F5F5F5F5F5F5F5F5F5F5F5F5F5F5F5F5F5F5F5F5F5F5F5F5F5F5F5F5F5F5F5F5F5F5F5F5F5F5F5F5F5F5F5E2F5E2E2EFE2E2F5F5F5F5F5F5F5F5F5F5F5F5F5F5F5F5F5F5F5F5F5F5F5F5F5F5F5F5F5F5F5F5F5E2F5F5F5F5F5F5F5E2F5F5F5F5F5F5F5F5F5F5F5F5F5F5E2E2E2E2E2
310
E2F5F5F5F5F5F5F5F5F5F5F5F5F5F5F5F5F5E2E2E2E2E2E2E2F5F5F5F5E2E2F5F5F5E2F5F5F5F5F5F5F5F5F5F5F5F5F5F5F5F5F5F5F5F5E2F5F5F5F5F5F5F5F5F5F5F5F5F5F5F5F5F5F5F5F5F5F5F5F5F5F5F5F5F5F5F5F5F5F5F5F5F5F5F5F5F5F5F5F5F5F5F5F5F5F5F5F5F5F5F5F5E2F5E2E2EFE2E2F5F5F5F5F5F5F5F5
310
F5F5F5F5F5F5F5F5F5F5F5F5F5F5F5F5F5F5F5F5F5F5F5F5F5E2F5F5F5F5F5F5F5E2F5F5F5F5F5F5F5F5F5F5F5F5F5E2E2E2F5F5F5F5E2E2E2F5F5F5F5F5F5F5F5F5F5F5F5F5F5F5F5F5F5F5F5E2E2E2E2E2E2E2E2E2E2E2F5F5F5F5F5F5F5F5F5F5F5F5F5F5F5F5F5F5F5F5F5F5F5F5F5F5F5F5F5F5F5F5F5F5F5F5F5F5F5
310
F5F5F5F5F5F5F5F5F5F5F5F5F5F5F5F5F5F5F5F5F5F5F5F5F5F5F5F5F5F5F5F5F5F5F5F5F5F5E2F5E2E2EFE2E2F5F5F5F5F5F5F5F5F5F5F5F5F5F5F5F5F5F5F5F5F5F5F5F5F5F5F5F5F5F5F5F5F5E2F5F5F5F5F5F5F5E2F5F5F5F5F5F5F5F5F5F5F5F5E2E2F5F5F5F5F5F5F5E2E2F5F5F5F5F5F5F5F5F5F5F5F5F5F5F5F5F5
310
F5F5F5F5F5F5E2F5F5F5F5E2F5F5F5F5F5F5F5F5F5F5F5F5F5F5F5F5F5F5F5F5F5F5E2F5F5F5F5F5F5F5F5F5F5F5F5F5F5F5F5F5F5F5F5F5F5F5F5F5F5F5F5F5F5F5F5F5F5F5F5F5F5F5F5F5F5F5F5F5F5F5F5F5F5F5F5F5F5F5F5E2F5E2E2EFE2E2F5F5F5F5F5F5F5F5F5F5F5F5F5F5F5F5F5F5F5F5F5F5F5F5F5F5F5F5F5
310
F5F5F5F5E2F5F5F5F5F5F5F5E2F5F5F5F5F5F5F5F5F5F5F5F5E2F5F5F5F5F5F5F5F5E2E2F5F5F5F5F5F5F5F5F5F5F5F5F5F5F5F5F5F5F5F5F5F5F5E2F5F5F5F5E2F5F5F5F5F5F5F5F5F5F5F5F5F5F5F5F5F5F5F5F5F5F5E2F5F5F5F5F5F5F5F5F5F5F5F5F5F5F5F5F5F5F5F5F5F5F5F5F5F5F5F5F5F5F5F5F5F5F5F5F5F5F5
310
F5F5F5F5F5F5F5F5F5F5F5F5F5F5F5F5F5E2E2E2E2EFE2E2F5F5F5F5F5F5F5F5F5F5F5F5F5F5F5F5F5F5F5F5F5F5F5F5F5F5F5F5F5F5F5F5F5E2F5F5F5F5F5F5F5E2F5F5F5F5F5F5F5F5F5F5F5E2E2F5F5F5E2E2F5F5F5F5E2F5F5F5F5F5F5F5F5F5F5F5F5F5F5F5F5F5F5F5F5F5F5F5E2F5F5F5F5E2F5F5F5F5F5F5F5F5F5
310
F5F5F5F5F5F5F5F5F5F5F5F5F5E2F5F5F5F5F5F5F5F5F5F5F5F5F5F5F5F5F5F5F5F5F5F5F5F5F5F5F5F5F5F5F5F5F5F5F5F5F5F5F5F5F5F5F5F5F5F5F5F5F5F5F5F5F5F5F5F5E2E2E2E2EFE2E2F5F5F5F5F5F5F5F5F5F5F5F5F5F5F5F5F5F5F5F5F5F5F5F5F5F5F5F5F5F5F5F5F5E2F5F5F5F5F5F5F5E2F5F5F5F5F5F5F5F5
310
F5F5F5E2E2F5F5F5E2E2F5F5F5F5E2F5F5F5F5F5F5F5F5F5F5F5F5F5F5F5F5F5F5F5F5F5F5F5E2F5F5F5F5E2F5F5F5F5F5F5F5F5F5F5F5F5F5F5F5F5F5F5F5F5F5F5E2F5F5F5F5F5F5F5F5F5F5F5F5F5F5F5F5F5F5F5F5F5F5F5F5F5F5F5F5F5F5F5F5F5F5F5F5F5F5F5F5F5F5F5F5F5F5F5F5F5F5F5F5F5F5F5F5E2E2E2E2
310
EFE2E2F5F5F5F5F5F5F5F5F5F5F5F5F5F5F5F5F5F5F5F5F5F5F5F5F5F5F5F5F5F5F5F5F5E2F5F5F5F5F5F5F5F5F5F5F5F5F5F5F5F5F5F5F5F5E2F5F5F5F5E2F5F5F5F5E2F5F5F5F5F5F5F5F5F5F5F5F5F5F5F5F5F5F5F5F5F5F5F5E2F5F5F5F5E2F5F5F5F5F5F5F5F5F5F5F5F5F5F5F5F5F5F5F5F5F5F5E2F5F5F5F5F5F5F5
310
F5F5F5F5F5F5F5F5F5F5F5F5F5F5F5F5F5F5F5F5F5F5F5F5F5F5F5F5F5F5F5F5F5F5F5F5F5F5F5F5F5F5F5F5F5F5F5F5F5E2E2E2E2EFE2E2F5F5F5F5F5F5F5F5F5F5F5F5F5F5F5F5F5F5F5F5F5F5F5F5F5F5F5F5F5F5F5F5F5E2F5F5F5F5F5F5F5E2F5F5F5F5F5F5F5F5F5F5F5F5E2E2F5F5F5E2F5F5F5F5E2F5F5F5F5F5F5
310
F5F5F5F5F5F5F5F5F5F5F5F5F5F5F5F5F5E2F5F5F5F5E2F5F5F5F5F5F5F5F5F5F5F5F5F5F5F5F5F5F5F5F5F5F5E2F5F5F5F5F5F5F5F5F5F5F5F5F5F5F5F5F5F5F5F5F5F5F5F5F5F5F5F5F5F5F5F5F5F5F5F5F5F5F5F5F5F5F5F5F5F5F5F5F5F5F5F5F5F5F5F5E2E2E2E2EFE2E2F5F5F5F5F5F5F5F5F5F5F5F5F5F5F5F5F5F5
310
F5F5F5F5F5F5F5F5F5F5F5F5F5F5F5E2F5F5F5F5F5F5F5E2F5F5F5F5F5F5F5F5F5F5F5F5F5E2F5F5F5E2F5F5F5E2E2F5F5F5F5F5F5F5F5F5F5F5F5F5F5F5F5F5F5F5F5F5F5F5E2F5F5F5F5E2F5F5F5F5F5F5F5F5F5F5F5F5F5F5F5F5F5F5F5F5F5F5F5F5F5F5F5F5F5F5F5F5F5F5F5F5F5F5F5F5F5F5F5F5F5F5F5F5F5F5F5
310
F5F5F5F5F5F5F5F5F5F5F5F5F5F5F5F5F5F5F5F5F5F5F5F5F5F5F5F5E2E2E2E2EFE2E2F5F5F5F5F5F5F5F5F5F5F5F5F5F5F5F5F5F5F5F5F5F5F5F5F5F5F5F5F5F5F5F5F5E2F5F5F5F5F5F5F5E2F5F5F5F5F5F5F5F5F5F5F5F5E2E2E2E2E2E2E2E2E2E2E2E2F5F5F5F5F5F5F5F5F5F5F5F5F5F5F5F5F5F5F5F5F5E2E2E2E2E2
310
E2E2F5F5F5F5F5F5F5F5F5F5F5F5F5F5F5F5F5F5F5F5F5F5E2F5F5F5F5F5F5F5F5F5F5F5F5F5F5F5F5F5F5F5F5F5F5F5F5F5F5F5F5F5F5F5F5F5F5F5F5F5F5F5F5F5F5F5F5F5F5F5F5F5F5F5F5F5F5F5F5E2E2E2E2EFE2E2F5F5F5F5F5F5F5F5F5F5F5F5F5F5F5F5F5F5F5F5F5F5F5F5F5F5F5F5F5F5F5F5F5E2F5F5F5F5F5
310
F5F5E2F5F5F5F5F5F5F5F5F5F5F5F5E2E2F5F5F5F5F5F5F5F5E2E2E2E2E2E2E2E2E2E2E2E2E2E2E2E2E2E2E2E2E2E2E2E2E2E2E2E2E2E2E2E2F5F5F5F5F5F5F5F5F5F5F5F5F5F5F5F5F5F5F5F5E2F5F5F5F5F5F5F5F5F5F5F5F5F5F5F5F5F5F5F5F5F5F5F5F5F5F5F5F5F5F5F5F5F5F5F5F5F5F5F5F5F5F5F5F5F5F5F5F5F5
310
F5F5F5F5F5F5F5E2E2E2E2EFE2E2F5F5F5F5F5F5F5F5F5F5F5F5F5F5F5F5F5F5F5F5F5F5F5F5F5F5F5F5F5F5F5F5F5E2F5F5F5F5F5F5F5E2F5F5F5F5F5F5F5F5F5F5F5F5E2F5E2F5F5F5F5F5F5E2F5E2E2E2E2E2E2E2E2E2E2E2E2E2E2E2E2E2E2E2E2E2E2E2E2E2E2E2E2E2E2E2E2E2E2E2E2E2F5F5F5F5F5F5F5F5F5F5F5
310
F5F5F5E2F5F5F5F5F5F5F5F5F5F5F5F5F5F5F5F5F5F5F5F5F5F5F5F5F5F5F5F5F5F5F5F5F5F5F5F5F5F5F5F5F5F5F5F5F5F5F5F5F5F5F5F5F5F5F5F5E2E2E2E2EFE2E2F5F5F5F5F5F5F5F5F5F5F5F5F5F5F5F5F5F5F5F5F5F5F5F5F5F5F5F5F5F5F5F5F5E2F5F5F5F5F5F5F5F5F5F5F5F5F5F5F5F5F5F5F5F5E2F5F5E2E2F5
310
F5F5E2F5F5E2E2E2E2E2E2E2E2E2E2E2E2E2E2E2E2E2E2E2E2E2E2E2E2E2E2E2E2E2E2E2E2E2E2E2E2E2F5F5F5F5F5F5F5F5F5F5F5F5F5F5E2F5F5F5F5F5F5F5F5F5F5F5F5F5F5F5F5F5F5F5F5F5F5F5F5F5F5F5F5F5F5F5F5F5F5F5F5F5F5F5F5F5F5F5F5F5F5F5F5F5F5F5F5F5F5F5F5E2E2E2E2EFE2E2F5F5F5F5F5F5F5
310
F5F5F5F5F5F5F5F5F5F5F5F5F5F5F5F5F5F5F5F5F5F5F5F5F5F5E2F5F5F5F5F5F5F5E2F5F5F5F5F5F5F5F5F5F5F5F5E2F5F5F5F5E2F5E2F5F5F5E2E2E2E2E2E2E2E2E2E2E2E2E2E2E2E2E2E2E2E2E2E2E2E2E2E2E2E2E2E2E2E2E2E2E2E2E2F5F5F5F5F5F5F5F5F5F5F5F5F5F5E2F5F5F5F5F5F5F5F5F5F5F5F5F5F5F5F5F5
310
F5F5F5F5F5F5F5F5F5F5F5F5F5F5F5F5F5F5F5F5F5F5F5F5F5F5F5F5F5F5F5F5F5F5F5F5F5F5F5E2E2E2E2EFE2E2F5F5F5F5F5F5F5F5F5F5F5F5F5F5F5F5F5F5F5F5F5F5F5F5F5F5F5F5F5F5F5F5F5E2F5F5F5F5F5F5F5E2F5F5F5F5F5F5F5F5F5F5F5F5E2F5F5F5F5E2E2E2F5F5F5E2E2E2E2E2E2E2E2E2E2E2E2E2E2E2E2
310
E2E2E2E2E2E2E2E2E2E2E2E2E2E2E2F5F5E2F5E2E2F5F5F5F5F5F5F5F5F5F5F5F5F5F5F5F5F5F5F5F5F5F5F5F5F5F5F5F5F5F5F5F5F5F5F5F5F5F5F5F5F5F5F5F5F5F5F5F5F5F5F5F5F5F5F5F5F5F5F5F5F5F5F5F5F5F5F5F5F5F5F5E2E2E2E2EFE2E2F5F5F5F5F5F5F5F5F5F5F5F5F5F5F5F5F5F5F5F5F5F5F5F5F5F5F5F5
310
F5F5F5F5F5E2F5F5F5F5F5F5F5E2F5F5F5F5F5F5F5F5F5F5F5F5E2F5F5F5F5E2E2E2F5F5F5E2E2E2E2E2E2E2E2E2E2E2E2E2E2E2E2E2E2E2E2E2E2E2E2E2E2E2E2E2E2E2F5F5E2E2E2E2F5F5F5F5F5F5F5F5F5F5F5F5F5F5E2F5F5F5F5F5F5F5F5F5F5F5F5F5F5F5F5F5F5F5F5F5F5F5F5F5F5F5F5F5F5F5F5F5F5F5F5F5F5
310
F5F5F5F5F5F5F5F5F5F5F5F5F5F5F5F5F5F5E2E2E2E2EFE2E2F5F5F5F5F5F5F5F5F5F5F5F5F5F5F5F5F5F5F5F5F5F5F5F5F5F5F5F5F5F5F5F5F5E2F5F5F5F5F5F5F5E2F5F5F5F5F5F5F5F5F5F5F5F5E2F5F5F5E2F5F5F5E2F5F5E2E2E2E2E2E2E2E2E2E2E2E2E2E2E2E2E2E2E2E2E2E2E2E2E2E2E2E2E2E2E2E2E2E2E2E2E2
310
F5F5F5F5F5F5F5F5F5F5F5F5F5F5E2F5F5F5F5F5F5F5F5F5F5F5F5F5F5F5F5F5F5F5F5F5F5F5F5F5F5F5F5F5F5F5F5F5F5F5F5F5F5F5F5F5F5F5F5F5F5F5F5F5F5F5F5F5F5F5F5E2E2E2E2EFE2E2F5F5F5F5F5F5F5F5F5F5F5F5F5F5F5F5F5F5F5F5F5F5F5F5F5F5F5F5F5F5F5F5F5E2F5F5F5F5F5F5F5E2F5F5F5F5F5F5F5
310
F5F5F5F5F5E2F5F5E2F5F5F5F5F5E2F5E2E2E2E2E2E2E2E2E2E2E2E2E2E2E2E2E2E2E2E2E2E2E2E2E2E2E2E2E2E2E2E2E2F5E2F5E2F5F5F5F5F5F5F5F5F5F5F5F5F5F5E2F5F5F5F5F5F5F5F5F5F5F5F5F5F5F5F5F5F5F5F5F5F5F5F5F5F5F5F5F5F5F5F5F5F5F5F5F5F5F5F5F5F5F5F5F5F5F5F5F5F5F5F5F5F5F5F5E2E2E2
310
E2EFE2E2F5F5F5F5F5F5F5F5F5F5F5F5F5F5F5F5F5F5F5F5F5F5F5F5F5F5F5F5F5F5F5F5F5E2F5F5F5F5F5F5F5F5F5F5F5F5F5F5F5F5F5F5F5F5E2E2E2F5F5F5F5F5F5F5E2E2E2E2E2E2E2E2E2E2E2E2E2E2E2E2E2E2E2E2E2E2E2E2E2E2E2E2E2E2E2E2E2E2E2E2E2E2F5F5F5F5F5F5F5F5F5F5F5F5F5F5E2F5F5F5F5F5F5
310
F5F5F5F5F5F5F5F5F5F5F5F5F5F5F5F5F5F5F5F5F5F5F5F5F5F5F5F5F5F5F5F5F5F5F5F5F5F5F5F5F5F5F5F5F5F5F5F5F5F5E2E2E2E2EFE2E2F5F5F5F5F5F5F5F5F5F5F5F5F5F5F5F5F5F5F5F5F5F5F5F5F5F5F5F5F5F5F5F5F5E2F5F5F5F5F5F5F5E2F5F5F5F5F5F5F5F5F5F5F5F5E2E2E2F5F5F5F5F5F5F5E2E2E2E2E2E2
310
E2E2E2E2E2E2E2E2E2E2E2E2E2E2E2E2E2E2E2E2E2E2E2E2E2E2F5F5F5F5F5F5F5F5F5F5F5F5F5F5F5F5F5F5F5F5E2F5F5F5F5F5F5F5F5F5F5F5F5F5F5F5F5F5F5F5F5F5F5F5F5F5F5F5F5F5F5F5F5F5F5F5F5F5F5F5F5F5F5F5F5F5F5F5F5F5F5F5F5F5F5F5F5E2F5E2E2EFE2E2F5F5F5F5F5F5F5F5F5F5F5F5F5F5F5F5F5
310
F5F5F5F5F5F5F5F5F5F5F5F5F5F5F5F5E2F5F5F5F5F5F5F5E2F5F5F5F5F5F5F5F5F5F5F5F5E2E2E2E2E2E2E2E2E2E2E2E2F5F5F5F5F5F5F5F5F5F5F5F5F5F5F5F5F5F5F5F5F5F5F5F5F5F5F5F5F5F5F5F5F5F5F5F5F5F5F5F5F5F5F5F5F5F5F5F5F5F5F5F5F5F5F5F5F5F5F5F5F5F5F5F5F5F5F5F5F5F5F5F5F5F5F5F5F5F5
310
F5F5F5F5F5F5F5F5F5F5F5F5F5F5F5F5F5F5F5F5F5F5F5F5F5F5F5F5F5E2F5E2E2EFE2E2F5F5F5F5F5F5F5F5F5F5F5F5F5F5F5F5F5F5F5F5F5F5F5F5F5F5F5F5F5F5F5F5F5E2F5F5F5F5F5F5F5E2F5F5F5F5F5F5F5F5F5F5F5F5F5F5F5F5F5F5E2F5F5F5F5F5F5F5F5F5F5F5F5F5F5F5F5F5F5F5F5F5F5F5F5F5F5F5F5F5F5
310
F5F5F5F5F5F5F5F5F5F5F5F5F5F5F5F5F5F5F5F5F5F5F5F5F5E2F5F5F5F5F5F5F5F5F5F5F5F5F5F5F5F5F5F5F5F5F5F5F5F5F5F5F5F5F5F5F5F5F5F5F5F5F5F5F5F5F5F5F5F5F5F5F5F5F5F5F5F5F5F5F5F5E2F5E2E2EFE2E2F5F5F5F5F5F5F5F5F5F5F5F5F5F5F5F5F5F5F5F5F5F5F5F5F5F5F5F5F5F5F5F5F5E2F5F5F5F5
310
F5F5F5E2F5F5F5F5F5F5F5F5F5F5F5F5F5F5F5F5F5F5E2F5F5F5F5F5F5F5F5F5F5F5F5F5F5F5F5F5F5F5F5F5F5F5F5F5F5F5F5F5F5F5F5F5F5F5F5F5F5F5F5F5F5F5F5F5F5F5F5F5F5F5F5F5F5F5E2F5F5F5F5F5F5F5F5F5F5F5F5F5F5F5F5F5F5F5F5F5F5F5F5F5F5F5F5F5F5F5F5F5F5F5F5F5F5F5F5F5F5F5F5F5F5F5F5
310
F5F5F5F5F5F5F5F5E2F5E2E2EFE2E2F5F5F5F5F5F5F5F5F5F5F5F5F5F5F5F5F5F5F5F5F5F5F5F5F5F5F5F5F5F5F5F5F5E2F5F5F5F5F5F5F5E2F5F5F5F5F5F5F5F5F5F5F5F5F5F5F5E2E2E2E2E2E2F5F5F5F5F5F5F5F5F5F5F5F5F5F5F5F5F5F5F5F5F5F5F5F5F5F5F5F5F5F5F5F5F5F5F5F5F5F5F5F5F5F5F5F5F5F5F5F5F5
310
F5F5F5F5E2F5F5F5F5F5F5F5F5F5F5F5F5F5F5F5F5F5F5F5F5F5F5F5F5F5F5F5F5F5F5F5F5F5F5F5F5F5F5F5F5F5F5F5F5F5F5F5F5F5F5F5F5F5F5F5F5E2F5E2E2EFE2E2F5F5F5F5F5F5F5F5F5F5F5F5F5F5F5F5F5F5F5F5F5F5F5F5F5F5F5F5F5F5F5F5F5E2F5F5F5F5F5F5F5E2F5F5F5F5F5F5F5F5F5F5F5F5F5F5F5F5F5
310
F5F5F5F5F5F5F5F5F5F5F5F5F5F5F5F5F5F5F5F5F5F5F5F5F5F5F5F5F5F5F5F5F5F5F5F5F5F5F5F5F5F5F5F5F5F5F5F5F5F5F5F5F5F5F5F5F5E2F5F5F5F5F5F5F5F5F5F5F5F5F5F5F5F5F5F5F5F5F5F5F5F5F5F5F5F5F5F5F5F5F5F5F5F5F5F5F5F5F5F5F5F5F5F5F5F5F5F5F5F5F5F5F5F5E2F5E2E2EFE2E2F5F5F5F5F5F5
310
F5F5F5F5F5F5F5F5F5F5F5F5F5F5F5F5F5F5F5F5F5F5F5F5F5F5F5E2F5F5F5F5F5F5F5F5F5F5F5F5F5F5F5F5F5F5F5F5F5F5F5F5F5F5F5F5F5F5F5F5F5F5F5F5F5F5F5F5F5F5F5F5F5F5F5F5F5F5F5F5F5F5F5F5F5F5F5F5F5F5F5F5F5F5F5F5F5F5F5F5F5F5F5F5F5F5F5F5F5F5E2F5F5F5F5F5F5F5F5F5F5F5F5F5F5F5F5
310
F5F5F5F5F5F5F5F5F5F5F5F5F5F5F5F5F5F5F5F5F5F5F5F5F5F5F5F5F5F5F5F5F5F5F5F5F5F5F5F5E2F5E2E2EFE2E2F5F5F5F5F5F5F5F5F5F5F5F5F5F5F5F5F5F5F5F5F5F5F5F5F5F5F5F5F5F5F5F5F5E2F5F5F5F5F5F5F5E2F5F5F5F5F5F5F5F5F5F5F5F5F5F5F5F5F5F5F5F5F5F5F5F5F5F5F5F5F5F5F5F5F5F5F5F5F5F5
310
F5F5F5F5F5F5F5F5F5F5F5F5F5F5F5F5F5F5F5F5F5F5F5F5F5F5F5F5F5F5F5F5F5F5F5F5E2F5F5F5F5F5F5F5F5F5F5F5F5F5F5F5F5F5F5F5F5F5F5F5F5F5F5F5F5F5F5F5F5F5F5F5F5F5F5F5F5F5F5F5F5F5F5F5F5F5F5F5F5F5F5F5F5E2F5E2E2EFE2E2F5F5F5F5F5F5F5F5F5F5F5F5F5F5F5F5F5F5F5F5F5F5F5F5F5F5F5
310
F5F5F5F5F5F5E2F5F5F5F5F5F5F5E2F5F5F5F5F5F5F5F5F5F5F5F5F5F5F5F5F5F5F5F5F5F5F5F5F5F5F5F5F5F5F5F5F5F5F5F5F5F5F5F5F5F5F5F5F5F5F5F5F5F5F5F5F5F5F5F5F5F5F5F5F5F5F5F5F5F5F5F5F5F5F5F5F5F5F5F5F5F5F5F5F5F5F5F5F5F5F5F5F5F5F5F5F5F5F5F5F5F5F5F5F5F5F5F5F5F5F5F5F5F5F5F5
310
F5F5F5F5F5F5F5F5F5F5F5F5F5F5F5F5F5F5F5E2F5E2E2EFE2E2F5F5F5F5F5F5F5F5F5F5F5F5F5F5F5F5F5F5F5F5F5F5F5F5F5F5F5F5F5F5F5F5F5E2F5F5F5F5F5F5F5E2F5F5F5F5F5F5F5F5F5F5F5F5F5F5F5F5F5F5F5F5F5F5F5F5F5F5F5F5F5F5F5F5F5F5F5F5F5F5F5F5F5F5F5F5F5F5F5F5F5F5F5F5F5F5F5F5F5F5F5
310
F5F5F5F5F5F5F5F5F5F5F5F5F5F5F5E2F5F5F5F5F5F5F5F5F5F5F5F5F5F5F5F5F5F5F5F5F5F5F5F5F5F5F5F5F5F5F5F5F5F5F5F5F5F5F5F5F5F5F5F5F5F5F5F5F5F5F5F5F5F5F5F5E2E2E2E2EFE2E2F5F5F5F5F5F5F5F5F5F5F5F5F5F5F5F5F5F5F5F5F5F5F5F5F5F5F5F5F5F5F5F5F5E2F5F5F5F5F5F5F5E2F5F5F5F5F5F5
310
F5F5F5F5F5F5F5F5F5F5F5F5F5F5F5F5F5F5F5F5F5F5F5F5F5F5F5F5F5F5F5F5F5F5F5F5F5F5F5F5F5F5F5F5F5F5F5F5F5F5F5F5F5F5F5F5F5F5F5F5F5F5F5F5F5F5F5F5E2F5F5F5F5F5F5F5F5F5F5F5F5F5F5F5F5F5F5F5F5F5F5F5F5F5F5F5F5F5F5F5F5F5F5F5F5F5F5F5F5F5F5F5F5F5F5F5F5F5F5F5F5F5F5F5F5E2E2
310
E2E2EFE2E2F5F5F5F5F5F5F5F5F5F5F5F5F5F5F5F5F5F5F5F5F5F5F5F5F5F5F5F5F5F5F5F5F5E2F5F5F5F5F5F5F5E2F5F5F5F5F5F5F5F5F5F5F5F5F5F5F5F5F5F5F5F5F5F5F5F5F5F5F5F5F5F5F5F5F5F5F5F5F5F5F5F5F5F5F5F5F5F5F5F5F5F5F5F5F5F5F5F5F5F5F5F5F5F5F5F5F5F5F5F5F5F5F5F5F5F5E2F5F5F5F5F5
310
F5F5F5F5F5F5F5F5F5F5F5F5F5F5F5F5F5F5F5F5F5F5F5F5F5F5F5F5F5F5F5F5F5F5F5F5F5F5F5F5F5F5F5F5F5F5F5F5F5F5F5E2E2E2E2EFE2E2F5F5F5F5F5F5F5F5F5F5F5F5F5F5F5F5F5F5F5F5F5F5F5F5F5F5F5F5F5F5F5F5F5E2F5F5F5F5F5F5F5F5F5F5F5F5F5F5F5F5F5F5F5F5F5F5F5F5F5F5F5F5F5F5F5F5F5F5F5
310
F5F5F5F5F5F5F5F5F5E2E2E2E2E2E2F5E2E2E2E2E2E2F5E2E2E2E2E2F5E2E2E2E2E2F5E2E2E2E2E2E2F5E2E2E2E2E2E2F5F5F5F5F5F5F5F5F5F5F5F5F5F5F5F5F5F5F5F5F5F5F5F5F5F5F5F5F5F5F5F5F5F5F5F5F5F5F5F5F5F5F5F5F5F5F5F5F5F5F5F5F5F5F5F5E2E2E2E2EFE2E2F5F5F5F5F5F5F5F5F5F5F5F5F5F5F5F5
310
F5F5F5F5F5F5F5F5F5F5F5F5F5F5F5F5F5E2F5F5F5F5F5F5F5E2F5F5F5F5F5F5F5F5F5F5F5F5F5F5F5F5F5F5F5F5F5F5F5F5F5F5F5F5F5F5F5F5F5F5F5F5E2F5F5F5F5F5F5F5F5F5F5F5F5F5F5F5F5F5F5F5F5F5F5F5F5F5F5F5F5F5F5F5F5F5F5F5F5F5F5F5F5F5F5F5F5F5F5F5F5F5F5F5F5F5F5F5F5F5F5F5F5F5F5F5F5
310
F5F5F5F5F5F5F5F5F5F5F5F5F5F5F5F5F5F5F5F5F5F5F5F5F5F5F5F5F5F5E2E2E2E2EFE2E2F5F5F5F5F5F5F5F5F5F5F5F5F5F5F5F5F5F5F5F5F5F5F5F5F5F5F5F5F5F5F5F5F5E2F5F5F5F5F5F5F5E2F5F5F5F5F5F5F5F5F5F5F5F5F5F5F5F5F5F5F5F5F5F5F5F5F5F5F5F5F5F5F5F5F5F5F5F5E2F5F5F5F5F5F5F5F5F5F5F5
310
F5F5F5F5F5F5F5F5F5F5F5F5F5F5F5F5F5F5F5F5F5F5F5F5F5F5F5F5F5F5F5F5F5F5F5F5F5F5F5F5F5F5F5F5F5F5F5F5F5F5F5F5F5F5F5F5F5F5F5F5F5F5F5F5F5F5F5F5F5F5F5F5F5F5F5F5F5F5F5F5F5F5F5E2E2E2E2EFE2E2F5F5F5F5F5F5F5F5F5F5F5F5F5F5F5F5F5F5F5F5F5F5F5F5F5F5F5F5F5F5F5F5F5E2F5F5F5
310
F5F5F5F5E2F5F5F5F5F5F5F5F5F5F5F5F5F5F5F5F5F5F5F5F5F5F5F5F5F5F5F5F5F5F5F5F5F5F5F5F5E2F5F5F5F5F5F5F5F5F5F5F5F5F5F5F5F5F5F5F5F5F5F5F5F5F5F5F5F5F5F5F5F5F5F5F5F5F5F5F5F5F5F5F5F5F5F5F5F5F5F5F5F5F5F5F5F5F5F5F5F5F5F5F5F5F5F5F5F5F5F5F5F5F5F5F5F5F5F5F5F5F5F5F5F5F5
310
F5F5F5F5F5F5F5F5F5E2E2E2E2EFE2E2F5F5F5F5F5F5F5F5F5F5F5F5F5F5F5F5F5F5F5F5F5F5F5F5F5F5F5F5F5F5F5F5E2E2BEE2F5F5F5F5F5E2E2E2E2E2E2F5E2E2E2E2E2F5E2E2E2E2E2F5E2E2E2E2E2E2F5E2E2E2E2E2F5E2E2E2E2E2E2F5F5F5F5F5F5F5F5F5F5F5F5F5F5F5F5F5F5F5F5F5F5F5F5F5F5F5F5F5F5F5F5
310
F5F5F5F5F5F5F5F5F5F5F5F5F5F5F5F5F5F5F5F5F5F5F5F5F5F5F5F5F5F5F5F5F5F5F5F5F5F5F5F5F5F5F5F5F5F5F5F5F5F5F5F5F5F5F5F5F5F5F5F5F5F5E2E2E2E2EFE2E2F5F5F5F5F5F5F5F5F5F5F5F5F5F5F5F5F5F5F5F5F5F5F5F5F5F5F5F5F5F5F5F5F5E2F5F5F5F5F5F5F5F5F5F5F5F5F5F5F5F5F5F5F5F5F5F5F5F5
310
F5F5F5F5F5F5F5F5F5F5F5F5F5F5F5F5F5F5F5F5F5F5F5F5F5F5F5F5F5F5F5F5F5F5F5F5F5F5F5F5F5F5F5F5F5F5F5F5F5F5F5F5F5F5F5F5F5F5F5F5F5F5F5F5F5F5F5F5F5F5F5F5F5F5F5F5F5F5F5F5F5F5F5F5F5F5F5F5F5F5F5F5F5F5F5F5F5F5F5F5F5F5F5F5F5F5F5F5F5F5F5F5F5F5F5E2E2E2E2EFE2E2F5F5F5F5F5
310
F5F5F5F5F5F5F5F5F5F5F5F5F5F5F5F5F5F5F5F5F5F5F5F5F5F5F5F5F5F5F5F5F5F5F5F5F5F5F5F5F5F5F5F5F5F5F5F5F5F5F5F5F5F5F5F5F5F5F5F5F5F5F5F5F5F5F5F5F5F5F5F5F5F5F5F5F5F5F5F5F5F5F5F5F5F5F5F5F5F5F5F5F5F5F5F5F5F5F5F5F5F5F5F5F5F5F5F5F5F5F5F5F5F5F5F5F5F5F5F5F5F5F5F5F5F5F5
310
F5F5F5F5F5F5F5F5F5F5F5F5F5F5F5F5F5F5F5F5F5F5F5F5F5F5F5F5F5F5F5F5F5F5F5F5F5F5F5F5F5E2E2E2E2EFE2E2F5F5F5F5F5F5F5F5F5F5F5F5F5F5F5F5F5F5F5F5F5F5F5F5F5F5F5F5F5F5F5F5F5F5F5F5F5F5F5F5F5F5F5F5F5F5F5F5F5F5F5F5F5F5F5F5F5F5F5F5F5F5F5F5F5F5F5F5F5F5F5F5F5F5F5F5F5F5F5
310
F5F5F5F5F5F5F5F5F5F5F5F5F5F5F5F5F5F5F5F5F5F5F5F5F5F5F5F5F5F5F5F5F5F5F5F5F5F5F5F5F5F5F5F5F5F5F5F5F5F5F5F5F5F5F5F5F5F5F5F5F5F5F5F5F5F5F5F5F5F5F5F5F5F5F5F5F5F5F5F5F5F5F5F5F5F5F5F5F5F5F5F5F5F5E2E2E2E2EFE2E2F5F5F5F5F5F5F5F5F5F5F5F5F5F5F5F5F5F5F5F5F5F5F5F5F5F5
310
F5F5F5F5F5F5F5F5F5F5F5F5F5F5F5F5F5F5F5F5F5F5F5F5F5F5F5F5F5F5F5F5F5F5F5F5F5F5F5F5F5F5F5F5F5F5F5F5F5F5F5F5F5F5F5F5F5F5F5F5F5F5F5F5F5F5F5F5F5F5F5F5F5F5F5F5F5F5F5F5F5F5F5F5F5F5F5F5F5F5F5F5F5F5F5F5F5F5F5F5F5F5F5F5F5F5F5F5F5F5F5F5F5F5F5F5F5F5F5F5F5F5F5F5F5F5F5
310
F5F5F5F5F5F5F5F5F5F5F5F5F5F5F5F5F5F5F5F5E2E2E2E2EFE2E2F5F5F5F5F5F5F5F5F5F5F5F5F5F5F5F5F5F5F5F5F5F5F5F5F5F5F5F5F5F5F5F5F5F5F5F5F5F5F5F5F5F5F5F5F5F5F5F5F5F5F5F5F5F5F5F5F5F5F5F5F5F5F5F5F5F5F5F5F5F5F5F5F5F5F5F5F5F5F5F5F5F5F5F5F5F5F5F5F5F5F5F5F5F5F5F5F5F5F5F5
310
F5F5F5F5F5F5F5F5F5F5F5F5F5F5F5F5F5F5F5F5F5F5F5F5F5F5F5F5F5F5F5F5F5F5F5F5F5F5F5F5F5F5F5F5F5F5F5F5F5F5F5F5F5F5F5F5F5F5F5F5F5F5F5F5F5F5F5F5F5F5F5F5F5E2E2E2E2EFE2E2F5F5F5F5F5F5F5F5F5F5F5F5F5F5F5F5F5F5F5F5F5F5F5F5F5F5F5F5F5F5F5F5F5F5F5F5F5F5F5F5BEE2F5F5F5F5F5
310
F5F5F5F5F5F5F5F5F5F5F5F5F5F5F5F5F5F5F5F5F5F5F5F5F5F5F5F5F5F5F5F5F5F5F5F5F5F5F5F5F5F5F5F5F5F5F5F5F5F5F5F5F5F5F5F5F5F5F5F5F5F5F5F5F5F5F5F5BEE2F5F5F5F5F5F5F5F5F5F5F5F5F5F5F5F5F5F5F5F5F5F5F5F5F5F5F5F5F5F5F5F5F5F5F5F5F5F5F5F5F5F5F5F5F5F5F5F5F5F5F5F5F5F5F5F5E2
310
E2E2E2EFE2E2F5F5F5F5F5F5F5F5F5F5F5F5F5F5F5F5F5F5F5F5F5F5F5F5F5F5F5F5F5F5F5F5F5F5F5F5F5F5F5F5E2E2E2E2E2E2E2E2E2E2E2E2E2E2E2E2E2E2E2E2E2E2E2E2E2E2E2E2E2E2E2E2E2E2E2E2E2E2E2E2E2E2E2E2E2E2E2E2E2E2E2E2E2E2E2E2E2E2E2E2E2E2E2E2E2E2E2E2E2E2E2E2E2E2E2E2E2E2F5F5F5
310
F5F5F5F5F5F5F5F5F5F5F5F5F5F5F5F5F5F5F5F5F5F5F5F5F5F5F5F5F5F5F5F5F5F5F5F5F5F5F5F5F5F5F5F5F5F5F5F5F5F5F5F5E2E2E2E2EFE2E2F5F5F5F5F5F5F5F5F5F5F5F5F5F5F5F5F5F5F5F5F5F5F5F5F5F5F5F5F5F5F5F5F5F5F5F5F5F5F5F5F5BEF5F5F5F5F5F5F5F5F5F5F5F5F5F5F5F5F5F5F5F5F5F5F5F5F5F5
310
F5F5F5F5F5F5F5F5F5E2E2E2F5F5F5F5F5F5F5F5F5F5F5F5F5F5F5F5F5F5F5F5F5F5F5F5F5F5F5F5F5F5F5F5F5F5F5F5E2BEF5F5F5F5F5F5F5F5F5F5F5F5F5F5F5F5F5F5F5F5F5F5F5F5F5F5F5F5F5F5F5F5F5F5F5F5F5F5F5F5F5F5F5F5F5F5F5F5F5F5F5F5F5F5F5E2E2E2E2EFE2E2F5F5F5F5F5F5F5F5F5F5F5F5F5F5F5
310
F5F5F5F5F5F5F5F5F5F5F5F5F5F5F5F5F5F5F5F5F5F5F5F5F5F5F5F5F5F5F5F5F5F5F5F5F5F5F5F5F5F5F5F5F5F5F5F5F5F5F5F5F5F5F5F5F5F5F5F5F5F5E2E2E2F5F5F5F5F5F5F5F5F5F5F5F5F5F5F5F5F5F5F5F5F5F5F5F5F5F5F5F5F5F5F5F5F5F5F5F5F5F5F5F5F5F5F5F5F5F5F5F5F5F5F5F5F5F5F5F5F5F5F5F5F5F5
310
F5F5F5F5F5F5F5F5F5F5F5F5F5F5F5F5F5F5F5F5F5F5F5F5F5F5F5F5F5F5F5E2F5E2E2EFE2E2F5F5F5F5F5F5F5F5F5F5F5F5F5F5F5F5F5F5F5F5F5F5F5F5F5F5F5F5F5F5F5F5F5F5F5F5F5F5F5F5F5F5F5F5F5F5F5F5F5F5F5F5F5F5F5F5F5F5F5F5F5F5F5F5F5F5F5F5F5F5F5F5F5F5F5F5F5F5F5F5F5F5F5F5F5F5F5F5F5
310
F5F5F5F5F5F5F5F5F5F5F5F5F5F5F5F5F5F5F5F5F5F5F5F5F5F5F5F5F5F5F5F5F5F5F5F5F5F5F5F5F5F5F5F5F5F5F5F5F5F5F5F5F5F5F5F5F5F5F5F5F5F5F5F5F5F5F5F5F5F5F5F5F5F5F5F5F5F5F5F5F5F5F5F5E2F5E2E2EFE2E2F5F5F5F5F5F5F5F5F5F5F5F5F5F5F5F5F5F5F5F5F5F5F5F5F5F5F5F5F5F5F5F5F5F5F5F5
310
F5F5F5F5F5F5F5F5F5F5F5F5F5F5F5F5F5F5F5F5F5F5F5F5F5F5F5F5F5F5F5F5F5F5F5F5F5F5F5F5F5F5F5F5F5F5F5F5F5F5F5F5F5F5F5F5F5F5F5F5F5F5F5F5F5F5F5F5F5F5F5F5F5F5F5F5F5F5F5F5F5F5F5F5F5F5F5F5F5F5F5F5F5F5F5F5F5F5F5F5F5F5F5F5F5F5F5F5F5F5F5F5F5F5F5F5F5F5F5F5F5F5F5F5F5F5F5
310
F5F5F5F5F5F5F5F5F5F5E2F5E2E2EFE2E2F5F5F5F5F5F5F5F5F5F5F5F5F5F5F5F5F5F5F5F5F5F5F5F5F5F5F5F5F5F5F5F5F5F5F5F5F5F5F5F5F5F5F5F5F5F5F5F5F5F5F5F5F5F5F5F5F5F5F5F5F5F5F5F5F5F5F5F5F5F5F5F5F5F5F5F5F5F5F5F5F5F5F5F5F5F5F5F5F5F5F5F5F5F5F5F5F5F5F5F5F5F5F5F5F5F5F5F5F5F5
310
F5F5F5F5F5F5F5F5F5F5F5F5F5F5F5F5F5F5F5F5F5F5F5F5F5F5F5F5F5F5F5F5F5F5F5F5F5F5F5F5F5F5F5F5F5F5F5F5F5F5F5F5F5F5F5F5F5F5F5F5F5F5F5E2F5E2E2EFE2E2F5F5F5F5F5F5F5F5F5F5F5F5F5F5F5F5F5F5F5F5F5F5F5F5F5F5F5F5F5F5F5F5F5F5F5F5F5F5F5F5F5F5F5F5F5F5F5F5F5F5F5F5F5F5F5F5F5
310
F5F5F5F5F5F5F5F5F5F5F5F5F5F5F5F5F5F5F5F5F5F5F5F5F5F5F5F5F5F5F5F5F5F5F5F5F5F5F5F5F5F5F5F5F5F5F5F5F5F5F5F5F5F5F5F5F5F5F5F5F5F5F5F5F5F5F5F5F5F5F5F5F5F5F5F5F5F5F5F5F5F5F5F5F5F5F5F5F5F5F5F5F5F5F5F5F5F5F5F5F5F5F5F5F5F5F5F5F5F5F5F5F5F5F5F5E2F5E2E2EFE2E2F5F5F5F5
310
F5F5F5F5F5F5F5F5F5F5F5F5F5F5F5F5F5F5F5F5F5F5F5F5F5F5F5F5F5F5F5F5F5F5F5F5F5F5F5F5F5F5F5F5F5F5F5F5F5F5F5F5F5F5F5F5F5F5F5F5F5F5F5F5F5F5F5F5F5F5F5F5F5F5F5F5F5F5F5F5F5F5F5F5F5F5F5F5F5F5F5F5F5F5F5F5F5F5F5F5F5F5F5F5F5F5F5F5F5F5F5F5F5F5F5F5F5F5F5F5F5F5F5F5F5F5F5
310
F5F5F5F5F5F5F5F5F5F5F5F5F5F5F5F5F5F5F5F5F5F5F5F5F5F5F5F5F5F5F5F5F5F5F5F5F5F5F5F5F5F5E2F5E2E2EFE2E2F5F5F5F5F5F5F5F5F5F5F5F5F5F5F5F5F5F5F5F5F5F5F5F5F5F5F5F5F5F5F5F5F5F5F5F5F5F5F5F5F5F5F5F5F5F5F5F5F5F5F5F5F5F5F5F5F5F5F5F5F5F5F5F5F5F5F5F5F5F5F5F5F5F5F5F5F5F5
310
F5F5F5F5F5F5F5F5F5F5F5F5F5F5F5F5F5F5F5F5F5F5F5F5F5F5F5F5F5F5F5F5F5F5F5F5F5F5F5F5F5F5F5F5F5F5F5F5F5F5F5F5F5F5F5F5F5F5F5F5F5F5F5F5F5F5F5F5F5F5F5F5F5F5F5F5F5F5F5F5F5F5F5F5F5F5F5F5F5F5F5F5F5F5F5E2F5E2E2EFE2E2F5F5F5F5F5F5F5F5F5F5F5F5F5F5F5F5F5F5F5F5F5F5F5F5F5
310
F5F5F5F5F5F5F5F5F5F5F5F5F5F5F5F5F5F5F5F5F5F5F5F5F5F5F5F5F5F5F5F5F5F5F5F5F5F5F5F5F5F5F5F5F5F5F5F5F5F5F5F5F5F5F5F5F5F5F5F5F5F5F5F5F5F5F5F5F5F5F5F5F5F5F5F5F5F5F5F5F5F5F5F5F5F5F5F5F5F5F5F5F5F5F5F5F5F5F5F5F5F5F5F5F5F5F5F5F5F5F5F5F5F5F5F5F5F5F5F5F5F5F5F5F5F5F5
310
F5F5F5F5F5F5F5F5F5F5F5F5F5F5F5F5F5F5F5F5F5E2F5E2E2EFE2E2F5F5F5F5F5F5F5F5F5F5F5F5F5F5F5F5F5F5F5F5F5F5F5F5F5F5F5F5F5F5F5F5F5F5F5F5F5F5F5F5F5F5F5F5F5F5F5F5F5F5F5F5F5F5F5F5F5F5F5F5F5F5F5F5F5F5F5F5F5F5F5F5F5F5F5F5F5F5F5F5F5F5F5F5F5F5F5F5F5F5F5F5F5F5F5F5F5F5F5
310
F5F5F5F5F5F5F5F5F5F5F5F5F5F5F5F5F5F5F5F5F5F5F5F5F5F5F5F5F5F5F5F5F5F5F5F5F5F5F5F5F5F5F5F5F5F5F5F5F5F5F5F5F5F5F5F5F5F5F5F5F5F5F5F5F5F5F5F5F5F5F5F5F5F5E2F5E2E2EFE2E2F5F5F5F5F5F5F5F5F5F5F5F5F5F5F5F5F5F5F5F5F5F5F5F5F5F5F5F5F5F5F5F5F5F5F5F5F5F5F5F5F5F5F5F5F5F5
310
F5F5F5F5F5F5F5F5F5F5F5F5F5F5F5F5F5F5F5F5F5F5F5F5F5F5F5F5F5F5F5F5F5F5F5F5F5F5F5F5F5F5F5F5F5F5F5F5F5F5F5F5F5F5F5F5F5F5F5F5F5F5F5F5F5F5F5F5F5F5F5F5F5F5F5F5F5F5F5F5F5F5F5F5F5F5F5F5F5F5F5F5F5F5F5F5F5F5F5F5F5F5F5F5F5F5F5F5F5F5F5F5F5F5F5F5F5F5F5F5F5F5F5F5F5F5F5
310
E2E2E2E2EFE2E2F5F5F5F5F5F5F5F5F5F5F5F5F5F5F5F5F5F5F5F5F5F5F5F5F5F5F5F5F5F5F5F5F5F5F5F5F5F5F5F5F5F5F5F5F5F5F5F5F5F5F5F5F5F5F5F5F5F5F5F5F5F5F5F5F5F5F5F5F5F5F5F5F5F5F5F5F5F5F5F5F5F5F5F5F5F5F5F5F5F5F5F5F5F5F5F5F5F5F5F5F5F5F5F5F5F5F5F5F5F5F5F5F5F5F5F5F5F5F5F5
310
F5F5F5F5F5F5F5F5F5F5F5F5F5F5F5F5F5F5F5F5F5F5F5F5F5F5F5F5F5F5F5F5F5F5F5F5F5F5F5F5F5F5F5F5F5F5F5F5F5F5F5F5F5E2E2E2E2EFE2E2F5F5F5F5F5F5F5F5F5F5F5F5F5F5F5F5F5F5F5F5F5F5F5F5F5F5F5F5F5F5F5F5F5F5F5F5F5F5F5F5F5F5F5F5F5F5F5F5F5F5F5F5F5F5F5F5F5F5F5F5F5F5F5F5F5F5F5
310
F5F5F5F5F5F5F5F5F5F5F5F5F5F5F5F5F5F5F5F5F5F5F5F5F5F5F5F5F5F5F5F5F5F5F5F5F5F5F5F5F5F5F5F5F5F5F5F5F5F5F5F5F5F5F5F5F5F5F5F5F5F5F5F5F5F5F5F5F5F5F5F5F5F5F5F5F5F5F5F5F5F5F5F5F5F5F5F5F5F5F5F5F5F5F5F5F5F5F5F5F5F5F5F5F5F5E2E2E2E2EFE2E2F5F5F5F5F5F5F5F5F5F5F5F5F5F5
310
F5F5F5F5F5F5F5F5F5F5F5F5F5F5F5F5F5F5F5F5F5F5F5F5F5F5F5F5F5F5F5F5F5F5F5F5F5F5F5F5F5F5F5F5F5F5F5F5F5F5F5F5F5F5F5F5F5F5F5F5F5F5F5F5F5F5F5F5F5F5F5F5F5F5F5F5F5F5F5F5F5F5F5F5F5F5F5F5F5F5F5F5F5F5F5F5F5F5F5F5F5F5F5F5F5F5F5F5F5F5F5F5F5F5F5F5F5F5F5F5F5F5F5F5F5F5F5
310
F5F5F5F5F5F5F5F5F5F5F5F5F5F5F5F5F5F5F5F5F5F5F5F5F5F5F5F5F5F5F5F5E2E2E2E2EFE2E2F5F5F5F5F5F5F5F5F5F5F5F5F5F5F5F5F5F5F5F5F5F5F5F5F5F5F5F5F5F5F5F5F5F5F5F5F5F5F5F5F5F5F5F5F5F5F5F5F5F5F5F5F5F5F5F5F5F5F5F5F5F5F5F5F5F5F5F5F5F5F5F5F5F5F5F5F5F5F5F5F5F5F5F5F5F5F5F5
310
F5F5F5F5F5F5F5F5F5F5F5F5F5F5F5F5F5F5F5F5F5F5F5F5F5F5F5F5F5F5F5F5F5F5F5F5F5F5F5F5F5F5F5F5F5F5F5F5F5F5F5F5F5F5F5F5F5F5F5F5F5F5F5F5F5F5F5F5F5F5F5F5F5F5F5F5F5F5F5F5F5F5F5F5F5E2E2E2E2EFE2E2E2E2E2E2E2E2E2E2E2E2E2E2E2E2E2E2E2E2E2E2E2E2E2E2E2E2E2E2E2E2E2E2E2E2E2
310
E2E2E2E2E2E2E2E2E2E2E2E2E2E2E2E2E2E2E2E2E2E2E2E2E2E2E2E2E2E2E2E2E2E2E2E2E2E2E2E2E2E2E2E2E2E2E2E2E2E2E2E2E2E2E2E2E2E2E2E2E2E2E2E2E2E2E2E2E2E2E2E2E2E2E2E2E2E2E2E2E2E2E2E2E2E2E2E2E2E2E2E2E2E2E2E2E2E2E2E2E2E2E2E2E2E2E2E2E2E2E2E2E2E2E2E2E2E2E2E2E2E2E2E2E2E2E2
310
E2E2E2E2E2E2E2E2E2E2E2E2E2E2E2EFE2E2F5F5F5F5F5F5F5F5F5F5F5F5F5F5F5F5F5F5F5F5F5F5F5F5F5F5F5F5F5F5F5F5F5F5F5F5F5F5F5F5F5F5F5F5F5F5F5F5F5F5F5F5F5F5F5F5F5F5F5F5F5F5F5F5F5F5F5F5F5F5F5F5F5F5F5F5F5F5F5F5F5F5F5F5F5F5F5F5F5F5F5F5F5F5F5F5F5F5F5F5F5F5F5F5F5F5F5F5F5
310
F5F5F5F5F5F5F5F5F5F5F5F5F5F5F5F5F5F5F5F5F5F5F5F5F5F5F5F5F5F5F5F5F5F5F5F5F5F5F5F5F5F5F5F5F5F5F5F5F5F5F5F5F5F5F5F5F5F5F5F5F5F5F5F5F5E2E2E2EFE2E2E2E2E2E2E2E2E2E2F5F5F5F5F5F5F5F5F5E2E2E2E2E2E2E2E2E2E2E2E2E2E2E2E2F5F5F5F5F5F5F5F5F5E2E2E2E2E2E2E2E2E2E2E2E2E2E2
310
E2E2F5F5F5F5F5F5F5F5F5E2E2E2E2E2E2E2E2E2E2E2E2E2E2E2E2F5F5F5F5F5F5F5F5F5E2E2E2E2E2E2E2E2E2E2E2E2E2E2E2E2F5F5F5F5F5F5F5F5F5E2E2E2E2E2E2E2E2E2E2E2E2E2E2E2E2F5F5F5F5F5F5F5F5F5E2E2E2E2E2E2E2E2E2E2E2E2E2E2E2E2F5F5F5F5F5F5F5F5F5E2E2E2E2E2E2E2E2E2EFEFE2E2E2E2E2
310
E2E2E2E2E2E2E2E2E2E2E2E2E2E2E2E2E2E2E2E2E2E2E2E2E2E2E2E2E2E2E2E2E2E2E2E2E2E2E2E2E2E2E2E2E2E2E2E2E2E2E2E2E2E2E2E2E2E2E2E2E2E2E2E2E2E2E2E2E2E2E2E2E2E2E2E2E2E2E2E2E2E2E2E2E2E2E2E2E2E2E2E2E2E2E2E2E2E2E2E2E2E2E2E2E2E2E2E2E2E2E2E2E2E2E2E2E2E2E2E2E2E2E2E2E2E2E2
310
E2E2E2E2E2E2E2E2E2E2E2E2E2E2E2E2E2E2E2E2E2E2E2E2E2E2E2E2E2E2E2E2E2E2E2E2E2E2E2E2E2E2E2E2E2E2EFEF
  0
XRECORD
  5
1D833
102
{ACAD_REACTORS
330
1D832
102
}
330
1D832
100
AcDbXrecord
280
     1
102
MATERIAL
148
0.0
149
0.0
149
0.0
 93
        0
 94
      127
282
     0
 72
     1
 77
     1
171
     1
175
     1
179
     1
273
     0
  0
XRECORD
  5
1D831
102
{ACAD_REACTORS
330
1D830
102
}
330
1D830
100
AcDbXrecord
280
     1
102
MATERIAL
148
0.0
149
0.0
149
0.0
 93
        0
 94
      127
282
     0
 72
     1
 77
     1
171
     1
175
     1
179
     1
273
     0
  0
XRECORD
  5
1D835
102
{ACAD_REACTORS
330
1D834
102
}
330
1D834
100
AcDbXrecord
280
     1
102
MATERIAL
148
0.0
149
0.0
149
0.0
 93
        0
 94
      127
282
     0
 72
     1
 77
     1
171
     1
175
     1
179
     1
273
     0
  0
CELLSTYLEMAP
  5
1D82F
102
{ACAD_REACTORS
330
1055A
102
}
330
1055A
100
AcDbCellStyleMap
 90
        3
300
CELLSTYLE
  1
TABLEFORMAT_BEGIN
 90
        5
170
     1
 91
        0
 92
    32768
 62
   257
 93
        1
300
CONTENTFORMAT
  1
CONTENTFORMAT_BEGIN
 90
        0
 91
        0
 92
      512
 93
        0
300

 40
0.0
140
1.0
 94
        5
 62
     0
340
11
144
0.25
309
CONTENTFORMAT_END
171
     0
 94
        6
 95
        1
302
GRIDFORMAT
  1
GRIDFORMAT_BEGIN
 90
        0
 91
        1
 62
     0
 92
       -2
340
0
 93
        0
 40
0.045
309
GRIDFORMAT_END
 95
        2
302
GRIDFORMAT
  1
GRIDFORMAT_BEGIN
 90
        0
 91
        1
 62
     0
 92
       -2
340
0
 93
        0
 40
0.045
309
GRIDFORMAT_END
 95
        4
302
GRIDFORMAT
  1
GRIDFORMAT_BEGIN
 90
        0
 91
        1
 62
     0
 92
       -2
340
0
 93
        0
 40
0.045
309
GRIDFORMAT_END
 95
        8
302
GRIDFORMAT
  1
GRIDFORMAT_BEGIN
 90
        0
 91
        1
 62
     0
 92
       -2
340
0
 93
        0
 40
0.045
309
GRIDFORMAT_END
 95
       16
302
GRIDFORMAT
  1
GRIDFORMAT_BEGIN
 90
        0
 91
        1
 62
     0
 92
       -2
340
0
 93
        0
 40
0.045
309
GRIDFORMAT_END
 95
       32
302
GRIDFORMAT
  1
GRIDFORMAT_BEGIN
 90
        0
 91
        1
 62
     0
 92
       -2
340
0
 93
        0
 40
0.045
309
GRIDFORMAT_END
309
TABLEFORMAT_END
  1
CELLSTYLE_BEGIN
 90
        1
 91
        1
300
_TITLE
309
CELLSTYLE_END
300
CELLSTYLE
  1
TABLEFORMAT_BEGIN
 90
        5
170
     1
 91
        0
 92
        0
 62
   257
 93
        1
300
CONTENTFORMAT
  1
CONTENTFORMAT_BEGIN
 90
        0
 91
        0
 92
      512
 93
        0
300

 40
0.0
140
1.0
 94
        5
 62
     0
340
11
144
0.18
309
CONTENTFORMAT_END
171
     0
 94
        6
 95
        1
302
GRIDFORMAT
  1
GRIDFORMAT_BEGIN
 90
        0
 91
        1
 62
     0
 92
       -2
340
0
 93
        0
 40
0.045
309
GRIDFORMAT_END
 95
        2
302
GRIDFORMAT
  1
GRIDFORMAT_BEGIN
 90
        0
 91
        1
 62
     0
 92
       -2
340
0
 93
        0
 40
0.045
309
GRIDFORMAT_END
 95
        4
302
GRIDFORMAT
  1
GRIDFORMAT_BEGIN
 90
        0
 91
        1
 62
     0
 92
       -2
340
0
 93
        0
 40
0.045
309
GRIDFORMAT_END
 95
        8
302
GRIDFORMAT
  1
GRIDFORMAT_BEGIN
 90
        0
 91
        1
 62
     0
 92
       -2
340
0
 93
        0
 40
0.045
309
GRIDFORMAT_END
 95
       16
302
GRIDFORMAT
  1
GRIDFORMAT_BEGIN
 90
        0
 91
        1
 62
     0
 92
       -2
340
0
 93
        0
 40
0.045
309
GRIDFORMAT_END
 95
       32
302
GRIDFORMAT
  1
GRIDFORMAT_BEGIN
 90
        0
 91
        1
 62
     0
 92
       -2
340
0
 93
        0
 40
0.045
309
GRIDFORMAT_END
309
TABLEFORMAT_END
  1
CELLSTYLE_BEGIN
 90
        2
 91
        1
300
_HEADER
309
CELLSTYLE_END
300
CELLSTYLE
  1
TABLEFORMAT_BEGIN
 90
        5
170
     1
 91
        0
 92
        0
 62
   257
 93
        1
300
CONTENTFORMAT
  1
CONTENTFORMAT_BEGIN
 90
        0
 91
        0
 92
      512
 93
        0
300

 40
0.0
140
1.0
 94
        2
 62
     0
340
11
144
0.18
309
CONTENTFORMAT_END
171
     0
 94
        6
 95
        1
302
GRIDFORMAT
  1
GRIDFORMAT_BEGIN
 90
        0
 91
        1
 62
     0
 92
       -2
340
0
 93
        0
 40
0.045
309
GRIDFORMAT_END
 95
        2
302
GRIDFORMAT
  1
GRIDFORMAT_BEGIN
 90
        0
 91
        1
 62
     0
 92
       -2
340
0
 93
        0
 40
0.045
309
GRIDFORMAT_END
 95
        4
302
GRIDFORMAT
  1
GRIDFORMAT_BEGIN
 90
        0
 91
        1
 62
     0
 92
       -2
340
0
 93
        0
 40
0.045
309
GRIDFORMAT_END
 95
        8
302
GRIDFORMAT
  1
GRIDFORMAT_BEGIN
 90
        0
 91
        1
 62
     0
 92
       -2
340
0
 93
        0
 40
0.045
309
GRIDFORMAT_END
 95
       16
302
GRIDFORMAT
  1
GRIDFORMAT_BEGIN
 90
        0
 91
        1
 62
     0
 92
       -2
340
0
 93
        0
 40
0.045
309
GRIDFORMAT_END
 95
       32
302
GRIDFORMAT
  1
GRIDFORMAT_BEGIN
 90
        0
 91
        1
 62
     0
 92
       -2
340
0
 93
        0
 40
0.045
309
GRIDFORMAT_END
309
TABLEFORMAT_END
  1
CELLSTYLE_BEGIN
 90
        3
 91
        2
300
_DATA
309
CELLSTYLE_END
  0
XRECORD
  5
1D836
102
{ACAD_REACTORS
330
1055A
102
}
330
1055A
100
AcDbXrecord
280
     1
102
ACAD_ROUNDTRIP_PRE2007_TABLESTYLE
 90
      512
 91
        0
  1

 92
      512
 93
        0
  2

 94
      512
 95
        0
  3

  0
XRECORD
  5
49B
102
{ACAD_REACTORS
330
49A
102
}
330
49A
100
AcDbXrecord
280
     1
102
RTVSPropertyOp0
 70
     1
102
RTVSPropertyOp1
 70
     1
102
RTVSPropertyOp2
 70
     1
102
RTVSPropertyOp3
 70
     1
102
RTVSPropertyOp4
 70
     1
102
RTVSPropertyOp5
 70
     1
102
RTVSPropertyOp6
 70
     1
102
RTVSPropertyOp7
 70
     1
102
RTVSPropertyOp8
 70
     1
102
RTVSPropertyOp9
 70
     1
102
RTVSPropertyOp10
 70
     1
102
RTVSPropertyOp11
 70
     1
102
RTVSPropertyOp12
 70
     1
102
RTVSPropertyOp13
 70
     1
102
RTVSPropertyOp14
 70
     1
102
RTVSPropertyOp15
 70
     1
102
RTVSPropertyOp16
 70
     1
102
RTVSPropertyOp17
 70
     1
102
RTVSPropertyOp18
 70
     1
102
RTVSPropertyOp19
 70
     1
102
RTVSPropertyOp20
 70
     1
102
RTVSPropertyOp21
 70
     1
102
RTVSPropertyOp22
 70
     1
102
RTVSPropertyOp23
 70
     1
102
RTVSPropertyOp24
 70
     1
102
RTVSPropertyOp25
 70
     1
102
RTVSPropertyOp26
 70
     1
102
RTVSPropertyOp27
 70
     1
  0
XRECORD
  5
A4A
102
{ACAD_REACTORS
330
A49
102
}
330
A49
100
AcDbXrecord
280
     1
102
RTVSPropertyOp0
 70
     1
102
RTVSPropertyOp1
 70
     1
102
RTVSPropertyOp2
 70
     1
102
RTVSPropertyOp3
 70
     1
102
RTVSPropertyOp4
 70
     1
102
RTVSPropertyOp5
 70
     1
102
RTVSPropertyOp6
 70
     1
102
RTVSPropertyOp7
 70
     1
102
RTVSPropertyOp8
 70
     1
102
RTVSPropertyOp9
 70
     1
102
RTVSPropertyOp10
 70
     1
102
RTVSPropertyOp11
 70
     1
102
RTVSPropertyOp12
 70
     1
102
RTVSPropertyOp13
 70
     1
102
RTVSPropertyOp14
 70
     1
102
RTVSPropertyOp15
 70
     1
102
RTVSPropertyOp16
 70
     1
102
RTVSPropertyOp17
 70
     1
102
RTVSPropertyOp18
 70
     1
102
RTVSPropertyOp19
 70
     1
102
RTVSPropertyOp20
 70
     1
102
RTVSPropertyOp21
 70
     1
102
RTVSPropertyOp22
 70
     1
102
RTVSPropertyOp23
 70
     1
102
RTVSPropertyOp24
 70
     1
102
RTVSPropertyOp25
 70
     1
102
RTVSPropertyOp26
 70
     1
102
RTVSPropertyOp27
 70
     1
  0
XRECORD
  5
4A1
102
{ACAD_REACTORS
330
4A0
102
}
330
4A0
100
AcDbXrecord
280
     1
102
RTVSPropertyOp0
 70
     1
102
RTVSPropertyOp1
 70
     1
102
RTVSPropertyOp2
 70
     1
102
RTVSPropertyOp3
 70
     1
102
RTVSPropertyOp4
 70
     1
102
RTVSPropertyOp5
 70
     1
102
RTVSPropertyOp6
 70
     1
102
RTVSPropertyOp7
 70
     1
102
RTVSPropertyOp8
 70
     1
102
RTVSPropertyOp9
 70
     1
102
RTVSPropertyOp10
 70
     1
102
RTVSPropertyOp11
 70
     1
102
RTVSPropertyOp12
 70
     1
102
RTVSPropertyOp13
 70
     1
102
RTVSPropertyOp14
 70
     1
102
RTVSPropertyOp15
 70
     1
102
RTVSPropertyOp16
 70
     1
102
RTVSPropertyOp17
 70
     1
102
RTVSPropertyOp18
 70
     1
102
RTVSPropertyOp19
 70
     1
102
RTVSPropertyOp20
 70
     1
102
RTVSPropertyOp21
 70
     1
102
RTVSPropertyOp22
 70
     1
102
RTVSPropertyOp23
 70
     1
102
RTVSPropertyOp24
 70
     1
102
RTVSPropertyOp25
 70
     1
102
RTVSPropertyOp26
 70
     1
102
RTVSPropertyOp27
 70
     1
  0
XRECORD
  5
4A9
102
{ACAD_REACTORS
330
4A8
102
}
330
4A8
100
AcDbXrecord
280
     1
102
RTVSPropertyOp0
 70
     1
102
RTVSPropertyOp1
 70
     1
102
RTVSPropertyOp2
 70
     1
102
RTVSPropertyOp3
 70
     1
102
RTVSPropertyOp4
 70
     1
102
RTVSPropertyOp5
 70
     1
102
RTVSPropertyOp6
 70
     1
102
RTVSPropertyOp7
 70
     1
102
RTVSPropertyOp8
 70
     1
102
RTVSPropertyOp9
 70
     1
102
RTVSPropertyOp10
 70
     1
102
RTVSPropertyOp11
 70
     1
102
RTVSPropertyOp12
 70
     1
102
RTVSPropertyOp13
 70
     1
102
RTVSPropertyOp14
 70
     1
102
RTVSPropertyOp15
 70
     1
102
RTVSPropertyOp16
 70
     1
102
RTVSPropertyOp17
 70
     1
102
RTVSPropertyOp18
 70
     1
102
RTVSPropertyOp19
 70
     1
102
RTVSPropertyOp20
 70
     1
102
RTVSPropertyOp21
 70
     1
102
RTVSPropertyOp22
 70
     1
102
RTVSPropertyOp23
 70
     1
102
RTVSPropertyOp24
 70
     1
102
RTVSPropertyOp25
 70
     1
102
RTVSPropertyOp26
 70
     1
102
RTVSPropertyOp27
 70
     1
  0
XRECORD
  5
4B1
102
{ACAD_REACTORS
330
4B0
102
}
330
4B0
100
AcDbXrecord
280
     1
102
RTVSPropertyOp0
 70
     1
102
RTVSPropertyOp1
 70
     1
102
RTVSPropertyOp2
 70
     1
102
RTVSPropertyOp3
 70
     1
102
RTVSPropertyOp4
 70
     1
102
RTVSPropertyOp5
 70
     1
102
RTVSPropertyOp6
 70
     1
102
RTVSPropertyOp7
 70
     1
102
RTVSPropertyOp8
 70
     1
102
RTVSPropertyOp9
 70
     1
102
RTVSPropertyOp10
 70
     1
102
RTVSPropertyOp11
 70
     1
102
RTVSPropertyOp12
 70
     1
102
RTVSPropertyOp13
 70
     1
102
RTVSPropertyOp14
 70
     1
102
RTVSPropertyOp15
 70
     1
102
RTVSPropertyOp16
 70
     1
102
RTVSPropertyOp17
 70
     1
102
RTVSPropertyOp18
 70
     1
102
RTVSPropertyOp19
 70
     1
102
RTVSPropertyOp20
 70
     1
102
RTVSPropertyOp21
 70
     1
102
RTVSPropertyOp22
 70
     1
102
RTVSPropertyOp23
 70
     1
102
RTVSPropertyOp24
 70
     1
102
RTVSPropertyOp25
 70
     1
102
RTVSPropertyOp26
 70
     1
102
RTVSPropertyOp27
 70
     1
  0
XRECORD
  5
4A7
102
{ACAD_REACTORS
330
4A6
102
}
330
4A6
100
AcDbXrecord
280
     1
102
RTVSPropertyOp0
 70
     1
102
RTVSPropertyOp1
 70
     1
102
RTVSPropertyOp2
 70
     1
102
RTVSPropertyOp3
 70
     1
102
RTVSPropertyOp4
 70
     1
102
RTVSPropertyOp5
 70
     1
102
RTVSPropertyOp6
 70
     1
102
RTVSPropertyOp7
 70
     1
102
RTVSPropertyOp8
 70
     1
102
RTVSPropertyOp9
 70
     1
102
RTVSPropertyOp10
 70
     1
102
RTVSPropertyOp11
 70
     1
102
RTVSPropertyOp12
 70
     1
102
RTVSPropertyOp13
 70
     1
102
RTVSPropertyOp14
 70
     1
102
RTVSPropertyOp15
 70
     1
102
RTVSPropertyOp16
 70
     1
102
RTVSPropertyOp17
 70
     1
102
RTVSPropertyOp18
 70
     1
102
RTVSPropertyOp19
 70
     1
102
RTVSPropertyOp20
 70
     1
102
RTVSPropertyOp21
 70
     1
102
RTVSPropertyOp22
 70
     1
102
RTVSPropertyOp23
 70
     1
102
RTVSPropertyOp24
 70
     1
102
RTVSPropertyOp25
 70
     1
102
RTVSPropertyOp26
 70
     1
102
RTVSPropertyOp27
 70
     1
  0
XRECORD
  5
4AF
102
{ACAD_REACTORS
330
4AE
102
}
330
4AE
100
AcDbXrecord
280
     1
102
RTVSPropertyOp0
 70
     1
102
RTVSPropertyOp1
 70
     1
102
RTVSPropertyOp2
 70
     1
102
RTVSPropertyOp3
 70
     1
102
RTVSPropertyOp4
 70
     1
102
RTVSPropertyOp5
 70
     1
102
RTVSPropertyOp6
 70
     1
102
RTVSPropertyOp7
 70
     1
102
RTVSPropertyOp8
 70
     1
102
RTVSPropertyOp9
 70
     1
102
RTVSPropertyOp10
 70
     1
102
RTVSPropertyOp11
 70
     1
102
RTVSPropertyOp12
 70
     1
102
RTVSPropertyOp13
 70
     1
102
RTVSPropertyOp14
 70
     1
102
RTVSPropertyOp15
 70
     1
102
RTVSPropertyOp16
 70
     1
102
RTVSPropertyOp17
 70
     1
102
RTVSPropertyOp18
 70
     1
102
RTVSPropertyOp19
 70
     1
102
RTVSPropertyOp20
 70
     1
102
RTVSPropertyOp21
 70
     1
102
RTVSPropertyOp22
 70
     1
102
RTVSPropertyOp23
 70
     1
102
RTVSPropertyOp24
 70
     1
102
RTVSPropertyOp25
 70
     1
102
RTVSPropertyOp26
 70
     1
102
RTVSPropertyOp27
 70
     1
  0
XRECORD
  5
493
102
{ACAD_REACTORS
330
492
102
}
330
492
100
AcDbXrecord
280
     1
102
RTVSPropertyOp0
 70
     1
102
RTVSPropertyOp1
 70
     1
102
RTVSPropertyOp2
 70
     1
102
RTVSPropertyOp3
 70
     1
102
RTVSPropertyOp4
 70
     1
102
RTVSPropertyOp5
 70
     1
102
RTVSPropertyOp6
 70
     1
102
RTVSPropertyOp7
 70
     1
102
RTVSPropertyOp8
 70
     1
102
RTVSPropertyOp9
 70
     1
102
RTVSPropertyOp10
 70
     1
102
RTVSPropertyOp11
 70
     1
102
RTVSPropertyOp12
 70
     1
102
RTVSPropertyOp13
 70
     1
102
RTVSPropertyOp14
 70
     1
102
RTVSPropertyOp15
 70
     1
102
RTVSPropertyOp16
 70
     1
102
RTVSPropertyOp17
 70
     1
102
RTVSPropertyOp18
 70
     1
102
RTVSPropertyOp19
 70
     1
102
RTVSPropertyOp20
 70
     1
102
RTVSPropertyOp21
 70
     1
102
RTVSPropertyOp22
 70
     1
102
RTVSPropertyOp23
 70
     1
102
RTVSPropertyOp24
 70
     1
102
RTVSPropertyOp25
 70
     1
102
RTVSPropertyOp26
 70
     1
102
RTVSPropertyOp27
 70
     1
  0
XRECORD
  5
495
102
{ACAD_REACTORS
330
494
102
}
330
494
100
AcDbXrecord
280
     1
102
RTVSPropertyOp0
 70
     1
102
RTVSPropertyOp1
 70
     1
102
RTVSPropertyOp2
 70
     1
102
RTVSPropertyOp3
 70
     1
102
RTVSPropertyOp4
 70
     1
102
RTVSPropertyOp5
 70
     1
102
RTVSPropertyOp6
 70
     1
102
RTVSPropertyOp7
 70
     1
102
RTVSPropertyOp8
 70
     1
102
RTVSPropertyOp9
 70
     1
102
RTVSPropertyOp10
 70
     1
102
RTVSPropertyOp11
 70
     1
102
RTVSPropertyOp12
 70
     1
102
RTVSPropertyOp13
 70
     1
102
RTVSPropertyOp14
 70
     1
102
RTVSPropertyOp15
 70
     1
102
RTVSPropertyOp16
 70
     1
102
RTVSPropertyOp17
 70
     1
102
RTVSPropertyOp18
 70
     1
102
RTVSPropertyOp19
 70
     1
102
RTVSPropertyOp20
 70
     1
102
RTVSPropertyOp21
 70
     1
102
RTVSPropertyOp22
 70
     1
102
RTVSPropertyOp23
 70
     1
102
RTVSPropertyOp24
 70
     1
102
RTVSPropertyOp25
 70
     1
102
RTVSPropertyOp26
 70
     1
102
RTVSPropertyOp27
 70
     1
  0
XRECORD
  5
497
102
{ACAD_REACTORS
330
496
102
}
330
496
100
AcDbXrecord
280
     1
102
RTVSPropertyOp0
 70
     1
102
RTVSPropertyOp1
 70
     1
102
RTVSPropertyOp2
 70
     1
102
RTVSPropertyOp3
 70
     1
102
RTVSPropertyOp4
 70
     1
102
RTVSPropertyOp5
 70
     1
102
RTVSPropertyOp6
 70
     1
102
RTVSPropertyOp7
 70
     1
102
RTVSPropertyOp8
 70
     1
102
RTVSPropertyOp9
 70
     1
102
RTVSPropertyOp10
 70
     1
102
RTVSPropertyOp11
 70
     1
102
RTVSPropertyOp12
 70
     1
102
RTVSPropertyOp13
 70
     1
102
RTVSPropertyOp14
 70
     1
102
RTVSPropertyOp15
 70
     1
102
RTVSPropertyOp16
 70
     1
102
RTVSPropertyOp17
 70
     1
102
RTVSPropertyOp18
 70
     1
102
RTVSPropertyOp19
 70
     1
102
RTVSPropertyOp20
 70
     1
102
RTVSPropertyOp21
 70
     1
102
RTVSPropertyOp22
 70
     1
102
RTVSPropertyOp23
 70
     1
102
RTVSPropertyOp24
 70
     1
102
RTVSPropertyOp25
 70
     1
102
RTVSPropertyOp26
 70
     1
102
RTVSPropertyOp27
 70
     1
  0
XRECORD
  5
499
102
{ACAD_REACTORS
330
498
102
}
330
498
100
AcDbXrecord
280
     1
102
RTVSPropertyOp0
 70
     1
102
RTVSPropertyOp1
 70
     1
102
RTVSPropertyOp2
 70
     1
102
RTVSPropertyOp3
 70
     1
102
RTVSPropertyOp4
 70
     1
102
RTVSPropertyOp5
 70
     1
102
RTVSPropertyOp6
 70
     1
102
RTVSPropertyOp7
 70
     1
102
RTVSPropertyOp8
 70
     1
102
RTVSPropertyOp9
 70
     1
102
RTVSPropertyOp10
 70
     1
102
RTVSPropertyOp11
 70
     1
102
RTVSPropertyOp12
 70
     1
102
RTVSPropertyOp13
 70
     1
102
RTVSPropertyOp14
 70
     1
102
RTVSPropertyOp15
 70
     1
102
RTVSPropertyOp16
 70
     1
102
RTVSPropertyOp17
 70
     1
102
RTVSPropertyOp18
 70
     1
102
RTVSPropertyOp19
 70
     1
102
RTVSPropertyOp20
 70
     1
102
RTVSPropertyOp21
 70
     1
102
RTVSPropertyOp22
 70
     1
102
RTVSPropertyOp23
 70
     1
102
RTVSPropertyOp24
 70
     1
102
RTVSPropertyOp25
 70
     1
102
RTVSPropertyOp26
 70
     1
102
RTVSPropertyOp27
 70
     1
  0
XRECORD
  5
4AD
102
{ACAD_REACTORS
330
4AC
102
}
330
4AC
100
AcDbXrecord
280
     1
102
RTVSPropertyOp0
 70
     1
102
RTVSPropertyOp1
 70
     1
102
RTVSPropertyOp2
 70
     1
102
RTVSPropertyOp3
 70
     1
102
RTVSPropertyOp4
 70
     1
102
RTVSPropertyOp5
 70
     1
102
RTVSPropertyOp6
 70
     1
102
RTVSPropertyOp7
 70
     1
102
RTVSPropertyOp8
 70
     1
102
RTVSPropertyOp9
 70
     1
102
RTVSPropertyOp10
 70
     1
102
RTVSPropertyOp11
 70
     1
102
RTVSPropertyOp12
 70
     1
102
RTVSPropertyOp13
 70
     1
102
RTVSPropertyOp14
 70
     1
102
RTVSPropertyOp15
 70
     1
102
RTVSPropertyOp16
 70
     1
102
RTVSPropertyOp17
 70
     1
102
RTVSPropertyOp18
 70
     1
102
RTVSPropertyOp19
 70
     1
102
RTVSPropertyOp20
 70
     1
102
RTVSPropertyOp21
 70
     1
102
RTVSPropertyOp22
 70
     1
102
RTVSPropertyOp23
 70
     1
102
RTVSPropertyOp24
 70
     1
102
RTVSPropertyOp25
 70
     1
102
RTVSPropertyOp26
 70
     1
102
RTVSPropertyOp27
 70
     1
  0
XRECORD
  5
A4E
102
{ACAD_REACTORS
330
A4D
102
}
330
A4D
100
AcDbXrecord
280
     1
102
RTVSPropertyOp0
 70
     1
102
RTVSPropertyOp1
 70
     1
102
RTVSPropertyOp2
 70
     1
102
RTVSPropertyOp3
 70
     1
102
RTVSPropertyOp4
 70
     1
102
RTVSPropertyOp5
 70
     1
102
RTVSPropertyOp6
 70
     1
102
RTVSPropertyOp7
 70
     1
102
RTVSPropertyOp8
 70
     1
102
RTVSPropertyOp9
 70
     1
102
RTVSPropertyOp10
 70
     1
102
RTVSPropertyOp11
 70
     1
102
RTVSPropertyOp12
 70
     1
102
RTVSPropertyOp13
 70
     1
102
RTVSPropertyOp14
 70
     1
102
RTVSPropertyOp15
 70
     1
102
RTVSPropertyOp16
 70
     1
102
RTVSPropertyOp17
 70
     1
102
RTVSPropertyOp18
 70
     1
102
RTVSPropertyOp19
 70
     1
102
RTVSPropertyOp20
 70
     1
102
RTVSPropertyOp21
 70
     1
102
RTVSPropertyOp22
 70
     1
102
RTVSPropertyOp23
 70
     1
102
RTVSPropertyOp24
 70
     1
102
RTVSPropertyOp25
 70
     1
102
RTVSPropertyOp26
 70
     1
102
RTVSPropertyOp27
 70
     1
  0
XRECORD
  5
4AB
102
{ACAD_REACTORS
330
4AA
102
}
330
4AA
100
AcDbXrecord
280
     1
102
RTVSPropertyOp0
 70
     1
102
RTVSPropertyOp1
 70
     1
102
RTVSPropertyOp2
 70
     1
102
RTVSPropertyOp3
 70
     1
102
RTVSPropertyOp4
 70
     1
102
RTVSPropertyOp5
 70
     1
102
RTVSPropertyOp6
 70
     1
102
RTVSPropertyOp7
 70
     1
102
RTVSPropertyOp8
 70
     1
102
RTVSPropertyOp9
 70
     1
102
RTVSPropertyOp10
 70
     1
102
RTVSPropertyOp11
 70
     1
102
RTVSPropertyOp12
 70
     1
102
RTVSPropertyOp13
 70
     1
102
RTVSPropertyOp14
 70
     1
102
RTVSPropertyOp15
 70
     1
102
RTVSPropertyOp16
 70
     1
102
RTVSPropertyOp17
 70
     1
102
RTVSPropertyOp18
 70
     1
102
RTVSPropertyOp19
 70
     1
102
RTVSPropertyOp20
 70
     1
102
RTVSPropertyOp21
 70
     1
102
RTVSPropertyOp22
 70
     1
102
RTVSPropertyOp23
 70
     1
102
RTVSPropertyOp24
 70
     1
102
RTVSPropertyOp25
 70
     1
102
RTVSPropertyOp26
 70
     1
102
RTVSPropertyOp27
 70
     1
  0
ENDSEC
  0
EOF
