  0
SECTION
  2
HEADER
  9
$ACADVER
  1
AC1018
  9
$ACADMAINTVER
 70
   104
  9
$DWGCODEPAGE
  3
ANSI_1250
  9
$LASTSAVEDBY
  1
bonzo
  9
$INSBASE
 10
0.0
 20
0.0
 30
0.0
  9
$EXTMIN
 10
7.789287644210909
 20
3.504793617614087
 30
0.0
  9
$EXTMAX
 10
18.62964242577527
 20
11.32163788971801
 30
0.0
  9
$LIMMIN
 10
0.0
 20
0.0
  9
$LIMMAX
 10
12.0
 20
9.0
  9
$ORTHOMODE
 70
     1
  9
$REGENMODE
 70
     1
  9
$FILLMODE
 70
     1
  9
$QTEXTMODE
 70
     0
  9
$MIRRTEXT
 70
     1
  9
$LTSCALE
 40
1.0
  9
$ATTMODE
 70
     1
  9
$TEXTSIZE
 40
0.2
  9
$TRACEWID
 40
0.05
  9
$TEXTSTYLE
  7
Standard
  9
$CLAYER
  8
STREFA BEZPIECZEŃSTWA
  9
$CELTYPE
  6
ByLayer
  9
$CECOLOR
 62
   256
  9
$CELTSCALE
 40
1.0
  9
$DISPSILH
 70
     0
  9
$DIMSCALE
 40
0.02
  9
$DIMASZ
 40
3.0
  9
$DIMEXO
 40
20.0
  9
$DIMDLI
 40
0.0
  9
$DIMRND
 40
0.05
  9
$DIMDLE
 40
0.0
  9
$DIMEXE
 40
5.0
  9
$DIMTP
 40
0.0
  9
$DIMTM
 40
0.0
  9
$DIMTXT
 40
9.0
  9
$DIMCEN
 40
12.0
  9
$DIMTSZ
 40
0.0
  9
$DIMTOL
 70
     0
  9
$DIMLIM
 70
     0
  9
$DIMTIH
 70
     0
  9
$DIMTOH
 70
     0
  9
$DIMSE1
 70
     1
  9
$DIMSE2
 70
     1
  9
$DIMTAD
 70
     1
  9
$DIMZIN
 70
     1
  9
$DIMBLK
  1

  9
$DIMASO
 70
     1
  9
$DIMSHO
 70
     1
  9
$DIMPOST
  1

  9
$DIMAPOST
  1

  9
$DIMALT
 70
     0
  9
$DIMALTD
 70
     4
  9
$DIMALTF
 40
1.0
  9
$DIMLFAC
 40
1.0
  9
$DIMTOFL
 70
     1
  9
$DIMTVP
 40
0.0
  9
$DIMTIX
 70
     1
  9
$DIMSOXD
 70
     0
  9
$DIMSAH
 70
     1
  9
$DIMBLK1
  1
MAR-STRZ
  9
$DIMBLK2
  1
MAR-STRZ
  9
$DIMSTYLE
  2
AR SKALA 1-50
  9
$DIMCLRD
 70
   256
  9
$DIMCLRE
 70
   256
  9
$DIMCLRT
 70
   256
  9
$DIMTFAC
 40
0.01
  9
$DIMGAP
 40
6.0
  9
$DIMJUST
 70
     0
  9
$DIMSD1
 70
     0
  9
$DIMSD2
 70
     0
  9
$DIMTOLJ
 70
     1
  9
$DIMTZIN
 70
     0
  9
$DIMALTZ
 70
     0
  9
$DIMALTTZ
 70
     0
  9
$DIMUPT
 70
     0
  9
$DIMDEC
 70
     2
  9
$DIMTDEC
 70
     2
  9
$DIMALTU
 70
     2
  9
$DIMALTTD
 70
     4
  9
$DIMTXSTY
  7
AR 01 SWIS
  9
$DIMAUNIT
 70
     0
  9
$DIMADEC
 70
     1
  9
$DIMALTRND
 40
0.0
  9
$DIMAZIN
 70
     0
  9
$DIMDSEP
 70
    46
  9
$DIMATFIT
 70
     3
  9
$DIMFRAC
 70
     0
  9
$DIMLDRBLK
  1
MAR-STRZ
  9
$DIMLUNIT
 70
     2
  9
$DIMLWD
 70
    -2
  9
$DIMLWE
 70
    -2
  9
$DIMTMOVE
 70
     2
  9
$LUNITS
 70
     2
  9
$LUPREC
 70
     4
  9
$SKETCHINC
 40
0.1
  9
$FILLETRAD
 40
0.5
  9
$AUNITS
 70
     0
  9
$AUPREC
 70
     0
  9
$MENU
  1
.
  9
$ELEVATION
 40
0.0
  9
$PELEVATION
 40
0.0
  9
$THICKNESS
 40
0.0
  9
$LIMCHECK
 70
     0
  9
$CHAMFERA
 40
0.5
  9
$CHAMFERB
 40
0.5
  9
$CHAMFERC
 40
1.0
  9
$CHAMFERD
 40
0.0
  9
$SKPOLY
 70
     0
  9
$TDCREATE
 40
2455956.499359827
  9
$TDUCREATE
 40
2455956.416026493
  9
$TDUPDATE
 40
2459311.315730150
  9
$TDUUPDATE
 40
2459311.232396817
  9
$TDINDWG
 40
0.2366689468
  9
$TDUSRTIMER
 40
0.2366689468
  9
$USRTIMER
 70
     1
  9
$ANGBASE
 50
0.0
  9
$ANGDIR
 70
     0
  9
$PDMODE
 70
     0
  9
$PDSIZE
 40
0.0
  9
$PLINEWID
 40
0.0
  9
$SPLFRAME
 70
     0
  9
$SPLINETYPE
 70
     6
  9
$SPLINESEGS
 70
     8
  9
$HANDSEED
  5
96F0
  9
$SURFTAB1
 70
     6
  9
$SURFTAB2
 70
     6
  9
$SURFTYPE
 70
     6
  9
$SURFU
 70
     6
  9
$SURFV
 70
     6
  9
$UCSBASE
  2

  9
$UCSNAME
  2

  9
$UCSORG
 10
0.0
 20
0.0
 30
0.0
  9
$UCSXDIR
 10
1.0
 20
0.0
 30
0.0
  9
$UCSYDIR
 10
0.0
 20
1.0
 30
0.0
  9
$UCSORTHOREF
  2

  9
$UCSORTHOVIEW
 70
     0
  9
$UCSORGTOP
 10
0.0
 20
0.0
 30
0.0
  9
$UCSORGBOTTOM
 10
0.0
 20
0.0
 30
0.0
  9
$UCSORGLEFT
 10
0.0
 20
0.0
 30
0.0
  9
$UCSORGRIGHT
 10
0.0
 20
0.0
 30
0.0
  9
$UCSORGFRONT
 10
0.0
 20
0.0
 30
0.0
  9
$UCSORGBACK
 10
0.0
 20
0.0
 30
0.0
  9
$PUCSBASE
  2

  9
$PUCSNAME
  2

  9
$PUCSORG
 10
0.0
 20
0.0
 30
0.0
  9
$PUCSXDIR
 10
1.0
 20
0.0
 30
0.0
  9
$PUCSYDIR
 10
0.0
 20
1.0
 30
0.0
  9
$PUCSORTHOREF
  2

  9
$PUCSORTHOVIEW
 70
     0
  9
$PUCSORGTOP
 10
0.0
 20
0.0
 30
0.0
  9
$PUCSORGBOTTOM
 10
0.0
 20
0.0
 30
0.0
  9
$PUCSORGLEFT
 10
0.0
 20
0.0
 30
0.0
  9
$PUCSORGRIGHT
 10
0.0
 20
0.0
 30
0.0
  9
$PUCSORGFRONT
 10
0.0
 20
0.0
 30
0.0
  9
$PUCSORGBACK
 10
0.0
 20
0.0
 30
0.0
  9
$USERI1
 70
     0
  9
$USERI2
 70
     0
  9
$USERI3
 70
     0
  9
$USERI4
 70
     0
  9
$USERI5
 70
     0
  9
$USERR1
 40
0.0
  9
$USERR2
 40
0.0
  9
$USERR3
 40
0.0
  9
$USERR4
 40
0.0
  9
$USERR5
 40
0.0
  9
$WORLDVIEW
 70
     1
  9
$SHADEDGE
 70
     3
  9
$SHADEDIF
 70
    70
  9
$TILEMODE
 70
     1
  9
$MAXACTVP
 70
    64
  9
$PINSBASE
 10
0.0
 20
0.0
 30
0.0
  9
$PLIMCHECK
 70
     0
  9
$PEXTMIN
 10
6.561544945354853
 20
3.282189374834842
 30
0.0
  9
$PEXTMAX
 10
416.7133315898103
 20
290.5875349075164
 30
0.0
  9
$PLIMMIN
 10
3.386557152386103
 20
0.1071894225185588
  9
$PLIMMAX
 10
423.5448823476986
 20
297.1601984557217
  9
$UNITMODE
 70
     0
  9
$VISRETAIN
 70
     1
  9
$PLINEGEN
 70
     0
  9
$PSLTSCALE
 70
     0
  9
$TREEDEPTH
 70
  3020
  9
$CMLSTYLE
  2
Standard
  9
$CMLJUST
 70
     0
  9
$CMLSCALE
 40
1.0
  9
$PROXYGRAPHICS
 70
     1
  9
$MEASUREMENT
 70
     0
  9
$CELWEIGHT
370
    -1
  9
$ENDCAPS
280
     0
  9
$JOINSTYLE
280
     0
  9
$LWDISPLAY
290
     0
  9
$INSUNITS
 70
     1
  9
$HYPERLINKBASE
  1

  9
$STYLESHEET
  1

  9
$XEDIT
290
     1
  9
$CEPSNTYPE
380
     0
  9
$PSTYLEMODE
290
     1
  9
$FINGERPRINTGUID
  2
{1B330B5B-CE04-4EC8-B886-8C8BFC3A02BF}
  9
$VERSIONGUID
  2
{AA30A4F8-7E83-4E0C-A0FD-DB5D1FB27EFA}
  9
$EXTNAMES
290
     1
  9
$PSVPSCALE
 40
0.0
  9
$OLESTARTUP
290
     0
  9
$SORTENTS
280
   127
  9
$INDEXCTL
280
     0
  9
$HIDETEXT
280
     1
  9
$XCLIPFRAME
290
     0
  9
$HALOGAP
280
     0
  9
$OBSCOLOR
 70
   257
  9
$OBSLTYPE
280
     0
  9
$INTERSECTIONDISPLAY
280
     0
  9
$INTERSECTIONCOLOR
 70
   257
  9
$DIMASSOC
280
     2
  9
$PROJECTNAME
  1

  0
ENDSEC
  0
SECTION
  2
CLASSES
  0
CLASS
  1
ACDBDICTIONARYWDFLT
  2
AcDbDictionaryWithDefault
  3
ObjectDBX Classes
 90
        0
 91
        1
280
     0
281
     0
  0
CLASS
  1
VISUALSTYLE
  2
AcDbVisualStyle
  3
ObjectDBX Classes
 90
     4095
 91
       16
280
     0
281
     0
  0
CLASS
  1
MATERIAL
  2
AcDbMaterial
  3
ObjectDBX Classes
 90
     1153
 91
        3
280
     0
281
     0
  0
CLASS
  1
DICTIONARYVAR
  2
AcDbDictionaryVar
  3
ObjectDBX Classes
 90
        0
 91
        9
280
     0
281
     0
  0
CLASS
  1
TABLESTYLE
  2
AcDbTableStyle
  3
ObjectDBX Classes
 90
     4095
 91
        1
280
     0
281
     0
  0
CLASS
  1
SORTENTSTABLE
  2
AcDbSortentsTable
  3
ObjectDBX Classes
 90
        0
 91
        1
280
     0
281
     0
  0
CLASS
  1
DIMASSOC
  2
AcDbDimAssoc
  3
"AcDbDimAssoc|Product Desc:     AcDim ARX App For Dimension|Company:          Autodesk, Inc.|WEB Address:      www.autodesk.com"
 90
        0
 91
        2
280
     0
281
     0
  0
CLASS
  1
SCALE
  2
AcDbScale
  3
ObjectDBX Classes
 90
     1153
 91
       33
280
     0
281
     0
  0
CLASS
  1
MLEADERSTYLE
  2
AcDbMLeaderStyle
  3
ACDB_MLEADERSTYLE_CLASS
 90
     4095
 91
        1
280
     0
281
     0
  0
CLASS
  1
CELLSTYLEMAP
  2
AcDbCellStyleMap
  3
ObjectDBX Classes
 90
     1152
 91
        2
280
     0
281
     0
  0
ENDSEC
  0
SECTION
  2
TABLES
  0
TABLE
  2
VPORT
  5
8
102
{ACAD_XDICTIONARY
360
84C
102
}
330
0
100
AcDbSymbolTable
 70
     1
  0
VPORT
  5
29
330
8
100
AcDbSymbolTableRecord
100
AcDbViewportTableRecord
  2
*Active
 70
     0
 10
0.0
 20
0.0
 11
1.0
 21
1.0
 12
13.93026364542495
 22
7.301941196759027
 13
0.0
 23
0.0
 14
0.5
 24
0.5
 15
0.5
 25
0.5
 16
0.0
 26
0.0
 36
1.0
 17
0.0
 27
0.0
 37
-1000.0
 40
9.718885762544168
 41
2.060556464811783
 42
50.0
 43
4.148984367261674
 44
9.217858496371269
 50
0.0
 51
0.0
 71
     0
 72
   100
 73
     1
 74
     3
 75
     0
 76
     0
 77
     0
 78
     0
281
     0
 65
     1
110
0.0
120
0.0
130
0.0
111
1.0
121
0.0
131
0.0
112
0.0
122
1.0
132
0.0
 79
     0
146
0.0
  0
ENDTAB
  0
TABLE
  2
LTYPE
  5
5
330
0
100
AcDbSymbolTable
 70
     2
  0
LTYPE
  5
14
330
5
100
AcDbSymbolTableRecord
100
AcDbLinetypeTableRecord
  2
ByBlock
 70
     0
  3

 72
    65
 73
     0
 40
0.0
  0
LTYPE
  5
15
330
5
100
AcDbSymbolTableRecord
100
AcDbLinetypeTableRecord
  2
ByLayer
 70
     0
  3

 72
    65
 73
     0
 40
0.0
  0
LTYPE
  5
16
330
5
100
AcDbSymbolTableRecord
100
AcDbLinetypeTableRecord
  2
Continuous
 70
     0
  3
Solid line
 72
    65
 73
     0
 40
0.0
  0
LTYPE
  5
886
330
5
100
AcDbSymbolTableRecord
100
AcDbLinetypeTableRecord
  2
DASHED
 70
     0
  3
Dashed __ __ __ __ __ __ __ __ __ __ __ __ __ _
 72
    65
 73
     2
 40
0.75
 49
0.5
 74
     0
 49
-0.25
 74
     0
  0
ENDTAB
  0
TABLE
  2
LAYER
  5
2
102
{ACAD_XDICTIONARY
360
7D1
102
}
330
0
100
AcDbSymbolTable
 70
     4
  0
LAYER
  5
10
102
{ACAD_XDICTIONARY
360
7E17
102
}
330
2
100
AcDbSymbolTableRecord
100
AcDbLayerTableRecord
  2
0
 70
     0
 62
     7
  6
Continuous
370
    25
390
F
  0
LAYER
  5
87B
102
{ACAD_XDICTIONARY
360
7E19
102
}
330
2
100
AcDbSymbolTableRecord
100
AcDbLayerTableRecord
  2
STREFA BEZPIECZEŃSTWA
 70
     0
 62
     7
  6
DASHED
370
    25
390
F
1001
AcAecLayerStandard
1000

1000

  0
LAYER
  5
87D
102
{ACAD_XDICTIONARY
360
7E1B
102
}
330
2
100
AcDbSymbolTableRecord
100
AcDbLayerTableRecord
  2
WYMIAR
 70
     0
 62
     7
  6
Continuous
370
    25
390
F
1001
AcAecLayerStandard
1000

1000

  0
LAYER
  5
8CC
330
2
100
AcDbSymbolTableRecord
100
AcDbLayerTableRecord
  2
Defpoints
 70
     0
 62
     7
  6
Continuous
290
     0
370
     5
390
F
1001
RAK
1000
{ACET-LAYISO
1070
     0
1070
     7
1000
Continuous
1071
        5
1071
        0
1005
F
1000
ACET-LAYISO}
  0
ENDTAB
  0
TABLE
  2
STYLE
  5
3
330
0
100
AcDbSymbolTable
 70
     2
  0
STYLE
  5
11
330
3
100
AcDbSymbolTableRecord
100
AcDbTextStyleTableRecord
  2
Standard
 70
     0
 40
0.0
 41
1.0
 50
0.0
 71
     0
 42
0.2
  3
txt
  4

  0
STYLE
  5
8CE
330
3
100
AcDbSymbolTableRecord
100
AcDbTextStyleTableRecord
  2
AR 01 SWIS
 70
     0
 40
0.0
 41
1.0
 50
0.0
 71
     0
 42
55.0
  3
swissc.ttf
  4

1001
ACAD
1000
Swis721 Cn BT
1071
       34
  0
ENDTAB
  0
TABLE
  2
VIEW
  5
6
330
0
100
AcDbSymbolTable
 70
     0
  0
ENDTAB
  0
TABLE
  2
UCS
  5
7
330
0
100
AcDbSymbolTable
 70
     0
  0
ENDTAB
  0
TABLE
  2
APPID
  5
9
330
0
100
AcDbSymbolTable
 70
     9
  0
APPID
  5
12
330
9
100
AcDbSymbolTableRecord
100
AcDbRegAppTableRecord
  2
ACAD
 70
     0
  0
APPID
  5
7CB
330
9
100
AcDbSymbolTableRecord
100
AcDbRegAppTableRecord
  2
ACAD_PSEXT
 70
     0
  0
APPID
  5
875
330
9
100
AcDbSymbolTableRecord
100
AcDbRegAppTableRecord
  2
ACAD_EXEMPT_FROM_CAD_STANDARDS
 70
     0
  0
APPID
  5
87C
330
9
100
AcDbSymbolTableRecord
100
AcDbRegAppTableRecord
  2
AcAecLayerStandard
 70
     0
  0
APPID
  5
8D4
330
9
100
AcDbSymbolTableRecord
100
AcDbRegAppTableRecord
  2
RAK
 70
     0
  0
APPID
  5
8D5
330
9
100
AcDbSymbolTableRecord
100
AcDbRegAppTableRecord
  2
ACAD_DSTYLE_DIMJOGGED_JOGANGLE_SYMBOL
 70
     0
  0
APPID
  5
8D6
330
9
100
AcDbSymbolTableRecord
100
AcDbRegAppTableRecord
  2
ACAD_DSTYLE_DIMJAG
 70
     0
  0
APPID
  5
8D7
330
9
100
AcDbSymbolTableRecord
100
AcDbRegAppTableRecord
  2
ACAD_DSTYLE_DIMTALN
 70
     0
  0
APPID
  5
7E09
330
9
100
AcDbSymbolTableRecord
100
AcDbRegAppTableRecord
  2
ACAD_MLEADERVER
 70
     0
  0
ENDTAB
  0
TABLE
  2
DIMSTYLE
  5
A
330
0
100
AcDbSymbolTable
 70
     2
100
AcDbDimStyleTable
 71
     1
340
8CF
  0
DIMSTYLE
105
8CF
102
{ACAD_REACTORS
330
94C2
330
96C2
102
}
330
A
100
AcDbSymbolTableRecord
100
AcDbDimStyleTableRecord
  2
AR SKALA 1-50
 70
     0
 40
0.02
 41
3.0
 42
20.0
 43
0.0
 44
5.0
 45
0.05
 73
     0
 74
     0
 75
     1
 76
     1
 77
     1
 78
     1
140
9.0
141
12.0
143
1.0
146
0.01
147
6.0
171
     4
172
     1
173
     1
174
     1
176
   256
177
   256
178
   256
179
     1
271
     2
272
     2
274
     4
279
     2
340
8CE
341
8BC
343
8BC
344
8BC
  0
DIMSTYLE
105
A46
330
A
100
AcDbSymbolTableRecord
100
AcDbDimStyleTableRecord
  2
Standard
 70
     0
340
11
  0
ENDTAB
  0
TABLE
  2
BLOCK_RECORD
  5
1
330
0
100
AcDbSymbolTable
 70
     6
  0
BLOCK_RECORD
  5
1F
102
{ACAD_XDICTIONARY
360
5F8
102
}
330
1
100
AcDbSymbolTableRecord
100
AcDbBlockTableRecord
  2
*Model_Space
340
22
  0
BLOCK_RECORD
  5
1B
330
1
100
AcDbSymbolTableRecord
100
AcDbBlockTableRecord
  2
*Paper_Space
340
1E
  0
BLOCK_RECORD
  5
8BC
330
1
100
AcDbSymbolTableRecord
100
AcDbBlockTableRecord
  2
MAR-STRZ
340
0
310
2800000020000000200000000100080000000000000400000000000000000000000000000000000000000000000080000080000000808000800000008000800080800000C0C0C000C0DCC000F0CAA6000020400000206000002080000020A0000020C0000020E00000400000004020000040400000406000004080000040A0
310
000040C0000040E00000600000006020000060400000606000006080000060A0000060C0000060E00000800000008020000080400000806000008080000080A0000080C0000080E00000A0000000A0200000A0400000A0600000A0800000A0A00000A0C00000A0E00000C0000000C0200000C0400000C0600000C0800000C0
310
A00000C0C00000C0E00000E0000000E0200000E0400000E0600000E0800000E0A00000E0C00000E0E00040000000400020004000400040006000400080004000A0004000C0004000E00040200000402020004020400040206000402080004020A0004020C0004020E000404000004040200040404000404060004040800040
310
40A0004040C0004040E00040600000406020004060400040606000406080004060A0004060C0004060E00040800000408020004080400040806000408080004080A0004080C0004080E00040A0000040A0200040A0400040A0600040A0800040A0A00040A0C00040A0E00040C0000040C0200040C0400040C0600040C08000
310
40C0A00040C0C00040C0E00040E0000040E0200040E0400040E0600040E0800040E0A00040E0C00040E0E00080000000800020008000400080006000800080008000A0008000C0008000E00080200000802020008020400080206000802080008020A0008020C0008020E00080400000804020008040400080406000804080
310
008040A0008040C0008040E00080600000806020008060400080606000806080008060A0008060C0008060E00080800000808020008080400080806000808080008080A0008080C0008080E00080A0000080A0200080A0400080A0600080A0800080A0A00080A0C00080A0E00080C0000080C0200080C0400080C0600080C0
310
800080C0A00080C0C00080C0E00080E0000080E0200080E0400080E0600080E0800080E0A00080E0C00080E0E000C0000000C0002000C0004000C0006000C0008000C000A000C000C000C000E000C0200000C0202000C0204000C0206000C0208000C020A000C020C000C020E000C0400000C0402000C0404000C0406000C0
310
408000C040A000C040C000C040E000C0600000C0602000C0604000C0606000C0608000C060A000C060C000C060E000C0800000C0802000C0804000C0806000C0808000C080A000C080C000C080E000C0A00000C0A02000C0A04000C0A06000C0A08000C0A0A000C0A0C000C0A0E000C0C00000C0C02000C0C04000C0C06000
310
C0C08000C0C0A000F0FBFF00A4A0A000808080000000FF0000FF000000FFFF00FF000000FF00FF00FFFF0000FFFFFF00000000000000000000000000000000000000000000000000000000000000000000000000000000000000000000000000FF000000000000000000000000000000000000000000000000000000000000
310
00FF00000000000000000000000000000000000000000000000000000000000000FF00000000000000000000000000000000000000000000000000000000000000FF00000000000000000000000000000000000000000000000000000000000000FF000000000000000000000000000000000000000000F900000000000000
310
0000FF00000000000000000000000000000000000000000000F90000000000000000FF0000000000000000000000000000000000000000000000F900000000000000FF000000000000000000000000000000000000000000000000F9000000000000FF00000000000000000000000000000000000000000000000000F90000
310
000000FF0000000000000000000000000000000000000000000000000000F900000000FF000000000000000000000000000000000000000000000000000000F9000000FF00000000000000000000000000000000000000000000000000000000F90000FF000000000000000000000000000000000000000000000000000000
310
0000F900FF000000000000000000000000000000000000000000000000000000000000F9FF00000000000000000000000000000000000000000000FFFFFFFFFFFFFFFFFFFFFFFFFFFFFFFFFFFF0000000000000000000000000000000000000000000000FFF900000000000000000000000000000000000000000000000000
310
0000000000FF00F90000000000000000000000000000000000000000000000000000000000FF0000F900000000000000000000000000000000000000000000000000000000FF000000F9000000000000000000000000000000000000000000000000000000FF00000000F90000000000000000000000000000000000000000
310
000000000000FF0000000000F900000000000000000000000000000000000000000000000000FF000000000000F9000000000000000000000000000000000000000000000000FF00000000000000F90000000000000000000000000000000000000000000000FF0000000000000000F9000000000000000000000000000000
310
00000000000000FF00000000000000000000000000000000000000000000000000000000000000FF00000000000000000000000000000000000000000000000000000000000000FF00000000000000000000000000000000000000000000000000000000000000FF0000000000000000000000000000000000000000000000
310
0000000000000000FF0000000000000000000000000000000000000000000000000000000000000000000000000000000000000000000000
102
{BLKREFS
331
8F03
331
8F04
331
8F12
331
8F13
331
8F1B
331
8F1C
331
96BC
331
96BD
331
96D7
331
96D8
102
}
  0
BLOCK_RECORD
  5
96B8
330
1
100
AcDbSymbolTableRecord
100
AcDbBlockTableRecord
  2
*D4
340
0
  0
BLOCK_RECORD
  5
96C3
330
1
100
AcDbSymbolTableRecord
100
AcDbBlockTableRecord
  2
*D5
340
0
  0
ENDTAB
  0
ENDSEC
  0
SECTION
  2
BLOCKS
  0
BLOCK
  5
20
330
1F
100
AcDbEntity
  8
0
100
AcDbBlockBegin
  2
*Model_Space
 70
     0
 10
0.0
 20
0.0
 30
0.0
  3
*Model_Space
  1

  0
ENDBLK
  5
21
330
1F
100
AcDbEntity
  8
0
100
AcDbBlockEnd
  0
BLOCK
  5
1C
330
1B
100
AcDbEntity
 67
     1
  8
0
100
AcDbBlockBegin
  2
*Paper_Space
 70
     0
 10
0.0
 20
0.0
 30
0.0
  3
*Paper_Space
  1

  0
ENDBLK
  5
1D
330
1B
100
AcDbEntity
 67
     1
  8
0
100
AcDbBlockEnd
  0
BLOCK
  5
8BD
330
8BC
100
AcDbEntity
  8
0
100
AcDbBlockBegin
  2
MAR-STRZ
 70
     0
 10
0.0
 20
0.0
 30
0.0
  3
MAR-STRZ
  1

  0
LINE
  5
8BE
330
8BC
100
AcDbEntity
  8
0
100
AcDbLine
 10
0.0
 20
2.299999999999272
 30
0.0
 11
0.0
 21
-2.299999999999272
 31
0.0
  0
LINE
  5
8BF
330
8BC
100
AcDbEntity
  8
0
 62
    10
100
AcDbLine
 10
1.5
 20
1.5
 30
0.0
 11
-1.5
 21
-1.5
 31
0.0
  0
LINE
  5
8C0
330
8BC
100
AcDbEntity
  8
0
100
AcDbLine
 10
1.399999999999636
 20
0.0
 30
0.0
 11
-1.399999999999636
 21
0.0
 31
0.0
  0
ENDBLK
  5
8C1
330
8BC
100
AcDbEntity
  8
0
100
AcDbBlockEnd
  0
BLOCK
  5
96B9
330
96B8
100
AcDbEntity
  8
0
100
AcDbBlockBegin
  2
*D4
 70
     1
 10
0.0
 20
0.0
 30
0.0
  3
*D4
  1

  0
LINE
  5
96BB
330
96B8
100
AcDbEntity
  8
WYMIAR
370
    -2
100
AcDbLine
 10
18.47964242577528
 20
10.96681970789982
 30
0.0
 11
9.414825861694707
 21
10.96681970789982
 31
0.0
  0
INSERT
  5
96BC
330
96B8
100
AcDbEntity
  8
WYMIAR
370
    -2
100
AcDbBlockReference
  2
MAR-STRZ
 10
18.53964242577528
 20
10.96681970789982
 30
0.0
 41
0.06
 42
0.06
 43
0.06
  0
INSERT
  5
96BD
330
96B8
100
AcDbEntity
  8
WYMIAR
370
    -2
100
AcDbBlockReference
  2
MAR-STRZ
 10
9.354825861694706
 20
10.96681970789982
 30
0.0
 41
0.06
 42
0.06
 43
0.06
 50
180.0
  0
MTEXT
  5
96BE
330
96B8
100
AcDbEntity
  8
WYMIAR
100
AcDbMText
 10
13.94723414373499
 20
11.17933269491281
 30
0.0
 40
0.18
 41
0.0
 71
     5
 72
     1
  1
\A1;9.20
  7
AR 01 SWIS
 73
     1
 44
1.0
  0
POINT
  5
96BF
330
96B8
100
AcDbEntity
  8
Defpoints
 62
     0
100
AcDbPoint
 10
18.53964242577528
 20
10.02546734034709
 30
0.0
  0
POINT
  5
96C0
330
96B8
100
AcDbEntity
  8
Defpoints
 62
     0
100
AcDbPoint
 10
9.354825861694706
 20
10.02546734034709
 30
0.0
  0
POINT
  5
96C1
330
96B8
100
AcDbEntity
  8
Defpoints
 62
     0
100
AcDbPoint
 10
9.354825861694706
 20
10.96681970789982
 30
0.0
  0
ENDBLK
  5
96BA
330
96B8
100
AcDbEntity
  8
0
100
AcDbBlockEnd
  0
BLOCK
  5
96C4
330
96C3
100
AcDbEntity
  8
0
100
AcDbBlockBegin
  2
*D5
 70
     1
 10
0.0
 20
0.0
 30
0.0
  3
*D5
  1

  0
LINE
  5
96D6
330
96C3
100
AcDbEntity
  8
WYMIAR
370
    -2
100
AcDbLine
 10
8.143988942912208
 20
9.965467340347087
 30
0.0
 11
8.143988942912208
 21
5.183593061682435
 31
0.0
  0
INSERT
  5
96D7
330
96C3
100
AcDbEntity
  8
WYMIAR
370
    -2
100
AcDbBlockReference
  2
MAR-STRZ
 10
8.143988942912208
 20
10.02546734034709
 30
0.0
 41
0.06
 42
0.06
 43
0.06
 50
90.0
  0
INSERT
  5
96D8
330
96C3
100
AcDbEntity
  8
WYMIAR
370
    -2
100
AcDbBlockReference
  2
MAR-STRZ
 10
8.143988942912208
 20
5.123593061682435
 30
0.0
 41
0.06
 42
0.06
 43
0.06
 50
270.0
  0
MTEXT
  5
96D9
330
96C3
100
AcDbEntity
  8
WYMIAR
100
AcDbMText
 10
7.931592839016103
 20
7.574530201014762
 30
0.0
 40
0.18
 41
0.0
 71
     5
 72
     1
  1
\A1;4.90
  7
AR 01 SWIS
 11
0.0000000000000001
 21
1.0
 31
0.0
 73
     1
 44
1.0
  0
POINT
  5
96DA
330
96C3
100
AcDbEntity
  8
Defpoints
 62
     0
100
AcDbPoint
 10
9.354825861694706
 20
10.02546734034709
 30
0.0
  0
POINT
  5
96DB
330
96C3
100
AcDbEntity
  8
Defpoints
 62
     0
100
AcDbPoint
 10
12.18069283037441
 20
5.123593061682434
 30
0.0
  0
POINT
  5
96DC
330
96C3
100
AcDbEntity
  8
Defpoints
 62
     0
100
AcDbPoint
 10
8.143988942912208
 20
5.123593061682435
 30
0.0
  0
ENDBLK
  5
96C5
330
96C3
100
AcDbEntity
  8
0
100
AcDbBlockEnd
  0
ENDSEC
  0
SECTION
  2
ENTITIES
  0
LINE
  5
92F0
330
1F
100
AcDbEntity
  8
0
100
AcDbLine
 10
17.01757087318615
 20
8.315915882964606
 30
0.0
 11
17.01757087318615
 21
8.286215882964608
 31
0.0
  0
LINE
  5
92F1
330
1F
100
AcDbEntity
  8
0
100
AcDbLine
 10
16.24170420158746
 20
8.315915882964606
 30
0.0
 11
16.24170420158746
 21
8.286215882964608
 31
0.0
  0
LINE
  5
92F2
330
1F
100
AcDbEntity
  8
0
100
AcDbLine
 10
16.24002457290122
 20
8.327861041792761
 30
0.0
 11
16.25210977734339
 21
8.327861041792761
 31
0.0
  0
LINE
  5
92F3
330
1F
100
AcDbEntity
  8
0
100
AcDbLine
 10
16.25210977734339
 20
8.269860046017807
 30
0.0
 11
16.25210977734339
 21
8.273860046017812
 31
0.0
  0
LINE
  5
92F4
330
1F
100
AcDbEntity
  8
0
100
AcDbLine
 10
16.25210977734339
 20
8.327861041792761
 30
0.0
 11
16.25210977734339
 21
8.333860046017807
 31
0.0
  0
LINE
  5
92F5
330
1F
100
AcDbEntity
  8
0
100
AcDbLine
 10
17.01103196902891
 20
8.269860046017807
 30
0.0
 11
17.01103196902891
 21
8.273860046017812
 31
0.0
  0
LINE
  5
92F6
330
1F
100
AcDbEntity
  8
0
100
AcDbLine
 10
17.01103196902891
 20
8.327861041792761
 30
0.0
 11
17.01103196902891
 21
8.333860046017807
 31
0.0
  0
LINE
  5
92F7
330
1F
100
AcDbEntity
  8
0
100
AcDbLine
 10
17.12189553412682
 20
8.367920543905267
 30
0.0
 11
17.12189553412682
 21
8.360314243620411
 31
0.0
  0
LINE
  5
92F8
330
1F
100
AcDbEntity
  8
0
100
AcDbLine
 10
17.02311717347108
 20
7.356273923444863
 30
0.0
 11
16.71611514752413
 21
7.356273923444863
 31
0.0
  0
LINE
  5
92F9
330
1F
100
AcDbEntity
  8
0
100
AcDbLine
 10
16.58511514752413
 20
7.356273923444863
 30
0.0
 11
16.24002457290122
 21
7.356273923444863
 31
0.0
  0
LINE
  5
92FA
330
1F
100
AcDbEntity
  8
0
100
AcDbLine
 10
16.99592621224548
 20
7.454860543905272
 30
0.0
 11
16.99592621224548
 21
8.250239467975827
 31
0.0
  0
LINE
  5
92FB
330
1F
100
AcDbEntity
  8
0
100
AcDbLine
 10
16.89740560838097
 20
8.250239467975827
 30
0.0
 11
16.89740560838097
 21
7.454860543905272
 31
0.0
  0
LINE
  5
92FC
330
1F
100
AcDbEntity
  8
0
100
AcDbLine
 10
16.80040064664987
 20
7.454860543905272
 30
0.0
 11
16.80040064664987
 21
8.250239467975827
 31
0.0
  0
LINE
  5
92FD
330
1F
100
AcDbEntity
  8
0
100
AcDbLine
 10
16.69434153939529
 20
8.25023946797582
 30
0.0
 11
16.69434153939529
 21
7.454860543905265
 31
0.0
  0
LINE
  5
92FE
330
1F
100
AcDbEntity
  8
0
100
AcDbLine
 10
16.59410864510415
 20
7.454860543905265
 30
0.0
 11
16.59410864510415
 21
8.25023946797582
 31
0.0
  0
LINE
  5
92FF
330
1F
100
AcDbEntity
  8
0
100
AcDbLine
 10
16.49180330029301
 20
8.25023946797582
 30
0.0
 11
16.49180330029301
 21
7.454860543905265
 31
0.0
  0
LINE
  5
9300
330
1F
100
AcDbEntity
  8
0
100
AcDbLine
 10
16.38811734944109
 20
7.454860543905265
 30
0.0
 11
16.38811734944109
 21
8.25023946797582
 31
0.0
  0
LINE
  5
9301
330
1F
100
AcDbEntity
  8
0
100
AcDbLine
 10
16.29299474640823
 20
8.25023946797582
 30
0.0
 11
16.29299474640823
 21
7.454860543905265
 31
0.0
  0
LINE
  5
9302
330
1F
100
AcDbEntity
  8
0
100
AcDbLine
 10
17.06279670553048
 20
8.179391542529085
 30
0.0
 11
17.06279670553048
 21
7.522324870930393
 31
0.0
  0
LINE
  5
9303
330
1F
100
AcDbEntity
  8
0
100
AcDbLine
 10
17.0937734059409
 20
8.238791542529089
 30
0.0
 11
17.1234734059409
 21
8.238791542529089
 31
0.0
  0
LINE
  5
9304
330
1F
100
AcDbEntity
  8
0
100
AcDbLine
 10
17.06279670553048
 20
8.179391542529085
 30
0.0
 11
17.09249670553048
 21
8.179391542529085
 31
0.0
  0
LINE
  5
9305
330
1F
100
AcDbEntity
  8
0
100
AcDbLine
 10
17.09249670553048
 20
8.179391542529085
 30
0.0
 11
17.09249670553048
 21
7.522324870930393
 31
0.0
  0
LINE
  5
9306
330
1F
100
AcDbEntity
  8
0
100
AcDbLine
 10
17.06279670553048
 20
7.522324870930393
 30
0.0
 11
17.09249670553048
 21
7.522324870930393
 31
0.0
  0
LINE
  5
9307
330
1F
100
AcDbEntity
  8
0
100
AcDbLine
 10
17.06279670553048
 20
7.462924870930397
 30
0.0
 11
17.09249670553048
 21
7.462924870930397
 31
0.0
  0
LINE
  5
9308
330
1F
100
AcDbEntity
  8
0
100
AcDbLine
 10
17.05085154670233
 20
7.454314243620405
 30
0.0
 11
17.05085154670233
 21
7.473330446686329
 31
0.0
  0
LINE
  5
9309
330
1F
100
AcDbEntity
  8
0
100
AcDbLine
 10
17.05085154670233
 20
7.485330446686329
 30
0.0
 11
17.05085154670233
 21
7.498410074321785
 31
0.0
  0
LINE
  5
930A
330
1F
100
AcDbEntity
  8
0
100
AcDbLine
 10
17.05085154670233
 20
7.498410074321785
 30
0.0
 11
17.06279670553048
 21
7.498410074321785
 31
0.0
  0
LINE
  5
930B
330
1F
100
AcDbEntity
  8
0
100
AcDbLine
 10
17.09249670553048
 20
7.498410074321785
 30
0.0
 11
17.10485254247728
 21
7.498410074321785
 31
0.0
  0
LINE
  5
930C
330
1F
100
AcDbEntity
  8
0
100
AcDbLine
 10
17.14701321530352
 20
7.439976012832378
 30
0.0
 11
17.14202457290121
 21
7.443803932781047
 31
0.0
  0
LINE
  5
930D
330
1F
100
AcDbEntity
  8
0
100
AcDbLine
 10
17.14418408405955
 20
7.437146881588414
 30
0.0
 11
17.14202457290121
 21
7.438803932781045
 31
0.0
  0
LINE
  5
930E
330
1F
100
AcDbEntity
  8
0
100
AcDbLine
 10
17.15005702244856
 20
7.436009246130925
 30
0.0
 11
17.1552770628022
 21
7.429206357094809
 31
0.0
  0
LINE
  5
930F
330
1F
100
AcDbEntity
  8
0
100
AcDbLine
 10
17.15213001518945
 20
7.426791542529084
 30
0.0
 11
17.14418408405955
 21
7.437146881588414
 31
0.0
  0
LINE
  5
9310
330
1F
100
AcDbEntity
  8
0
100
AcDbLine
 10
17.1552770628022
 20
7.429206357094809
 30
0.0
 11
17.15213001518945
 21
7.426791542529084
 31
0.0
  0
LINE
  5
9311
330
1F
100
AcDbEntity
  8
0
100
AcDbLine
 10
17.10885254247728
 20
7.485330446686329
 30
0.0
 11
17.10485254247728
 21
7.485330446686329
 31
0.0
  0
LINE
  5
9312
330
1F
100
AcDbEntity
  8
0
100
AcDbLine
 10
17.05085154670233
 20
7.485330446686329
 30
0.0
 11
17.04485254247728
 21
7.485330446686329
 31
0.0
  0
LINE
  5
9313
330
1F
100
AcDbEntity
  8
0
100
AcDbLine
 10
17.10885254247728
 20
7.473330446686329
 30
0.0
 11
17.10485254247728
 21
7.473330446686329
 31
0.0
  0
LINE
  5
9314
330
1F
100
AcDbEntity
  8
0
100
AcDbLine
 10
17.05085154670233
 20
7.473330446686329
 30
0.0
 11
17.04485254247728
 21
7.473330446686329
 31
0.0
  0
LINE
  5
9315
330
1F
100
AcDbEntity
  8
0
100
AcDbLine
 10
17.14396940815847
 20
7.443942779533838
 30
0.0
 11
17.14634946817935
 21
7.445769063820865
 31
0.0
  0
LINE
  5
9316
330
1F
100
AcDbEntity
  8
0
100
AcDbLine
 10
17.15005702244856
 20
7.436009246130925
 30
0.0
 11
17.15243708246944
 21
7.437835530417952
 31
0.0
  0
LINE
  5
9317
330
1F
100
AcDbEntity
  8
0
100
AcDbLine
 10
17.10485254247728
 20
8.241406844190283
 30
0.0
 11
17.10485254247728
 21
8.232252638371843
 31
0.0
  0
LINE
  5
9318
330
1F
100
AcDbEntity
  8
0
100
AcDbLine
 10
17.10485254247728
 20
8.220252638371842
 30
0.0
 11
17.10485254247728
 21
8.207173010736386
 31
0.0
  0
LINE
  5
9319
330
1F
100
AcDbEntity
  8
0
100
AcDbLine
 10
17.05085154670232
 20
8.207173010736386
 30
0.0
 11
17.06279670553048
 21
8.207173010736386
 31
0.0
  0
LINE
  5
931A
330
1F
100
AcDbEntity
  8
0
100
AcDbLine
 10
17.09249670553048
 20
8.207173010736386
 30
0.0
 11
17.10485254247728
 21
8.207173010736386
 31
0.0
  0
LINE
  5
931B
330
1F
100
AcDbEntity
  8
0
100
AcDbLine
 10
17.14701321530352
 20
8.265607072225794
 30
0.0
 11
17.14202457290121
 21
8.261779152277124
 31
0.0
  0
LINE
  5
931C
330
1F
100
AcDbEntity
  8
0
100
AcDbLine
 10
17.14202457290121
 20
8.266779152277127
 30
0.0
 11
17.14418408405955
 21
8.268436203469757
 31
0.0
  0
LINE
  5
931D
330
1F
100
AcDbEntity
  8
0
100
AcDbLine
 10
17.14418408405955
 20
8.268436203469757
 30
0.0
 11
17.15213001518945
 21
8.278791542529088
 31
0.0
  0
LINE
  5
931E
330
1F
100
AcDbEntity
  8
0
100
AcDbLine
 10
17.1552770628022
 20
8.276376727963363
 30
0.0
 11
17.15213001518945
 21
8.278791542529088
 31
0.0
  0
LINE
  5
931F
330
1F
100
AcDbEntity
  8
0
100
AcDbLine
 10
17.10885254247728
 20
8.220252638371842
 30
0.0
 11
17.10485254247728
 21
8.220252638371842
 31
0.0
  0
LINE
  5
9320
330
1F
100
AcDbEntity
  8
0
100
AcDbLine
 10
17.05085154670232
 20
8.220252638371842
 30
0.0
 11
17.04485254247728
 21
8.220252638371842
 31
0.0
  0
LINE
  5
9321
330
1F
100
AcDbEntity
  8
0
100
AcDbLine
 10
17.10885254247728
 20
8.232252638371843
 30
0.0
 11
17.10485254247728
 21
8.232252638371843
 31
0.0
  0
LINE
  5
9322
330
1F
100
AcDbEntity
  8
0
100
AcDbLine
 10
17.05085154670232
 20
8.232252638371843
 30
0.0
 11
17.04485254247728
 21
8.232252638371843
 31
0.0
  0
LINE
  5
9323
330
1F
100
AcDbEntity
  8
0
100
AcDbLine
 10
17.14396940815847
 20
8.261640305524334
 30
0.0
 11
17.14634946817935
 21
8.259814021237307
 31
0.0
  0
LINE
  5
9324
330
1F
100
AcDbEntity
  8
0
100
AcDbLine
 10
17.15005702244856
 20
8.269573838927247
 30
0.0
 11
17.15243708246944
 21
8.267747554640219
 31
0.0
  0
LINE
  5
9325
330
1F
100
AcDbEntity
  8
0
100
AcDbLine
 10
17.1552770628022
 20
8.276376727963363
 30
0.0
 11
17.15005702244856
 21
8.269573838927247
 31
0.0
  0
LINE
  5
9326
330
1F
100
AcDbEntity
  8
0
100
AcDbLine
 10
17.14202457290121
 20
7.443803932781047
 30
0.0
 11
17.14202457290121
 21
7.454314243620405
 31
0.0
  0
LINE
  5
9327
330
1F
100
AcDbEntity
  8
0
100
AcDbLine
 10
17.14202457290121
 20
7.454314243620405
 30
0.0
 11
17.1358292428877
 21
7.454314243620405
 31
0.0
  0
LINE
  5
9328
330
1F
100
AcDbEntity
  8
0
100
AcDbLine
 10
17.02311717347108
 20
7.356273923444863
 30
0.0
 11
17.02311717347108
 21
7.335406844190277
 31
0.0
  0
LINE
  5
9329
330
1F
100
AcDbEntity
  8
0
100
AcDbLine
 10
17.12189553412682
 20
7.335406844190277
 30
0.0
 11
17.14202457290121
 21
7.335406844190277
 31
0.0
  0
LINE
  5
932A
330
1F
100
AcDbEntity
  8
0
100
AcDbLine
 10
17.02311717347108
 20
8.273860046017812
 30
0.0
 11
17.02086716450062
 21
8.273860046017812
 31
0.0
  0
LINE
  5
932B
330
1F
100
AcDbEntity
  8
0
100
AcDbLine
 10
17.02086716450062
 20
8.273860046017812
 30
0.0
 11
17.01103196902891
 21
8.273860046017812
 31
0.0
  0
LINE
  5
932C
330
1F
100
AcDbEntity
  8
0
100
AcDbLine
 10
17.14202457290121
 20
8.241406844190283
 30
0.0
 11
17.14202457290121
 21
8.261779152277124
 31
0.0
  0
LINE
  5
932D
330
1F
100
AcDbEntity
  8
0
100
AcDbLine
 10
17.03621553412682
 20
8.360314243620411
 30
0.0
 11
17.02311717347108
 21
8.360314243620411
 31
0.0
  0
LINE
  5
932E
330
1F
100
AcDbEntity
  8
0
100
AcDbLine
 10
17.1358292428877
 20
8.241406844190283
 30
0.0
 11
17.14202457290121
 21
8.241406844190283
 31
0.0
  0
LINE
  5
932F
330
1F
100
AcDbEntity
  8
0
100
AcDbLine
 10
17.02086716450062
 20
8.273860046017812
 30
0.0
 11
17.02086716450062
 21
8.250239467975827
 31
0.0
  0
LINE
  5
9330
330
1F
100
AcDbEntity
  8
0
100
AcDbLine
 10
17.02311717347108
 20
7.447931611717134
 30
0.0
 11
17.02086716450063
 21
7.447931611717134
 31
0.0
  0
LINE
  5
9331
330
1F
100
AcDbEntity
  8
0
100
AcDbLine
 10
17.02086716450063
 20
7.447931611717134
 30
0.0
 11
16.24002457290122
 21
7.447931611717127
 31
0.0
  0
LINE
  5
9332
330
1F
100
AcDbEntity
  8
0
100
AcDbLine
 10
17.02086716450063
 20
7.454860543905272
 30
0.0
 11
16.99592621224548
 21
7.454860543905272
 31
0.0
  0
LINE
  5
9333
330
1F
100
AcDbEntity
  8
0
100
AcDbLine
 10
17.02086716450062
 20
8.250239467975827
 30
0.0
 11
16.99592621224548
 21
8.250239467975827
 31
0.0
  0
LINE
  5
9334
330
1F
100
AcDbEntity
  8
0
100
AcDbLine
 10
17.10485254247728
 20
7.485330446686329
 30
0.0
 11
17.10485254247728
 21
7.498410074321785
 31
0.0
  0
LINE
  5
9335
330
1F
100
AcDbEntity
  8
0
100
AcDbLine
 10
17.05085154670232
 20
8.241406844190283
 30
0.0
 11
17.05085154670232
 21
8.232252638371843
 31
0.0
  0
LINE
  5
9336
330
1F
100
AcDbEntity
  8
0
100
AcDbLine
 10
17.15005702244856
 20
8.269573838927247
 30
0.0
 11
17.14701321530352
 21
8.265607072225794
 31
0.0
  0
LINE
  5
9337
330
1F
100
AcDbEntity
  8
0
100
AcDbLine
 10
17.14202457290121
 20
7.335406844190277
 30
0.0
 11
17.14202457290121
 21
7.438803932781045
 31
0.0
  0
LINE
  5
9338
330
1F
100
AcDbEntity
  8
0
100
AcDbLine
 10
17.14202457290121
 20
7.438803932781045
 30
0.0
 11
17.14202457290121
 21
7.443803932781047
 31
0.0
  0
LINE
  5
9339
330
1F
100
AcDbEntity
  8
0
100
AcDbLine
 10
17.1358292428877
 20
7.454314243620405
 30
0.0
 11
17.08182824711275
 21
7.454314243620405
 31
0.0
  0
LINE
  5
933A
330
1F
100
AcDbEntity
  8
0
100
AcDbLine
 10
17.08182824711275
 20
7.454314243620405
 30
0.0
 11
17.02311717347108
 21
7.454314243620405
 31
0.0
  0
LINE
  5
933B
330
1F
100
AcDbEntity
  8
0
100
AcDbLine
 10
17.02311717347108
 20
7.454314243620405
 30
0.0
 11
17.02311717347108
 21
7.447931611717134
 31
0.0
  0
LINE
  5
933C
330
1F
100
AcDbEntity
  8
0
100
AcDbLine
 10
17.02311717347108
 20
7.447931611717134
 30
0.0
 11
17.02311717347108
 21
7.356273923444863
 31
0.0
  0
LINE
  5
933D
330
1F
100
AcDbEntity
  8
0
100
AcDbLine
 10
17.02311717347108
 20
7.335406844190277
 30
0.0
 11
17.03621553412682
 21
7.335406844190277
 31
0.0
  0
LINE
  5
933E
330
1F
100
AcDbEntity
  8
0
100
AcDbLine
 10
17.03621553412682
 20
7.335406844190277
 30
0.0
 11
17.12189553412682
 21
7.335406844190277
 31
0.0
  0
LINE
  5
933F
330
1F
100
AcDbEntity
  8
0
100
AcDbLine
 10
17.02311717347108
 20
8.327861041792761
 30
0.0
 11
17.01103196902891
 21
8.327861041792761
 31
0.0
  0
LINE
  5
9340
330
1F
100
AcDbEntity
  8
0
100
AcDbLine
 10
17.14202457290121
 20
8.261779152277124
 30
0.0
 11
17.14202457290121
 21
8.266779152277127
 31
0.0
  0
LINE
  5
9341
330
1F
100
AcDbEntity
  8
0
100
AcDbLine
 10
17.14202457290121
 20
8.266779152277127
 30
0.0
 11
17.14202457290121
 21
8.360314243620411
 31
0.0
  0
LINE
  5
9342
330
1F
100
AcDbEntity
  8
0
100
AcDbLine
 10
17.14202457290121
 20
8.360314243620411
 30
0.0
 11
17.12189553412682
 21
8.360314243620411
 31
0.0
  0
LINE
  5
9343
330
1F
100
AcDbEntity
  8
0
100
AcDbLine
 10
17.12189553412682
 20
8.360314243620411
 30
0.0
 11
17.03621553412682
 21
8.360314243620411
 31
0.0
  0
LINE
  5
9344
330
1F
100
AcDbEntity
  8
0
100
AcDbLine
 10
17.02311717347108
 20
8.360314243620411
 30
0.0
 11
17.02311717347108
 21
8.341897156248091
 31
0.0
  0
LINE
  5
9345
330
1F
100
AcDbEntity
  8
0
100
AcDbLine
 10
17.02311717347108
 20
8.341897156248091
 30
0.0
 11
17.02311717347108
 21
8.327861041792761
 31
0.0
  0
LINE
  5
9346
330
1F
100
AcDbEntity
  8
0
100
AcDbLine
 10
17.02311717347108
 20
8.327861041792761
 30
0.0
 11
17.02311717347108
 21
8.273860046017812
 31
0.0
  0
LINE
  5
9347
330
1F
100
AcDbEntity
  8
0
100
AcDbLine
 10
17.02311717347108
 20
8.273860046017812
 30
0.0
 11
17.02311717347108
 21
8.241406844190283
 31
0.0
  0
LINE
  5
9348
330
1F
100
AcDbEntity
  8
0
100
AcDbLine
 10
17.02311717347108
 20
8.241406844190283
 30
0.0
 11
17.08182824711274
 21
8.241406844190283
 31
0.0
  0
LINE
  5
9349
330
1F
100
AcDbEntity
  8
0
100
AcDbLine
 10
17.08182824711274
 20
8.241406844190283
 30
0.0
 11
17.1358292428877
 21
8.241406844190283
 31
0.0
  0
LINE
  5
934A
330
1F
100
AcDbEntity
  8
0
100
AcDbLine
 10
16.24002457290122
 20
7.356273923444863
 30
0.0
 11
16.24002457290122
 21
7.447931611717127
 31
0.0
  0
LINE
  5
934B
330
1F
100
AcDbEntity
  8
0
100
AcDbLine
 10
16.24002457290122
 20
7.447931611717127
 30
0.0
 11
16.24002457290122
 21
7.454314243620405
 31
0.0
  0
LINE
  5
934C
330
1F
100
AcDbEntity
  8
0
100
AcDbLine
 10
16.23652485277289
 20
8.25023946797582
 30
0.0
 11
16.23652485277289
 21
7.454860543905265
 31
0.0
  0
LINE
  5
934D
330
1F
100
AcDbEntity
  8
0
100
AcDbLine
 10
17.02086716450062
 20
8.250239467975827
 30
0.0
 11
17.02086716450063
 21
7.454860543905272
 31
0.0
  0
LINE
  5
934E
330
1F
100
AcDbEntity
  8
0
100
AcDbLine
 10
17.02086716450063
 20
7.454860543905272
 30
0.0
 11
17.02086716450063
 21
7.447931611717134
 31
0.0
  0
LINE
  5
934F
330
1F
100
AcDbEntity
  8
0
100
AcDbLine
 10
16.71611514752413
 20
7.356273923444863
 30
0.0
 11
16.58511514752413
 21
7.356273923444863
 31
0.0
  0
LINE
  5
9350
330
1F
100
AcDbEntity
  8
0
100
AcDbLine
 10
16.99592621224548
 20
7.454860543905272
 30
0.0
 11
16.89740560838097
 21
7.454860543905272
 31
0.0
  0
LINE
  5
9351
330
1F
100
AcDbEntity
  8
0
100
AcDbLine
 10
16.99592621224548
 20
8.250239467975827
 30
0.0
 11
16.89740560838097
 21
8.250239467975827
 31
0.0
  0
LINE
  5
9352
330
1F
100
AcDbEntity
  8
0
100
AcDbLine
 10
17.10485254247728
 20
7.454314243620405
 30
0.0
 11
17.10485254247728
 21
7.473330446686329
 31
0.0
  0
LINE
  5
9353
330
1F
100
AcDbEntity
  8
0
100
AcDbLine
 10
17.10485254247728
 20
7.473330446686329
 30
0.0
 11
17.10485254247728
 21
7.485330446686329
 31
0.0
  0
LINE
  5
9354
330
1F
100
AcDbEntity
  8
0
100
AcDbLine
 10
17.05085154670233
 20
7.473330446686329
 30
0.0
 11
17.05085154670233
 21
7.485330446686329
 31
0.0
  0
LINE
  5
9355
330
1F
100
AcDbEntity
  8
0
100
AcDbLine
 10
17.10485254247728
 20
8.232252638371843
 30
0.0
 11
17.10485254247728
 21
8.220252638371842
 31
0.0
  0
LINE
  5
9356
330
1F
100
AcDbEntity
  8
0
100
AcDbLine
 10
17.05085154670232
 20
8.232252638371843
 30
0.0
 11
17.05085154670232
 21
8.220252638371842
 31
0.0
  0
LINE
  5
9357
330
1F
100
AcDbEntity
  8
0
100
AcDbLine
 10
17.05085154670232
 20
8.220252638371842
 30
0.0
 11
17.05085154670232
 21
8.207173010736386
 31
0.0
  0
LINE
  5
9358
330
1F
100
AcDbEntity
  8
0
100
AcDbLine
 10
16.24002457290122
 20
8.273860046017805
 30
0.0
 11
16.25210977734339
 21
8.273860046017812
 31
0.0
  0
LINE
  5
9359
330
1F
100
AcDbEntity
  8
0
100
AcDbLine
 10
16.89740560838097
 20
7.454860543905272
 30
0.0
 11
16.80040064664987
 21
7.454860543905272
 31
0.0
  0
LINE
  5
935A
330
1F
100
AcDbEntity
  8
0
100
AcDbLine
 10
16.89740560838097
 20
8.250239467975827
 30
0.0
 11
16.80040064664987
 21
8.250239467975827
 31
0.0
  0
LINE
  5
935B
330
1F
100
AcDbEntity
  8
0
100
AcDbLine
 10
16.80040064664987
 20
7.454860543905272
 30
0.0
 11
16.69434153939529
 21
7.454860543905265
 31
0.0
  0
LINE
  5
935C
330
1F
100
AcDbEntity
  8
0
100
AcDbLine
 10
16.80040064664987
 20
8.250239467975827
 30
0.0
 11
16.69434153939529
 21
8.25023946797582
 31
0.0
  0
LINE
  5
935D
330
1F
100
AcDbEntity
  8
0
100
AcDbLine
 10
16.69434153939529
 20
7.454860543905265
 30
0.0
 11
16.59410864510415
 21
7.454860543905265
 31
0.0
  0
LINE
  5
935E
330
1F
100
AcDbEntity
  8
0
100
AcDbLine
 10
16.69434153939529
 20
8.25023946797582
 30
0.0
 11
16.59410864510415
 21
8.25023946797582
 31
0.0
  0
LINE
  5
935F
330
1F
100
AcDbEntity
  8
0
100
AcDbLine
 10
16.59410864510415
 20
7.454860543905265
 30
0.0
 11
16.49180330029301
 21
7.454860543905265
 31
0.0
  0
LINE
  5
9360
330
1F
100
AcDbEntity
  8
0
100
AcDbLine
 10
16.59410864510415
 20
8.25023946797582
 30
0.0
 11
16.49180330029301
 21
8.25023946797582
 31
0.0
  0
LINE
  5
9361
330
1F
100
AcDbEntity
  8
0
100
AcDbLine
 10
16.49180330029301
 20
7.454860543905265
 30
0.0
 11
16.38811734944109
 21
7.454860543905265
 31
0.0
  0
LINE
  5
9362
330
1F
100
AcDbEntity
  8
0
100
AcDbLine
 10
16.49180330029301
 20
8.25023946797582
 30
0.0
 11
16.38811734944109
 21
8.25023946797582
 31
0.0
  0
LINE
  5
9363
330
1F
100
AcDbEntity
  8
0
100
AcDbLine
 10
16.38811734944109
 20
7.454860543905265
 30
0.0
 11
16.29299474640823
 21
7.454860543905265
 31
0.0
  0
LINE
  5
9364
330
1F
100
AcDbEntity
  8
0
100
AcDbLine
 10
16.29299474640823
 20
7.454860543905265
 30
0.0
 11
16.23652485277289
 21
7.454860543905265
 31
0.0
  0
LINE
  5
9365
330
1F
100
AcDbEntity
  8
0
100
AcDbLine
 10
16.38811734944109
 20
8.25023946797582
 30
0.0
 11
16.29299474640823
 21
8.25023946797582
 31
0.0
  0
LINE
  5
9366
330
1F
100
AcDbEntity
  8
0
100
AcDbLine
 10
16.29299474640823
 20
8.25023946797582
 30
0.0
 11
16.23652485277289
 21
8.25023946797582
 31
0.0
  0
LINE
  5
9367
330
1F
100
AcDbEntity
  8
0
100
AcDbLine
 10
17.06279670553048
 20
8.207173010736386
 30
0.0
 11
17.06279670553048
 21
8.238791542529089
 31
0.0
  0
LINE
  5
9368
330
1F
100
AcDbEntity
  8
0
100
AcDbLine
 10
17.06279670553048
 20
7.498410074321785
 30
0.0
 11
17.06279670553048
 21
7.462924870930397
 31
0.0
  0
LINE
  5
9369
330
1F
100
AcDbEntity
  8
0
100
AcDbLine
 10
17.06279670553048
 20
7.522324870930393
 30
0.0
 11
17.06279670553048
 21
7.498410074321785
 31
0.0
  0
LINE
  5
936A
330
1F
100
AcDbEntity
  8
0
100
AcDbLine
 10
17.09249670553048
 20
8.207173010736386
 30
0.0
 11
17.09249670553048
 21
8.238791542529089
 31
0.0
  0
LINE
  5
936B
330
1F
100
AcDbEntity
  8
0
100
AcDbLine
 10
17.09249670553048
 20
7.462924870930397
 30
0.0
 11
17.09249670553048
 21
7.498410074321785
 31
0.0
  0
LINE
  5
936C
330
1F
100
AcDbEntity
  8
0
100
AcDbLine
 10
17.09249670553048
 20
7.522324870930393
 30
0.0
 11
17.09249670553048
 21
7.498410074321785
 31
0.0
  0
LINE
  5
936D
330
1F
100
AcDbEntity
  8
0
100
AcDbLine
 10
17.06279670553048
 20
8.207173010736386
 30
0.0
 11
17.06279670553048
 21
8.179391542529085
 31
0.0
  0
LINE
  5
936E
330
1F
100
AcDbEntity
  8
0
100
AcDbLine
 10
17.09249670553048
 20
8.207173010736386
 30
0.0
 11
17.09249670553048
 21
8.179391542529085
 31
0.0
  0
LINE
  5
936F
330
1F
100
AcDbEntity
  8
0
100
AcDbLine
 10
17.10885254247728
 20
7.485330446686329
 30
0.0
 11
17.10885254247728
 21
7.473330446686329
 31
0.0
  0
LINE
  5
9370
330
1F
100
AcDbEntity
  8
0
100
AcDbLine
 10
17.04485254247728
 20
7.473330446686329
 30
0.0
 11
17.04485254247728
 21
7.485330446686329
 31
0.0
  0
LINE
  5
9371
330
1F
100
AcDbEntity
  8
0
100
AcDbLine
 10
17.15005702244856
 20
7.436009246130925
 30
0.0
 11
17.14701321530352
 21
7.439976012832378
 31
0.0
  0
LINE
  5
9372
330
1F
100
AcDbEntity
  8
0
100
AcDbLine
 10
17.14396940815847
 20
7.443942779533838
 30
0.0
 11
17.14701321530352
 21
7.439976012832378
 31
0.0
  0
LINE
  5
9373
330
1F
100
AcDbEntity
  8
0
100
AcDbLine
 10
17.14634946817935
 20
7.445769063820865
 30
0.0
 11
17.15243708246944
 21
7.437835530417952
 31
0.0
  0
LINE
  5
9374
330
1F
100
AcDbEntity
  8
0
100
AcDbLine
 10
17.10885254247728
 20
8.220252638371842
 30
0.0
 11
17.10885254247728
 21
8.232252638371843
 31
0.0
  0
LINE
  5
9375
330
1F
100
AcDbEntity
  8
0
100
AcDbLine
 10
17.04485254247728
 20
8.232252638371843
 30
0.0
 11
17.04485254247728
 21
8.220252638371842
 31
0.0
  0
LINE
  5
9376
330
1F
100
AcDbEntity
  8
0
100
AcDbLine
 10
17.14701321530352
 20
8.265607072225794
 30
0.0
 11
17.14396940815847
 21
8.261640305524334
 31
0.0
  0
LINE
  5
9377
330
1F
100
AcDbEntity
  8
0
100
AcDbLine
 10
17.15243708246944
 20
8.267747554640219
 30
0.0
 11
17.14634946817935
 21
8.259814021237307
 31
0.0
  0
LINE
  5
9378
330
1F
100
AcDbEntity
  8
0
100
AcDbLine
 10
16.14002457290122
 20
8.254401032064667
 30
0.0
 11
16.24002457290122
 21
8.254401032064667
 31
0.0
  0
LINE
  5
9379
330
1F
100
AcDbEntity
  8
0
100
AcDbLine
 10
16.24002457290122
 20
8.254401032064667
 30
0.0
 11
16.24002457290122
 21
8.154401032064665
 31
0.0
  0
LINE
  5
937A
330
1F
100
AcDbEntity
  8
0
100
AcDbLine
 10
16.24002457290122
 20
7.556273923444859
 30
0.0
 11
16.24002457290122
 21
7.456273923444857
 31
0.0
  0
LINE
  5
937B
330
1F
100
AcDbEntity
  8
0
100
AcDbLine
 10
16.24002457290122
 20
7.456273923444857
 30
0.0
 11
16.24002457290122
 21
7.356273923444863
 31
0.0
  0
LINE
  5
937C
330
1F
100
AcDbEntity
  8
0
100
AcDbLine
 10
16.24002457290122
 20
7.356273923444863
 30
0.0
 11
16.14002457290122
 21
7.356273923444863
 31
0.0
  0
LINE
  5
937D
330
1F
100
AcDbEntity
  8
0
100
AcDbLine
 10
16.14002457290122
 20
7.356273923444863
 30
0.0
 11
16.14002457290122
 21
7.456273923444857
 31
0.0
  0
LINE
  5
937E
330
1F
100
AcDbEntity
  8
0
100
AcDbLine
 10
16.24002457290122
 20
8.254401032064667
 30
0.0
 11
16.24002457290122
 21
8.354401032064668
 31
0.0
  0
LINE
  5
937F
330
1F
100
AcDbEntity
  8
0
100
AcDbLine
 10
16.24002457290122
 20
8.354401032064668
 30
0.0
 11
16.14002457290122
 21
8.354401032064668
 31
0.0
  0
LINE
  5
9380
330
1F
100
AcDbEntity
  8
0
100
AcDbLine
 10
16.14002457290122
 20
8.354401032064668
 30
0.0
 11
16.14002457290122
 21
8.254401032064667
 31
0.0
  0
LINE
  5
9381
330
1F
100
AcDbEntity
  8
0
100
AcDbLine
 10
16.14002457290122
 20
8.354401032064668
 30
0.0
 11
16.14002457290122
 21
8.254401032064667
 31
0.0
  0
LINE
  5
9382
330
1F
100
AcDbEntity
  8
0
100
AcDbLine
 10
16.14002457290122
 20
7.556273923444859
 30
0.0
 11
16.14002457290122
 21
8.154401032064665
 31
0.0
  0
LINE
  5
9383
330
1F
100
AcDbEntity
  8
0
100
AcDbLine
 10
17.11249671456825
 20
8.173850088724908
 30
0.0
 11
17.11249671456825
 21
8.073850088724906
 31
0.0
  0
LINE
  5
9384
330
1F
100
AcDbEntity
  8
0
100
AcDbLine
 10
17.11249671456825
 20
8.073850088724906
 30
0.0
 11
17.09249671456825
 21
8.073850088724906
 31
0.0
  0
LINE
  5
9385
330
1F
100
AcDbEntity
  8
0
100
AcDbLine
 10
17.09249671456825
 20
8.056590010054147
 30
0.0
 11
17.09249671456825
 21
8.156590010054149
 31
0.0
  0
LINE
  5
9386
330
1F
100
AcDbEntity
  8
0
100
AcDbLine
 10
17.09249671456825
 20
8.173850088724908
 30
0.0
 11
17.11249671456825
 21
8.173850088724908
 31
0.0
  0
LINE
  5
9387
330
1F
100
AcDbEntity
  8
0
100
AcDbLine
 10
17.11249670553048
 20
7.631774872296542
 30
0.0
 11
17.11249670553048
 21
7.531774872296541
 31
0.0
  0
LINE
  5
9388
330
1F
100
AcDbEntity
  8
0
100
AcDbLine
 10
17.11249670553048
 20
7.531774872296541
 30
0.0
 11
17.09249670553048
 21
7.531774872296541
 31
0.0
  0
LINE
  5
9389
330
1F
100
AcDbEntity
  8
0
100
AcDbLine
 10
17.09249670553048
 20
7.551336326998541
 30
0.0
 11
17.09249670553048
 21
7.651336326998542
 31
0.0
  0
LINE
  5
938A
330
1F
100
AcDbEntity
  8
0
100
AcDbLine
 10
17.09249670553048
 20
7.631774872296542
 30
0.0
 11
17.11249670553048
 21
7.631774872296542
 31
0.0
  0
LINE
  5
938B
330
1F
100
AcDbEntity
  8
0
100
AcDbLine
 10
17.1129246029711
 20
7.905743464929503
 30
0.0
 11
17.1129246029711
 21
7.805743464929502
 31
0.0
  0
LINE
  5
938C
330
1F
100
AcDbEntity
  8
0
100
AcDbLine
 10
17.1129246029711
 20
7.805743464929502
 30
0.0
 11
17.09292460297111
 21
7.805743464929502
 31
0.0
  0
LINE
  5
938D
330
1F
100
AcDbEntity
  8
0
100
AcDbLine
 10
17.09292460297111
 20
7.805743464929502
 30
0.0
 11
17.09292460297111
 21
7.905743464929503
 31
0.0
  0
LINE
  5
938E
330
1F
100
AcDbEntity
  8
0
100
AcDbLine
 10
17.09292460297111
 20
7.905743464929503
 30
0.0
 11
17.1129246029711
 21
7.905743464929503
 31
0.0
  0
LINE
  5
938F
330
1F
100
AcDbEntity
  8
0
100
AcDbLine
 10
17.1129246029711
 20
7.767662775172571
 30
0.0
 11
17.1129246029711
 21
7.667662775172569
 31
0.0
  0
LINE
  5
9390
330
1F
100
AcDbEntity
  8
0
100
AcDbLine
 10
17.1129246029711
 20
7.667662775172569
 30
0.0
 11
17.09292460297111
 21
7.667662775172569
 31
0.0
  0
LINE
  5
9391
330
1F
100
AcDbEntity
  8
0
100
AcDbLine
 10
17.09292460297111
 20
7.667662775172569
 30
0.0
 11
17.09292460297111
 21
7.767662775172571
 31
0.0
  0
LINE
  5
9392
330
1F
100
AcDbEntity
  8
0
100
AcDbLine
 10
17.09292460297111
 20
7.767662775172571
 30
0.0
 11
17.1129246029711
 21
7.767662775172571
 31
0.0
  0
LINE
  5
9393
330
1F
100
AcDbEntity
  8
0
100
AcDbLine
 10
17.1129246029711
 20
8.039221463014829
 30
0.0
 11
17.1129246029711
 21
7.939221463014828
 31
0.0
  0
LINE
  5
9394
330
1F
100
AcDbEntity
  8
0
100
AcDbLine
 10
17.1129246029711
 20
7.939221463014828
 30
0.0
 11
17.09292460297111
 21
7.939221463014828
 31
0.0
  0
LINE
  5
9395
330
1F
100
AcDbEntity
  8
0
100
AcDbLine
 10
17.09292460297111
 20
7.939221463014828
 30
0.0
 11
17.09292460297111
 21
8.039221463014829
 31
0.0
  0
LINE
  5
9396
330
1F
100
AcDbEntity
  8
0
100
AcDbLine
 10
17.09292460297111
 20
8.039221463014829
 30
0.0
 11
17.1129246029711
 21
8.039221463014829
 31
0.0
  0
LINE
  5
9397
330
1F
100
AcDbEntity
  8
0
100
AcDbLine
 10
17.11249671456825
 20
8.173850088724908
 30
0.0
 11
17.11249671456825
 21
8.153850088724905
 31
0.0
  0
LINE
  5
9398
330
1F
100
AcDbEntity
  8
0
100
AcDbLine
 10
17.11249671456825
 20
8.153850088724905
 30
0.0
 11
17.09249670553048
 21
8.153850088724905
 31
0.0
  0
LINE
  5
9399
330
1F
100
AcDbEntity
  8
0
100
AcDbLine
 10
17.11249671456825
 20
8.073850088724906
 30
0.0
 11
17.11249671456825
 21
8.093850088724902
 31
0.0
  0
LINE
  5
939A
330
1F
100
AcDbEntity
  8
0
100
AcDbLine
 10
17.11249671456825
 20
8.093850088724902
 30
0.0
 11
17.09249671456825
 21
8.093850088724895
 31
0.0
  0
LINE
  5
939B
330
1F
100
AcDbEntity
  8
0
100
AcDbLine
 10
17.11292460122304
 20
8.02039002673386
 30
0.0
 11
17.09292459218528
 21
8.02039002673386
 31
0.0
  0
LINE
  5
939C
330
1F
100
AcDbEntity
  8
0
100
AcDbLine
 10
17.11292460122304
 20
7.960390026733858
 30
0.0
 11
17.09292460122305
 21
7.96039002673385
 31
0.0
  0
LINE
  5
939D
330
1F
100
AcDbEntity
  8
0
100
AcDbLine
 10
17.11292460122304
 20
7.884942379775349
 30
0.0
 11
17.09292459218528
 21
7.884942379775349
 31
0.0
  0
LINE
  5
939E
330
1F
100
AcDbEntity
  8
0
100
AcDbLine
 10
17.11292460122304
 20
7.824942379775347
 30
0.0
 11
17.09292460122305
 21
7.82494237977534
 31
0.0
  0
LINE
  5
939F
330
1F
100
AcDbEntity
  8
0
100
AcDbLine
 10
17.11292460122304
 20
7.7469876050238
 30
0.0
 11
17.09292459218528
 21
7.7469876050238
 31
0.0
  0
LINE
  5
93A0
330
1F
100
AcDbEntity
  8
0
100
AcDbLine
 10
17.11292460122304
 20
7.686987605023798
 30
0.0
 11
17.09292460122305
 21
7.686987605023791
 31
0.0
  0
LINE
  5
93A1
330
1F
100
AcDbEntity
  8
0
100
AcDbLine
 10
17.11249670378242
 20
7.61209658089724
 30
0.0
 11
17.09249669474465
 21
7.61209658089724
 31
0.0
  0
LINE
  5
93A2
330
1F
100
AcDbEntity
  8
0
100
AcDbLine
 10
17.11249670378242
 20
7.552096580897238
 30
0.0
 11
17.09249670378242
 21
7.552096580897231
 31
0.0
  0
LINE
  5
93A3
330
1F
100
AcDbEntity
  8
0
100
AcDbLine
 10
16.24002457290122
 20
7.3546038384296
 30
0.0
 11
16.24002457290122
 21
7.356273923444863
 31
0.0
  0
LINE
  5
93A4
330
1F
100
AcDbEntity
  8
0
100
AcDbLine
 10
16.24002457290122
 20
7.356273923444863
 30
0.0
 11
16.24002457290122
 21
7.408999843873655
 31
0.0
  0
LINE
  5
93A5
330
1F
100
AcDbEntity
  8
0
100
AcDbLine
 10
16.24002457290122
 20
7.408999843873655
 30
0.0
 11
16.24002457290122
 21
7.417161363609285
 31
0.0
  0
LINE
  5
93A6
330
1F
100
AcDbEntity
  8
0
100
AcDbLine
 10
17.02311717347108
 20
8.360314243620411
 30
0.0
 11
16.16176655734614
 21
8.360314243620411
 31
0.0
  0
LINE
  5
93A7
330
1F
100
AcDbEntity
  8
STREFA BEZPIECZEŃSTWA
100
AcDbLine
 10
16.16176655734614
 20
8.360314243620411
 30
0.0
 11
16.16176655734614
 21
8.390314243620409
 31
0.0
  0
LINE
  5
93A8
330
1F
100
AcDbEntity
  8
0
100
AcDbLine
 10
16.16176655734614
 20
8.390314243620409
 30
0.0
 11
17.12189553412682
 21
8.390314243620409
 31
0.0
  0
LINE
  5
93A9
330
1F
100
AcDbEntity
  8
STREFA BEZPIECZEŃSTWA
100
AcDbLine
 10
17.12189553412682
 20
8.390314243620409
 30
0.0
 11
17.12189553412682
 21
8.360314243620411
 31
0.0
  0
LINE
  5
93AA
330
1F
100
AcDbEntity
  8
0
100
AcDbLine
 10
16.92605535783236
 20
8.440836306486399
 30
0.0
 11
16.93929254026206
 21
8.434482069568968
 31
0.0
  0
LINE
  5
93AB
330
1F
100
AcDbEntity
  8
0
100
AcDbLine
 10
16.93929254026206
 20
8.434482069568968
 30
0.0
 11
16.94814410950413
 21
8.428322272425766
 31
0.0
  0
LINE
  5
93AC
330
1F
100
AcDbEntity
  8
0
100
AcDbLine
 10
16.89329535656631
 20
8.443510905394223
 30
0.0
 11
16.88146150109564
 21
8.440526737362116
 31
0.0
  0
LINE
  5
93AD
330
1F
100
AcDbEntity
  8
0
100
AcDbLine
 10
16.84652123589173
 20
8.411087736125882
 30
0.0
 11
16.84005828588922
 21
8.395081048778795
 31
0.0
  0
LINE
  5
93AE
330
1F
100
AcDbEntity
  8
0
100
AcDbLine
 10
16.86324896790546
 20
8.430184777272732
 30
0.0
 11
16.8528469606766
 21
8.419821497333902
 31
0.0
  0
LINE
  5
93AF
330
1F
100
AcDbEntity
  8
0
100
AcDbLine
 10
16.86324896790546
 20
8.430184777272732
 30
0.0
 11
16.87110822114981
 21
8.435934866552184
 31
0.0
  0
LINE
  5
93B0
330
1F
100
AcDbEntity
  8
0
100
AcDbLine
 10
16.96424285399263
 20
8.406158663338263
 30
0.0
 11
16.95952313869913
 21
8.415341461313136
 31
0.0
  0
LINE
  5
93B1
330
1F
100
AcDbEntity
  8
0
100
AcDbLine
 10
16.96424285399263
 20
8.406158663338263
 30
0.0
 11
16.9666428134534
 21
8.399561058640006
 31
0.0
  0
LINE
  5
93B2
330
1F
100
AcDbEntity
  8
0
100
AcDbLine
 10
16.89329535656631
 20
8.443510905394223
 30
0.0
 11
16.90545140733704
 21
8.444595259489577
 31
0.0
  0
LINE
  5
93B3
330
1F
100
AcDbEntity
  8
0
100
AcDbLine
 10
16.9167397344622
 20
8.443673655514214
 30
0.0
 11
16.92605535783236
 21
8.440836306486399
 31
0.0
  0
LINE
  5
93B4
330
1F
100
AcDbEntity
  8
0
100
AcDbLine
 10
16.88146150109564
 20
8.440526737362116
 30
0.0
 11
16.87110822114981
 21
8.435934866552184
 31
0.0
  0
LINE
  5
93B5
330
1F
100
AcDbEntity
  8
0
100
AcDbLine
 10
16.9167397344622
 20
8.443673655514214
 30
0.0
 11
16.90545140733704
 21
8.444595259489577
 31
0.0
  0
LINE
  5
93B6
330
1F
100
AcDbEntity
  8
0
100
AcDbLine
 10
16.94814410950413
 20
8.428322272425766
 30
0.0
 11
16.95952313869913
 21
8.415341461313136
 31
0.0
  0
LINE
  5
93B7
330
1F
100
AcDbEntity
  8
0
100
AcDbLine
 10
16.9666428134534
 20
8.399561058640006
 30
0.0
 11
16.96518628514425
 21
8.389132879160971
 31
0.0
  0
LINE
  5
93B8
330
1F
100
AcDbEntity
  8
0
100
AcDbLine
 10
16.83748788860119
 20
8.400477212867034
 30
0.0
 11
16.84496679968404
 21
8.410803147951956
 31
0.0
  0
LINE
  5
93B9
330
1F
100
AcDbEntity
  8
0
100
AcDbLine
 10
16.83605149984204
 20
8.390193224778439
 30
0.0
 11
16.83748788860119
 21
8.400477212867034
 31
0.0
  0
LINE
  5
93BA
330
1F
100
AcDbEntity
  8
0
100
AcDbLine
 10
16.96518628514425
 20
8.389132879160971
 30
0.0
 11
16.96233526762636
 21
8.395271359593976
 31
0.0
  0
LINE
  5
93BB
330
1F
100
AcDbEntity
  8
0
100
AcDbLine
 10
16.84496679968404
 20
8.410803147951956
 30
0.0
 11
16.84783500385034
 21
8.412901620862182
 31
0.0
  0
LINE
  5
93BC
330
1F
100
AcDbEntity
  8
0
100
AcDbLine
 10
16.8528469606766
 20
8.419821497333902
 30
0.0
 11
16.84783500385034
 21
8.412901620862182
 31
0.0
  0
LINE
  5
93BD
330
1F
100
AcDbEntity
  8
0
100
AcDbLine
 10
16.84783500385034
 20
8.412901620862182
 30
0.0
 11
16.84652123589173
 21
8.411087736125882
 31
0.0
  0
LINE
  5
93BE
330
1F
100
AcDbEntity
  8
0
100
AcDbLine
 10
16.96281464224223
 20
8.395933219470382
 30
0.0
 11
16.96233526762636
 21
8.395271359593976
 31
0.0
  0
LINE
  5
93BF
330
1F
100
AcDbEntity
  8
0
100
AcDbLine
 10
16.96233526762636
 20
8.395271359593976
 30
0.0
 11
16.95874490711287
 21
8.390314243620409
 31
0.0
  0
LINE
  5
93C0
330
1F
100
AcDbEntity
  8
0
100
AcDbLine
 10
16.60302006993973
 20
8.418292406554069
 30
0.0
 11
16.59122395655969
 21
8.404116274191903
 31
0.0
  0
LINE
  5
93C1
330
1F
100
AcDbEntity
  8
0
100
AcDbLine
 10
16.68192976970699
 20
8.428456508279023
 30
0.0
 11
16.67614562805886
 21
8.430885330315117
 31
0.0
  0
LINE
  5
93C2
330
1F
100
AcDbEntity
  8
0
100
AcDbLine
 10
16.64329179148695
 20
8.435024418816571
 30
0.0
 11
16.65089809841788
 21
8.434898675262925
 31
0.0
  0
LINE
  5
93C3
330
1F
100
AcDbEntity
  8
0
100
AcDbLine
 10
16.61932836297116
 20
8.428385508444431
 30
0.0
 11
16.60302006993973
 21
8.418292406554069
 31
0.0
  0
LINE
  5
93C4
330
1F
100
AcDbEntity
  8
0
100
AcDbLine
 10
16.69144624430822
 20
8.422672348095307
 30
0.0
 11
16.6872020027584
 21
8.425626507473548
 31
0.0
  0
LINE
  5
93C5
330
1F
100
AcDbEntity
  8
0
100
AcDbLine
 10
16.67041576989903
 20
8.432675223558344
 30
0.0
 11
16.67614562805886
 21
8.430885330315117
 31
0.0
  0
LINE
  5
93C6
330
1F
100
AcDbEntity
  8
0
100
AcDbLine
 10
16.7059565952207
 20
8.408710807315468
 30
0.0
 11
16.70801693635513
 21
8.404238733679573
 31
0.0
  0
LINE
  5
93C7
330
1F
100
AcDbEntity
  8
0
100
AcDbLine
 10
16.70801693635513
 20
8.404238733679573
 30
0.0
 11
16.71403993576088
 21
8.390314243620409
 31
0.0
  0
LINE
  5
93C8
330
1F
100
AcDbEntity
  8
0
100
AcDbLine
 10
16.70062916823494
 20
8.414016074939784
 30
0.0
 11
16.7059565952207
 21
8.408710807315468
 31
0.0
  0
LINE
  5
93C9
330
1F
100
AcDbEntity
  8
0
100
AcDbLine
 10
16.69144624430822
 20
8.422672348095307
 30
0.0
 11
16.70062916823494
 21
8.414016074939784
 31
0.0
  0
LINE
  5
93CA
330
1F
100
AcDbEntity
  8
0
100
AcDbLine
 10
16.68192976970699
 20
8.428456508279023
 30
0.0
 11
16.6872020027584
 21
8.425626507473548
 31
0.0
  0
LINE
  5
93CB
330
1F
100
AcDbEntity
  8
0
100
AcDbLine
 10
16.66530107366643
 20
8.433650980787131
 30
0.0
 11
16.67041576989903
 21
8.432675223558344
 31
0.0
  0
LINE
  5
93CC
330
1F
100
AcDbEntity
  8
0
100
AcDbLine
 10
16.62585148446614
 20
8.430610873136867
 30
0.0
 11
16.61932836297116
 21
8.428385508444431
 31
0.0
  0
LINE
  5
93CD
330
1F
100
AcDbEntity
  8
0
100
AcDbLine
 10
16.64329179148695
 20
8.435024418816571
 30
0.0
 11
16.62585148446614
 21
8.430610873136867
 31
0.0
  0
LINE
  5
93CE
330
1F
100
AcDbEntity
  8
0
100
AcDbLine
 10
16.66530107366643
 20
8.433650980787131
 30
0.0
 11
16.65089809841788
 21
8.434898675262925
 31
0.0
  0
LINE
  5
93CF
330
1F
100
AcDbEntity
  8
0
100
AcDbLine
 10
16.59122395655969
 20
8.404116274191903
 30
0.0
 11
16.58882780038377
 21
8.398670200292055
 31
0.0
  0
LINE
  5
93D0
330
1F
100
AcDbEntity
  8
0
100
AcDbLine
 10
16.59308379531647
 20
8.390314243620409
 30
0.0
 11
16.59233306208674
 21
8.391061854185291
 31
0.0
  0
LINE
  5
93D1
330
1F
100
AcDbEntity
  8
0
100
AcDbLine
 10
16.59233306208674
 20
8.391061854185291
 30
0.0
 11
16.58882780038377
 21
8.398670200292055
 31
0.0
  0
LINE
  5
93D2
330
1F
100
AcDbEntity
  8
0
100
AcDbLine
 10
16.35530119333972
 20
8.401412159450575
 30
0.0
 11
16.35222382557067
 21
8.390314243620412
 31
0.0
  0
LINE
  5
93D3
330
1F
100
AcDbEntity
  8
0
100
AcDbLine
 10
16.42306189227957
 20
8.443107930943821
 30
0.0
 11
16.41679061348515
 21
8.442945040271258
 31
0.0
  0
LINE
  5
93D4
330
1F
100
AcDbEntity
  8
0
100
AcDbLine
 10
16.38513843237424
 20
8.43321641950369
 30
0.0
 11
16.39212438318227
 21
8.436227766025854
 31
0.0
  0
LINE
  5
93D5
330
1F
100
AcDbEntity
  8
0
100
AcDbLine
 10
16.36602063050878
 20
8.41731576891971
 30
0.0
 11
16.35530119333972
 21
8.401412159450575
 31
0.0
  0
LINE
  5
93D6
330
1F
100
AcDbEntity
  8
0
100
AcDbLine
 10
16.43411469511409
 20
8.441745819579725
 30
0.0
 11
16.42903136398325
 21
8.442694707655107
 31
0.0
  0
LINE
  5
93D7
330
1F
100
AcDbEntity
  8
0
100
AcDbLine
 10
16.41083140406294
 20
8.442221980511394
 30
0.0
 11
16.41679061348515
 21
8.442945040271258
 31
0.0
  0
LINE
  5
93D8
330
1F
100
AcDbEntity
  8
0
100
AcDbLine
 10
16.45308083052412
 20
8.434981160522635
 30
0.0
 11
16.4567970339336
 21
8.431750946843255
 31
0.0
  0
LINE
  5
93D9
330
1F
100
AcDbEntity
  8
0
100
AcDbLine
 10
16.4567970339336
 20
8.431750946843255
 30
0.0
 11
16.46968246119805
 21
8.420008289197149
 31
0.0
  0
LINE
  5
93DA
330
1F
100
AcDbEntity
  8
0
100
AcDbLine
 10
16.44604377564197
 20
8.437628272428067
 30
0.0
 11
16.45308083052412
 21
8.434981160522635
 31
0.0
  0
LINE
  5
93DB
330
1F
100
AcDbEntity
  8
0
100
AcDbLine
 10
16.43411469511409
 20
8.441745819579725
 30
0.0
 11
16.44604377564197
 21
8.437628272428067
 31
0.0
  0
LINE
  5
93DC
330
1F
100
AcDbEntity
  8
0
100
AcDbLine
 10
16.42306189227957
 20
8.443107930943821
 30
0.0
 11
16.42903136398325
 21
8.442694707655107
 31
0.0
  0
LINE
  5
93DD
330
1F
100
AcDbEntity
  8
0
100
AcDbLine
 10
16.40576759295146
 20
8.441009529791362
 30
0.0
 11
16.41083140406294
 21
8.442221980511394
 31
0.0
  0
LINE
  5
93DE
330
1F
100
AcDbEntity
  8
0
100
AcDbLine
 10
16.37105285756549
 20
8.422025339271915
 30
0.0
 11
16.36602063050878
 21
8.41731576891971
 31
0.0
  0
LINE
  5
93DF
330
1F
100
AcDbEntity
  8
0
100
AcDbLine
 10
16.38513843237424
 20
8.43321641950369
 30
0.0
 11
16.37105285756549
 21
8.422025339271915
 31
0.0
  0
LINE
  5
93E0
330
1F
100
AcDbEntity
  8
0
100
AcDbLine
 10
16.46968246119805
 20
8.420008289197149
 30
0.0
 11
16.4771629839493
 21
8.404577406871734
 31
0.0
  0
LINE
  5
93E1
330
1F
100
AcDbEntity
  8
0
100
AcDbLine
 10
16.4771629839493
 20
8.404577406871734
 30
0.0
 11
16.4782511292361
 21
8.390314243620409
 31
0.0
  0
LINE
  5
93E2
330
1F
100
AcDbEntity
  8
0
100
AcDbLine
 10
16.40576759295146
 20
8.441009529791362
 30
0.0
 11
16.39212438318227
 21
8.436227766025854
 31
0.0
  0
LINE
  5
93E3
330
1F
100
AcDbEntity
  8
0
100
AcDbLine
 10
11.45606131770311
 20
8.158639134269439
 30
0.0
 11
11.46175499064533
 21
8.159422840264795
 31
0.0
  0
LINE
  5
93E4
330
1F
100
AcDbEntity
  8
0
100
AcDbLine
 10
11.45075565916266
 20
8.156341424551836
 30
0.0
 11
11.45606131770311
 21
8.158639134269439
 31
0.0
  0
LINE
  5
93E5
330
1F
100
AcDbEntity
  8
0
100
AcDbLine
 10
11.4461995868855
 20
8.152686296232083
 30
0.0
 11
11.45075565916266
 21
8.156341424551836
 31
0.0
  0
LINE
  5
93E6
330
1F
100
AcDbEntity
  8
0
100
AcDbLine
 10
11.44270358966805
 20
8.147922840264794
 30
0.0
 11
11.4461995868855
 21
8.152686296232083
 31
0.0
  0
LINE
  5
93E7
330
1F
100
AcDbEntity
  8
0
100
AcDbLine
 10
11.44050591394328
 20
8.142375678302155
 30
0.0
 11
11.44270358966805
 21
8.147922840264794
 31
0.0
  0
LINE
  5
93E8
330
1F
100
AcDbEntity
  8
0
100
AcDbLine
 10
11.43975632767999
 20
8.136422840264796
 30
0.0
 11
11.44050591394328
 21
8.142375678302155
 31
0.0
  0
LINE
  5
93E9
330
1F
100
AcDbEntity
  8
0
100
AcDbLine
 10
11.44050591394328
 20
8.130470002227436
 30
0.0
 11
11.43975632767999
 21
8.136422840264796
 31
0.0
  0
LINE
  5
93EA
330
1F
100
AcDbEntity
  8
0
100
AcDbLine
 10
11.44270358966805
 20
8.124922840264797
 30
0.0
 11
11.44050591394328
 21
8.130470002227436
 31
0.0
  0
LINE
  5
93EB
330
1F
100
AcDbEntity
  8
0
100
AcDbLine
 10
11.4461995868855
 20
8.120159384297505
 30
0.0
 11
11.44270358966805
 21
8.124922840264797
 31
0.0
  0
LINE
  5
93EC
330
1F
100
AcDbEntity
  8
0
100
AcDbLine
 10
11.45075565916266
 20
8.116504255977748
 30
0.0
 11
11.4461995868855
 21
8.120159384297505
 31
0.0
  0
LINE
  5
93ED
330
1F
100
AcDbEntity
  8
0
100
AcDbLine
 10
11.45606131770311
 20
8.114206546260145
 30
0.0
 11
11.45075565916266
 21
8.116504255977748
 31
0.0
  0
LINE
  5
93EE
330
1F
100
AcDbEntity
  8
0
100
AcDbLine
 10
11.46175499064533
 20
8.113422840264792
 30
0.0
 11
11.45606131770311
 21
8.114206546260145
 31
0.0
  0
LINE
  5
93EF
330
1F
100
AcDbEntity
  8
0
100
AcDbLine
 10
11.48049668800953
 20
7.639413753746918
 30
0.0
 11
11.48079905583498
 21
8.113422840264792
 31
0.0
  0
LINE
  5
93F0
330
1F
100
AcDbEntity
  8
0
100
AcDbLine
 10
11.76100401849507
 20
8.158639134269439
 30
0.0
 11
11.76159536457847
 21
8.159422840264795
 31
0.0
  0
LINE
  5
93F1
330
1F
100
AcDbEntity
  8
0
100
AcDbLine
 10
11.76045297167
 20
8.156341424551836
 30
0.0
 11
11.76100401849507
 21
8.158639134269439
 31
0.0
  0
LINE
  5
93F2
330
1F
100
AcDbEntity
  8
0
100
AcDbLine
 10
11.76003113692748
 20
8.153083018822883
 30
0.0
 11
11.76045297167
 21
8.156341424551836
 31
0.0
  0
LINE
  5
93F3
330
1F
100
AcDbEntity
  8
0
100
AcDbLine
 10
11.76045297167
 20
8.116504255977748
 30
0.0
 11
11.76003113692748
 21
8.119762661706701
 31
0.0
  0
LINE
  5
93F4
330
1F
100
AcDbEntity
  8
0
100
AcDbLine
 10
11.76100401849507
 20
8.114206546260145
 30
0.0
 11
11.76045297167
 21
8.116504255977748
 31
0.0
  0
LINE
  5
93F5
330
1F
100
AcDbEntity
  8
0
100
AcDbLine
 10
11.76159536457847
 20
8.113422840264792
 30
0.0
 11
11.76100401849507
 21
8.114206546260145
 31
0.0
  0
LINE
  5
93F6
330
1F
100
AcDbEntity
  8
0
100
AcDbLine
 10
11.763541881255
 20
7.639413753746918
 30
0.0
 11
11.76357328524169
 21
8.113422840264792
 31
0.0
  0
LINE
  5
93F7
330
1F
100
AcDbEntity
  8
0
100
AcDbLine
 10
12.92041959238694
 20
8.158639134269439
 30
0.0
 11
12.92241516242515
 21
8.159422840264792
 31
0.0
  0
LINE
  5
93F8
330
1F
100
AcDbEntity
  8
0
100
AcDbLine
 10
13.31899461331213
 20
8.156341424551836
 30
0.0
 11
13.32085418855008
 21
8.158639134269439
 31
0.0
  0
LINE
  5
93F9
330
1F
100
AcDbEntity
  8
0
100
AcDbLine
 10
13.31757108012762
 20
8.153083018822883
 30
0.0
 11
13.31899461331213
 21
8.156341424551836
 31
0.0
  0
LINE
  5
93FA
330
1F
100
AcDbEntity
  8
0
100
AcDbLine
 10
13.31899461331213
 20
8.116504255977748
 30
0.0
 11
13.31757108012762
 21
8.119762661706698
 31
0.0
  0
LINE
  5
93FB
330
1F
100
AcDbEntity
  8
0
100
AcDbLine
 10
13.32085418855008
 20
8.114206546260145
 30
0.0
 11
13.31899461331213
 21
8.116504255977748
 31
0.0
  0
LINE
  5
93FC
330
1F
100
AcDbEntity
  8
0
100
AcDbLine
 10
13.32284975858829
 20
8.113422840264792
 30
0.0
 11
13.32085418855008
 21
8.114206546260145
 31
0.0
  0
LINE
  5
93FD
330
1F
100
AcDbEntity
  8
0
100
AcDbLine
 10
13.32941852038259
 20
7.639422840264792
 30
0.0
 11
13.3295244949639
 21
8.113422840264792
 31
0.0
  0
LINE
  5
93FE
330
1F
100
AcDbEntity
  8
0
100
AcDbLine
 10
13.317428973631
 20
8.12282062252046
 30
0.0
 11
13.31409316939141
 21
8.124687109237086
 31
0.0
  0
LINE
  5
93FF
330
1F
100
AcDbEntity
  8
0
100
AcDbLine
 10
13.3207431871976
 20
8.150913098857845
 30
0.0
 11
13.32456532176944
 21
8.150964576065202
 31
0.0
  0
LINE
  5
9400
330
1F
100
AcDbEntity
  8
0
100
AcDbLine
 10
13.31706461198476
 20
8.149874134473645
 30
0.0
 11
13.3207431871976
 21
8.150913098857845
 31
0.0
  0
LINE
  5
9401
330
1F
100
AcDbEntity
  8
0
100
AcDbLine
 10
13.31135411223465
 20
8.127353366629041
 30
0.0
 11
13.30939846437944
 21
8.130637693661256
 31
0.0
  0
LINE
  5
9402
330
1F
100
AcDbEntity
  8
0
100
AcDbLine
 10
13.31409316939141
 20
8.124687109237086
 30
0.0
 11
13.31135411223465
 21
8.127353366629041
 31
0.0
  0
LINE
  5
9403
330
1F
100
AcDbEntity
  8
0
100
AcDbLine
 10
13.31111402756059
 20
8.145179429461673
 30
0.0
 11
13.31378028495254
 21
8.147918486618433
 31
0.0
  0
LINE
  5
9404
330
1F
100
AcDbEntity
  8
0
100
AcDbLine
 10
13.30924754084396
 20
8.14184362522209
 30
0.0
 11
13.31111402756059
 21
8.145179429461673
 31
0.0
  0
LINE
  5
9405
330
1F
100
AcDbEntity
  8
0
100
AcDbLine
 10
13.30830802278788
 20
8.138138403445942
 30
0.0
 11
13.30924754084396
 21
8.14184362522209
 31
0.0
  0
LINE
  5
9406
330
1F
100
AcDbEntity
  8
0
100
AcDbLine
 10
13.30835949999524
 20
8.134316268874098
 30
0.0
 11
13.30830802278788
 21
8.138138403445942
 31
0.0
  0
LINE
  5
9407
330
1F
100
AcDbEntity
  8
0
100
AcDbLine
 10
13.30939846437944
 20
8.130637693661256
 30
0.0
 11
13.30835949999524
 21
8.134316268874098
 31
0.0
  0
LINE
  5
9408
330
1F
100
AcDbEntity
  8
0
100
AcDbLine
 10
13.31638315227585
 20
8.14997105804991
 30
0.0
 11
13.31609848505079
 21
8.149298855566353
 31
0.0
  0
LINE
  5
9409
330
1F
100
AcDbEntity
  8
0
100
AcDbLine
 10
13.31809941267878
 20
8.152059856856048
 30
0.0
 11
13.31638315227585
 21
8.14997105804991
 31
0.0
  0
LINE
  5
940A
330
1F
100
AcDbEntity
  8
0
100
AcDbLine
 10
13.32013940130513
 20
8.153083018822883
 30
0.0
 11
13.31809941267878
 21
8.152059856856048
 31
0.0
  0
LINE
  5
940B
330
1F
100
AcDbEntity
  8
0
100
AcDbLine
 10
13.32236409630125
 20
8.152970817153228
 30
0.0
 11
13.32013940130513
 21
8.153083018822883
 31
0.0
  0
LINE
  5
940C
330
1F
100
AcDbEntity
  8
0
100
AcDbLine
 10
13.32462188837964
 20
8.15173089820546
 30
0.0
 11
13.32236409630125
 21
8.152970817153228
 31
0.0
  0
LINE
  5
940D
330
1F
100
AcDbEntity
  8
0
100
AcDbLine
 10
13.32533916838068
 20
8.150964576065202
 30
0.0
 11
13.32462188837964
 21
8.15173089820546
 31
0.0
  0
LINE
  5
940E
330
1F
100
AcDbEntity
  8
0
100
AcDbLine
 10
13.32556011587146
 20
8.119762661706698
 30
0.0
 11
13.32760010449781
 21
8.120785823673539
 31
0.0
  0
LINE
  5
940F
330
1F
100
AcDbEntity
  8
0
100
AcDbLine
 10
13.32333542087534
 20
8.119874863376352
 30
0.0
 11
13.32556011587146
 21
8.119762661706698
 31
0.0
  0
LINE
  5
9410
330
1F
100
AcDbEntity
  8
0
100
AcDbLine
 10
13.32760010449781
 20
8.120785823673539
 30
0.0
 11
13.32850004136387
 21
8.121881104464378
 31
0.0
  0
LINE
  5
9411
330
1F
100
AcDbEntity
  8
0
100
AcDbLine
 10
13.32107762879695
 20
8.121114782324124
 30
0.0
 11
13.32333542087534
 21
8.119874863376352
 31
0.0
  0
LINE
  5
9412
330
1F
100
AcDbEntity
  8
0
100
AcDbLine
 10
13.32011952945772
 20
8.122138389193327
 30
0.0
 11
13.32107762879695
 21
8.121114782324124
 31
0.0
  0
LINE
  5
9413
330
1F
100
AcDbEntity
  8
0
100
AcDbLine
 10
11.76159536457847
 20
8.113422840264792
 30
0.0
 11
11.76357328524169
 21
8.113422840264792
 31
0.0
  0
LINE
  5
9414
330
1F
100
AcDbEntity
  8
0
100
AcDbLine
 10
13.32284975858829
 20
8.113422840264792
 30
0.0
 11
13.3295244949639
 21
8.113422840264792
 31
0.0
  0
LINE
  5
9415
330
1F
100
AcDbEntity
  8
0
100
AcDbLine
 10
13.32456532176944
 20
8.150964576065202
 30
0.0
 11
13.32533916838068
 21
8.150964576065202
 31
0.0
  0
LINE
  5
9416
330
1F
100
AcDbEntity
  8
0
100
AcDbLine
 10
13.32113419540714
 20
8.121881104464378
 30
0.0
 11
13.32011952945772
 21
8.122138389193327
 31
0.0
  0
LINE
  5
9417
330
1F
100
AcDbEntity
  8
0
100
AcDbLine
 10
13.32011952945772
 20
8.122138389193327
 30
0.0
 11
13.317428973631
 21
8.12282062252046
 31
0.0
  0
LINE
  5
9418
330
1F
100
AcDbEntity
  8
0
100
AcDbLine
 10
13.31378028495254
 20
8.147918486618433
 30
0.0
 11
13.31609848505079
 21
8.149298855566353
 31
0.0
  0
LINE
  5
9419
330
1F
100
AcDbEntity
  8
0
100
AcDbLine
 10
13.31609848505079
 20
8.149298855566353
 30
0.0
 11
13.31706461198476
 21
8.149874134473645
 31
0.0
  0
LINE
  5
941A
330
1F
100
AcDbEntity
  8
0
100
AcDbLine
 10
13.32113419540714
 20
8.121881104464378
 30
0.0
 11
13.32850004136387
 21
8.121881104464378
 31
0.0
  0
LINE
  5
941B
330
1F
100
AcDbEntity
  8
0
100
AcDbLine
 10
11.76003113692748
 20
8.153083018822883
 30
0.0
 11
11.46175499064533
 21
8.153083018822883
 31
0.0
  0
LINE
  5
941C
330
1F
100
AcDbEntity
  8
0
100
AcDbLine
 10
13.31757108012762
 20
8.119762661706698
 30
0.0
 11
13.32556011587146
 21
8.119762661706698
 31
0.0
  0
LINE
  5
941D
330
1F
100
AcDbEntity
  8
0
100
AcDbLine
 10
13.32013940130513
 20
8.153083018822883
 30
0.0
 11
13.31757108012762
 21
8.153083018822883
 31
0.0
  0
LINE
  5
941E
330
1F
100
AcDbEntity
  8
0
100
AcDbLine
 10
13.31757108012762
 20
8.153083018822883
 30
0.0
 11
12.16046573309062
 21
8.153083018822883
 31
0.0
  0
LINE
  5
941F
330
1F
100
AcDbEntity
  8
0
100
AcDbLine
 10
11.4607025306329
 20
8.119762661706701
 30
0.0
 11
11.76003113692748
 21
8.119762661706701
 31
0.0
  0
LINE
  5
9420
330
1F
100
AcDbEntity
  8
0
100
AcDbLine
 10
12.16046573309062
 20
8.119762661706701
 30
0.0
 11
13.31757108012762
 21
8.119762661706698
 31
0.0
  0
LINE
  5
9421
330
1F
100
AcDbEntity
  8
0
100
AcDbLine
 10
11.48079905583498
 20
8.113422840264792
 30
0.0
 11
11.46175499064533
 21
8.113422840264792
 31
0.0
  0
LINE
  5
9422
330
1F
100
AcDbEntity
  8
0
100
AcDbLine
 10
11.76159536457847
 20
8.159422840264795
 30
0.0
 11
11.46175499064533
 21
8.159422840264795
 31
0.0
  0
LINE
  5
9423
330
1F
100
AcDbEntity
  8
0
100
AcDbLine
 10
11.76159536457847
 20
8.113422840264792
 30
0.0
 11
11.48079905583498
 21
8.113422840264792
 31
0.0
  0
LINE
  5
9424
330
1F
100
AcDbEntity
  8
0
100
AcDbLine
 10
13.32284975858829
 20
8.113422840264792
 30
0.0
 11
12.16400788140484
 21
8.113422840264792
 31
0.0
  0
ARC
  5
9425
330
1F
100
AcDbEntity
  8
0
100
AcDbCircle
 10
11.46386086850995
 20
8.136339702251813
 30
0.0
 40
0.0168752295208051
100
AcDbArc
 50
97.16869021516565
 51
259.2130127358567
  0
LINE
  5
9426
330
1F
100
AcDbEntity
  8
0
100
AcDbLine
 10
11.45606131770311
 20
7.638630047751565
 30
0.0
 11
11.46175499064533
 21
7.639413753746918
 31
0.0
  0
LINE
  5
9427
330
1F
100
AcDbEntity
  8
0
100
AcDbLine
 10
11.45075565916266
 20
7.636332338033955
 30
0.0
 11
11.45606131770311
 21
7.638630047751565
 31
0.0
  0
LINE
  5
9428
330
1F
100
AcDbEntity
  8
0
100
AcDbLine
 10
11.4461995868855
 20
7.632677209714206
 30
0.0
 11
11.45075565916266
 21
7.636332338033955
 31
0.0
  0
LINE
  5
9429
330
1F
100
AcDbEntity
  8
0
100
AcDbLine
 10
11.44270358966805
 20
7.62791375374692
 30
0.0
 11
11.4461995868855
 21
7.632677209714206
 31
0.0
  0
LINE
  5
942A
330
1F
100
AcDbEntity
  8
0
100
AcDbLine
 10
11.44050591394328
 20
7.622366591784274
 30
0.0
 11
11.44270358966805
 21
7.62791375374692
 31
0.0
  0
LINE
  5
942B
330
1F
100
AcDbEntity
  8
0
100
AcDbLine
 10
11.43975632767999
 20
7.616413753746922
 30
0.0
 11
11.44050591394328
 21
7.622366591784274
 31
0.0
  0
LINE
  5
942C
330
1F
100
AcDbEntity
  8
0
100
AcDbLine
 10
11.44050591394328
 20
7.610460915709563
 30
0.0
 11
11.43975632767999
 21
7.616413753746922
 31
0.0
  0
LINE
  5
942D
330
1F
100
AcDbEntity
  8
0
100
AcDbLine
 10
11.44270358966805
 20
7.604913753746917
 30
0.0
 11
11.44050591394328
 21
7.610460915709563
 31
0.0
  0
LINE
  5
942E
330
1F
100
AcDbEntity
  8
0
100
AcDbLine
 10
11.4461995868855
 20
7.600150297779631
 30
0.0
 11
11.44270358966805
 21
7.604913753746917
 31
0.0
  0
LINE
  5
942F
330
1F
100
AcDbEntity
  8
0
100
AcDbLine
 10
11.45075565916266
 20
7.596495169459874
 30
0.0
 11
11.4461995868855
 21
7.600150297779631
 31
0.0
  0
LINE
  5
9430
330
1F
100
AcDbEntity
  8
0
100
AcDbLine
 10
11.45606131770311
 20
7.594197459742268
 30
0.0
 11
11.45075565916266
 21
7.596495169459874
 31
0.0
  0
LINE
  5
9431
330
1F
100
AcDbEntity
  8
0
100
AcDbLine
 10
11.46175499064533
 20
7.593413753746919
 30
0.0
 11
11.45606131770311
 21
7.594197459742268
 31
0.0
  0
LINE
  5
9432
330
1F
100
AcDbEntity
  8
0
100
AcDbLine
 10
11.76100401849507
 20
7.638630047751565
 30
0.0
 11
11.76159536457847
 21
7.639413753746918
 31
0.0
  0
LINE
  5
9433
330
1F
100
AcDbEntity
  8
0
100
AcDbLine
 10
11.76045297167
 20
7.636332338033955
 30
0.0
 11
11.76100401849507
 21
7.638630047751565
 31
0.0
  0
LINE
  5
9434
330
1F
100
AcDbEntity
  8
0
100
AcDbLine
 10
11.76003113692748
 20
7.633073932305006
 30
0.0
 11
11.76045297167
 21
7.636332338033955
 31
0.0
  0
LINE
  5
9435
330
1F
100
AcDbEntity
  8
0
100
AcDbLine
 10
11.76045297167
 20
7.596495169459874
 30
0.0
 11
11.76003113692748
 21
7.599753575188824
 31
0.0
  0
LINE
  5
9436
330
1F
100
AcDbEntity
  8
0
100
AcDbLine
 10
11.76100401849507
 20
7.594197459742268
 30
0.0
 11
11.76045297167
 21
7.596495169459874
 31
0.0
  0
LINE
  5
9437
330
1F
100
AcDbEntity
  8
0
100
AcDbLine
 10
11.76159536457847
 20
7.593413753746919
 30
0.0
 11
11.76100401849507
 21
7.594197459742268
 31
0.0
  0
LINE
  5
9438
330
1F
100
AcDbEntity
  8
0
100
AcDbLine
 10
13.32085418855008
 20
7.638630047751565
 30
0.0
 11
13.32284975858829
 21
7.639413753746918
 31
0.0
  0
LINE
  5
9439
330
1F
100
AcDbEntity
  8
0
100
AcDbLine
 10
13.31899461331213
 20
7.636332338033955
 30
0.0
 11
13.32085418855008
 21
7.638630047751565
 31
0.0
  0
LINE
  5
943A
330
1F
100
AcDbEntity
  8
0
100
AcDbLine
 10
13.31757108012762
 20
7.633073932305006
 30
0.0
 11
13.31899461331213
 21
7.636332338033955
 31
0.0
  0
LINE
  5
943B
330
1F
100
AcDbEntity
  8
0
100
AcDbLine
 10
13.31899461331213
 20
7.596495169459874
 30
0.0
 11
13.31757108012762
 21
7.599753575188824
 31
0.0
  0
LINE
  5
943C
330
1F
100
AcDbEntity
  8
0
100
AcDbLine
 10
13.32085418855008
 20
7.594197459742265
 30
0.0
 11
13.31899461331213
 21
7.596495169459874
 31
0.0
  0
LINE
  5
943D
330
1F
100
AcDbEntity
  8
0
100
AcDbLine
 10
13.32284975858829
 20
7.593413753746919
 30
0.0
 11
13.32085418855008
 21
7.594197459742265
 31
0.0
  0
LINE
  5
943E
330
1F
100
AcDbEntity
  8
0
100
AcDbLine
 10
13.317428973631
 20
7.602811536002587
 30
0.0
 11
13.31409316939142
 21
7.604678022719209
 31
0.0
  0
LINE
  5
943F
330
1F
100
AcDbEntity
  8
0
100
AcDbLine
 10
13.3207431871976
 20
7.630904012339971
 30
0.0
 11
13.32456532176944
 21
7.630955489547329
 31
0.0
  0
LINE
  5
9440
330
1F
100
AcDbEntity
  8
0
100
AcDbLine
 10
13.31706461198476
 20
7.629865047955771
 30
0.0
 11
13.3207431871976
 21
7.630904012339971
 31
0.0
  0
LINE
  5
9441
330
1F
100
AcDbEntity
  8
0
100
AcDbLine
 10
13.31135411223466
 20
7.607344280111163
 30
0.0
 11
13.30939846437944
 21
7.610628607143379
 31
0.0
  0
LINE
  5
9442
330
1F
100
AcDbEntity
  8
0
100
AcDbLine
 10
13.31409316939142
 20
7.604678022719209
 30
0.0
 11
13.31135411223466
 21
7.607344280111163
 31
0.0
  0
LINE
  5
9443
330
1F
100
AcDbEntity
  8
0
100
AcDbLine
 10
13.31111402756059
 20
7.625170342943796
 30
0.0
 11
13.31378028495254
 21
7.627909400100556
 31
0.0
  0
LINE
  5
9444
330
1F
100
AcDbEntity
  8
0
100
AcDbLine
 10
13.30924754084396
 20
7.621834538704217
 30
0.0
 11
13.31111402756059
 21
7.625170342943796
 31
0.0
  0
LINE
  5
9445
330
1F
100
AcDbEntity
  8
0
100
AcDbLine
 10
13.30830802278788
 20
7.618129316928065
 30
0.0
 11
13.30924754084396
 21
7.621834538704217
 31
0.0
  0
LINE
  5
9446
330
1F
100
AcDbEntity
  8
0
100
AcDbLine
 10
13.30835949999524
 20
7.614307182356224
 30
0.0
 11
13.30830802278788
 21
7.618129316928065
 31
0.0
  0
LINE
  5
9447
330
1F
100
AcDbEntity
  8
0
100
AcDbLine
 10
13.30939846437944
 20
7.610628607143379
 30
0.0
 11
13.30835949999524
 21
7.614307182356224
 31
0.0
  0
LINE
  5
9448
330
1F
100
AcDbEntity
  8
0
100
AcDbLine
 10
13.31638315227585
 20
7.629961971532036
 30
0.0
 11
13.31609848505079
 21
7.629289769048479
 31
0.0
  0
LINE
  5
9449
330
1F
100
AcDbEntity
  8
0
100
AcDbLine
 10
13.31809941267878
 20
7.632050770338171
 30
0.0
 11
13.31638315227585
 21
7.629961971532036
 31
0.0
  0
LINE
  5
944A
330
1F
100
AcDbEntity
  8
0
100
AcDbLine
 10
13.32013940130513
 20
7.633073932305006
 30
0.0
 11
13.31809941267878
 21
7.632050770338171
 31
0.0
  0
LINE
  5
944B
330
1F
100
AcDbEntity
  8
0
100
AcDbLine
 10
13.32236409630125
 20
7.632961730635354
 30
0.0
 11
13.32013940130513
 21
7.633073932305006
 31
0.0
  0
LINE
  5
944C
330
1F
100
AcDbEntity
  8
0
100
AcDbLine
 10
13.32462188837964
 20
7.631721811687583
 30
0.0
 11
13.32236409630125
 21
7.632961730635354
 31
0.0
  0
LINE
  5
944D
330
1F
100
AcDbEntity
  8
0
100
AcDbLine
 10
13.32533916838068
 20
7.630955489547329
 30
0.0
 11
13.32462188837964
 21
7.631721811687583
 31
0.0
  0
LINE
  5
944E
330
1F
100
AcDbEntity
  8
0
100
AcDbLine
 10
13.32556011587146
 20
7.599753575188824
 30
0.0
 11
13.32760010449781
 21
7.600776737155662
 31
0.0
  0
LINE
  5
944F
330
1F
100
AcDbEntity
  8
0
100
AcDbLine
 10
13.32333542087534
 20
7.599865776858475
 30
0.0
 11
13.32556011587146
 21
7.599753575188824
 31
0.0
  0
LINE
  5
9450
330
1F
100
AcDbEntity
  8
0
100
AcDbLine
 10
13.32760010449781
 20
7.600776737155662
 30
0.0
 11
13.32850004136387
 21
7.601872017946501
 31
0.0
  0
LINE
  5
9451
330
1F
100
AcDbEntity
  8
0
100
AcDbLine
 10
13.32107762879695
 20
7.60110569580625
 30
0.0
 11
13.32333542087534
 21
7.599865776858475
 31
0.0
  0
LINE
  5
9452
330
1F
100
AcDbEntity
  8
0
100
AcDbLine
 10
13.32011952945772
 20
7.602129302675454
 30
0.0
 11
13.32107762879695
 21
7.60110569580625
 31
0.0
  0
LINE
  5
9453
330
1F
100
AcDbEntity
  8
0
100
AcDbLine
 10
11.76159536457847
 20
7.593413753746919
 30
0.0
 11
11.76357328524169
 21
7.593413753746919
 31
0.0
  0
LINE
  5
9454
330
1F
100
AcDbEntity
  8
0
100
AcDbLine
 10
13.32284975858829
 20
7.593413753746919
 30
0.0
 11
13.3295244949639
 21
7.593413753746919
 31
0.0
  0
LINE
  5
9455
330
1F
100
AcDbEntity
  8
0
100
AcDbLine
 10
13.32456532176944
 20
7.630955489547329
 30
0.0
 11
13.32533916838068
 21
7.630955489547329
 31
0.0
  0
LINE
  5
9456
330
1F
100
AcDbEntity
  8
0
100
AcDbLine
 10
13.32113419540714
 20
7.601872017946501
 30
0.0
 11
13.32011952945772
 21
7.602129302675454
 31
0.0
  0
LINE
  5
9457
330
1F
100
AcDbEntity
  8
0
100
AcDbLine
 10
13.32011952945772
 20
7.602129302675454
 30
0.0
 11
13.317428973631
 21
7.602811536002587
 31
0.0
  0
LINE
  5
9458
330
1F
100
AcDbEntity
  8
0
100
AcDbLine
 10
13.31378028495254
 20
7.627909400100556
 30
0.0
 11
13.31609848505079
 21
7.629289769048479
 31
0.0
  0
LINE
  5
9459
330
1F
100
AcDbEntity
  8
0
100
AcDbLine
 10
13.31609848505079
 20
7.629289769048479
 30
0.0
 11
13.31706461198476
 21
7.629865047955771
 31
0.0
  0
LINE
  5
945A
330
1F
100
AcDbEntity
  8
0
100
AcDbLine
 10
13.32113419540714
 20
7.601872017946501
 30
0.0
 11
13.32850004136387
 21
7.601872017946501
 31
0.0
  0
LINE
  5
945B
330
1F
100
AcDbEntity
  8
0
100
AcDbLine
 10
11.76003113692748
 20
7.633073932305006
 30
0.0
 11
11.46175499064533
 21
7.633073932305006
 31
0.0
  0
LINE
  5
945C
330
1F
100
AcDbEntity
  8
0
100
AcDbLine
 10
13.31757108012762
 20
7.599753575188824
 30
0.0
 11
13.32556011587146
 21
7.599753575188824
 31
0.0
  0
LINE
  5
945D
330
1F
100
AcDbEntity
  8
0
100
AcDbLine
 10
13.32013940130513
 20
7.633073932305006
 30
0.0
 11
13.31757108012762
 21
7.633073932305006
 31
0.0
  0
LINE
  5
945E
330
1F
100
AcDbEntity
  8
0
100
AcDbLine
 10
13.31757108012762
 20
7.633073932305006
 30
0.0
 11
12.16046573309062
 21
7.633073932305006
 31
0.0
  0
LINE
  5
945F
330
1F
100
AcDbEntity
  8
0
100
AcDbLine
 10
11.4607025306329
 20
7.599753575188824
 30
0.0
 11
11.76003113692748
 21
7.599753575188824
 31
0.0
  0
LINE
  5
9460
330
1F
100
AcDbEntity
  8
0
100
AcDbLine
 10
12.16046573309062
 20
7.599753575188824
 30
0.0
 11
13.31757108012762
 21
7.599753575188824
 31
0.0
  0
LINE
  5
9461
330
1F
100
AcDbEntity
  8
0
100
AcDbLine
 10
11.48079905583498
 20
7.593413753746919
 30
0.0
 11
11.46175499064533
 21
7.593413753746919
 31
0.0
  0
LINE
  5
9462
330
1F
100
AcDbEntity
  8
0
100
AcDbLine
 10
11.76159536457847
 20
7.639413753746918
 30
0.0
 11
11.46175499064533
 21
7.639413753746918
 31
0.0
  0
LINE
  5
9463
330
1F
100
AcDbEntity
  8
0
100
AcDbLine
 10
11.76159536457847
 20
7.593413753746919
 30
0.0
 11
11.48079905583498
 21
7.593413753746919
 31
0.0
  0
LINE
  5
9464
330
1F
100
AcDbEntity
  8
0
100
AcDbLine
 10
13.32284975858829
 20
7.593413753746919
 30
0.0
 11
12.16400788140484
 21
7.593413753746919
 31
0.0
  0
LINE
  5
9465
330
1F
100
AcDbEntity
  8
0
100
AcDbLine
 10
13.32284975858829
 20
7.639413753746918
 30
0.0
 11
12.16202996074162
 21
7.639413753746918
 31
0.0
  0
ARC
  5
9466
330
1F
100
AcDbEntity
  8
0
100
AcDbCircle
 10
11.46386086850995
 20
7.616330615733932
 30
0.0
 40
0.0168752295208051
100
AcDbArc
 50
97.16869021516565
 51
259.2130127358567
  0
LINE
  5
9467
330
1F
100
AcDbEntity
  8
0
100
AcDbLine
 10
11.8440012233003
 20
8.152686296232083
 30
0.0
 11
11.4440012233003
 21
8.152686296232083
 31
0.0
  0
LINE
  5
9468
330
1F
100
AcDbEntity
  8
0
100
AcDbLine
 10
12.92064722520388
 20
7.633073947204888
 30
0.0
 11
11.76354187816688
 21
7.633073947204888
 31
0.0
  0
LINE
  5
9469
330
1F
100
AcDbEntity
  8
0
100
AcDbLine
 10
11.76354187816688
 20
7.599753590088706
 30
0.0
 11
12.92064722520388
 21
7.599753590088706
 31
0.0
  0
LINE
  5
946A
330
1F
100
AcDbEntity
  8
0
100
AcDbLine
 10
12.92592590366455
 20
7.593413768646797
 30
0.0
 11
11.7670840264811
 21
7.593413768646797
 31
0.0
  0
LINE
  5
946B
330
1F
100
AcDbEntity
  8
0
100
AcDbLine
 10
12.92592590366455
 20
7.639413768646793
 30
0.0
 11
11.76510610581788
 21
7.6394137686468
 31
0.0
  0
LINE
  5
946C
330
1F
100
AcDbEntity
  8
0
100
AcDbLine
 10
12.91870070852735
 20
8.153083033722761
 30
0.0
 11
11.76159536149036
 21
8.153083033722761
 31
0.0
  0
LINE
  5
946D
330
1F
100
AcDbEntity
  8
0
100
AcDbLine
 10
11.76159536149036
 20
8.11976267660658
 30
0.0
 11
12.91870070852735
 21
8.11976267660658
 31
0.0
  0
LINE
  5
946E
330
1F
100
AcDbEntity
  8
0
100
AcDbLine
 10
12.92397938698803
 20
8.113422855164674
 30
0.0
 11
11.76513750980458
 21
8.113422855164674
 31
0.0
  0
LINE
  5
946F
330
1F
100
AcDbEntity
  8
0
100
AcDbLine
 10
11.76100401849507
 20
8.158639134269439
 30
0.0
 11
13.32284975858829
 21
8.159422840264792
 31
0.0
  0
LINE
  5
9470
330
1F
100
AcDbEntity
  8
0
100
AcDbLine
 10
11.76354187816688
 20
7.633073947204888
 30
0.0
 11
11.76003113692748
 21
7.633073932305006
 31
0.0
  0
LINE
  5
9471
330
1F
100
AcDbEntity
  8
0
100
AcDbLine
 10
11.76003113692748
 20
7.599753575188824
 30
0.0
 11
11.76354187816688
 21
7.599753590088706
 31
0.0
  0
LINE
  5
9472
330
1F
100
AcDbEntity
  8
0
100
AcDbLine
 10
11.7670840264811
 20
7.593413768646797
 30
0.0
 11
11.76159536457847
 21
7.593413753746919
 31
0.0
  0
LINE
  5
9473
330
1F
100
AcDbEntity
  8
0
100
AcDbLine
 10
14.59356368698092
 20
7.881042670391135
 30
0.0
 11
14.59356368698092
 21
8.450716956384749
 31
0.0
  0
LINE
  5
9474
330
1F
100
AcDbEntity
  8
0
100
AcDbLine
 10
14.59356368698092
 20
7.82352876258054
 30
0.0
 11
14.59356368698092
 21
7.298146271012608
 31
0.0
  0
LINE
  5
9475
330
1F
100
AcDbEntity
  8
0
100
AcDbLine
 10
14.59356368698092
 20
7.855268912863603
 30
0.0
 11
14.59356368698092
 21
7.835281201085248
 31
0.0
  0
LINE
  5
9476
330
1F
100
AcDbEntity
  8
0
100
AcDbLine
 10
14.59356368698092
 20
7.835281201085248
 30
0.0
 11
14.59356368698092
 21
7.826687285453257
 31
0.0
  0
LINE
  5
9477
330
1F
100
AcDbEntity
  8
0
100
AcDbLine
 10
14.59356368698092
 20
7.826687285453257
 30
0.0
 11
14.59356368698092
 21
7.82352876258054
 31
0.0
  0
LINE
  5
9478
330
1F
100
AcDbEntity
  8
0
100
AcDbLine
 10
14.59356368698092
 20
8.474584851631934
 30
0.0
 11
14.59356368698092
 21
8.450716956384749
 31
0.0
  0
LINE
  5
9479
330
1F
100
AcDbEntity
  8
0
100
AcDbLine
 10
14.59356368698092
 20
7.274989639043784
 30
0.0
 11
14.59356368698092
 21
7.298146271012608
 31
0.0
  0
LINE
  5
947A
330
1F
100
AcDbEntity
  8
0
100
AcDbLine
 10
14.59356368698092
 20
7.881042670391135
 30
0.0
 11
14.59356368698092
 21
7.855268912863603
 31
0.0
  0
LINE
  5
947B
330
1F
100
AcDbEntity
  8
0
100
AcDbLine
 10
16.10901258315687
 20
8.313606757499119
 30
0.0
 11
16.10901258315687
 21
8.283606757499118
 31
0.0
  0
LINE
  5
947C
330
1F
100
AcDbEntity
  8
0
100
AcDbLine
 10
16.10901258315687
 20
8.283606757499118
 30
0.0
 11
14.82693939923401
 21
8.283606757499118
 31
0.0
  0
LINE
  5
947D
330
1F
100
AcDbEntity
  8
0
100
AcDbLine
 10
14.82693939923401
 20
8.313606757499119
 30
0.0
 11
16.10901258315687
 21
8.313606757499119
 31
0.0
  0
LINE
  5
947E
330
1F
100
AcDbEntity
  8
0
100
AcDbLine
 10
16.10901258315687
 20
8.313606757499119
 30
0.0
 11
16.08901258315687
 21
8.313606757499119
 31
0.0
  0
LINE
  5
947F
330
1F
100
AcDbEntity
  8
0
100
AcDbLine
 10
16.08901258315687
 20
8.313606757499119
 30
0.0
 11
16.08901258315687
 21
8.323606757499117
 31
0.0
  0
LINE
  5
9480
330
1F
100
AcDbEntity
  8
0
100
AcDbLine
 10
16.08901258315687
 20
8.323606757499117
 30
0.0
 11
16.13901258315688
 21
8.323606757499117
 31
0.0
  0
LINE
  5
9481
330
1F
100
AcDbEntity
  8
0
100
AcDbLine
 10
16.13901258315688
 20
8.323606757499117
 30
0.0
 11
16.13901258315688
 21
8.27360675749912
 31
0.0
  0
LINE
  5
9482
330
1F
100
AcDbEntity
  8
0
100
AcDbLine
 10
16.13901258315688
 20
8.27360675749912
 30
0.0
 11
16.08901258315687
 21
8.273606757499127
 31
0.0
  0
LINE
  5
9483
330
1F
100
AcDbEntity
  8
0
100
AcDbLine
 10
16.08901258315687
 20
8.273606757499127
 30
0.0
 11
16.08901258315687
 21
8.283606757499118
 31
0.0
  0
LINE
  5
9484
330
1F
100
AcDbEntity
  8
WYMIAR
100
AcDbLine
 10
16.14002457290122
 20
8.254401032064667
 30
0.0
 11
16.14002457290122
 21
7.456273923444857
 31
0.0
  0
LINE
  5
9485
330
1F
100
AcDbEntity
  8
WYMIAR
100
AcDbLine
 10
16.03453013200036
 20
7.424061755261053
 30
0.0
 11
15.98816139008376
 21
7.424061755261053
 31
0.0
  0
LINE
  5
9486
330
1F
100
AcDbEntity
  8
WYMIAR
100
AcDbLine
 10
15.98816139008376
 20
7.424061755261053
 30
0.0
 11
15.98816139008377
 21
8.283606757499118
 31
0.0
  0
LINE
  5
9487
330
1F
100
AcDbEntity
  8
WYMIAR
100
AcDbLine
 10
15.98816139008376
 20
7.424061755261053
 30
0.0
 11
15.86816139008376
 21
7.424061755261053
 31
0.0
  0
LINE
  5
9488
330
1F
100
AcDbEntity
  8
WYMIAR
100
AcDbLine
 10
15.86816139008376
 20
7.424061755261053
 30
0.0
 11
15.86816139008376
 21
8.283606757499118
 31
0.0
  0
LINE
  5
9489
330
1F
100
AcDbEntity
  8
WYMIAR
100
AcDbLine
 10
15.74816139008376
 20
7.424061755261053
 30
0.0
 11
15.74816139008376
 21
8.283606757499118
 31
0.0
  0
LINE
  5
948A
330
1F
100
AcDbEntity
  8
WYMIAR
100
AcDbLine
 10
15.74816139008376
 20
8.283606757499118
 30
0.0
 11
15.62816139008377
 21
8.283606757499118
 31
0.0
  0
LINE
  5
948B
330
1F
100
AcDbEntity
  8
WYMIAR
100
AcDbLine
 10
15.62816139008377
 20
8.283606757499118
 30
0.0
 11
15.62816139008376
 21
7.424061755261053
 31
0.0
  0
LINE
  5
948C
330
1F
100
AcDbEntity
  8
WYMIAR
100
AcDbLine
 10
15.62816139008376
 20
7.424061755261053
 30
0.0
 11
15.50816139008376
 21
7.424061755261053
 31
0.0
  0
LINE
  5
948D
330
1F
100
AcDbEntity
  8
WYMIAR
100
AcDbLine
 10
15.50816139008376
 20
7.424061755261053
 30
0.0
 11
15.50816139008375
 21
8.283606757499114
 31
0.0
  0
LINE
  5
948E
330
1F
100
AcDbEntity
  8
WYMIAR
100
AcDbLine
 10
15.50816139008375
 20
8.283606757499114
 30
0.0
 11
15.38816139008375
 21
8.283606757499114
 31
0.0
  0
LINE
  5
948F
330
1F
100
AcDbEntity
  8
WYMIAR
100
AcDbLine
 10
15.38816139008375
 20
8.283606757499114
 30
0.0
 11
15.38816139008376
 21
7.424061755261053
 31
0.0
  0
LINE
  5
9490
330
1F
100
AcDbEntity
  8
WYMIAR
100
AcDbLine
 10
15.38816139008376
 20
7.424061755261053
 30
0.0
 11
15.26816139008377
 21
7.424061755261053
 31
0.0
  0
LINE
  5
9491
330
1F
100
AcDbEntity
  8
WYMIAR
100
AcDbLine
 10
15.26816139008377
 20
7.424061755261053
 30
0.0
 11
15.26816139008376
 21
8.283606757499114
 31
0.0
  0
LINE
  5
9492
330
1F
100
AcDbEntity
  8
WYMIAR
100
AcDbLine
 10
15.26816139008376
 20
8.283606757499114
 30
0.0
 11
15.14816139008376
 21
8.283606757499114
 31
0.0
  0
LINE
  5
9493
330
1F
100
AcDbEntity
  8
WYMIAR
100
AcDbLine
 10
15.14816139008376
 20
8.283606757499114
 30
0.0
 11
15.14816139008376
 21
7.424061755261053
 31
0.0
  0
LINE
  5
9494
330
1F
100
AcDbEntity
  8
WYMIAR
100
AcDbLine
 10
15.14816139008376
 20
7.424061755261053
 30
0.0
 11
15.02816139008376
 21
7.424061755261053
 31
0.0
  0
LINE
  5
9495
330
1F
100
AcDbEntity
  8
WYMIAR
100
AcDbLine
 10
15.02816139008376
 20
7.424061755261053
 30
0.0
 11
15.02816139008376
 21
8.283606757499114
 31
0.0
  0
LINE
  5
9496
330
1F
100
AcDbEntity
  8
WYMIAR
100
AcDbLine
 10
15.02816139008376
 20
8.283606757499114
 30
0.0
 11
14.90816139008376
 21
8.283606757499114
 31
0.0
  0
LINE
  5
9497
330
1F
100
AcDbEntity
  8
WYMIAR
100
AcDbLine
 10
14.90816139008376
 20
8.283606757499114
 30
0.0
 11
14.90816139008375
 21
7.424061755261053
 31
0.0
  0
LINE
  5
9498
330
1F
100
AcDbEntity
  8
WYMIAR
100
AcDbLine
 10
14.82693939923401
 20
8.283606757499118
 30
0.0
 11
14.59356368698092
 21
8.283606757499118
 31
0.0
  0
LINE
  5
9499
330
1F
100
AcDbEntity
  8
WYMIAR
100
AcDbLine
 10
14.59356368698092
 20
8.283606757499118
 30
0.0
 11
14.59356368698092
 21
8.313606757499119
 31
0.0
  0
LINE
  5
949A
330
1F
100
AcDbEntity
  8
WYMIAR
100
AcDbLine
 10
14.59356368698092
 20
8.313606757499119
 30
0.0
 11
14.82693939923401
 21
8.313606757499119
 31
0.0
  0
LINE
  5
949B
330
1F
100
AcDbEntity
  8
WYMIAR
100
AcDbLine
 10
14.59356368698092
 20
7.424061755261053
 30
0.0
 11
14.59356368698092
 21
7.394061755261049
 31
0.0
  0
LINE
  5
949C
330
1F
100
AcDbEntity
  8
WYMIAR
100
AcDbLine
 10
14.59356368698092
 20
7.394061755261049
 30
0.0
 11
14.82864793621177
 21
7.394061755261049
 31
0.0
  0
LINE
  5
949D
330
1F
100
AcDbEntity
  8
WYMIAR
100
AcDbLine
 10
14.59356368698092
 20
7.424061755261053
 30
0.0
 11
14.82864793621177
 21
7.424061755261053
 31
0.0
  0
LINE
  5
949E
330
1F
100
AcDbEntity
  8
WYMIAR
100
AcDbLine
 10
14.90816139008376
 20
8.283606757499114
 30
0.0
 11
14.78816139008376
 21
8.283606757499114
 31
0.0
  0
LINE
  5
949F
330
1F
100
AcDbEntity
  8
WYMIAR
100
AcDbLine
 10
14.78816139008376
 20
8.283606757499114
 30
0.0
 11
14.78816139008376
 21
7.424061755261053
 31
0.0
  0
LINE
  5
94A0
330
1F
100
AcDbEntity
  8
WYMIAR
100
AcDbLine
 10
14.78816139008376
 20
7.424061755261053
 30
0.0
 11
14.66816139008377
 21
7.424061755261053
 31
0.0
  0
LINE
  5
94A1
330
1F
100
AcDbEntity
  8
WYMIAR
100
AcDbLine
 10
14.66816139008377
 20
7.424061755261053
 30
0.0
 11
14.66816139008377
 21
8.283606757499114
 31
0.0
  0
LINE
  5
94A2
330
1F
100
AcDbEntity
  8
0
100
AcDbLine
 10
13.49506633494179
 20
6.909871961524164
 30
0.0
 11
14.34889121128978
 21
6.909970504722085
 31
0.0
  0
LINE
  5
94A3
330
1F
100
AcDbEntity
  8
0
100
AcDbLine
 10
14.34886812852421
 20
7.109970503390055
 30
0.0
 11
13.49504325217623
 21
7.109871960192126
 31
0.0
  0
LINE
  5
94A4
330
1F
100
AcDbEntity
  8
0
100
AcDbLine
 10
13.49508941770737
 20
6.709871962856201
 30
0.0
 11
14.34891429405535
 21
6.709970506054123
 31
0.0
  0
LINE
  5
94A5
330
1F
100
AcDbEntity
  8
0
100
AcDbLine
 10
14.37885513931437
 20
7.222516892444026
 30
0.0
 11
14.37890439034895
 21
6.795782633792764
 31
0.0
  0
LINE
  5
94A6
330
1F
100
AcDbEntity
  8
0
100
AcDbLine
 10
14.37891593173173
 20
6.695782634458783
 30
0.0
 11
14.37891631538413
 21
6.692458488667835
 31
0.0
  0
LINE
  5
94A7
330
1F
100
AcDbEntity
  8
0
100
AcDbLine
 10
14.37891631538413
 20
6.692458488667835
 30
0.0
 11
14.37892425026338
 21
6.623706941738749
 31
0.0
  0
LINE
  5
94A8
330
1F
100
AcDbEntity
  8
0
100
AcDbLine
 10
14.34891631558393
 20
6.692455026252996
 30
0.0
 11
14.34892425046319
 21
6.623703479323918
 31
0.0
  0
LINE
  5
94A9
330
1F
100
AcDbEntity
  8
0
100
AcDbLine
 10
14.37892425026338
 20
6.623706941738749
 30
0.0
 11
14.34892425046319
 21
6.623703479323918
 31
0.0
  0
LINE
  5
94AA
330
1F
100
AcDbEntity
  8
0
100
AcDbLine
 10
14.37891631538413
 20
6.692458488667835
 30
0.0
 11
14.34891631558393
 21
6.692455026252996
 31
0.0
  0
LINE
  5
94AB
330
1F
100
AcDbEntity
  8
0
100
AcDbLine
 10
13.49509144100603
 20
6.692341146196678
 30
0.0
 11
13.49509937588528
 21
6.623589599267607
 31
0.0
  0
LINE
  5
94AC
330
1F
100
AcDbEntity
  8
0
100
AcDbLine
 10
13.52509144080622
 20
6.692344608611517
 30
0.0
 11
13.52509937568548
 21
6.623593061682438
 31
0.0
  0
LINE
  5
94AD
330
1F
100
AcDbEntity
  8
0
100
AcDbLine
 10
13.52509937568548
 20
6.623593061682438
 30
0.0
 11
13.49509937588528
 21
6.623589599267607
 31
0.0
  0
LINE
  5
94AE
330
1F
100
AcDbEntity
  8
0
100
AcDbLine
 10
13.52509144080622
 20
6.692344608611517
 30
0.0
 11
13.49509144100603
 21
6.692341146196678
 31
0.0
  0
LINE
  5
94AF
330
1F
100
AcDbEntity
  8
0
100
AcDbLine
 10
14.37891593173173
 20
6.695782634458783
 30
0.0
 11
14.37890439034895
 21
6.795782633792764
 31
0.0
  0
LINE
  5
94B0
330
1F
100
AcDbEntity
  8
0
100
AcDbLine
 10
13.49507951597086
 20
6.795665291321615
 30
0.0
 11
13.49509105735364
 21
6.695665291987634
 31
0.0
  0
LINE
  5
94B1
330
1F
100
AcDbEntity
  8
0
100
AcDbLine
 10
13.49509144100603
 20
6.692341146196678
 30
0.0
 11
13.49509105735364
 21
6.695665291987634
 31
0.0
  0
LINE
  5
94B2
330
1F
100
AcDbEntity
  8
0
100
AcDbLine
 10
14.34891631558393
 20
6.692455026252996
 30
0.0
 11
14.34891429405535
 21
6.709970506054123
 31
0.0
  0
LINE
  5
94B3
330
1F
100
AcDbEntity
  8
0
100
AcDbLine
 10
13.49503025139332
 20
7.222516892444026
 30
0.0
 11
13.49507951597086
 21
6.795665291321615
 31
0.0
  0
LINE
  5
94B4
330
1F
100
AcDbEntity
  8
0
100
AcDbLine
 10
13.52503025159313
 20
7.222516892444026
 30
0.0
 11
13.52504325374651
 21
7.109860085748575
 31
0.0
  0
LINE
  5
94B5
330
1F
100
AcDbEntity
  8
0
100
AcDbLine
 10
13.52504325374651
 20
7.109860085748575
 30
0.0
 11
13.52506633651207
 21
6.909860087080605
 31
0.0
  0
LINE
  5
94B6
330
1F
100
AcDbEntity
  8
0
100
AcDbLine
 10
14.34886812852421
 20
7.109970503390055
 30
0.0
 11
14.34889121128978
 21
6.909970504722085
 31
0.0
  0
LINE
  5
94B7
330
1F
100
AcDbEntity
  8
0
100
AcDbLine
 10
14.34889121128978
 20
6.909970504722085
 30
0.0
 11
14.34891429405535
 21
6.709970506054123
 31
0.0
  0
LINE
  5
94B8
330
1F
100
AcDbEntity
  8
0
100
AcDbLine
 10
14.3488549231782
 20
7.224387867188205
 30
0.0
 11
14.34886812852421
 21
7.109970503390055
 31
0.0
  0
LINE
  5
94B9
330
1F
100
AcDbEntity
  8
0
100
AcDbLine
 10
13.52508941927764
 20
6.709860088412643
 30
0.0
 11
13.52509144080622
 21
6.692344608611517
 31
0.0
  0
LINE
  5
94BA
330
1F
100
AcDbEntity
  8
0
100
AcDbLine
 10
13.52508941927764
 20
6.709860088412643
 30
0.0
 11
13.52506633651207
 21
6.909860087080605
 31
0.0
  0
LINE
  5
94BB
330
1F
100
AcDbEntity
  8
WYMIAR
100
AcDbLine
 10
16.03453013200036
 20
7.424061755261053
 30
0.0
 11
16.0400245729012
 21
7.42406175526105
 31
0.0
  0
LINE
  5
94BC
330
1F
100
AcDbEntity
  8
WYMIAR
100
AcDbLine
 10
16.0400245729012
 20
7.42406175526105
 30
0.0
 11
16.0400245729012
 21
7.394061755261052
 31
0.0
  0
LINE
  5
94BD
330
1F
100
AcDbEntity
  8
WYMIAR
100
AcDbLine
 10
16.0400245729012
 20
7.394061755261052
 30
0.0
 11
16.03453013200036
 21
7.394061755261052
 31
0.0
  0
LINE
  5
94BE
330
1F
100
AcDbEntity
  8
STREFA BEZPIECZEŃSTWA
100
AcDbLine
 10
12.1806928303744
 20
5.86362770360232
 30
0.0
 11
12.18069283037441
 21
5.123593061682434
 31
0.0
  0
LINE
  5
94BF
330
1F
100
AcDbEntity
  8
STREFA BEZPIECZEŃSTWA
100
AcDbLine
 10
9.354825861694704
 20
5.863627703602322
 30
0.0
 11
12.1806928303744
 21
5.86362770360232
 31
0.0
  0
LINE
  5
94C0
102
{ACAD_REACTORS
330
96D5
102
}
330
1F
100
AcDbEntity
  8
STREFA BEZPIECZEŃSTWA
100
AcDbLine
 10
12.18069283037441
 20
5.123593061682434
 30
0.0
 11
13.78347110906484
 21
5.123593061682438
 31
0.0
  0
LINE
  5
94C1
102
{ACAD_REACTORS
330
94C4
102
}
330
1F
100
AcDbEntity
  8
STREFA BEZPIECZEŃSTWA
100
AcDbLine
 10
9.354825861694706
 20
10.02546734034709
 30
0.0
 11
9.354825861694704
 21
5.863627703602322
 31
0.0
  0
DIMENSION
  5
94C2
102
{ACAD_XDICTIONARY
360
94C3
102
}
102
{ACAD_REACTORS
330
94C4
102
}
330
1F
100
AcDbEntity
  8
WYMIAR
100
AcDbDimension
  2
*D4
 10
9.354825861694706
 20
10.96681970789982
 30
0.0
 11
13.94723414373499
 21
11.17933269491281
 31
0.0
 70
    32
 71
     5
 42
9.18481656408057
  3
AR SKALA 1-50
100
AcDbAlignedDimension
 13
18.53964242577528
 23
10.02546734034709
 33
0.0
 14
9.354825861694706
 24
10.02546734034709
 34
0.0
100
AcDbRotatedDimension
  0
LINE
  5
94C5
102
{ACAD_REACTORS
330
96D5
102
}
330
1F
100
AcDbEntity
  8
STREFA BEZPIECZEŃSTWA
100
AcDbLine
 10
9.354825861694706
 20
10.02546734034709
 30
0.0
 11
18.53964242577528
 21
10.02546734034709
 31
0.0
  0
LINE
  5
94C6
330
1F
100
AcDbEntity
  8
0
100
AcDbLine
 10
16.11072112013463
 20
7.42406175526105
 30
0.0
 11
16.11072112013463
 21
7.394061755261049
 31
0.0
  0
LINE
  5
94C7
330
1F
100
AcDbEntity
  8
0
100
AcDbLine
 10
16.11072112013463
 20
7.394061755261049
 30
0.0
 11
14.82864793621177
 21
7.394061755261049
 31
0.0
  0
LINE
  5
94C8
330
1F
100
AcDbEntity
  8
0
100
AcDbLine
 10
14.82864793621176
 20
7.42406175526105
 30
0.0
 11
16.11072112013463
 21
7.42406175526105
 31
0.0
  0
LINE
  5
94C9
330
1F
100
AcDbEntity
  8
0
100
AcDbLine
 10
16.11072112013463
 20
7.42406175526105
 30
0.0
 11
16.09072112013462
 21
7.42406175526105
 31
0.0
  0
LINE
  5
94CA
330
1F
100
AcDbEntity
  8
0
100
AcDbLine
 10
16.09072112013462
 20
7.42406175526105
 30
0.0
 11
16.09072112013462
 21
7.434061755261048
 31
0.0
  0
LINE
  5
94CB
330
1F
100
AcDbEntity
  8
0
100
AcDbLine
 10
16.09072112013462
 20
7.434061755261048
 30
0.0
 11
16.14072112013463
 21
7.434061755261048
 31
0.0
  0
LINE
  5
94CC
330
1F
100
AcDbEntity
  8
0
100
AcDbLine
 10
16.14072112013463
 20
7.384061755261051
 30
0.0
 11
16.09072112013462
 21
7.384061755261061
 31
0.0
  0
LINE
  5
94CD
330
1F
100
AcDbEntity
  8
0
100
AcDbLine
 10
16.09072112013462
 20
7.384061755261061
 30
0.0
 11
16.09072112013462
 21
7.394061755261049
 31
0.0
  0
LINE
  5
94CE
330
1F
100
AcDbEntity
  8
0
100
AcDbLine
 10
13.32870433259797
 20
7.22251689244403
 30
0.0
 11
13.48206372812331
 21
7.383893380757729
 31
0.0
  0
LINE
  5
94CF
330
1F
100
AcDbEntity
  8
0
100
AcDbLine
 10
13.48206372812331
 20
7.383893380757729
 30
0.0
 11
13.94076108000464
 21
7.866569825796059
 31
0.0
  0
LINE
  5
94D0
330
1F
100
AcDbEntity
  8
0
100
AcDbLine
 10
13.32870433259797
 20
7.22251689244403
 30
0.0
 11
14.58270433259797
 21
7.22251689244403
 31
0.0
  0
LINE
  5
94D1
330
1F
100
AcDbEntity
  8
0
100
AcDbLine
 10
13.32870433259797
 20
8.542071626290994
 30
0.0
 11
13.50366909309826
 21
8.357960320091184
 31
0.0
  0
LINE
  5
94D2
330
1F
100
AcDbEntity
  8
0
100
AcDbLine
 10
13.50366909309826
 20
8.357960320091184
 30
0.0
 11
13.94076108000464
 21
7.898018692938958
 31
0.0
  0
LINE
  5
94D3
330
1F
100
AcDbEntity
  8
0
100
AcDbLine
 10
14.56683518999065
 20
8.542071626290987
 30
0.0
 11
13.32870433259797
 21
8.542071626290994
 31
0.0
  0
LINE
  5
94D4
330
1F
100
AcDbEntity
  8
0
100
AcDbLine
 10
14.58270433259797
 20
8.542071626290987
 30
0.0
 11
14.56683518999065
 21
8.542071626290987
 31
0.0
  0
LINE
  5
94D5
330
1F
100
AcDbEntity
  8
0
100
AcDbLine
 10
14.59142319647812
 20
7.22251689244403
 30
0.0
 11
14.42849872407263
 21
7.393958486401107
 31
0.0
  0
LINE
  5
94D6
330
1F
100
AcDbEntity
  8
0
100
AcDbLine
 10
14.42849872407263
 20
7.393958486401107
 30
0.0
 11
13.97927411646679
 21
7.866666985226327
 31
0.0
  0
LINE
  5
94D7
330
1F
100
AcDbEntity
  8
0
100
AcDbLine
 10
14.59142319647812
 20
8.542071626290987
 30
0.0
 11
14.4237068742592
 21
8.365587681372826
 31
0.0
  0
LINE
  5
94D8
330
1F
100
AcDbEntity
  8
0
100
AcDbLine
 10
14.4237068742592
 20
8.365587681372826
 30
0.0
 11
13.97927411646679
 21
7.897921533508689
 31
0.0
  0
LINE
  5
94D9
330
1F
100
AcDbEntity
  8
0
100
AcDbLine
 10
14.58270433259797
 20
7.22251689244403
 30
0.0
 11
14.59142319647812
 21
7.22251689244403
 31
0.0
  0
LINE
  5
94DA
330
1F
100
AcDbEntity
  8
0
100
AcDbLine
 10
14.58270433259797
 20
8.542071626290987
 30
0.0
 11
14.59142319647812
 21
8.542071626290987
 31
0.0
  0
LINE
  5
94DB
330
1F
100
AcDbEntity
  8
0
100
AcDbLine
 10
13.96354909471811
 20
7.820306899762048
 30
0.0
 11
13.9679749156704
 21
7.819940306572679
 31
0.0
  0
LINE
  5
94DC
330
1F
100
AcDbEntity
  8
0
100
AcDbLine
 10
13.9679749156704
 20
7.819940306572679
 30
0.0
 11
13.97209912423881
 21
7.818865509724606
 31
0.0
  0
LINE
  5
94DD
330
1F
100
AcDbEntity
  8
0
100
AcDbLine
 10
13.97209912423881
 20
7.818865509724606
 30
0.0
 11
13.97564066242498
 21
7.817155754846833
 31
0.0
  0
LINE
  5
94DE
330
1F
100
AcDbEntity
  8
0
100
AcDbLine
 10
13.97564066242498
 20
7.817155754846833
 30
0.0
 11
13.9783581802542
 21
7.814927558908781
 31
0.0
  0
LINE
  5
94DF
330
1F
100
AcDbEntity
  8
0
100
AcDbLine
 10
13.9783581802542
 20
7.814927558908781
 30
0.0
 11
13.98006648337728
 21
7.812332769781367
 31
0.0
  0
LINE
  5
94E0
330
1F
100
AcDbEntity
  8
0
100
AcDbLine
 10
13.98006648337728
 20
7.812332769781367
 30
0.0
 11
13.98064915375953
 21
7.809548218055521
 31
0.0
  0
LINE
  5
94E1
330
1F
100
AcDbEntity
  8
0
100
AcDbLine
 10
13.94644903567669
 20
7.809548218055521
 30
0.0
 11
13.94703170605893
 21
7.812332769781367
 31
0.0
  0
LINE
  5
94E2
330
1F
100
AcDbEntity
  8
0
100
AcDbLine
 10
13.94703170605893
 20
7.812332769781367
 30
0.0
 11
13.94874000918203
 21
7.814927558908781
 31
0.0
  0
LINE
  5
94E3
330
1F
100
AcDbEntity
  8
0
100
AcDbLine
 10
13.94874000918203
 20
7.814927558908781
 30
0.0
 11
13.95145752701123
 21
7.817155754846833
 31
0.0
  0
LINE
  5
94E4
330
1F
100
AcDbEntity
  8
0
100
AcDbLine
 10
13.95145752701123
 20
7.817155754846833
 30
0.0
 11
13.9549990651974
 21
7.818865509724606
 31
0.0
  0
LINE
  5
94E5
330
1F
100
AcDbEntity
  8
0
100
AcDbLine
 10
13.9549990651974
 20
7.818865509724606
 30
0.0
 11
13.95912327376581
 21
7.819940306572679
 31
0.0
  0
LINE
  5
94E6
330
1F
100
AcDbEntity
  8
0
100
AcDbLine
 10
13.95912327376581
 20
7.819940306572679
 30
0.0
 11
13.96354909471811
 21
7.820306899762048
 31
0.0
  0
LINE
  5
94E7
330
1F
100
AcDbEntity
  8
0
100
AcDbLine
 10
14.47131502300016
 20
7.270847292734419
 30
0.0
 11
14.47574084395246
 21
7.27048069954505
 31
0.0
  0
LINE
  5
94E8
330
1F
100
AcDbEntity
  8
0
100
AcDbLine
 10
14.47574084395246
 20
7.27048069954505
 30
0.0
 11
14.47986505252088
 21
7.269405902696977
 31
0.0
  0
LINE
  5
94E9
330
1F
100
AcDbEntity
  8
0
100
AcDbLine
 10
14.47986505252088
 20
7.269405902696977
 30
0.0
 11
14.48340659070705
 21
7.267696147819204
 31
0.0
  0
LINE
  5
94EA
330
1F
100
AcDbEntity
  8
0
100
AcDbLine
 10
14.48340659070705
 20
7.267696147819204
 30
0.0
 11
14.48612410853625
 21
7.265467951881159
 31
0.0
  0
LINE
  5
94EB
330
1F
100
AcDbEntity
  8
0
100
AcDbLine
 10
14.48612410853625
 20
7.265467951881159
 30
0.0
 11
14.48783241165934
 21
7.262873162753738
 31
0.0
  0
LINE
  5
94EC
330
1F
100
AcDbEntity
  8
0
100
AcDbLine
 10
14.48783241165934
 20
7.262873162753738
 30
0.0
 11
14.48841508204158
 21
7.260088611027896
 31
0.0
  0
LINE
  5
94ED
330
1F
100
AcDbEntity
  8
0
100
AcDbLine
 10
14.45421496395875
 20
7.260088611027896
 30
0.0
 11
14.45479763434099
 21
7.262873162753738
 31
0.0
  0
LINE
  5
94EE
330
1F
100
AcDbEntity
  8
0
100
AcDbLine
 10
14.45479763434099
 20
7.262873162753738
 30
0.0
 11
14.45650593746409
 21
7.265467951881152
 31
0.0
  0
LINE
  5
94EF
330
1F
100
AcDbEntity
  8
0
100
AcDbLine
 10
14.45650593746409
 20
7.265467951881152
 30
0.0
 11
14.45922345529329
 21
7.267696147819204
 31
0.0
  0
LINE
  5
94F0
330
1F
100
AcDbEntity
  8
0
100
AcDbLine
 10
14.45922345529329
 20
7.267696147819204
 30
0.0
 11
14.46276499347946
 21
7.269405902696977
 31
0.0
  0
LINE
  5
94F1
330
1F
100
AcDbEntity
  8
0
100
AcDbLine
 10
14.46276499347946
 20
7.269405902696977
 30
0.0
 11
14.46688920204787
 21
7.27048069954505
 31
0.0
  0
LINE
  5
94F2
330
1F
100
AcDbEntity
  8
0
100
AcDbLine
 10
14.46688920204787
 20
7.27048069954505
 30
0.0
 11
14.47131502300016
 21
7.270847292734419
 31
0.0
  0
LINE
  5
94F3
330
1F
100
AcDbEntity
  8
0
100
AcDbLine
 10
13.96354909471811
 20
7.811756870241342
 30
0.0
 11
13.9679749156704
 21
7.811390277051966
 31
0.0
  0
LINE
  5
94F4
330
1F
100
AcDbEntity
  8
0
100
AcDbLine
 10
13.9679749156704
 20
7.811390277051966
 30
0.0
 11
13.97209912423881
 21
7.810315480203893
 31
0.0
  0
LINE
  5
94F5
330
1F
100
AcDbEntity
  8
0
100
AcDbLine
 10
13.97209912423881
 20
7.810315480203893
 30
0.0
 11
13.97564066242498
 21
7.808605725326128
 31
0.0
  0
LINE
  5
94F6
330
1F
100
AcDbEntity
  8
0
100
AcDbLine
 10
13.97564066242498
 20
7.808605725326128
 30
0.0
 11
13.9783581802542
 21
7.806377529388075
 31
0.0
  0
LINE
  5
94F7
330
1F
100
AcDbEntity
  8
0
100
AcDbLine
 10
13.9783581802542
 20
7.806377529388075
 30
0.0
 11
13.98006648337728
 21
7.803782740260661
 31
0.0
  0
LINE
  5
94F8
330
1F
100
AcDbEntity
  8
0
100
AcDbLine
 10
13.98006648337728
 20
7.803782740260661
 30
0.0
 11
13.98064915375953
 21
7.800998188534816
 31
0.0
  0
LINE
  5
94F9
330
1F
100
AcDbEntity
  8
0
100
AcDbLine
 10
13.98064915375953
 20
7.800998188534816
 30
0.0
 11
13.98006648337728
 21
7.79821363680897
 31
0.0
  0
LINE
  5
94FA
330
1F
100
AcDbEntity
  8
0
100
AcDbLine
 10
13.98006648337728
 20
7.79821363680897
 30
0.0
 11
13.9783581802542
 21
7.795618847681549
 31
0.0
  0
LINE
  5
94FB
330
1F
100
AcDbEntity
  8
0
100
AcDbLine
 10
13.9783581802542
 20
7.795618847681549
 30
0.0
 11
13.97564066242498
 21
7.793390651743504
 31
0.0
  0
LINE
  5
94FC
330
1F
100
AcDbEntity
  8
0
100
AcDbLine
 10
13.97564066242498
 20
7.793390651743504
 30
0.0
 11
13.97209912423881
 21
7.791680896865731
 31
0.0
  0
LINE
  5
94FD
330
1F
100
AcDbEntity
  8
0
100
AcDbLine
 10
13.97209912423881
 20
7.791680896865731
 30
0.0
 11
13.9679749156704
 21
7.790606100017658
 31
0.0
  0
LINE
  5
94FE
330
1F
100
AcDbEntity
  8
0
100
AcDbLine
 10
13.9679749156704
 20
7.790606100017658
 30
0.0
 11
13.96354909471811
 21
7.790239506828289
 31
0.0
  0
LINE
  5
94FF
330
1F
100
AcDbEntity
  8
0
100
AcDbLine
 10
13.96354909471811
 20
7.790239506828289
 30
0.0
 11
13.95912327376581
 21
7.790606100017658
 31
0.0
  0
LINE
  5
9500
330
1F
100
AcDbEntity
  8
0
100
AcDbLine
 10
13.95912327376581
 20
7.790606100017658
 30
0.0
 11
13.9549990651974
 21
7.791680896865731
 31
0.0
  0
LINE
  5
9501
330
1F
100
AcDbEntity
  8
0
100
AcDbLine
 10
13.9549990651974
 20
7.791680896865731
 30
0.0
 11
13.95145752701123
 21
7.793390651743504
 31
0.0
  0
LINE
  5
9502
330
1F
100
AcDbEntity
  8
0
100
AcDbLine
 10
13.95145752701123
 20
7.793390651743504
 30
0.0
 11
13.94874000918203
 21
7.795618847681549
 31
0.0
  0
LINE
  5
9503
330
1F
100
AcDbEntity
  8
0
100
AcDbLine
 10
13.94874000918203
 20
7.795618847681549
 30
0.0
 11
13.94703170605893
 21
7.79821363680897
 31
0.0
  0
LINE
  5
9504
330
1F
100
AcDbEntity
  8
0
100
AcDbLine
 10
13.94703170605893
 20
7.79821363680897
 30
0.0
 11
13.94644903567669
 21
7.800998188534816
 31
0.0
  0
LINE
  5
9505
330
1F
100
AcDbEntity
  8
0
100
AcDbLine
 10
13.94644903567669
 20
7.800998188534816
 30
0.0
 11
13.94703170605893
 21
7.803782740260661
 31
0.0
  0
LINE
  5
9506
330
1F
100
AcDbEntity
  8
0
100
AcDbLine
 10
13.94703170605893
 20
7.803782740260661
 30
0.0
 11
13.94874000918203
 21
7.806377529388075
 31
0.0
  0
LINE
  5
9507
330
1F
100
AcDbEntity
  8
0
100
AcDbLine
 10
13.94874000918203
 20
7.806377529388075
 30
0.0
 11
13.95145752701123
 21
7.808605725326128
 31
0.0
  0
LINE
  5
9508
330
1F
100
AcDbEntity
  8
0
100
AcDbLine
 10
13.95145752701123
 20
7.808605725326128
 30
0.0
 11
13.9549990651974
 21
7.810315480203893
 31
0.0
  0
LINE
  5
9509
330
1F
100
AcDbEntity
  8
0
100
AcDbLine
 10
13.9549990651974
 20
7.810315480203893
 30
0.0
 11
13.95912327376581
 21
7.811390277051966
 31
0.0
  0
LINE
  5
950A
330
1F
100
AcDbEntity
  8
0
100
AcDbLine
 10
13.95912327376581
 20
7.811390277051966
 30
0.0
 11
13.96354909471811
 21
7.811756870241342
 31
0.0
  0
LINE
  5
950B
330
1F
100
AcDbEntity
  8
0
100
AcDbLine
 10
13.98064915375953
 20
7.809548218055521
 30
0.0
 11
13.98064915375953
 21
7.800998188534816
 31
0.0
  0
LINE
  5
950C
330
1F
100
AcDbEntity
  8
0
100
AcDbLine
 10
13.94644903567669
 20
7.809548218055521
 30
0.0
 11
13.94644903567669
 21
7.800998188534816
 31
0.0
  0
LINE
  5
950D
330
1F
100
AcDbEntity
  8
0
100
AcDbLine
 10
14.47131502300016
 20
7.26229726321371
 30
0.0
 11
14.47574084395246
 21
7.261930670024341
 31
0.0
  0
LINE
  5
950E
330
1F
100
AcDbEntity
  8
0
100
AcDbLine
 10
14.47574084395246
 20
7.261930670024341
 30
0.0
 11
14.47986505252088
 21
7.260855873176264
 31
0.0
  0
LINE
  5
950F
330
1F
100
AcDbEntity
  8
0
100
AcDbLine
 10
14.47986505252088
 20
7.260855873176264
 30
0.0
 11
14.48340659070705
 21
7.259146118298495
 31
0.0
  0
LINE
  5
9510
330
1F
100
AcDbEntity
  8
0
100
AcDbLine
 10
14.48340659070705
 20
7.259146118298495
 30
0.0
 11
14.48612410853625
 21
7.256917922360447
 31
0.0
  0
LINE
  5
9511
330
1F
100
AcDbEntity
  8
0
100
AcDbLine
 10
14.48612410853625
 20
7.256917922360447
 30
0.0
 11
14.48783241165934
 21
7.254323133233025
 31
0.0
  0
LINE
  5
9512
330
1F
100
AcDbEntity
  8
0
100
AcDbLine
 10
14.48783241165934
 20
7.254323133233025
 30
0.0
 11
14.48841508204158
 21
7.25153858150718
 31
0.0
  0
LINE
  5
9513
330
1F
100
AcDbEntity
  8
0
100
AcDbLine
 10
14.48841508204158
 20
7.25153858150718
 30
0.0
 11
14.48783241165934
 21
7.248754029781341
 31
0.0
  0
LINE
  5
9514
330
1F
100
AcDbEntity
  8
0
100
AcDbLine
 10
14.48783241165934
 20
7.248754029781341
 30
0.0
 11
14.48612410853625
 21
7.24615924065392
 31
0.0
  0
LINE
  5
9515
330
1F
100
AcDbEntity
  8
0
100
AcDbLine
 10
14.48612410853625
 20
7.24615924065392
 30
0.0
 11
14.48340659070705
 21
7.243931044715868
 31
0.0
  0
LINE
  5
9516
330
1F
100
AcDbEntity
  8
0
100
AcDbLine
 10
14.48340659070705
 20
7.243931044715868
 30
0.0
 11
14.47986505252088
 21
7.242221289838102
 31
0.0
  0
LINE
  5
9517
330
1F
100
AcDbEntity
  8
0
100
AcDbLine
 10
14.47986505252088
 20
7.242221289838102
 30
0.0
 11
14.47574084395246
 21
7.241146492990029
 31
0.0
  0
LINE
  5
9518
330
1F
100
AcDbEntity
  8
0
100
AcDbLine
 10
14.47574084395246
 20
7.241146492990029
 30
0.0
 11
14.47131502300016
 21
7.24077989980066
 31
0.0
  0
LINE
  5
9519
330
1F
100
AcDbEntity
  8
0
100
AcDbLine
 10
14.47131502300016
 20
7.24077989980066
 30
0.0
 11
14.46688920204787
 21
7.241146492990029
 31
0.0
  0
LINE
  5
951A
330
1F
100
AcDbEntity
  8
0
100
AcDbLine
 10
14.46688920204787
 20
7.241146492990029
 30
0.0
 11
14.46276499347946
 21
7.242221289838102
 31
0.0
  0
LINE
  5
951B
330
1F
100
AcDbEntity
  8
0
100
AcDbLine
 10
14.46276499347946
 20
7.242221289838102
 30
0.0
 11
14.45922345529329
 21
7.243931044715868
 31
0.0
  0
LINE
  5
951C
330
1F
100
AcDbEntity
  8
0
100
AcDbLine
 10
14.45922345529329
 20
7.243931044715868
 30
0.0
 11
14.45650593746409
 21
7.24615924065392
 31
0.0
  0
LINE
  5
951D
330
1F
100
AcDbEntity
  8
0
100
AcDbLine
 10
14.45650593746409
 20
7.24615924065392
 30
0.0
 11
14.45479763434099
 21
7.248754029781341
 31
0.0
  0
LINE
  5
951E
330
1F
100
AcDbEntity
  8
0
100
AcDbLine
 10
14.45479763434099
 20
7.248754029781341
 30
0.0
 11
14.45421496395875
 21
7.25153858150718
 31
0.0
  0
LINE
  5
951F
330
1F
100
AcDbEntity
  8
0
100
AcDbLine
 10
14.45421496395875
 20
7.25153858150718
 30
0.0
 11
14.45479763434099
 21
7.254323133233025
 31
0.0
  0
LINE
  5
9520
330
1F
100
AcDbEntity
  8
0
100
AcDbLine
 10
14.45479763434099
 20
7.254323133233025
 30
0.0
 11
14.45650593746409
 21
7.256917922360447
 31
0.0
  0
LINE
  5
9521
330
1F
100
AcDbEntity
  8
0
100
AcDbLine
 10
14.45650593746409
 20
7.256917922360447
 30
0.0
 11
14.45922345529329
 21
7.259146118298495
 31
0.0
  0
LINE
  5
9522
330
1F
100
AcDbEntity
  8
0
100
AcDbLine
 10
14.45922345529329
 20
7.259146118298495
 30
0.0
 11
14.46276499347946
 21
7.260855873176264
 31
0.0
  0
LINE
  5
9523
330
1F
100
AcDbEntity
  8
0
100
AcDbLine
 10
14.46276499347946
 20
7.260855873176264
 30
0.0
 11
14.46688920204787
 21
7.261930670024341
 31
0.0
  0
LINE
  5
9524
330
1F
100
AcDbEntity
  8
0
100
AcDbLine
 10
14.46688920204787
 20
7.261930670024341
 30
0.0
 11
14.47131502300016
 21
7.26229726321371
 31
0.0
  0
LINE
  5
9525
330
1F
100
AcDbEntity
  8
0
100
AcDbLine
 10
14.48841508204158
 20
7.260088611027896
 30
0.0
 11
14.48841508204158
 21
7.25153858150718
 31
0.0
  0
LINE
  5
9526
330
1F
100
AcDbEntity
  8
0
100
AcDbLine
 10
14.45421496395875
 20
7.260088611027896
 30
0.0
 11
14.45421496395875
 21
7.25153858150718
 31
0.0
  0
LINE
  5
9527
330
1F
100
AcDbEntity
  8
0
100
AcDbLine
 10
14.0382568978642
 20
7.883306673296193
 30
0.0
 11
14.03861917346574
 21
7.887819889343862
 31
0.0
  0
LINE
  5
9528
330
1F
100
AcDbEntity
  8
0
100
AcDbLine
 10
14.03861917346574
 20
7.887819889343862
 30
0.0
 11
14.03968131178679
 21
7.892025537176341
 31
0.0
  0
LINE
  5
9529
330
1F
100
AcDbEntity
  8
0
100
AcDbLine
 10
14.03968131178679
 20
7.892025537176341
 30
0.0
 11
14.04137092985604
 21
7.89563700884398
 31
0.0
  0
LINE
  5
952A
330
1F
100
AcDbEntity
  8
0
100
AcDbLine
 10
14.04137092985604
 20
7.89563700884398
 30
0.0
 11
14.04357288299431
 21
7.898408188520885
 31
0.0
  0
LINE
  5
952B
330
1F
100
AcDbEntity
  8
0
100
AcDbLine
 10
14.04357288299431
 20
7.898408188520885
 30
0.0
 11
14.04613711173411
 21
7.900150224891664
 31
0.0
  0
LINE
  5
952C
330
1F
100
AcDbEntity
  8
0
100
AcDbLine
 10
14.04613711173411
 20
7.900150224891664
 30
0.0
 11
14.04888886812442
 21
7.900744401056488
 31
0.0
  0
LINE
  5
952D
330
1F
100
AcDbEntity
  8
0
100
AcDbLine
 10
14.04888886812442
 20
7.86586894553589
 30
0.0
 11
14.04613711173411
 21
7.866463121700721
 31
0.0
  0
LINE
  5
952E
330
1F
100
AcDbEntity
  8
0
100
AcDbLine
 10
14.04613711173411
 20
7.866463121700721
 30
0.0
 11
14.04357288299431
 21
7.868205158071493
 31
0.0
  0
LINE
  5
952F
330
1F
100
AcDbEntity
  8
0
100
AcDbLine
 10
14.04357288299431
 20
7.868205158071493
 30
0.0
 11
14.04137092985604
 21
7.870976337748398
 31
0.0
  0
LINE
  5
9530
330
1F
100
AcDbEntity
  8
0
100
AcDbLine
 10
14.04137092985604
 20
7.870976337748398
 30
0.0
 11
14.03968131178679
 21
7.874587809416038
 31
0.0
  0
LINE
  5
9531
330
1F
100
AcDbEntity
  8
0
100
AcDbLine
 10
14.03968131178679
 20
7.874587809416038
 30
0.0
 11
14.03861917346574
 21
7.878793457248509
 31
0.0
  0
LINE
  5
9532
330
1F
100
AcDbEntity
  8
0
100
AcDbLine
 10
14.03861917346574
 20
7.878793457248509
 30
0.0
 11
14.0382568978642
 21
7.883306673296193
 31
0.0
  0
LINE
  5
9533
330
1F
100
AcDbEntity
  8
0
100
AcDbLine
 10
14.53888739020341
 20
7.347994736662716
 30
0.0
 11
14.53924966580495
 21
7.343481520615039
 31
0.0
  0
LINE
  5
9534
330
1F
100
AcDbEntity
  8
0
100
AcDbLine
 10
14.53924966580495
 20
7.343481520615039
 30
0.0
 11
14.540311804126
 21
7.339275872782568
 31
0.0
  0
LINE
  5
9535
330
1F
100
AcDbEntity
  8
0
100
AcDbLine
 10
14.540311804126
 20
7.339275872782568
 30
0.0
 11
14.54200142219526
 21
7.335664401114922
 31
0.0
  0
LINE
  5
9536
330
1F
100
AcDbEntity
  8
0
100
AcDbLine
 10
14.54200142219526
 20
7.335664401114922
 30
0.0
 11
14.54420337533353
 21
7.332893221438023
 31
0.0
  0
LINE
  5
9537
330
1F
100
AcDbEntity
  8
0
100
AcDbLine
 10
14.54420337533353
 20
7.332893221438023
 30
0.0
 11
14.54676760407333
 21
7.331151185067245
 31
0.0
  0
LINE
  5
9538
330
1F
100
AcDbEntity
  8
0
100
AcDbLine
 10
14.54676760407333
 20
7.331151185067245
 30
0.0
 11
14.54951936046364
 21
7.33055700890242
 31
0.0
  0
LINE
  5
9539
330
1F
100
AcDbEntity
  8
0
100
AcDbLine
 10
14.54951936046364
 20
7.365432464423019
 30
0.0
 11
14.54676760407333
 21
7.364838288258187
 31
0.0
  0
LINE
  5
953A
330
1F
100
AcDbEntity
  8
0
100
AcDbLine
 10
14.54676760407333
 20
7.364838288258187
 30
0.0
 11
14.54420337533353
 21
7.363096251887416
 31
0.0
  0
LINE
  5
953B
330
1F
100
AcDbEntity
  8
0
100
AcDbLine
 10
14.54420337533353
 20
7.363096251887416
 30
0.0
 11
14.54200142219526
 21
7.36032507221051
 31
0.0
  0
LINE
  5
953C
330
1F
100
AcDbEntity
  8
0
100
AcDbLine
 10
14.54200142219526
 20
7.36032507221051
 30
0.0
 11
14.540311804126
 21
7.356713600542871
 31
0.0
  0
LINE
  5
953D
330
1F
100
AcDbEntity
  8
0
100
AcDbLine
 10
14.540311804126
 20
7.356713600542871
 30
0.0
 11
14.53924966580495
 21
7.3525079527104
 31
0.0
  0
LINE
  5
953E
330
1F
100
AcDbEntity
  8
0
100
AcDbLine
 10
14.53924966580495
 20
7.3525079527104
 30
0.0
 11
14.53888739020341
 21
7.347994736662716
 31
0.0
  0
LINE
  5
953F
330
1F
100
AcDbEntity
  8
0
100
AcDbLine
 10
14.54114016810232
 20
8.403514992572606
 30
0.0
 11
14.54150244370385
 21
8.399001776524922
 31
0.0
  0
LINE
  5
9540
330
1F
100
AcDbEntity
  8
0
100
AcDbLine
 10
14.54150244370385
 20
8.399001776524922
 30
0.0
 11
14.5425645820249
 21
8.394796128692451
 31
0.0
  0
LINE
  5
9541
330
1F
100
AcDbEntity
  8
0
100
AcDbLine
 10
14.5425645820249
 20
8.394796128692451
 30
0.0
 11
14.54425420009416
 21
8.391184657024812
 31
0.0
  0
LINE
  5
9542
330
1F
100
AcDbEntity
  8
0
100
AcDbLine
 10
14.54425420009416
 20
8.391184657024812
 30
0.0
 11
14.54645615323243
 21
8.388413477347906
 31
0.0
  0
LINE
  5
9543
330
1F
100
AcDbEntity
  8
0
100
AcDbLine
 10
14.54645615323243
 20
8.388413477347906
 30
0.0
 11
14.54902038197223
 21
8.386671440977128
 31
0.0
  0
LINE
  5
9544
330
1F
100
AcDbEntity
  8
0
100
AcDbLine
 10
14.54902038197223
 20
8.386671440977128
 30
0.0
 11
14.55177213836254
 21
8.386077264812303
 31
0.0
  0
LINE
  5
9545
330
1F
100
AcDbEntity
  8
0
100
AcDbLine
 10
14.55177213836254
 20
8.420952720332902
 30
0.0
 11
14.54902038197223
 21
8.420358544168077
 31
0.0
  0
LINE
  5
9546
330
1F
100
AcDbEntity
  8
0
100
AcDbLine
 10
14.54902038197223
 20
8.420358544168077
 30
0.0
 11
14.54645615323243
 21
8.418616507797299
 31
0.0
  0
LINE
  5
9547
330
1F
100
AcDbEntity
  8
0
100
AcDbLine
 10
14.54645615323243
 20
8.418616507797299
 30
0.0
 11
14.54425420009416
 21
8.415845328120393
 31
0.0
  0
LINE
  5
9548
330
1F
100
AcDbEntity
  8
0
100
AcDbLine
 10
14.54425420009416
 20
8.415845328120393
 30
0.0
 11
14.5425645820249
 21
8.412233856452754
 31
0.0
  0
LINE
  5
9549
330
1F
100
AcDbEntity
  8
0
100
AcDbLine
 10
14.5425645820249
 20
8.412233856452754
 30
0.0
 11
14.54150244370385
 21
8.408028208620283
 31
0.0
  0
LINE
  5
954A
330
1F
100
AcDbEntity
  8
0
100
AcDbLine
 10
14.54150244370385
 20
8.408028208620283
 30
0.0
 11
14.54114016810232
 21
8.403514992572606
 31
0.0
  0
LINE
  5
954B
330
1F
100
AcDbEntity
  8
0
100
AcDbLine
 10
14.4365885008322
 20
8.478165274761931
 30
0.0
 11
14.4321626798799
 21
8.4785318679513
 31
0.0
  0
LINE
  5
954C
330
1F
100
AcDbEntity
  8
0
100
AcDbLine
 10
14.4321626798799
 20
8.4785318679513
 30
0.0
 11
14.42803847131149
 21
8.479606664799373
 31
0.0
  0
LINE
  5
954D
330
1F
100
AcDbEntity
  8
0
100
AcDbLine
 10
14.42803847131149
 20
8.479606664799373
 30
0.0
 11
14.42449693312532
 21
8.481316419677146
 31
0.0
  0
LINE
  5
954E
330
1F
100
AcDbEntity
  8
0
100
AcDbLine
 10
14.42449693312532
 20
8.481316419677146
 30
0.0
 11
14.42177941529611
 21
8.483544615615191
 31
0.0
  0
LINE
  5
954F
330
1F
100
AcDbEntity
  8
0
100
AcDbLine
 10
14.42177941529611
 20
8.483544615615191
 30
0.0
 11
14.42007111217303
 21
8.486139404742612
 31
0.0
  0
LINE
  5
9550
330
1F
100
AcDbEntity
  8
0
100
AcDbLine
 10
14.42007111217303
 20
8.486139404742612
 30
0.0
 11
14.41948844179078
 21
8.488923956468457
 31
0.0
  0
LINE
  5
9551
330
1F
100
AcDbEntity
  8
0
100
AcDbLine
 10
14.45368855987361
 20
8.488923956468457
 30
0.0
 11
14.45310588949137
 21
8.486139404742612
 31
0.0
  0
LINE
  5
9552
330
1F
100
AcDbEntity
  8
0
100
AcDbLine
 10
14.45310588949137
 20
8.486139404742612
 30
0.0
 11
14.45139758636828
 21
8.483544615615191
 31
0.0
  0
LINE
  5
9553
330
1F
100
AcDbEntity
  8
0
100
AcDbLine
 10
14.45139758636828
 20
8.483544615615191
 30
0.0
 11
14.44868006853907
 21
8.481316419677146
 31
0.0
  0
LINE
  5
9554
330
1F
100
AcDbEntity
  8
0
100
AcDbLine
 10
14.44868006853907
 20
8.481316419677146
 30
0.0
 11
14.44513853035291
 21
8.479606664799373
 31
0.0
  0
LINE
  5
9555
330
1F
100
AcDbEntity
  8
0
100
AcDbLine
 10
14.44513853035291
 20
8.479606664799373
 30
0.0
 11
14.44101432178449
 21
8.4785318679513
 31
0.0
  0
LINE
  5
9556
330
1F
100
AcDbEntity
  8
0
100
AcDbLine
 10
14.44101432178449
 20
8.4785318679513
 30
0.0
 11
14.4365885008322
 21
8.478165274761931
 31
0.0
  0
LINE
  5
9557
330
1F
100
AcDbEntity
  8
0
100
AcDbLine
 10
13.88584458685182
 20
7.866695372385226
 30
0.0
 11
13.88924910152187
 21
7.868038787056637
 31
0.0
  0
LINE
  5
9558
330
1F
100
AcDbEntity
  8
0
100
AcDbLine
 10
13.88924910152187
 20
7.868038787056637
 30
0.0
 11
13.892325612942
 21
7.870781624743823
 31
0.0
  0
LINE
  5
9559
330
1F
100
AcDbEntity
  8
0
100
AcDbLine
 10
13.892325612942
 20
7.870781624743823
 30
0.0
 11
13.8948644619431
 21
7.874736965591157
 31
0.0
  0
LINE
  5
955A
330
1F
100
AcDbEntity
  8
0
100
AcDbLine
 10
13.8948644619431
 20
7.874736965591157
 30
0.0
 11
13.8966926301614
 21
7.879635259656414
 31
0.0
  0
LINE
  5
955B
330
1F
100
AcDbEntity
  8
0
100
AcDbLine
 10
13.8966926301614
 20
7.879635259656414
 30
0.0
 11
13.897685530954
 21
7.885142696293851
 31
0.0
  0
LINE
  5
955C
330
1F
100
AcDbEntity
  8
0
100
AcDbLine
 10
13.897685530954
 20
7.885142696293851
 30
0.0
 11
13.89777549977274
 21
7.890883952798095
 31
0.0
  0
LINE
  5
955D
330
1F
100
AcDbEntity
  8
0
100
AcDbLine
 10
13.89777549977274
 20
7.890883952798095
 30
0.0
 11
13.8969564053913
 21
7.896467772026259
 31
0.0
  0
LINE
  5
955E
330
1F
100
AcDbEntity
  8
0
100
AcDbLine
 10
13.8969564053913
 20
7.896467772026259
 30
0.0
 11
13.89528406773816
 21
7.901513625925641
 31
0.0
  0
LINE
  5
955F
330
1F
100
AcDbEntity
  8
0
100
AcDbLine
 10
13.89528406773816
 20
7.901513625925641
 30
0.0
 11
13.89287245386071
 21
7.905677647891668
 31
0.0
  0
LINE
  5
9560
330
1F
100
AcDbEntity
  8
0
100
AcDbLine
 10
13.89287245386071
 20
7.905677647891668
 30
0.0
 11
13.88988591125931
 21
7.908676066708732
 31
0.0
  0
LINE
  5
9561
330
1F
100
AcDbEntity
  8
0
100
AcDbLine
 10
13.88988591125931
 20
7.908676066708732
 30
0.0
 11
13.88652796787677
 21
7.910304545089555
 31
0.0
  0
LINE
  5
9562
330
1F
100
AcDbEntity
  8
0
100
AcDbLine
 10
13.88652796787677
 20
7.910304545089555
 30
0.0
 11
13.88302746200533
 21
7.910452104923688
 31
0.0
  0
LINE
  5
9563
330
1F
100
AcDbEntity
  8
0
100
AcDbLine
 10
13.862467654023
 20
7.892004781015064
 30
0.0
 11
13.86237768520426
 21
7.88626352451082
 31
0.0
  0
LINE
  5
9564
330
1F
100
AcDbEntity
  8
0
100
AcDbLine
 10
13.86237768520426
 20
7.88626352451082
 30
0.0
 11
13.8631967795857
 21
7.880679705282656
 31
0.0
  0
LINE
  5
9565
330
1F
100
AcDbEntity
  8
0
100
AcDbLine
 10
13.8631967795857
 20
7.880679705282656
 30
0.0
 11
13.86486911723884
 21
7.875633851383273
 31
0.0
  0
LINE
  5
9566
330
1F
100
AcDbEntity
  8
0
100
AcDbLine
 10
13.86486911723884
 20
7.875633851383273
 30
0.0
 11
13.86728073111629
 21
7.871469829417247
 31
0.0
  0
LINE
  5
9567
330
1F
100
AcDbEntity
  8
0
100
AcDbLine
 10
13.86728073111629
 20
7.871469829417247
 30
0.0
 11
13.87026727371768
 21
7.868471410600189
 31
0.0
  0
LINE
  5
9568
330
1F
100
AcDbEntity
  8
0
100
AcDbLine
 10
13.87026727371768
 20
7.868471410600189
 30
0.0
 11
13.87362521710022
 21
7.866842932219359
 31
0.0
  0
LINE
  5
9569
330
1F
100
AcDbEntity
  8
0
100
AcDbLine
 10
13.87362521710022
 20
7.866842932219359
 30
0.0
 11
13.87712572297166
 21
7.866695372385226
 31
0.0
  0
LINE
  5
956A
330
1F
100
AcDbEntity
  8
0
100
AcDbLine
 10
13.87712572297166
 20
7.866695372385226
 30
0.0
 11
13.88053023764172
 21
7.868038787056637
 31
0.0
  0
LINE
  5
956B
330
1F
100
AcDbEntity
  8
0
100
AcDbLine
 10
13.88053023764172
 20
7.868038787056637
 30
0.0
 11
13.88360674906185
 21
7.870781624743823
 31
0.0
  0
LINE
  5
956C
330
1F
100
AcDbEntity
  8
0
100
AcDbLine
 10
13.88360674906185
 20
7.870781624743823
 30
0.0
 11
13.88614559806295
 21
7.874736965591157
 31
0.0
  0
LINE
  5
956D
330
1F
100
AcDbEntity
  8
0
100
AcDbLine
 10
13.88614559806295
 20
7.874736965591157
 30
0.0
 11
13.88797376628125
 21
7.879635259656414
 31
0.0
  0
LINE
  5
956E
330
1F
100
AcDbEntity
  8
0
100
AcDbLine
 10
13.88797376628125
 20
7.879635259656414
 30
0.0
 11
13.88896666707384
 21
7.885142696293851
 31
0.0
  0
LINE
  5
956F
330
1F
100
AcDbEntity
  8
0
100
AcDbLine
 10
13.88896666707384
 20
7.885142696293851
 30
0.0
 11
13.88905663589258
 21
7.890883952798095
 31
0.0
  0
LINE
  5
9570
330
1F
100
AcDbEntity
  8
0
100
AcDbLine
 10
13.88905663589258
 20
7.890883952798095
 30
0.0
 11
13.88823754151115
 21
7.896467772026259
 31
0.0
  0
LINE
  5
9571
330
1F
100
AcDbEntity
  8
0
100
AcDbLine
 10
13.88823754151115
 20
7.896467772026259
 30
0.0
 11
13.886565203858
 21
7.901513625925641
 31
0.0
  0
LINE
  5
9572
330
1F
100
AcDbEntity
  8
0
100
AcDbLine
 10
13.886565203858
 20
7.901513625925641
 30
0.0
 11
13.88415358998055
 21
7.905677647891668
 31
0.0
  0
LINE
  5
9573
330
1F
100
AcDbEntity
  8
0
100
AcDbLine
 10
13.88415358998055
 20
7.905677647891668
 30
0.0
 11
13.88116704737916
 21
7.908676066708732
 31
0.0
  0
LINE
  5
9574
330
1F
100
AcDbEntity
  8
0
100
AcDbLine
 10
13.88116704737916
 20
7.908676066708732
 30
0.0
 11
13.87780910399662
 21
7.910304545089555
 31
0.0
  0
LINE
  5
9575
330
1F
100
AcDbEntity
  8
0
100
AcDbLine
 10
13.87780910399662
 20
7.910304545089555
 30
0.0
 11
13.87430859812518
 21
7.910452104923688
 31
0.0
  0
LINE
  5
9576
330
1F
100
AcDbEntity
  8
0
100
AcDbLine
 10
13.87430859812518
 20
7.910452104923688
 30
0.0
 11
13.87090408345513
 21
7.909108690252285
 31
0.0
  0
LINE
  5
9577
330
1F
100
AcDbEntity
  8
0
100
AcDbLine
 10
13.87090408345513
 20
7.909108690252285
 30
0.0
 11
13.867827572035
 21
7.906365852565091
 31
0.0
  0
LINE
  5
9578
330
1F
100
AcDbEntity
  8
0
100
AcDbLine
 10
13.867827572035
 20
7.906365852565091
 30
0.0
 11
13.8652887230339
 21
7.902410511717757
 31
0.0
  0
LINE
  5
9579
330
1F
100
AcDbEntity
  8
0
100
AcDbLine
 10
13.8652887230339
 20
7.902410511717757
 30
0.0
 11
13.8634605548156
 21
7.897512217652501
 31
0.0
  0
LINE
  5
957A
330
1F
100
AcDbEntity
  8
0
100
AcDbLine
 10
13.8634605548156
 20
7.897512217652501
 30
0.0
 11
13.862467654023
 21
7.892004781015064
 31
0.0
  0
LINE
  5
957B
330
1F
100
AcDbEntity
  8
0
100
AcDbLine
 10
13.88584458685182
 20
7.866695372385226
 30
0.0
 11
13.87712572297166
 21
7.866695372385226
 31
0.0
  0
LINE
  5
957C
330
1F
100
AcDbEntity
  8
0
100
AcDbLine
 10
13.88302746200533
 20
7.910452104923688
 30
0.0
 11
13.87430859812518
 21
7.910452104923688
 31
0.0
  0
LINE
  5
957D
330
1F
100
AcDbEntity
  8
0
100
AcDbLine
 10
14.4365885008322
 20
8.486715304282636
 30
0.0
 11
14.4321626798799
 21
8.487081897472013
 31
0.0
  0
LINE
  5
957E
330
1F
100
AcDbEntity
  8
0
100
AcDbLine
 10
14.4321626798799
 20
8.487081897472013
 30
0.0
 11
14.42803847131149
 21
8.488156694320085
 31
0.0
  0
LINE
  5
957F
330
1F
100
AcDbEntity
  8
0
100
AcDbLine
 10
14.42803847131149
 20
8.488156694320085
 30
0.0
 11
14.42449693312532
 21
8.489866449197851
 31
0.0
  0
LINE
  5
9580
330
1F
100
AcDbEntity
  8
0
100
AcDbLine
 10
14.42449693312532
 20
8.489866449197851
 30
0.0
 11
14.42177941529611
 21
8.492094645135903
 31
0.0
  0
LINE
  5
9581
330
1F
100
AcDbEntity
  8
0
100
AcDbLine
 10
14.42177941529611
 20
8.492094645135903
 30
0.0
 11
14.42007111217303
 21
8.494689434263325
 31
0.0
  0
LINE
  5
9582
330
1F
100
AcDbEntity
  8
0
100
AcDbLine
 10
14.42007111217303
 20
8.494689434263325
 30
0.0
 11
14.41948844179078
 21
8.497473985989163
 31
0.0
  0
LINE
  5
9583
330
1F
100
AcDbEntity
  8
0
100
AcDbLine
 10
14.41948844179078
 20
8.497473985989163
 30
0.0
 11
14.42007111217303
 21
8.500258537715009
 31
0.0
  0
LINE
  5
9584
330
1F
100
AcDbEntity
  8
0
100
AcDbLine
 10
14.42007111217303
 20
8.500258537715009
 30
0.0
 11
14.42177941529611
 21
8.50285332684243
 31
0.0
  0
LINE
  5
9585
330
1F
100
AcDbEntity
  8
0
100
AcDbLine
 10
14.42177941529611
 20
8.50285332684243
 30
0.0
 11
14.42449693312532
 21
8.505081522780475
 31
0.0
  0
LINE
  5
9586
330
1F
100
AcDbEntity
  8
0
100
AcDbLine
 10
14.42449693312532
 20
8.505081522780475
 30
0.0
 11
14.42803847131149
 21
8.506791277658248
 31
0.0
  0
LINE
  5
9587
330
1F
100
AcDbEntity
  8
0
100
AcDbLine
 10
14.42803847131149
 20
8.506791277658248
 30
0.0
 11
14.4321626798799
 21
8.507866074506321
 31
0.0
  0
LINE
  5
9588
330
1F
100
AcDbEntity
  8
0
100
AcDbLine
 10
14.4321626798799
 20
8.507866074506321
 30
0.0
 11
14.4365885008322
 21
8.50823266769569
 31
0.0
  0
LINE
  5
9589
330
1F
100
AcDbEntity
  8
0
100
AcDbLine
 10
14.4365885008322
 20
8.50823266769569
 30
0.0
 11
14.44101432178449
 21
8.507866074506321
 31
0.0
  0
LINE
  5
958A
330
1F
100
AcDbEntity
  8
0
100
AcDbLine
 10
14.44101432178449
 20
8.507866074506321
 30
0.0
 11
14.44513853035291
 21
8.506791277658248
 31
0.0
  0
LINE
  5
958B
330
1F
100
AcDbEntity
  8
0
100
AcDbLine
 10
14.44513853035291
 20
8.506791277658248
 30
0.0
 11
14.44868006853907
 21
8.505081522780475
 31
0.0
  0
LINE
  5
958C
330
1F
100
AcDbEntity
  8
0
100
AcDbLine
 10
14.44868006853907
 20
8.505081522780475
 30
0.0
 11
14.45139758636828
 21
8.50285332684243
 31
0.0
  0
LINE
  5
958D
330
1F
100
AcDbEntity
  8
0
100
AcDbLine
 10
14.45139758636828
 20
8.50285332684243
 30
0.0
 11
14.45310588949137
 21
8.500258537715009
 31
0.0
  0
LINE
  5
958E
330
1F
100
AcDbEntity
  8
0
100
AcDbLine
 10
14.45310588949137
 20
8.500258537715009
 30
0.0
 11
14.45368855987361
 21
8.497473985989163
 31
0.0
  0
LINE
  5
958F
330
1F
100
AcDbEntity
  8
0
100
AcDbLine
 10
14.45368855987361
 20
8.497473985989163
 30
0.0
 11
14.45310588949137
 21
8.494689434263325
 31
0.0
  0
LINE
  5
9590
330
1F
100
AcDbEntity
  8
0
100
AcDbLine
 10
14.45310588949137
 20
8.494689434263325
 30
0.0
 11
14.45139758636828
 21
8.492094645135903
 31
0.0
  0
LINE
  5
9591
330
1F
100
AcDbEntity
  8
0
100
AcDbLine
 10
14.45139758636828
 20
8.492094645135903
 30
0.0
 11
14.44868006853907
 21
8.489866449197851
 31
0.0
  0
LINE
  5
9592
330
1F
100
AcDbEntity
  8
0
100
AcDbLine
 10
14.44868006853907
 20
8.489866449197851
 30
0.0
 11
14.44513853035291
 21
8.488156694320085
 31
0.0
  0
LINE
  5
9593
330
1F
100
AcDbEntity
  8
0
100
AcDbLine
 10
14.44513853035291
 20
8.488156694320085
 30
0.0
 11
14.44101432178449
 21
8.487081897472013
 31
0.0
  0
LINE
  5
9594
330
1F
100
AcDbEntity
  8
0
100
AcDbLine
 10
14.44101432178449
 20
8.487081897472013
 30
0.0
 11
14.4365885008322
 21
8.486715304282636
 31
0.0
  0
LINE
  5
9595
330
1F
100
AcDbEntity
  8
0
100
AcDbLine
 10
14.41948844179078
 20
8.488923956468457
 30
0.0
 11
14.41948844179078
 21
8.497473985989163
 31
0.0
  0
LINE
  5
9596
330
1F
100
AcDbEntity
  8
0
100
AcDbLine
 10
14.45368855987361
 20
8.488923956468457
 30
0.0
 11
14.45368855987361
 21
8.497473985989163
 31
0.0
  0
LINE
  5
9597
330
1F
100
AcDbEntity
  8
0
100
AcDbLine
 10
14.54985903198247
 20
8.403514992572606
 30
0.0
 11
14.55022130758401
 21
8.399001776524922
 31
0.0
  0
LINE
  5
9598
330
1F
100
AcDbEntity
  8
0
100
AcDbLine
 10
14.55022130758401
 20
8.408028208620283
 30
0.0
 11
14.54985903198247
 21
8.403514992572606
 31
0.0
  0
LINE
  5
9599
330
1F
100
AcDbEntity
  8
0
100
AcDbLine
 10
14.55128344590505
 20
8.412233856452754
 30
0.0
 11
14.55022130758401
 21
8.408028208620283
 31
0.0
  0
LINE
  5
959A
330
1F
100
AcDbEntity
  8
0
100
AcDbLine
 10
14.55297306397431
 20
8.415845328120393
 30
0.0
 11
14.55128344590505
 21
8.412233856452754
 31
0.0
  0
LINE
  5
959B
330
1F
100
AcDbEntity
  8
0
100
AcDbLine
 10
14.55517501711258
 20
8.418616507797299
 30
0.0
 11
14.55297306397431
 21
8.415845328120393
 31
0.0
  0
LINE
  5
959C
330
1F
100
AcDbEntity
  8
0
100
AcDbLine
 10
14.55773924585238
 20
8.420358544168077
 30
0.0
 11
14.55517501711258
 21
8.418616507797299
 31
0.0
  0
LINE
  5
959D
330
1F
100
AcDbEntity
  8
0
100
AcDbLine
 10
14.56049100224269
 20
8.420952720332902
 30
0.0
 11
14.55773924585238
 21
8.420358544168077
 31
0.0
  0
LINE
  5
959E
330
1F
100
AcDbEntity
  8
0
100
AcDbLine
 10
14.563242758633
 20
8.420358544168077
 30
0.0
 11
14.56049100224269
 21
8.420952720332902
 31
0.0
  0
LINE
  5
959F
330
1F
100
AcDbEntity
  8
0
100
AcDbLine
 10
14.5658069873728
 20
8.418616507797299
 30
0.0
 11
14.563242758633
 21
8.420358544168077
 31
0.0
  0
LINE
  5
95A0
330
1F
100
AcDbEntity
  8
0
100
AcDbLine
 10
14.56800894051107
 20
8.415845328120393
 30
0.0
 11
14.5658069873728
 21
8.418616507797299
 31
0.0
  0
LINE
  5
95A1
330
1F
100
AcDbEntity
  8
0
100
AcDbLine
 10
14.56969855858033
 20
8.412233856452754
 30
0.0
 11
14.56800894051107
 21
8.415845328120393
 31
0.0
  0
LINE
  5
95A2
330
1F
100
AcDbEntity
  8
0
100
AcDbLine
 10
14.57076069690138
 20
8.408028208620283
 30
0.0
 11
14.56969855858033
 21
8.412233856452754
 31
0.0
  0
LINE
  5
95A3
330
1F
100
AcDbEntity
  8
0
100
AcDbLine
 10
14.57112297250291
 20
8.403514992572606
 30
0.0
 11
14.57076069690138
 21
8.408028208620283
 31
0.0
  0
LINE
  5
95A4
330
1F
100
AcDbEntity
  8
0
100
AcDbLine
 10
14.57076069690138
 20
8.399001776524922
 30
0.0
 11
14.57112297250291
 21
8.403514992572606
 31
0.0
  0
LINE
  5
95A5
330
1F
100
AcDbEntity
  8
0
100
AcDbLine
 10
14.56969855858033
 20
8.394796128692451
 30
0.0
 11
14.57076069690138
 21
8.399001776524922
 31
0.0
  0
LINE
  5
95A6
330
1F
100
AcDbEntity
  8
0
100
AcDbLine
 10
14.56800894051107
 20
8.391184657024812
 30
0.0
 11
14.56969855858033
 21
8.394796128692451
 31
0.0
  0
LINE
  5
95A7
330
1F
100
AcDbEntity
  8
0
100
AcDbLine
 10
14.5658069873728
 20
8.388413477347906
 30
0.0
 11
14.56800894051107
 21
8.391184657024812
 31
0.0
  0
LINE
  5
95A8
330
1F
100
AcDbEntity
  8
0
100
AcDbLine
 10
14.563242758633
 20
8.386671440977128
 30
0.0
 11
14.5658069873728
 21
8.388413477347906
 31
0.0
  0
LINE
  5
95A9
330
1F
100
AcDbEntity
  8
0
100
AcDbLine
 10
14.56049100224269
 20
8.386077264812303
 30
0.0
 11
14.563242758633
 21
8.386671440977128
 31
0.0
  0
LINE
  5
95AA
330
1F
100
AcDbEntity
  8
0
100
AcDbLine
 10
14.55773924585238
 20
8.386671440977128
 30
0.0
 11
14.56049100224269
 21
8.386077264812303
 31
0.0
  0
LINE
  5
95AB
330
1F
100
AcDbEntity
  8
0
100
AcDbLine
 10
14.55517501711258
 20
8.388413477347906
 30
0.0
 11
14.55773924585238
 21
8.386671440977128
 31
0.0
  0
LINE
  5
95AC
330
1F
100
AcDbEntity
  8
0
100
AcDbLine
 10
14.55297306397431
 20
8.391184657024812
 30
0.0
 11
14.55517501711258
 21
8.388413477347906
 31
0.0
  0
LINE
  5
95AD
330
1F
100
AcDbEntity
  8
0
100
AcDbLine
 10
14.55128344590505
 20
8.394796128692451
 30
0.0
 11
14.55297306397431
 21
8.391184657024812
 31
0.0
  0
LINE
  5
95AE
330
1F
100
AcDbEntity
  8
0
100
AcDbLine
 10
14.55022130758401
 20
8.399001776524922
 30
0.0
 11
14.55128344590505
 21
8.394796128692451
 31
0.0
  0
LINE
  5
95AF
330
1F
100
AcDbEntity
  8
0
100
AcDbLine
 10
14.55177213836254
 20
8.420952720332902
 30
0.0
 11
14.56049100224269
 21
8.420952720332902
 31
0.0
  0
LINE
  5
95B0
330
1F
100
AcDbEntity
  8
0
100
AcDbLine
 10
14.55177213836254
 20
8.386077264812303
 30
0.0
 11
14.56049100224269
 21
8.386077264812303
 31
0.0
  0
LINE
  5
95B1
330
1F
100
AcDbEntity
  8
0
100
AcDbLine
 10
14.54760625408357
 20
7.347994736662716
 30
0.0
 11
14.5479685296851
 21
7.343481520615039
 31
0.0
  0
LINE
  5
95B2
330
1F
100
AcDbEntity
  8
0
100
AcDbLine
 10
14.5479685296851
 20
7.3525079527104
 30
0.0
 11
14.54760625408357
 21
7.347994736662716
 31
0.0
  0
LINE
  5
95B3
330
1F
100
AcDbEntity
  8
0
100
AcDbLine
 10
14.54903066800615
 20
7.356713600542871
 30
0.0
 11
14.5479685296851
 21
7.3525079527104
 31
0.0
  0
LINE
  5
95B4
330
1F
100
AcDbEntity
  8
0
100
AcDbLine
 10
14.55072028607541
 20
7.36032507221051
 30
0.0
 11
14.54903066800615
 21
7.356713600542871
 31
0.0
  0
LINE
  5
95B5
330
1F
100
AcDbEntity
  8
0
100
AcDbLine
 10
14.55292223921368
 20
7.363096251887416
 30
0.0
 11
14.55072028607541
 21
7.36032507221051
 31
0.0
  0
LINE
  5
95B6
330
1F
100
AcDbEntity
  8
0
100
AcDbLine
 10
14.55548646795348
 20
7.364838288258187
 30
0.0
 11
14.55292223921368
 21
7.363096251887416
 31
0.0
  0
LINE
  5
95B7
330
1F
100
AcDbEntity
  8
0
100
AcDbLine
 10
14.55823822434379
 20
7.365432464423019
 30
0.0
 11
14.55548646795348
 21
7.364838288258187
 31
0.0
  0
LINE
  5
95B8
330
1F
100
AcDbEntity
  8
0
100
AcDbLine
 10
14.5609899807341
 20
7.364838288258187
 30
0.0
 11
14.55823822434379
 21
7.365432464423019
 31
0.0
  0
LINE
  5
95B9
330
1F
100
AcDbEntity
  8
0
100
AcDbLine
 10
14.5635542094739
 20
7.363096251887416
 30
0.0
 11
14.5609899807341
 21
7.364838288258187
 31
0.0
  0
LINE
  5
95BA
330
1F
100
AcDbEntity
  8
0
100
AcDbLine
 10
14.56575616261217
 20
7.36032507221051
 30
0.0
 11
14.5635542094739
 21
7.363096251887416
 31
0.0
  0
LINE
  5
95BB
330
1F
100
AcDbEntity
  8
0
100
AcDbLine
 10
14.56744578068142
 20
7.356713600542871
 30
0.0
 11
14.56575616261217
 21
7.36032507221051
 31
0.0
  0
LINE
  5
95BC
330
1F
100
AcDbEntity
  8
0
100
AcDbLine
 10
14.56850791900247
 20
7.3525079527104
 30
0.0
 11
14.56744578068142
 21
7.356713600542871
 31
0.0
  0
LINE
  5
95BD
330
1F
100
AcDbEntity
  8
0
100
AcDbLine
 10
14.56887019460401
 20
7.347994736662716
 30
0.0
 11
14.56850791900247
 21
7.3525079527104
 31
0.0
  0
LINE
  5
95BE
330
1F
100
AcDbEntity
  8
0
100
AcDbLine
 10
14.56850791900247
 20
7.343481520615039
 30
0.0
 11
14.56887019460401
 21
7.347994736662716
 31
0.0
  0
LINE
  5
95BF
330
1F
100
AcDbEntity
  8
0
100
AcDbLine
 10
14.56744578068142
 20
7.339275872782568
 30
0.0
 11
14.56850791900247
 21
7.343481520615039
 31
0.0
  0
LINE
  5
95C0
330
1F
100
AcDbEntity
  8
0
100
AcDbLine
 10
14.56575616261217
 20
7.335664401114922
 30
0.0
 11
14.56744578068142
 21
7.339275872782568
 31
0.0
  0
LINE
  5
95C1
330
1F
100
AcDbEntity
  8
0
100
AcDbLine
 10
14.5635542094739
 20
7.332893221438023
 30
0.0
 11
14.56575616261217
 21
7.335664401114922
 31
0.0
  0
LINE
  5
95C2
330
1F
100
AcDbEntity
  8
0
100
AcDbLine
 10
14.5609899807341
 20
7.331151185067245
 30
0.0
 11
14.5635542094739
 21
7.332893221438023
 31
0.0
  0
LINE
  5
95C3
330
1F
100
AcDbEntity
  8
0
100
AcDbLine
 10
14.55823822434379
 20
7.33055700890242
 30
0.0
 11
14.5609899807341
 21
7.331151185067245
 31
0.0
  0
LINE
  5
95C4
330
1F
100
AcDbEntity
  8
0
100
AcDbLine
 10
14.55548646795348
 20
7.331151185067245
 30
0.0
 11
14.55823822434379
 21
7.33055700890242
 31
0.0
  0
LINE
  5
95C5
330
1F
100
AcDbEntity
  8
0
100
AcDbLine
 10
14.55292223921368
 20
7.332893221438023
 30
0.0
 11
14.55548646795348
 21
7.331151185067245
 31
0.0
  0
LINE
  5
95C6
330
1F
100
AcDbEntity
  8
0
100
AcDbLine
 10
14.55072028607541
 20
7.335664401114922
 30
0.0
 11
14.55292223921368
 21
7.332893221438023
 31
0.0
  0
LINE
  5
95C7
330
1F
100
AcDbEntity
  8
0
100
AcDbLine
 10
14.54903066800615
 20
7.339275872782568
 30
0.0
 11
14.55072028607541
 21
7.335664401114922
 31
0.0
  0
LINE
  5
95C8
330
1F
100
AcDbEntity
  8
0
100
AcDbLine
 10
14.5479685296851
 20
7.343481520615039
 30
0.0
 11
14.54903066800615
 21
7.339275872782568
 31
0.0
  0
LINE
  5
95C9
330
1F
100
AcDbEntity
  8
0
100
AcDbLine
 10
14.54951936046364
 20
7.365432464423019
 30
0.0
 11
14.55823822434379
 21
7.365432464423019
 31
0.0
  0
LINE
  5
95CA
330
1F
100
AcDbEntity
  8
0
100
AcDbLine
 10
14.54951936046364
 20
7.33055700890242
 30
0.0
 11
14.55823822434379
 21
7.33055700890242
 31
0.0
  0
LINE
  5
95CB
330
1F
100
AcDbEntity
  8
0
100
AcDbLine
 10
14.04697576174435
 20
7.883306673296193
 30
0.0
 11
14.04733803734589
 21
7.887819889343862
 31
0.0
  0
LINE
  5
95CC
330
1F
100
AcDbEntity
  8
0
100
AcDbLine
 10
14.04733803734589
 20
7.887819889343862
 30
0.0
 11
14.04840017566694
 21
7.892025537176341
 31
0.0
  0
LINE
  5
95CD
330
1F
100
AcDbEntity
  8
0
100
AcDbLine
 10
14.04840017566694
 20
7.892025537176341
 30
0.0
 11
14.0500897937362
 21
7.89563700884398
 31
0.0
  0
LINE
  5
95CE
330
1F
100
AcDbEntity
  8
0
100
AcDbLine
 10
14.0500897937362
 20
7.89563700884398
 30
0.0
 11
14.05229174687446
 21
7.898408188520885
 31
0.0
  0
LINE
  5
95CF
330
1F
100
AcDbEntity
  8
0
100
AcDbLine
 10
14.05229174687446
 20
7.898408188520885
 30
0.0
 11
14.05485597561426
 21
7.900150224891664
 31
0.0
  0
LINE
  5
95D0
330
1F
100
AcDbEntity
  8
0
100
AcDbLine
 10
14.05485597561426
 20
7.900150224891664
 30
0.0
 11
14.05760773200458
 21
7.900744401056488
 31
0.0
  0
LINE
  5
95D1
330
1F
100
AcDbEntity
  8
0
100
AcDbLine
 10
14.05760773200458
 20
7.900744401056488
 30
0.0
 11
14.06035948839488
 21
7.900150224891664
 31
0.0
  0
LINE
  5
95D2
330
1F
100
AcDbEntity
  8
0
100
AcDbLine
 10
14.06035948839488
 20
7.900150224891664
 30
0.0
 11
14.06292371713468
 21
7.898408188520885
 31
0.0
  0
LINE
  5
95D3
330
1F
100
AcDbEntity
  8
0
100
AcDbLine
 10
14.06292371713468
 20
7.898408188520885
 30
0.0
 11
14.06512567027295
 21
7.89563700884398
 31
0.0
  0
LINE
  5
95D4
330
1F
100
AcDbEntity
  8
0
100
AcDbLine
 10
14.06512567027295
 20
7.89563700884398
 30
0.0
 11
14.06681528834221
 21
7.892025537176341
 31
0.0
  0
LINE
  5
95D5
330
1F
100
AcDbEntity
  8
0
100
AcDbLine
 10
14.06681528834221
 20
7.892025537176341
 30
0.0
 11
14.06787742666326
 21
7.887819889343862
 31
0.0
  0
LINE
  5
95D6
330
1F
100
AcDbEntity
  8
0
100
AcDbLine
 10
14.06787742666326
 20
7.887819889343862
 30
0.0
 11
14.06823970226479
 21
7.883306673296193
 31
0.0
  0
LINE
  5
95D7
330
1F
100
AcDbEntity
  8
0
100
AcDbLine
 10
14.06823970226479
 20
7.883306673296193
 30
0.0
 11
14.06787742666326
 21
7.878793457248509
 31
0.0
  0
LINE
  5
95D8
330
1F
100
AcDbEntity
  8
0
100
AcDbLine
 10
14.06787742666326
 20
7.878793457248509
 30
0.0
 11
14.06681528834221
 21
7.874587809416038
 31
0.0
  0
LINE
  5
95D9
330
1F
100
AcDbEntity
  8
0
100
AcDbLine
 10
14.06681528834221
 20
7.874587809416038
 30
0.0
 11
14.06512567027295
 21
7.870976337748398
 31
0.0
  0
LINE
  5
95DA
330
1F
100
AcDbEntity
  8
0
100
AcDbLine
 10
14.06512567027295
 20
7.870976337748398
 30
0.0
 11
14.06292371713468
 21
7.868205158071493
 31
0.0
  0
LINE
  5
95DB
330
1F
100
AcDbEntity
  8
0
100
AcDbLine
 10
14.06292371713468
 20
7.868205158071493
 30
0.0
 11
14.06035948839488
 21
7.866463121700721
 31
0.0
  0
LINE
  5
95DC
330
1F
100
AcDbEntity
  8
0
100
AcDbLine
 10
14.06035948839488
 20
7.866463121700721
 30
0.0
 11
14.05760773200458
 21
7.86586894553589
 31
0.0
  0
LINE
  5
95DD
330
1F
100
AcDbEntity
  8
0
100
AcDbLine
 10
14.05760773200458
 20
7.86586894553589
 30
0.0
 11
14.05485597561426
 21
7.866463121700721
 31
0.0
  0
LINE
  5
95DE
330
1F
100
AcDbEntity
  8
0
100
AcDbLine
 10
14.05485597561426
 20
7.866463121700721
 30
0.0
 11
14.05229174687446
 21
7.868205158071493
 31
0.0
  0
LINE
  5
95DF
330
1F
100
AcDbEntity
  8
0
100
AcDbLine
 10
14.05229174687446
 20
7.868205158071493
 30
0.0
 11
14.0500897937362
 21
7.870976337748398
 31
0.0
  0
LINE
  5
95E0
330
1F
100
AcDbEntity
  8
0
100
AcDbLine
 10
14.0500897937362
 20
7.870976337748398
 30
0.0
 11
14.04840017566694
 21
7.874587809416038
 31
0.0
  0
LINE
  5
95E1
330
1F
100
AcDbEntity
  8
0
100
AcDbLine
 10
14.04840017566694
 20
7.874587809416038
 30
0.0
 11
14.04733803734589
 21
7.878793457248509
 31
0.0
  0
LINE
  5
95E2
330
1F
100
AcDbEntity
  8
0
100
AcDbLine
 10
14.04733803734589
 20
7.878793457248509
 30
0.0
 11
14.04697576174435
 21
7.883306673296193
 31
0.0
  0
LINE
  5
95E3
330
1F
100
AcDbEntity
  8
0
100
AcDbLine
 10
14.04888886812442
 20
7.900744401056488
 30
0.0
 11
14.05760773200458
 21
7.900744401056488
 31
0.0
  0
LINE
  5
95E4
330
1F
100
AcDbEntity
  8
0
100
AcDbLine
 10
14.04888886812442
 20
7.86586894553589
 30
0.0
 11
14.05760773200458
 21
7.86586894553589
 31
0.0
  0
LINE
  5
95E5
330
1F
100
AcDbEntity
  8
0
100
AcDbLine
 10
13.48206372812331
 20
7.383893380757729
 30
0.0
 11
13.48037280178381
 21
7.383893380757729
 31
0.0
  0
LINE
  5
95E6
330
1F
100
AcDbEntity
  8
0
100
AcDbLine
 10
14.59142319647812
 20
8.180086813480503
 30
0.0
 11
14.59142319647812
 21
8.209830159321722
 31
0.0
  0
LINE
  5
95E7
330
1F
100
AcDbEntity
  8
0
100
AcDbLine
 10
14.59142319647812
 20
8.209830159321722
 30
0.0
 11
14.59142319647812
 21
8.244958486401113
 31
0.0
  0
LINE
  5
95E8
330
1F
100
AcDbEntity
  8
0
100
AcDbLine
 10
14.59142319647812
 20
8.142996962174013
 30
0.0
 11
14.59142319647812
 21
8.180086813480503
 31
0.0
  0
LINE
  5
95E9
330
1F
100
AcDbEntity
  8
0
100
AcDbLine
 10
14.59142319647812
 20
8.244958486401113
 30
0.0
 11
14.59142319647812
 21
8.246920010628219
 31
0.0
  0
LINE
  5
95EA
330
1F
100
AcDbEntity
  8
0
100
AcDbLine
 10
14.59142319647812
 20
8.246920010628219
 30
0.0
 11
14.59142319647812
 21
8.542071626290987
 31
0.0
  0
LINE
  5
95EB
330
1F
100
AcDbEntity
  8
0
100
AcDbLine
 10
14.59142319647812
 20
7.546920010628216
 30
0.0
 11
14.59142319647812
 21
8.142996962174013
 31
0.0
  0
LINE
  5
95EC
330
1F
100
AcDbEntity
  8
0
100
AcDbLine
 10
14.59142319647812
 20
7.480086813480507
 30
0.0
 11
14.59142319647812
 21
7.509830159321719
 31
0.0
  0
LINE
  5
95ED
330
1F
100
AcDbEntity
  8
0
100
AcDbLine
 10
14.59142319647812
 20
7.509830159321719
 30
0.0
 11
14.59142319647812
 21
7.54495848640111
 31
0.0
  0
LINE
  5
95EE
330
1F
100
AcDbEntity
  8
0
100
AcDbLine
 10
14.59142319647812
 20
7.54495848640111
 30
0.0
 11
14.59142319647812
 21
7.546920010628216
 31
0.0
  0
LINE
  5
95EF
330
1F
100
AcDbEntity
  8
0
100
AcDbLine
 10
13.32870433259797
 20
7.573844056772575
 30
0.0
 11
13.32870433259797
 21
7.22251689244403
 31
0.0
  0
LINE
  5
95F0
330
1F
100
AcDbEntity
  8
0
100
AcDbLine
 10
14.59142319647812
 20
7.22251689244403
 30
0.0
 11
14.59142319647812
 21
7.442996962174017
 31
0.0
  0
LINE
  5
95F1
330
1F
100
AcDbEntity
  8
0
100
AcDbLine
 10
14.59142319647812
 20
7.442996962174017
 30
0.0
 11
14.59142319647812
 21
7.480086813480507
 31
0.0
  0
LINE
  5
95F2
330
1F
100
AcDbEntity
  8
0
100
AcDbLine
 10
13.32870433259797
 20
8.542071626290994
 30
0.0
 11
13.32870433259797
 21
8.139844056772577
 31
0.0
  0
LINE
  5
95F3
330
1F
100
AcDbEntity
  8
0
100
AcDbLine
 10
13.32870433040951
 20
8.139844052656396
 30
0.0
 11
13.32870433040951
 21
8.131385788456807
 31
0.0
  0
LINE
  5
95F4
330
1F
100
AcDbEntity
  8
0
100
AcDbLine
 10
13.32870433040951
 20
8.131385788456807
 30
0.0
 11
13.32870433040951
 21
8.102302316855986
 31
0.0
  0
LINE
  5
95F5
330
1F
100
AcDbEntity
  8
0
100
AcDbLine
 10
13.32870433040951
 20
8.102302316855986
 30
0.0
 11
13.32870433040951
 21
8.093844052656397
 31
0.0
  0
LINE
  5
95F6
330
1F
100
AcDbEntity
  8
0
100
AcDbLine
 10
13.32870433040951
 20
8.093844052656397
 30
0.0
 11
13.32870433040951
 21
7.619834966138522
 31
0.0
  0
LINE
  5
95F7
330
1F
100
AcDbEntity
  8
0
100
AcDbLine
 10
13.32870433040951
 20
7.619834966138522
 30
0.0
 11
13.32870433040951
 21
7.611376701938933
 31
0.0
  0
LINE
  5
95F8
330
1F
100
AcDbEntity
  8
0
100
AcDbLine
 10
13.32870433040951
 20
7.611376701938933
 30
0.0
 11
13.32870433040951
 21
7.582293230338105
 31
0.0
  0
LINE
  5
95F9
330
1F
100
AcDbEntity
  8
0
100
AcDbLine
 10
13.32870433040951
 20
7.582293230338105
 30
0.0
 11
13.32870433040951
 21
7.573834966138523
 31
0.0
  0
LINE
  5
95FA
330
1F
100
AcDbEntity
  8
0
100
AcDbLine
 10
13.46411819557213
 20
7.289308205266852
 30
0.0
 11
13.45969237461982
 21
7.288941612077483
 31
0.0
  0
LINE
  5
95FB
330
1F
100
AcDbEntity
  8
0
100
AcDbLine
 10
13.45969237461982
 20
7.288941612077483
 30
0.0
 11
13.45556816605141
 21
7.28786681522941
 31
0.0
  0
LINE
  5
95FC
330
1F
100
AcDbEntity
  8
0
100
AcDbLine
 10
13.45556816605141
 20
7.28786681522941
 30
0.0
 11
13.45202662786525
 21
7.286157060351637
 31
0.0
  0
LINE
  5
95FD
330
1F
100
AcDbEntity
  8
0
100
AcDbLine
 10
13.45202662786525
 20
7.286157060351637
 30
0.0
 11
13.44930911003604
 21
7.283928864413589
 31
0.0
  0
LINE
  5
95FE
330
1F
100
AcDbEntity
  8
0
100
AcDbLine
 10
13.44930911003604
 20
7.283928864413589
 30
0.0
 11
13.44760080691295
 21
7.281334075286171
 31
0.0
  0
LINE
  5
95FF
330
1F
100
AcDbEntity
  8
0
100
AcDbLine
 10
13.44760080691295
 20
7.281334075286171
 30
0.0
 11
13.44701813653071
 21
7.278549523560325
 31
0.0
  0
LINE
  5
9600
330
1F
100
AcDbEntity
  8
0
100
AcDbLine
 10
13.48121825461354
 20
7.278549523560325
 30
0.0
 11
13.4806355842313
 21
7.281334075286171
 31
0.0
  0
LINE
  5
9601
330
1F
100
AcDbEntity
  8
0
100
AcDbLine
 10
13.4806355842313
 20
7.281334075286171
 30
0.0
 11
13.47892728110821
 21
7.283928864413585
 31
0.0
  0
LINE
  5
9602
330
1F
100
AcDbEntity
  8
0
100
AcDbLine
 10
13.47892728110821
 20
7.283928864413585
 30
0.0
 11
13.476209763279
 21
7.286157060351637
 31
0.0
  0
LINE
  5
9603
330
1F
100
AcDbEntity
  8
0
100
AcDbLine
 10
13.476209763279
 20
7.286157060351637
 30
0.0
 11
13.47266822509283
 21
7.28786681522941
 31
0.0
  0
LINE
  5
9604
330
1F
100
AcDbEntity
  8
0
100
AcDbLine
 10
13.47266822509283
 20
7.28786681522941
 30
0.0
 11
13.46854401652442
 21
7.288941612077483
 31
0.0
  0
LINE
  5
9605
330
1F
100
AcDbEntity
  8
0
100
AcDbLine
 10
13.46854401652442
 20
7.288941612077483
 30
0.0
 11
13.46411819557213
 21
7.289308205266852
 31
0.0
  0
LINE
  5
9606
330
1F
100
AcDbEntity
  8
0
100
AcDbLine
 10
13.46411819557213
 20
7.280758175746139
 30
0.0
 11
13.45969237461982
 21
7.28039158255677
 31
0.0
  0
LINE
  5
9607
330
1F
100
AcDbEntity
  8
0
100
AcDbLine
 10
13.45969237461982
 20
7.28039158255677
 30
0.0
 11
13.45556816605141
 21
7.279316785708697
 31
0.0
  0
LINE
  5
9608
330
1F
100
AcDbEntity
  8
0
100
AcDbLine
 10
13.45556816605141
 20
7.279316785708697
 30
0.0
 11
13.45202662786525
 21
7.277607030830925
 31
0.0
  0
LINE
  5
9609
330
1F
100
AcDbEntity
  8
0
100
AcDbLine
 10
13.45202662786525
 20
7.277607030830925
 30
0.0
 11
13.44930911003604
 21
7.27537883489288
 31
0.0
  0
LINE
  5
960A
330
1F
100
AcDbEntity
  8
0
100
AcDbLine
 10
13.44930911003604
 20
7.27537883489288
 30
0.0
 11
13.44760080691295
 21
7.272784045765458
 31
0.0
  0
LINE
  5
960B
330
1F
100
AcDbEntity
  8
0
100
AcDbLine
 10
13.44760080691295
 20
7.272784045765458
 30
0.0
 11
13.44701813653071
 21
7.269999494039613
 31
0.0
  0
LINE
  5
960C
330
1F
100
AcDbEntity
  8
0
100
AcDbLine
 10
13.44701813653071
 20
7.269999494039613
 30
0.0
 11
13.44760080691295
 21
7.267214942313771
 31
0.0
  0
LINE
  5
960D
330
1F
100
AcDbEntity
  8
0
100
AcDbLine
 10
13.44760080691295
 20
7.267214942313771
 30
0.0
 11
13.44930911003604
 21
7.264620153186353
 31
0.0
  0
LINE
  5
960E
330
1F
100
AcDbEntity
  8
0
100
AcDbLine
 10
13.44930911003604
 20
7.264620153186353
 30
0.0
 11
13.45202662786525
 21
7.262391957248301
 31
0.0
  0
LINE
  5
960F
330
1F
100
AcDbEntity
  8
0
100
AcDbLine
 10
13.45202662786525
 20
7.262391957248301
 30
0.0
 11
13.45556816605141
 21
7.260682202370531
 31
0.0
  0
LINE
  5
9610
330
1F
100
AcDbEntity
  8
0
100
AcDbLine
 10
13.45556816605141
 20
7.260682202370531
 30
0.0
 11
13.45969237461982
 21
7.259607405522459
 31
0.0
  0
LINE
  5
9611
330
1F
100
AcDbEntity
  8
0
100
AcDbLine
 10
13.45969237461982
 20
7.259607405522459
 30
0.0
 11
13.46411819557213
 21
7.259240812333086
 31
0.0
  0
LINE
  5
9612
330
1F
100
AcDbEntity
  8
0
100
AcDbLine
 10
13.46411819557213
 20
7.259240812333086
 30
0.0
 11
13.46854401652442
 21
7.259607405522459
 31
0.0
  0
LINE
  5
9613
330
1F
100
AcDbEntity
  8
0
100
AcDbLine
 10
13.46854401652442
 20
7.259607405522459
 30
0.0
 11
13.47266822509283
 21
7.260682202370531
 31
0.0
  0
LINE
  5
9614
330
1F
100
AcDbEntity
  8
0
100
AcDbLine
 10
13.47266822509283
 20
7.260682202370531
 30
0.0
 11
13.476209763279
 21
7.262391957248301
 31
0.0
  0
LINE
  5
9615
330
1F
100
AcDbEntity
  8
0
100
AcDbLine
 10
13.476209763279
 20
7.262391957248301
 30
0.0
 11
13.47892728110821
 21
7.264620153186353
 31
0.0
  0
LINE
  5
9616
330
1F
100
AcDbEntity
  8
0
100
AcDbLine
 10
13.47892728110821
 20
7.264620153186353
 30
0.0
 11
13.4806355842313
 21
7.267214942313771
 31
0.0
  0
LINE
  5
9617
330
1F
100
AcDbEntity
  8
0
100
AcDbLine
 10
13.4806355842313
 20
7.267214942313771
 30
0.0
 11
13.48121825461354
 21
7.269999494039613
 31
0.0
  0
LINE
  5
9618
330
1F
100
AcDbEntity
  8
0
100
AcDbLine
 10
13.48121825461354
 20
7.269999494039613
 30
0.0
 11
13.4806355842313
 21
7.272784045765458
 31
0.0
  0
LINE
  5
9619
330
1F
100
AcDbEntity
  8
0
100
AcDbLine
 10
13.4806355842313
 20
7.272784045765458
 30
0.0
 11
13.47892728110821
 21
7.27537883489288
 31
0.0
  0
LINE
  5
961A
330
1F
100
AcDbEntity
  8
0
100
AcDbLine
 10
13.47892728110821
 20
7.27537883489288
 30
0.0
 11
13.476209763279
 21
7.277607030830925
 31
0.0
  0
LINE
  5
961B
330
1F
100
AcDbEntity
  8
0
100
AcDbLine
 10
13.476209763279
 20
7.277607030830925
 30
0.0
 11
13.47266822509283
 21
7.279316785708697
 31
0.0
  0
LINE
  5
961C
330
1F
100
AcDbEntity
  8
0
100
AcDbLine
 10
13.47266822509283
 20
7.279316785708697
 30
0.0
 11
13.46854401652442
 21
7.28039158255677
 31
0.0
  0
LINE
  5
961D
330
1F
100
AcDbEntity
  8
0
100
AcDbLine
 10
13.46854401652442
 20
7.28039158255677
 30
0.0
 11
13.46411819557213
 21
7.280758175746139
 31
0.0
  0
LINE
  5
961E
330
1F
100
AcDbEntity
  8
0
100
AcDbLine
 10
13.44701813653071
 20
7.278549523560325
 30
0.0
 11
13.44701813653071
 21
7.269999494039613
 31
0.0
  0
LINE
  5
961F
330
1F
100
AcDbEntity
  8
0
100
AcDbLine
 10
13.48121825461354
 20
7.278549523560325
 30
0.0
 11
13.48121825461354
 21
7.269999494039613
 31
0.0
  0
LINE
  5
9620
330
1F
100
AcDbEntity
  8
0
100
AcDbLine
 10
13.39654582836888
 20
7.366455649195149
 30
0.0
 11
13.39618355276735
 21
7.361942433147472
 31
0.0
  0
LINE
  5
9621
330
1F
100
AcDbEntity
  8
0
100
AcDbLine
 10
13.39618355276735
 20
7.361942433147472
 30
0.0
 11
13.39512141444629
 21
7.357736785315001
 31
0.0
  0
LINE
  5
9622
330
1F
100
AcDbEntity
  8
0
100
AcDbLine
 10
13.39512141444629
 20
7.357736785315001
 30
0.0
 11
13.39343179637703
 21
7.354125313647355
 31
0.0
  0
LINE
  5
9623
330
1F
100
AcDbEntity
  8
0
100
AcDbLine
 10
13.39343179637703
 20
7.354125313647355
 30
0.0
 11
13.39122984323877
 21
7.351354133970449
 31
0.0
  0
LINE
  5
9624
330
1F
100
AcDbEntity
  8
0
100
AcDbLine
 10
13.39122984323877
 20
7.351354133970449
 30
0.0
 11
13.38866561449896
 21
7.349612097599678
 31
0.0
  0
LINE
  5
9625
330
1F
100
AcDbEntity
  8
0
100
AcDbLine
 10
13.38866561449896
 20
7.349612097599678
 30
0.0
 11
13.38591385810866
 21
7.349017921434846
 31
0.0
  0
LINE
  5
9626
330
1F
100
AcDbEntity
  8
0
100
AcDbLine
 10
13.38591385810866
 20
7.383893376955452
 30
0.0
 11
13.38866561449896
 21
7.38329920079062
 31
0.0
  0
LINE
  5
9627
330
1F
100
AcDbEntity
  8
0
100
AcDbLine
 10
13.38866561449896
 20
7.38329920079062
 30
0.0
 11
13.39122984323877
 21
7.381557164419849
 31
0.0
  0
LINE
  5
9628
330
1F
100
AcDbEntity
  8
0
100
AcDbLine
 10
13.39122984323877
 20
7.381557164419849
 30
0.0
 11
13.39343179637703
 21
7.378785984742943
 31
0.0
  0
LINE
  5
9629
330
1F
100
AcDbEntity
  8
0
100
AcDbLine
 10
13.39343179637703
 20
7.378785984742943
 30
0.0
 11
13.39512141444629
 21
7.375174513075297
 31
0.0
  0
LINE
  5
962A
330
1F
100
AcDbEntity
  8
0
100
AcDbLine
 10
13.39512141444629
 20
7.375174513075297
 30
0.0
 11
13.39618355276735
 21
7.370968865242826
 31
0.0
  0
LINE
  5
962B
330
1F
100
AcDbEntity
  8
0
100
AcDbLine
 10
13.39618355276735
 20
7.370968865242826
 30
0.0
 11
13.39654582836888
 21
7.366455649195149
 31
0.0
  0
LINE
  5
962C
330
1F
100
AcDbEntity
  8
0
100
AcDbLine
 10
13.38782696448873
 20
7.366455649195149
 30
0.0
 11
13.38746468888719
 21
7.361942433147472
 31
0.0
  0
LINE
  5
962D
330
1F
100
AcDbEntity
  8
0
100
AcDbLine
 10
13.38746468888719
 20
7.370968865242826
 30
0.0
 11
13.38782696448873
 21
7.366455649195149
 31
0.0
  0
LINE
  5
962E
330
1F
100
AcDbEntity
  8
0
100
AcDbLine
 10
13.38640255056614
 20
7.375174513075297
 30
0.0
 11
13.38746468888719
 21
7.370968865242826
 31
0.0
  0
LINE
  5
962F
330
1F
100
AcDbEntity
  8
0
100
AcDbLine
 10
13.38471293249688
 20
7.378785984742943
 30
0.0
 11
13.38640255056614
 21
7.375174513075297
 31
0.0
  0
LINE
  5
9630
330
1F
100
AcDbEntity
  8
0
100
AcDbLine
 10
13.38251097935861
 20
7.381557164419849
 30
0.0
 11
13.38471293249688
 21
7.378785984742943
 31
0.0
  0
LINE
  5
9631
330
1F
100
AcDbEntity
  8
0
100
AcDbLine
 10
13.37994675061881
 20
7.38329920079062
 30
0.0
 11
13.38251097935861
 21
7.381557164419849
 31
0.0
  0
LINE
  5
9632
330
1F
100
AcDbEntity
  8
0
100
AcDbLine
 10
13.3771949942285
 20
7.383893376955452
 30
0.0
 11
13.37994675061881
 21
7.38329920079062
 31
0.0
  0
LINE
  5
9633
330
1F
100
AcDbEntity
  8
0
100
AcDbLine
 10
13.3744432378382
 20
7.38329920079062
 30
0.0
 11
13.3771949942285
 21
7.383893376955452
 31
0.0
  0
LINE
  5
9634
330
1F
100
AcDbEntity
  8
0
100
AcDbLine
 10
13.37187900909839
 20
7.381557164419849
 30
0.0
 11
13.3744432378382
 21
7.38329920079062
 31
0.0
  0
LINE
  5
9635
330
1F
100
AcDbEntity
  8
0
100
AcDbLine
 10
13.36967705596012
 20
7.378785984742943
 30
0.0
 11
13.37187900909839
 21
7.381557164419849
 31
0.0
  0
LINE
  5
9636
330
1F
100
AcDbEntity
  8
0
100
AcDbLine
 10
13.36798743789087
 20
7.375174513075297
 30
0.0
 11
13.36967705596012
 21
7.378785984742943
 31
0.0
  0
LINE
  5
9637
330
1F
100
AcDbEntity
  8
0
100
AcDbLine
 10
13.36692529956981
 20
7.370968865242826
 30
0.0
 11
13.36798743789087
 21
7.375174513075297
 31
0.0
  0
LINE
  5
9638
330
1F
100
AcDbEntity
  8
0
100
AcDbLine
 10
13.36656302396828
 20
7.366455649195149
 30
0.0
 11
13.36692529956981
 21
7.370968865242826
 31
0.0
  0
LINE
  5
9639
330
1F
100
AcDbEntity
  8
0
100
AcDbLine
 10
13.36692529956981
 20
7.361942433147472
 30
0.0
 11
13.36656302396828
 21
7.366455649195149
 31
0.0
  0
LINE
  5
963A
330
1F
100
AcDbEntity
  8
0
100
AcDbLine
 10
13.36798743789087
 20
7.357736785315001
 30
0.0
 11
13.36692529956981
 21
7.361942433147472
 31
0.0
  0
LINE
  5
963B
330
1F
100
AcDbEntity
  8
0
100
AcDbLine
 10
13.36967705596012
 20
7.354125313647355
 30
0.0
 11
13.36798743789087
 21
7.357736785315001
 31
0.0
  0
LINE
  5
963C
330
1F
100
AcDbEntity
  8
0
100
AcDbLine
 10
13.37187900909839
 20
7.351354133970449
 30
0.0
 11
13.36967705596012
 21
7.354125313647355
 31
0.0
  0
LINE
  5
963D
330
1F
100
AcDbEntity
  8
0
100
AcDbLine
 10
13.3744432378382
 20
7.349612097599678
 30
0.0
 11
13.37187900909839
 21
7.351354133970449
 31
0.0
  0
LINE
  5
963E
330
1F
100
AcDbEntity
  8
0
100
AcDbLine
 10
13.3771949942285
 20
7.349017921434846
 30
0.0
 11
13.3744432378382
 21
7.349612097599678
 31
0.0
  0
LINE
  5
963F
330
1F
100
AcDbEntity
  8
0
100
AcDbLine
 10
13.37994675061881
 20
7.349612097599678
 30
0.0
 11
13.3771949942285
 21
7.349017921434846
 31
0.0
  0
LINE
  5
9640
330
1F
100
AcDbEntity
  8
0
100
AcDbLine
 10
13.38251097935861
 20
7.351354133970449
 30
0.0
 11
13.37994675061881
 21
7.349612097599678
 31
0.0
  0
LINE
  5
9641
330
1F
100
AcDbEntity
  8
0
100
AcDbLine
 10
13.38471293249688
 20
7.354125313647355
 30
0.0
 11
13.38251097935861
 21
7.351354133970449
 31
0.0
  0
LINE
  5
9642
330
1F
100
AcDbEntity
  8
0
100
AcDbLine
 10
13.38640255056614
 20
7.357736785315001
 30
0.0
 11
13.38471293249688
 21
7.354125313647355
 31
0.0
  0
LINE
  5
9643
330
1F
100
AcDbEntity
  8
0
100
AcDbLine
 10
13.38746468888719
 20
7.361942433147472
 30
0.0
 11
13.38640255056614
 21
7.357736785315001
 31
0.0
  0
LINE
  5
9644
330
1F
100
AcDbEntity
  8
0
100
AcDbLine
 10
13.38591385810866
 20
7.383893376955452
 30
0.0
 11
13.3771949942285
 21
7.383893376955452
 31
0.0
  0
LINE
  5
9645
330
1F
100
AcDbEntity
  8
0
100
AcDbLine
 10
13.38591385810866
 20
7.349017921434846
 30
0.0
 11
13.3771949942285
 21
7.349017921434846
 31
0.0
  0
LINE
  5
9646
330
1F
100
AcDbEntity
  8
0
100
AcDbLine
 10
13.48206372812331
 20
8.380695137977294
 30
0.0
 11
13.48037280178381
 21
8.380695137977294
 31
0.0
  0
LINE
  5
9647
330
1F
100
AcDbEntity
  8
0
100
AcDbLine
 10
13.46411819557213
 20
8.475280313468172
 30
0.0
 11
13.45969237461982
 21
8.475646906657541
 31
0.0
  0
LINE
  5
9648
330
1F
100
AcDbEntity
  8
0
100
AcDbLine
 10
13.45969237461982
 20
8.475646906657541
 30
0.0
 11
13.45556816605141
 21
8.476721703505614
 31
0.0
  0
LINE
  5
9649
330
1F
100
AcDbEntity
  8
0
100
AcDbLine
 10
13.45556816605141
 20
8.476721703505614
 30
0.0
 11
13.45202662786525
 21
8.478431458383386
 31
0.0
  0
LINE
  5
964A
330
1F
100
AcDbEntity
  8
0
100
AcDbLine
 10
13.45202662786525
 20
8.478431458383386
 30
0.0
 11
13.44930911003604
 21
8.480659654321431
 31
0.0
  0
LINE
  5
964B
330
1F
100
AcDbEntity
  8
0
100
AcDbLine
 10
13.44930911003604
 20
8.480659654321431
 30
0.0
 11
13.44760080691295
 21
8.483254443448853
 31
0.0
  0
LINE
  5
964C
330
1F
100
AcDbEntity
  8
0
100
AcDbLine
 10
13.44760080691295
 20
8.483254443448853
 30
0.0
 11
13.44701813653071
 21
8.486038995174691
 31
0.0
  0
LINE
  5
964D
330
1F
100
AcDbEntity
  8
0
100
AcDbLine
 10
13.48121825461354
 20
8.486038995174691
 30
0.0
 11
13.4806355842313
 21
8.483254443448853
 31
0.0
  0
LINE
  5
964E
330
1F
100
AcDbEntity
  8
0
100
AcDbLine
 10
13.4806355842313
 20
8.483254443448853
 30
0.0
 11
13.47892728110821
 21
8.480659654321431
 31
0.0
  0
LINE
  5
964F
330
1F
100
AcDbEntity
  8
0
100
AcDbLine
 10
13.47892728110821
 20
8.480659654321431
 30
0.0
 11
13.476209763279
 21
8.478431458383386
 31
0.0
  0
LINE
  5
9650
330
1F
100
AcDbEntity
  8
0
100
AcDbLine
 10
13.476209763279
 20
8.478431458383386
 30
0.0
 11
13.47266822509283
 21
8.476721703505614
 31
0.0
  0
LINE
  5
9651
330
1F
100
AcDbEntity
  8
0
100
AcDbLine
 10
13.47266822509283
 20
8.476721703505614
 30
0.0
 11
13.46854401652442
 21
8.475646906657541
 31
0.0
  0
LINE
  5
9652
330
1F
100
AcDbEntity
  8
0
100
AcDbLine
 10
13.46854401652442
 20
8.475646906657541
 30
0.0
 11
13.46411819557213
 21
8.475280313468172
 31
0.0
  0
LINE
  5
9653
330
1F
100
AcDbEntity
  8
0
100
AcDbLine
 10
13.46411819557213
 20
8.483830342988877
 30
0.0
 11
13.45969237461982
 21
8.484196936178246
 31
0.0
  0
LINE
  5
9654
330
1F
100
AcDbEntity
  8
0
100
AcDbLine
 10
13.45969237461982
 20
8.484196936178246
 30
0.0
 11
13.45556816605141
 21
8.485271733026319
 31
0.0
  0
LINE
  5
9655
330
1F
100
AcDbEntity
  8
0
100
AcDbLine
 10
13.45556816605141
 20
8.485271733026319
 30
0.0
 11
13.45202662786525
 21
8.486981487904092
 31
0.0
  0
LINE
  5
9656
330
1F
100
AcDbEntity
  8
0
100
AcDbLine
 10
13.45202662786525
 20
8.486981487904092
 30
0.0
 11
13.44930911003604
 21
8.489209683842144
 31
0.0
  0
LINE
  5
9657
330
1F
100
AcDbEntity
  8
0
100
AcDbLine
 10
13.44930911003604
 20
8.489209683842144
 30
0.0
 11
13.44760080691295
 21
8.491804472969558
 31
0.0
  0
LINE
  5
9658
330
1F
100
AcDbEntity
  8
0
100
AcDbLine
 10
13.44760080691295
 20
8.491804472969558
 30
0.0
 11
13.44701813653071
 21
8.494589024695404
 31
0.0
  0
LINE
  5
9659
330
1F
100
AcDbEntity
  8
0
100
AcDbLine
 10
13.44701813653071
 20
8.494589024695404
 30
0.0
 11
13.44760080691295
 21
8.497373576421249
 31
0.0
  0
LINE
  5
965A
330
1F
100
AcDbEntity
  8
0
100
AcDbLine
 10
13.44760080691295
 20
8.497373576421249
 30
0.0
 11
13.44930911003604
 21
8.499968365548671
 31
0.0
  0
LINE
  5
965B
330
1F
100
AcDbEntity
  8
0
100
AcDbLine
 10
13.44930911003604
 20
8.499968365548671
 30
0.0
 11
13.45202662786525
 21
8.502196561486716
 31
0.0
  0
LINE
  5
965C
330
1F
100
AcDbEntity
  8
0
100
AcDbLine
 10
13.45202662786525
 20
8.502196561486716
 30
0.0
 11
13.45556816605141
 21
8.503906316364489
 31
0.0
  0
LINE
  5
965D
330
1F
100
AcDbEntity
  8
0
100
AcDbLine
 10
13.45556816605141
 20
8.503906316364489
 30
0.0
 11
13.45969237461982
 21
8.504981113212561
 31
0.0
  0
LINE
  5
965E
330
1F
100
AcDbEntity
  8
0
100
AcDbLine
 10
13.45969237461982
 20
8.504981113212561
 30
0.0
 11
13.46411819557213
 21
8.505347706401931
 31
0.0
  0
LINE
  5
965F
330
1F
100
AcDbEntity
  8
0
100
AcDbLine
 10
13.46411819557213
 20
8.505347706401931
 30
0.0
 11
13.46854401652442
 21
8.504981113212561
 31
0.0
  0
LINE
  5
9660
330
1F
100
AcDbEntity
  8
0
100
AcDbLine
 10
13.46854401652442
 20
8.504981113212561
 30
0.0
 11
13.47266822509283
 21
8.503906316364489
 31
0.0
  0
LINE
  5
9661
330
1F
100
AcDbEntity
  8
0
100
AcDbLine
 10
13.47266822509283
 20
8.503906316364489
 30
0.0
 11
13.476209763279
 21
8.502196561486716
 31
0.0
  0
LINE
  5
9662
330
1F
100
AcDbEntity
  8
0
100
AcDbLine
 10
13.476209763279
 20
8.502196561486716
 30
0.0
 11
13.47892728110821
 21
8.499968365548671
 31
0.0
  0
LINE
  5
9663
330
1F
100
AcDbEntity
  8
0
100
AcDbLine
 10
13.47892728110821
 20
8.499968365548671
 30
0.0
 11
13.4806355842313
 21
8.497373576421249
 31
0.0
  0
LINE
  5
9664
330
1F
100
AcDbEntity
  8
0
100
AcDbLine
 10
13.4806355842313
 20
8.497373576421249
 30
0.0
 11
13.48121825461354
 21
8.494589024695404
 31
0.0
  0
LINE
  5
9665
330
1F
100
AcDbEntity
  8
0
100
AcDbLine
 10
13.48121825461354
 20
8.494589024695404
 30
0.0
 11
13.4806355842313
 21
8.491804472969558
 31
0.0
  0
LINE
  5
9666
330
1F
100
AcDbEntity
  8
0
100
AcDbLine
 10
13.4806355842313
 20
8.491804472969558
 30
0.0
 11
13.47892728110821
 21
8.489209683842144
 31
0.0
  0
LINE
  5
9667
330
1F
100
AcDbEntity
  8
0
100
AcDbLine
 10
13.47892728110821
 20
8.489209683842144
 30
0.0
 11
13.476209763279
 21
8.486981487904092
 31
0.0
  0
LINE
  5
9668
330
1F
100
AcDbEntity
  8
0
100
AcDbLine
 10
13.476209763279
 20
8.486981487904092
 30
0.0
 11
13.47266822509283
 21
8.485271733026319
 31
0.0
  0
LINE
  5
9669
330
1F
100
AcDbEntity
  8
0
100
AcDbLine
 10
13.47266822509283
 20
8.485271733026319
 30
0.0
 11
13.46854401652442
 21
8.484196936178246
 31
0.0
  0
LINE
  5
966A
330
1F
100
AcDbEntity
  8
0
100
AcDbLine
 10
13.46854401652442
 20
8.484196936178246
 30
0.0
 11
13.46411819557213
 21
8.483830342988877
 31
0.0
  0
LINE
  5
966B
330
1F
100
AcDbEntity
  8
0
100
AcDbLine
 10
13.44701813653071
 20
8.486038995174691
 30
0.0
 11
13.44701813653071
 21
8.494589024695404
 31
0.0
  0
LINE
  5
966C
330
1F
100
AcDbEntity
  8
0
100
AcDbLine
 10
13.48121825461354
 20
8.486038995174691
 30
0.0
 11
13.48121825461354
 21
8.494589024695404
 31
0.0
  0
LINE
  5
966D
330
1F
100
AcDbEntity
  8
0
100
AcDbLine
 10
13.39654582836888
 20
8.398132869539868
 30
0.0
 11
13.39618355276735
 21
8.402646085587551
 31
0.0
  0
LINE
  5
966E
330
1F
100
AcDbEntity
  8
0
100
AcDbLine
 10
13.39618355276735
 20
8.402646085587551
 30
0.0
 11
13.39512141444629
 21
8.406851733420023
 31
0.0
  0
LINE
  5
966F
330
1F
100
AcDbEntity
  8
0
100
AcDbLine
 10
13.39512141444629
 20
8.406851733420023
 30
0.0
 11
13.39343179637703
 21
8.410463205087669
 31
0.0
  0
LINE
  5
9670
330
1F
100
AcDbEntity
  8
0
100
AcDbLine
 10
13.39343179637703
 20
8.410463205087669
 30
0.0
 11
13.39122984323877
 21
8.413234384764567
 31
0.0
  0
LINE
  5
9671
330
1F
100
AcDbEntity
  8
0
100
AcDbLine
 10
13.39122984323877
 20
8.413234384764567
 30
0.0
 11
13.38866561449896
 21
8.414976421135346
 31
0.0
  0
LINE
  5
9672
330
1F
100
AcDbEntity
  8
0
100
AcDbLine
 10
13.38866561449896
 20
8.414976421135346
 30
0.0
 11
13.38591385810866
 21
8.41557059730017
 31
0.0
  0
LINE
  5
9673
330
1F
100
AcDbEntity
  8
0
100
AcDbLine
 10
13.38591385810866
 20
8.380695141779572
 30
0.0
 11
13.38866561449896
 21
8.381289317944403
 31
0.0
  0
LINE
  5
9674
330
1F
100
AcDbEntity
  8
0
100
AcDbLine
 10
13.38866561449896
 20
8.381289317944403
 30
0.0
 11
13.39122984323877
 21
8.383031354315175
 31
0.0
  0
LINE
  5
9675
330
1F
100
AcDbEntity
  8
0
100
AcDbLine
 10
13.39122984323877
 20
8.383031354315175
 30
0.0
 11
13.39343179637703
 21
8.38580253399208
 31
0.0
  0
LINE
  5
9676
330
1F
100
AcDbEntity
  8
0
100
AcDbLine
 10
13.39343179637703
 20
8.38580253399208
 30
0.0
 11
13.39512141444629
 21
8.38941400565972
 31
0.0
  0
LINE
  5
9677
330
1F
100
AcDbEntity
  8
0
100
AcDbLine
 10
13.39512141444629
 20
8.38941400565972
 30
0.0
 11
13.39618355276735
 21
8.393619653492191
 31
0.0
  0
LINE
  5
9678
330
1F
100
AcDbEntity
  8
0
100
AcDbLine
 10
13.39618355276735
 20
8.393619653492191
 30
0.0
 11
13.39654582836888
 21
8.398132869539868
 31
0.0
  0
LINE
  5
9679
330
1F
100
AcDbEntity
  8
0
100
AcDbLine
 10
13.38782696448873
 20
8.398132869539868
 30
0.0
 11
13.38746468888719
 21
8.402646085587551
 31
0.0
  0
LINE
  5
967A
330
1F
100
AcDbEntity
  8
0
100
AcDbLine
 10
13.38746468888719
 20
8.393619653492191
 30
0.0
 11
13.38782696448873
 21
8.398132869539868
 31
0.0
  0
LINE
  5
967B
330
1F
100
AcDbEntity
  8
0
100
AcDbLine
 10
13.38640255056614
 20
8.38941400565972
 30
0.0
 11
13.38746468888719
 21
8.393619653492191
 31
0.0
  0
LINE
  5
967C
330
1F
100
AcDbEntity
  8
0
100
AcDbLine
 10
13.38471293249688
 20
8.38580253399208
 30
0.0
 11
13.38640255056614
 21
8.38941400565972
 31
0.0
  0
LINE
  5
967D
330
1F
100
AcDbEntity
  8
0
100
AcDbLine
 10
13.38251097935861
 20
8.383031354315175
 30
0.0
 11
13.38471293249688
 21
8.38580253399208
 31
0.0
  0
LINE
  5
967E
330
1F
100
AcDbEntity
  8
0
100
AcDbLine
 10
13.37994675061881
 20
8.381289317944403
 30
0.0
 11
13.38251097935861
 21
8.383031354315175
 31
0.0
  0
LINE
  5
967F
330
1F
100
AcDbEntity
  8
0
100
AcDbLine
 10
13.3771949942285
 20
8.380695141779572
 30
0.0
 11
13.37994675061881
 21
8.381289317944403
 31
0.0
  0
LINE
  5
9680
330
1F
100
AcDbEntity
  8
0
100
AcDbLine
 10
13.3744432378382
 20
8.381289317944403
 30
0.0
 11
13.3771949942285
 21
8.380695141779572
 31
0.0
  0
LINE
  5
9681
330
1F
100
AcDbEntity
  8
0
100
AcDbLine
 10
13.37187900909839
 20
8.383031354315175
 30
0.0
 11
13.3744432378382
 21
8.381289317944403
 31
0.0
  0
LINE
  5
9682
330
1F
100
AcDbEntity
  8
0
100
AcDbLine
 10
13.36967705596012
 20
8.38580253399208
 30
0.0
 11
13.37187900909839
 21
8.383031354315175
 31
0.0
  0
LINE
  5
9683
330
1F
100
AcDbEntity
  8
0
100
AcDbLine
 10
13.36798743789087
 20
8.38941400565972
 30
0.0
 11
13.36967705596012
 21
8.38580253399208
 31
0.0
  0
LINE
  5
9684
330
1F
100
AcDbEntity
  8
0
100
AcDbLine
 10
13.36692529956982
 20
8.393619653492191
 30
0.0
 11
13.36798743789087
 21
8.38941400565972
 31
0.0
  0
LINE
  5
9685
330
1F
100
AcDbEntity
  8
0
100
AcDbLine
 10
13.36656302396828
 20
8.398132869539868
 30
0.0
 11
13.36692529956982
 21
8.393619653492191
 31
0.0
  0
LINE
  5
9686
330
1F
100
AcDbEntity
  8
0
100
AcDbLine
 10
13.36692529956982
 20
8.402646085587551
 30
0.0
 11
13.36656302396828
 21
8.398132869539868
 31
0.0
  0
LINE
  5
9687
330
1F
100
AcDbEntity
  8
0
100
AcDbLine
 10
13.36798743789087
 20
8.406851733420023
 30
0.0
 11
13.36692529956982
 21
8.402646085587551
 31
0.0
  0
LINE
  5
9688
330
1F
100
AcDbEntity
  8
0
100
AcDbLine
 10
13.36967705596012
 20
8.410463205087669
 30
0.0
 11
13.36798743789087
 21
8.406851733420023
 31
0.0
  0
LINE
  5
9689
330
1F
100
AcDbEntity
  8
0
100
AcDbLine
 10
13.37187900909839
 20
8.413234384764567
 30
0.0
 11
13.36967705596012
 21
8.410463205087669
 31
0.0
  0
LINE
  5
968A
330
1F
100
AcDbEntity
  8
0
100
AcDbLine
 10
13.3744432378382
 20
8.414976421135346
 30
0.0
 11
13.37187900909839
 21
8.413234384764567
 31
0.0
  0
LINE
  5
968B
330
1F
100
AcDbEntity
  8
0
100
AcDbLine
 10
13.3771949942285
 20
8.41557059730017
 30
0.0
 11
13.3744432378382
 21
8.414976421135346
 31
0.0
  0
LINE
  5
968C
330
1F
100
AcDbEntity
  8
0
100
AcDbLine
 10
13.37994675061881
 20
8.414976421135346
 30
0.0
 11
13.3771949942285
 21
8.41557059730017
 31
0.0
  0
LINE
  5
968D
330
1F
100
AcDbEntity
  8
0
100
AcDbLine
 10
13.38251097935861
 20
8.413234384764567
 30
0.0
 11
13.37994675061881
 21
8.414976421135346
 31
0.0
  0
LINE
  5
968E
330
1F
100
AcDbEntity
  8
0
100
AcDbLine
 10
13.38471293249688
 20
8.410463205087669
 30
0.0
 11
13.38251097935861
 21
8.413234384764567
 31
0.0
  0
LINE
  5
968F
330
1F
100
AcDbEntity
  8
0
100
AcDbLine
 10
13.38640255056614
 20
8.406851733420023
 30
0.0
 11
13.38471293249688
 21
8.410463205087669
 31
0.0
  0
LINE
  5
9690
330
1F
100
AcDbEntity
  8
0
100
AcDbLine
 10
13.38746468888719
 20
8.402646085587551
 30
0.0
 11
13.38640255056614
 21
8.406851733420023
 31
0.0
  0
LINE
  5
9691
330
1F
100
AcDbEntity
  8
0
100
AcDbLine
 10
13.38591385810866
 20
8.380695141779572
 30
0.0
 11
13.3771949942285
 21
8.380695141779572
 31
0.0
  0
LINE
  5
9692
330
1F
100
AcDbEntity
  8
0
100
AcDbLine
 10
13.38591385810866
 20
8.41557059730017
 30
0.0
 11
13.3771949942285
 21
8.41557059730017
 31
0.0
  0
LINE
  5
9693
330
1F
100
AcDbEntity
  8
0
100
AcDbLine
 10
14.41438539740997
 20
8.542071626290987
 30
0.0
 11
14.51438539740997
 21
8.542071626290987
 31
0.0
  0
CIRCLE
  5
9694
330
1F
100
AcDbEntity
  8
0
100
AcDbCircle
 10
13.9599780517037
 20
7.882294259367508
 30
0.0
 40
0.0248304211084971
  0
ARC
  5
9695
330
1F
100
AcDbEntity
  8
0
100
AcDbCircle
 10
14.50048378101524
 20
8.122824665929588
 30
0.0
 40
0.5329352792340851
100
AcDbArc
 50
172.050484480392
 51
187.9495155196086
  0
ARC
  5
9696
330
1F
100
AcDbEntity
  8
0
100
AcDbCircle
 10
15.38815564689675
 20
8.035204190869205
 30
0.0
 40
1.415554200586692
100
AcDbArc
 50
179.4367588118722
 51
185.5653816790172
  0
ARC
  5
9697
330
1F
100
AcDbEntity
  8
0
100
AcDbCircle
 10
14.92600618595111
 20
8.148464432603379
 30
0.0
 40
0.9800103257468235
100
AcDbArc
 50
177.1887513430994
 51
185.9381294943871
  0
ARC
  5
9698
330
1F
100
AcDbEntity
  8
0
100
AcDbCircle
 10
15.21004321580076
 20
8.03109542389993
 30
0.0
 40
1.258890265692462
100
AcDbArc
 50
179.2725675717029
 51
185.6581227517495
  0
LINE
  5
9699
330
1F
100
AcDbEntity
  8
0
100
AcDbLine
 10
13.97266984323187
 20
8.196529882393068
 30
0.0
 11
13.94717527557542
 21
8.196529882393068
 31
0.0
  0
LINE
  5
969A
330
1F
100
AcDbEntity
  8
0
100
AcDbLine
 10
13.9536247886196
 20
7.952244698507829
 30
0.0
 11
13.95217857930559
 21
7.952942887627624
 31
0.0
  0
LINE
  5
969B
330
1F
100
AcDbEntity
  8
0
100
AcDbLine
 10
13.95217857930559
 20
7.952942887627624
 30
0.0
 11
13.94946106147639
 21
7.955171083565669
 31
0.0
  0
LINE
  5
969C
330
1F
100
AcDbEntity
  8
0
100
AcDbLine
 10
13.94946106147639
 20
7.955171083565669
 30
0.0
 11
13.9477527583533
 21
7.957765872693091
 31
0.0
  0
LINE
  5
969D
330
1F
100
AcDbEntity
  8
0
100
AcDbLine
 10
13.9477527583533
 20
7.957765872693091
 30
0.0
 11
13.94717008797105
 21
7.960550424418936
 31
0.0
  0
LINE
  5
969E
330
1F
100
AcDbEntity
  8
0
100
AcDbLine
 10
13.98137020605389
 20
7.960550424418936
 30
0.0
 11
13.98078753567164
 21
7.957765872693091
 31
0.0
  0
LINE
  5
969F
330
1F
100
AcDbEntity
  8
0
100
AcDbLine
 10
13.98078753567164
 20
7.957765872693091
 30
0.0
 11
13.97907923254855
 21
7.955171083565669
 31
0.0
  0
LINE
  5
96A0
330
1F
100
AcDbEntity
  8
0
100
AcDbLine
 10
13.97907923254855
 20
7.955171083565669
 30
0.0
 11
13.97636171471935
 21
7.952942887627624
 31
0.0
  0
LINE
  5
96A1
330
1F
100
AcDbEntity
  8
0
100
AcDbLine
 10
13.97636171471935
 20
7.952942887627624
 30
0.0
 11
13.9750312071765
 21
7.952300556063843
 31
0.0
  0
LINE
  5
96A2
330
1F
100
AcDbEntity
  8
0
100
AcDbLine
 10
13.95310334263369
 20
7.961046467462377
 30
0.0
 11
13.95217857930559
 21
7.96149291714833
 31
0.0
  0
LINE
  5
96A3
330
1F
100
AcDbEntity
  8
0
100
AcDbLine
 10
13.95217857930559
 20
7.96149291714833
 30
0.0
 11
13.94946106147639
 21
7.963721113086382
 31
0.0
  0
LINE
  5
96A4
330
1F
100
AcDbEntity
  8
0
100
AcDbLine
 10
13.94946106147639
 20
7.963721113086382
 30
0.0
 11
13.9477527583533
 21
7.966315902213796
 31
0.0
  0
LINE
  5
96A5
330
1F
100
AcDbEntity
  8
0
100
AcDbLine
 10
13.9477527583533
 20
7.966315902213796
 30
0.0
 11
13.94717008797105
 21
7.969100453939642
 31
0.0
  0
LINE
  5
96A6
330
1F
100
AcDbEntity
  8
0
100
AcDbLine
 10
13.94717008797105
 20
7.969100453939642
 30
0.0
 11
13.9477527583533
 21
7.971885005665487
 31
0.0
  0
LINE
  5
96A7
330
1F
100
AcDbEntity
  8
0
100
AcDbLine
 10
13.9477527583533
 20
7.971885005665487
 30
0.0
 11
13.94946106147639
 21
7.974479794792902
 31
0.0
  0
LINE
  5
96A8
330
1F
100
AcDbEntity
  8
0
100
AcDbLine
 10
13.94946106147639
 20
7.974479794792902
 30
0.0
 11
13.95217857930559
 21
7.976707990730954
 31
0.0
  0
LINE
  5
96A9
330
1F
100
AcDbEntity
  8
0
100
AcDbLine
 10
13.95217857930559
 20
7.976707990730954
 30
0.0
 11
13.95232527965885
 21
7.976778813529232
 31
0.0
  0
LINE
  5
96AA
330
1F
100
AcDbEntity
  8
0
100
AcDbLine
 10
13.97375920235599
 20
7.977964410392072
 30
0.0
 11
13.97636171471935
 21
7.976707990730954
 31
0.0
  0
LINE
  5
96AB
330
1F
100
AcDbEntity
  8
0
100
AcDbLine
 10
13.97636171471935
 20
7.976707990730954
 30
0.0
 11
13.97907923254855
 21
7.974479794792902
 31
0.0
  0
LINE
  5
96AC
330
1F
100
AcDbEntity
  8
0
100
AcDbLine
 10
13.97907923254855
 20
7.974479794792902
 30
0.0
 11
13.98078753567164
 21
7.971885005665487
 31
0.0
  0
LINE
  5
96AD
330
1F
100
AcDbEntity
  8
0
100
AcDbLine
 10
13.98078753567164
 20
7.971885005665487
 30
0.0
 11
13.98137020605389
 21
7.969100453939642
 31
0.0
  0
LINE
  5
96AE
330
1F
100
AcDbEntity
  8
0
100
AcDbLine
 10
13.98137020605389
 20
7.969100453939642
 30
0.0
 11
13.98078753567164
 21
7.966315902213796
 31
0.0
  0
LINE
  5
96AF
330
1F
100
AcDbEntity
  8
0
100
AcDbLine
 10
13.98078753567164
 20
7.966315902213796
 30
0.0
 11
13.97907923254855
 21
7.963721113086382
 31
0.0
  0
LINE
  5
96B0
330
1F
100
AcDbEntity
  8
0
100
AcDbLine
 10
13.97907923254855
 20
7.963721113086382
 30
0.0
 11
13.97636171471935
 21
7.96149291714833
 31
0.0
  0
LINE
  5
96B1
330
1F
100
AcDbEntity
  8
0
100
AcDbLine
 10
13.97636171471935
 20
7.96149291714833
 30
0.0
 11
13.97456734591773
 21
7.960626646434921
 31
0.0
  0
LINE
  5
96B2
330
1F
100
AcDbEntity
  8
0
100
AcDbLine
 10
13.94717008797105
 20
7.960550424418936
 30
0.0
 11
13.94717008797105
 21
7.969100453939642
 31
0.0
  0
LINE
  5
96B3
330
1F
100
AcDbEntity
  8
0
100
AcDbLine
 10
13.98137020605389
 20
7.960550424418936
 30
0.0
 11
13.98137020605389
 21
7.969100453939642
 31
0.0
  0
LINE
  5
96B4
330
1F
100
AcDbEntity
  8
STREFA BEZPIECZEŃSTWA
100
AcDbLine
 10
15.87892425026338
 20
5.123593061682438
 30
0.0
 11
13.78347110906484
 21
5.123593061682438
 31
0.0
  0
LINE
  5
96B5
330
1F
100
AcDbEntity
  8
STREFA BEZPIECZEŃSTWA
100
AcDbLine
 10
15.87892425026338
 20
5.854603838429596
 30
0.0
 11
15.87892425026338
 21
5.123593061682438
 31
0.0
  0
LINE
  5
96B6
330
1F
100
AcDbEntity
  8
STREFA BEZPIECZEŃSTWA
100
AcDbLine
 10
15.87892425026338
 20
5.854603838429596
 30
0.0
 11
18.53964242577528
 21
5.854603838429605
 31
0.0
  0
LINE
  5
96B7
330
1F
100
AcDbEntity
  8
STREFA BEZPIECZEŃSTWA
100
AcDbLine
 10
18.53964242577528
 20
5.854603838429605
 30
0.0
 11
18.53964242577528
 21
10.02546734034709
 31
0.0
  0
DIMENSION
  5
96C2
102
{ACAD_XDICTIONARY
360
96CD
102
}
102
{ACAD_REACTORS
330
96D5
102
}
330
1F
100
AcDbEntity
  8
WYMIAR
100
AcDbDimension
  2
*D5
 10
8.143988942912208
 20
5.123593061682435
 30
0.0
 11
7.931592839016103
 21
7.574530201014762
 31
0.0
 70
    32
 71
     5
 42
4.901874278664652
  3
AR SKALA 1-50
100
AcDbAlignedDimension
 13
9.354825861694706
 23
10.02546734034709
 33
0.0
 14
12.18069283037441
 24
5.123593061682434
 34
0.0
 50
90.0
100
AcDbRotatedDimension
  0
VIEWPORT
  5
7CA
330
1B
100
AcDbEntity
 67
     1
  8
0
100
AcDbViewport
 10
271.5643544412355
 20
208.0679002034346
 30
0.0
 40
1260.527471931776
 41
638.1125994274806
 68
     1
 69
     1
 12
271.5643544412355
 22
208.0679002034346
 13
0.0
 23
0.0
 14
10.0
 24
10.0
 15
10.0
 25
10.0
 16
0.0
 26
0.0
 36
1.0
 17
0.0
 27
0.0
 37
0.0
 42
50.0
 43
0.0
 44
0.0
 45
638.1125994274806
 50
0.0
 51
0.0
 72
   100
 90
   819232
  1

281
     0
 71
     1
 74
     0
110
0.0
120
0.0
130
0.0
111
1.0
121
0.0
131
0.0
112
0.0
122
1.0
132
0.0
 79
     0
146
0.0
170
     0
  0
VIEWPORT
  5
99A
330
1B
100
AcDbEntity
 67
     1
  8
Defpoints
100
AcDbViewport
 10
211.6374382675827
 20
146.9348621411756
 30
0.0
 40
410.1517866444555
 41
287.3053455326816
 68
     2
 69
     2
 12
10.12574931113429
 22
7.071807682705056
 13
0.0
 23
0.0
 14
0.5
 24
0.5
 15
0.5
 25
0.5
 16
0.0
 26
0.0
 36
1.0
 17
0.0
 27
0.0
 37
-1000.0
 42
50.0
 43
4.148984367261674
 44
9.217858496371269
 45
14.36526866548175
 50
0.0
 51
0.0
 72
   100
 90
   819296
  1

281
     0
 71
     1
 74
     0
110
0.0
120
0.0
130
0.0
111
1.0
121
0.0
131
0.0
112
0.0
122
1.0
132
0.0
 79
     0
146
0.0
170
     0
  0
ENDSEC
  0
SECTION
  2
OBJECTS
  0
DICTIONARY
  5
C
330
0
100
AcDbDictionary
281
     1
  3
ACAD_COLOR
350
4B9
  3
ACAD_GROUP
350
D
  3
ACAD_LAYOUT
350
1A
  3
ACAD_MATERIAL
350
3B
  3
ACAD_MLEADERSTYLE
350
489
  3
ACAD_MLINESTYLE
350
17
  3
ACAD_PLOTSETTINGS
350
19
  3
ACAD_PLOTSTYLENAME
350
E
  3
ACAD_SCALELIST
350
7DE6
  3
ACAD_TABLESTYLE
350
4BA
  3
ACAD_VISUALSTYLE
350
2A
  3
ACDB_RECOMPOSE_DATA
350
7E1F
  3
AcDbVariableDictionary
350
487
  0
DICTIONARY
  5
84C
330
8
100
AcDbDictionary
280
     1
281
     1
  0
DICTIONARY
  5
7D1
330
2
100
AcDbDictionary
280
     1
281
     1
  3
ACAD_LAYERFILTERS
360
8AFE
  3
ACAD_LAYERSTATES
360
7D2
  3
ACLYDICTIONARY
360
8AFD
  0
DICTIONARY
  5
7E17
330
10
100
AcDbDictionary
280
     1
281
     1
  3
ADSK_XREC_LAYER_RECONCILED
360
7E18
  0
DICTIONARY
  5
7E19
330
87B
100
AcDbDictionary
280
     1
281
     1
  3
ADSK_XREC_LAYER_RECONCILED
360
7E1A
  0
DICTIONARY
  5
7E1B
330
87D
100
AcDbDictionary
280
     1
281
     1
  3
ADSK_XREC_LAYER_RECONCILED
360
7E1C
  0
DICTIONARY
  5
5F8
330
1F
100
AcDbDictionary
280
     1
281
     1
  3
ACAD_SORTENTS
360
5F9
  0
DICTIONARY
  5
94C3
330
94C2
100
AcDbDictionary
280
     1
281
     1
  3
ACAD_DIMASSOC
360
94C4
  0
DICTIONARY
  5
96CD
330
96C2
100
AcDbDictionary
280
     1
281
     1
  3
ACAD_DIMASSOC
360
96D5
  0
DICTIONARY
  5
4B9
102
{ACAD_REACTORS
330
C
102
}
330
C
100
AcDbDictionary
281
     1
  0
DICTIONARY
  5
D
102
{ACAD_REACTORS
330
C
102
}
330
C
100
AcDbDictionary
281
     1
  0
DICTIONARY
  5
1A
102
{ACAD_REACTORS
330
C
102
}
330
C
100
AcDbDictionary
281
     1
  3
Layout1
350
1E
  3
Model
350
22
  0
DICTIONARY
  5
3B
102
{ACAD_REACTORS
330
C
102
}
330
C
100
AcDbDictionary
281
     1
  3
ByBlock
350
3D
  3
ByLayer
350
3C
  3
Global
350
3E
  0
DICTIONARY
  5
489
102
{ACAD_REACTORS
330
C
102
}
330
C
100
AcDbDictionary
281
     1
  3
Standard
350
7E08
  0
DICTIONARY
  5
17
102
{ACAD_REACTORS
330
C
102
}
330
C
100
AcDbDictionary
281
     1
  3
Standard
350
18
  0
DICTIONARY
  5
19
102
{ACAD_REACTORS
330
C
102
}
330
C
100
AcDbDictionary
281
     1
  0
ACDBDICTIONARYWDFLT
  5
E
102
{ACAD_REACTORS
330
C
102
}
330
C
100
AcDbDictionary
281
     1
  3
Normal
350
F
100
AcDbDictionaryWithDefault
340
F
  0
DICTIONARY
  5
7DE6
102
{ACAD_REACTORS
330
C
102
}
330
C
100
AcDbDictionary
281
     1
  3
A0
350
7DE7
  3
A1
350
7DE8
  3
A2
350
7DE9
  3
A3
350
7DEA
  3
A4
350
7DEB
  3
A5
350
7DEC
  3
A6
350
7DED
  3
A7
350
7DEE
  3
A8
350
7DEF
  3
A9
350
7DF0
  3
B0
350
7DF1
  3
B1
350
7DF2
  3
B2
350
7DF3
  3
B3
350
7DF4
  3
B4
350
7DF5
  3
B5
350
7DF6
  3
B6
350
7DF7
  3
B7
350
7DF8
  3
B8
350
7DF9
  3
B9
350
7DFA
  3
C0
350
7DFB
  3
C1
350
7DFC
  3
C2
350
7DFD
  3
C3
350
7DFE
  3
C4
350
7DFF
  3
C5
350
7E00
  3
C6
350
7E01
  3
C7
350
7E02
  3
C8
350
7E03
  3
C9
350
7E04
  3
D0
350
7E05
  3
D1
350
7E06
  3
D2
350
7E07
  0
DICTIONARY
  5
4BA
102
{ACAD_REACTORS
330
C
102
}
330
C
100
AcDbDictionary
281
     1
  3
Standard
350
4BB
  0
DICTIONARY
  5
2A
102
{ACAD_REACTORS
330
C
102
}
330
C
100
AcDbDictionary
281
     1
  3
2dWireframe
350
2F
  3
3D Hidden
350
A47
  3
3dWireframe
350
A48
  3
Basic
350
32
  3
Brighten
350
36
  3
ColorChange
350
3A
  3
Conceptual
350
A4B
  3
Dim
350
35
  3
Facepattern
350
39
  3
Flat
350
2B
  3
FlatWithEdges
350
2C
  3
Gouraud
350
2D
  3
GouraudWithEdges
350
2E
  3
Linepattern
350
38
  3
Realistic
350
A4C
  3
Thicken
350
37
  0
XRECORD
  5
7E1F
102
{ACAD_REACTORS
330
C
102
}
330
C
100
AcDbXrecord
280
     1
 90
        1
330
4BB
  0
DICTIONARY
  5
487
102
{ACAD_REACTORS
330
C
102
}
330
C
100
AcDbDictionary
281
     1
  3
CANNOSCALE
350
7E22
  3
CMLEADERSTYLE
350
7E20
  3
CTABLESTYLE
350
5FE
  3
DIMASSOC
350
48A
  3
HIDETEXT
350
48B
  3
INDEXCTL
350
86B
  3
LIGHTINGUNITS
350
7E23
  3
MSLTSCALE
350
7E21
  3
SORTENTS
350
86A
  0
DICTIONARY
  5
8AFE
102
{ACAD_REACTORS
330
7D1
102
}
330
7D1
100
AcDbDictionary
281
     1
  0
DICTIONARY
  5
7D2
102
{ACAD_REACTORS
330
7D1
102
}
330
7D1
100
AcDbDictionary
281
     1
  0
DICTIONARY
  5
8AFD
102
{ACAD_REACTORS
330
7D1
102
}
330
7D1
100
AcDbDictionary
281
     1
1001
ACAD
1000
<All
  0
XRECORD
  5
7E18
102
{ACAD_REACTORS
330
7E17
102
}
330
7E17
100
AcDbXrecord
280
     1
290
     1
  0
XRECORD
  5
7E1A
102
{ACAD_REACTORS
330
7E19
102
}
330
7E19
100
AcDbXrecord
280
     1
290
     1
  0
XRECORD
  5
7E1C
102
{ACAD_REACTORS
330
7E1B
102
}
330
7E1B
100
AcDbXrecord
280
     1
290
     1
  0
SORTENTSTABLE
  5
5F9
102
{ACAD_REACTORS
330
5F8
102
}
330
5F8
100
AcDbSortentsTable
330
1F
  0
DIMASSOC
  5
94C4
102
{ACAD_REACTORS
330
94C3
102
}
330
94C3
100
AcDbDimAssoc
330
94C2
 90
        2
 70
     0
 71
     0
  1
AcDbOsnapPointRef
 72
    13
331
94C1
 73
     2
 91
        0
 40
0.0
 10
0.0
 20
0.0
 30
2.000000000000000E+50
 75
     0
  0
DIMASSOC
  5
96D5
102
{ACAD_REACTORS
330
96CD
102
}
330
96CD
100
AcDbDimAssoc
330
96C2
 90
        3
 70
     0
 71
     0
  1
AcDbOsnapPointRef
 72
    13
331
94C5
 73
     2
 91
        0
 40
0.0
 10
0.0
 20
0.0
 30
2.000000000000000E+50
 75
     0
  1
AcDbOsnapPointRef
 72
    13
331
94C0
 73
     2
 91
        0
 40
0.0
 10
0.0
 20
0.0
 30
2.000000000000000E+50
 75
     0
  0
LAYOUT
  5
1E
102
{ACAD_XDICTIONARY
360
7D4
102
}
102
{ACAD_REACTORS
330
1A
102
}
330
1A
100
AcDbPlotSettings
  1

  2
Bullzip PDF Printer
  4
A3
  6

 40
3.174999952316284
 41
3.174999952316284
 42
3.17498779296875
 43
3.17498779296875
 44
297.0530090332031
 45
420.1583251953125
 46
0.0
 47
0.0
 48
6.561544945354853
 49
3.282189374834842
140
416.7133315898103
141
290.5875349075164
142
1.0
143
1.0
 70
   672
 72
     1
 73
     1
 74
     4
  7
RINTAL 1.10.ctb
 75
    16
147
25.4
 76
     0
 77
     2
 78
   300
148
-6.561544945354853
149
-3.282189374834842
100
AcDbLayout
  1
Layout1
 70
     0
 71
     1
 10
3.386557152386103
 20
0.1071894225185588
 11
423.5448823476986
 21
297.1601984557217
 12
0.0
 22
0.0
 32
0.0
 14
6.561544945354853
 24
3.282189374834842
 34
0.0
 15
416.7133315898103
 25
290.5875349075164
 35
0.0
146
0.0
 13
0.0
 23
0.0
 33
0.0
 16
1.0
 26
0.0
 36
0.0
 17
0.0
 27
1.0
 37
0.0
 76
     0
330
1B
331
7CA
1001
ACAD_PSEXT
1000
Bullzip PDF Printer
1000
Bullzip PDF Printer
1000
BULLZIP
1000
Bullzip PDF Printer 7.2.0.1338
1070
     0
  0
LAYOUT
  5
22
102
{ACAD_REACTORS
330
1A
102
}
330
1A
100
AcDbPlotSettings
  1

  2
none_device
  4
Letter_(8.50_x_11.00_Inches)
  6

 40
6.349999904632568
 41
6.349999904632568
 42
6.350006103515625
 43
6.350006103515625
 44
215.8999938964844
 45
279.3999938964844
 46
0.0
 47
0.0
 48
0.0
 49
0.0
140
0.0
141
0.0
142
1.0
143
2.542453362598177
 70
 11952
 72
     0
 73
     1
 74
     0
  7

 75
     0
147
0.3933208823850687
 76
     0
 77
     2
 78
   300
148
22.59802589636836
149
-67.65999031387352
100
AcDbLayout
  1
Model
 70
     1
 71
     0
 10
0.0
 20
0.0
 11
12.0
 21
9.0
 12
0.0
 22
0.0
 32
0.0
 14
1.000000000000000E+20
 24
1.000000000000000E+20
 34
1.000000000000000E+20
 15
-1.000000000000000E+20
 25
-1.000000000000000E+20
 35
-1.000000000000000E+20
146
0.0
 13
0.0
 23
0.0
 33
0.0
 16
1.0
 26
0.0
 36
0.0
 17
0.0
 27
1.0
 37
0.0
 76
     0
330
1F
331
29
1001
ACAD_PSEXT
1000
Brak
1000
Brak
1000
Nie można zastosować.
1000
Arkusz nie zostanie wydrukowany dopóki nie wybrano konfiguracji plotera.
1070
     0
  0
MATERIAL
  5
3D
102
{ACAD_XDICTIONARY
360
96EB
102
}
102
{ACAD_REACTORS
330
3B
102
}
330
3B
100
AcDbMaterial
  1
ByBlock
 73
     1
 78
     1
172
     1
176
     1
270
     1
274
     1
  0
MATERIAL
  5
3C
102
{ACAD_XDICTIONARY
360
96E9
102
}
102
{ACAD_REACTORS
330
3B
102
}
330
3B
100
AcDbMaterial
  1
ByLayer
 73
     1
 78
     1
172
     1
176
     1
270
     1
274
     1
  0
MATERIAL
  5
3E
102
{ACAD_XDICTIONARY
360
96ED
102
}
102
{ACAD_REACTORS
330
3B
102
}
330
3B
100
AcDbMaterial
  1
Global
 73
     1
 78
     1
172
     1
176
     1
270
     1
274
     1
  0
MLEADERSTYLE
  5
7E08
102
{ACAD_REACTORS
330
489
102
}
330
489
100
AcDbMLeaderStyle
170
     2
171
     1
172
     0
 90
        2
 40
0.0
 41
0.0
173
     1
 91
-1056964608
340
14
 92
       -2
290
     1
 42
0.09
291
     1
 43
0.36
  3
Standard
 44
0.18
300

342
11
174
     1
178
     6
175
     1
176
     0
 93
-1056964608
 45
0.18
292
     0
297
     0
 46
0.18
 94
-1056964608
 47
1.0
 49
1.0
140
1.0
293
     1
141
0.0
294
     1
177
     0
142
1.0
295
     0
296
     0
143
0.125
1001
ACAD_MLEADERVER
1070
     2
  0
MLINESTYLE
  5
18
102
{ACAD_REACTORS
330
17
102
}
330
17
100
AcDbMlineStyle
  2
STANDARD
 70
     0
  3

 62
   256
 51
90.0
 52
90.0
 71
     2
 49
0.5
 62
   256
  6
BYLAYER
 49
-0.5
 62
   256
  6
BYLAYER
  0
ACDBPLACEHOLDER
  5
F
102
{ACAD_REACTORS
330
E
102
}
330
E
  0
SCALE
  5
7DE7
102
{ACAD_REACTORS
330
7DE6
102
}
330
7DE6
100
AcDbScale
 70
     0
300
1:1
140
1.0
141
1.0
290
     1
  0
SCALE
  5
7DE8
102
{ACAD_REACTORS
330
7DE6
102
}
330
7DE6
100
AcDbScale
 70
     0
300
1:2
140
1.0
141
2.0
290
     0
  0
SCALE
  5
7DE9
102
{ACAD_REACTORS
330
7DE6
102
}
330
7DE6
100
AcDbScale
 70
     0
300
1:4
140
1.0
141
4.0
290
     0
  0
SCALE
  5
7DEA
102
{ACAD_REACTORS
330
7DE6
102
}
330
7DE6
100
AcDbScale
 70
     0
300
1:5
140
1.0
141
5.0
290
     0
  0
SCALE
  5
7DEB
102
{ACAD_REACTORS
330
7DE6
102
}
330
7DE6
100
AcDbScale
 70
     0
300
1:8
140
1.0
141
8.0
290
     0
  0
SCALE
  5
7DEC
102
{ACAD_REACTORS
330
7DE6
102
}
330
7DE6
100
AcDbScale
 70
     0
300
1:10
140
1.0
141
10.0
290
     0
  0
SCALE
  5
7DED
102
{ACAD_REACTORS
330
7DE6
102
}
330
7DE6
100
AcDbScale
 70
     0
300
1:16
140
1.0
141
16.0
290
     0
  0
SCALE
  5
7DEE
102
{ACAD_REACTORS
330
7DE6
102
}
330
7DE6
100
AcDbScale
 70
     0
300
1:20
140
1.0
141
20.0
290
     0
  0
SCALE
  5
7DEF
102
{ACAD_REACTORS
330
7DE6
102
}
330
7DE6
100
AcDbScale
 70
     0
300
1:30
140
1.0
141
30.0
290
     0
  0
SCALE
  5
7DF0
102
{ACAD_REACTORS
330
7DE6
102
}
330
7DE6
100
AcDbScale
 70
     0
300
1:40
140
1.0
141
40.0
290
     0
  0
SCALE
  5
7DF1
102
{ACAD_REACTORS
330
7DE6
102
}
330
7DE6
100
AcDbScale
 70
     0
300
1:50
140
1.0
141
50.0
290
     0
  0
SCALE
  5
7DF2
102
{ACAD_REACTORS
330
7DE6
102
}
330
7DE6
100
AcDbScale
 70
     0
300
1:100
140
1.0
141
100.0
290
     0
  0
SCALE
  5
7DF3
102
{ACAD_REACTORS
330
7DE6
102
}
330
7DE6
100
AcDbScale
 70
     0
300
2:1
140
2.0
141
1.0
290
     0
  0
SCALE
  5
7DF4
102
{ACAD_REACTORS
330
7DE6
102
}
330
7DE6
100
AcDbScale
 70
     0
300
4:1
140
4.0
141
1.0
290
     0
  0
SCALE
  5
7DF5
102
{ACAD_REACTORS
330
7DE6
102
}
330
7DE6
100
AcDbScale
 70
     0
300
8:1
140
8.0
141
1.0
290
     0
  0
SCALE
  5
7DF6
102
{ACAD_REACTORS
330
7DE6
102
}
330
7DE6
100
AcDbScale
 70
     0
300
10:1
140
10.0
141
1.0
290
     0
  0
SCALE
  5
7DF7
102
{ACAD_REACTORS
330
7DE6
102
}
330
7DE6
100
AcDbScale
 70
     0
300
100:1
140
100.0
141
1.0
290
     0
  0
SCALE
  5
7DF8
102
{ACAD_REACTORS
330
7DE6
102
}
330
7DE6
100
AcDbScale
 70
     0
300
1/128" = 1'-0"
140
0.0078125
141
12.0
290
     0
  0
SCALE
  5
7DF9
102
{ACAD_REACTORS
330
7DE6
102
}
330
7DE6
100
AcDbScale
 70
     0
300
1/64" = 1'-0"
140
0.015625
141
12.0
290
     0
  0
SCALE
  5
7DFA
102
{ACAD_REACTORS
330
7DE6
102
}
330
7DE6
100
AcDbScale
 70
     0
300
1/32" = 1'-0"
140
0.03125
141
12.0
290
     0
  0
SCALE
  5
7DFB
102
{ACAD_REACTORS
330
7DE6
102
}
330
7DE6
100
AcDbScale
 70
     0
300
1/16" = 1'-0"
140
0.0625
141
12.0
290
     0
  0
SCALE
  5
7DFC
102
{ACAD_REACTORS
330
7DE6
102
}
330
7DE6
100
AcDbScale
 70
     0
300
3/32" = 1'-0"
140
0.09375
141
12.0
290
     0
  0
SCALE
  5
7DFD
102
{ACAD_REACTORS
330
7DE6
102
}
330
7DE6
100
AcDbScale
 70
     0
300
1/8" = 1'-0"
140
0.125
141
12.0
290
     0
  0
SCALE
  5
7DFE
102
{ACAD_REACTORS
330
7DE6
102
}
330
7DE6
100
AcDbScale
 70
     0
300
3/16" = 1'-0"
140
0.1875
141
12.0
290
     0
  0
SCALE
  5
7DFF
102
{ACAD_REACTORS
330
7DE6
102
}
330
7DE6
100
AcDbScale
 70
     0
300
1/4" = 1'-0"
140
0.25
141
12.0
290
     0
  0
SCALE
  5
7E00
102
{ACAD_REACTORS
330
7DE6
102
}
330
7DE6
100
AcDbScale
 70
     0
300
3/8" = 1'-0"
140
0.375
141
12.0
290
     0
  0
SCALE
  5
7E01
102
{ACAD_REACTORS
330
7DE6
102
}
330
7DE6
100
AcDbScale
 70
     0
300
1/2" = 1'-0"
140
0.5
141
12.0
290
     0
  0
SCALE
  5
7E02
102
{ACAD_REACTORS
330
7DE6
102
}
330
7DE6
100
AcDbScale
 70
     0
300
3/4" = 1'-0"
140
0.75
141
12.0
290
     0
  0
SCALE
  5
7E03
102
{ACAD_REACTORS
330
7DE6
102
}
330
7DE6
100
AcDbScale
 70
     0
300
1" = 1'-0"
140
1.0
141
12.0
290
     0
  0
SCALE
  5
7E04
102
{ACAD_REACTORS
330
7DE6
102
}
330
7DE6
100
AcDbScale
 70
     0
300
1-1/2" = 1'-0"
140
1.5
141
12.0
290
     0
  0
SCALE
  5
7E05
102
{ACAD_REACTORS
330
7DE6
102
}
330
7DE6
100
AcDbScale
 70
     0
300
3" = 1'-0"
140
3.0
141
12.0
290
     0
  0
SCALE
  5
7E06
102
{ACAD_REACTORS
330
7DE6
102
}
330
7DE6
100
AcDbScale
 70
     0
300
6" = 1'-0"
140
6.0
141
12.0
290
     0
  0
SCALE
  5
7E07
102
{ACAD_REACTORS
330
7DE6
102
}
330
7DE6
100
AcDbScale
 70
     0
300
1'-0" = 1'-0"
140
12.0
141
12.0
290
     0
  0
TABLESTYLE
  5
4BB
102
{ACAD_XDICTIONARY
360
7E1D
102
}
102
{ACAD_REACTORS
330
4BA
102
}
330
4BA
100
AcDbTableStyle
  3
Standard
 70
     0
 71
     0
 40
0.06
 41
0.06
280
     0
281
     0
  7
Standard
140
0.18
170
     2
 62
     0
 63
     7
283
     0
274
    -2
284
     1
 64
     0
275
    -2
285
     1
 65
     0
276
    -2
286
     1
 66
     0
277
    -2
287
     1
 67
     0
278
    -2
288
     1
 68
     0
279
    -2
289
     1
 69
     0
  7
Standard
140
0.25
170
     5
 62
     0
 63
     7
283
     0
274
    -2
284
     1
 64
     0
275
    -2
285
     1
 65
     0
276
    -2
286
     1
 66
     0
277
    -2
287
     1
 67
     0
278
    -2
288
     1
 68
     0
279
    -2
289
     1
 69
     0
  7
Standard
140
0.18
170
     5
 62
     0
 63
     7
283
     0
274
    -2
284
     1
 64
     0
275
    -2
285
     1
 65
     0
276
    -2
286
     1
 66
     0
277
    -2
287
     1
 67
     0
278
    -2
288
     1
 68
     0
279
    -2
289
     1
 69
     0
  0
VISUALSTYLE
  5
2F
102
{ACAD_XDICTIONARY
360
49A
102
}
102
{ACAD_REACTORS
330
2A
102
}
330
2A
100
AcDbVisualStyle
  2
2dWireframe
 70
     4
 71
     0
 72
     2
 73
     0
 90
        0
 40
-0.6
 41
-30.0
 62
     5
 63
     7
 74
     1
 91
        4
 64
     7
 65
   257
 75
     1
175
     1
 42
1.0
 92
        0
 66
   257
 43
1.0
 76
     1
 77
     6
 78
     2
 67
     7
 79
     5
170
     0
171
     0
290
     0
174
     0
 93
        1
 44
0.0
173
     0
291
     0
 45
0.0
1001
ACAD
1000
AcDbSavedByObjectVersion
1070
     0
  0
VISUALSTYLE
  5
A47
102
{ACAD_REACTORS
330
2A
102
}
330
2A
100
AcDbVisualStyle
  2
3D Hidden
 70
     6
 71
     1
 72
     2
 73
     2
 90
        0
 40
-0.6
 41
-30.0
 62
     5
 63
     7
 74
     2
 91
        2
 64
     7
 65
   257
 75
     2
175
     1
 42
40.0
 92
        0
 66
   257
 43
1.0
 76
     1
 77
     6
 78
     2
 67
     7
 79
     3
170
     0
171
     0
290
     0
174
     0
 93
        1
 44
0.0
173
     0
291
     0
 45
0.0
1001
ACAD
1000
AcDbSavedByObjectVersion
1070
     0
  0
VISUALSTYLE
  5
A48
102
{ACAD_XDICTIONARY
360
A49
102
}
102
{ACAD_REACTORS
330
2A
102
}
330
2A
100
AcDbVisualStyle
  2
3dWireframe
 70
     5
 71
     0
 72
     2
 73
     0
 90
        0
 40
-0.6
 41
-30.0
 62
     5
 63
     7
 74
     1
 91
        4
 64
     7
 65
   257
 75
     1
175
     1
 42
1.0
 92
        0
 66
   257
 43
1.0
 76
     1
 77
     6
 78
     2
 67
     7
 79
     5
170
     0
171
     0
290
     0
174
     0
 93
        1
 44
0.0
173
     0
291
     0
 45
0.0
1001
ACAD
1000
AcDbSavedByObjectVersion
1070
     0
  0
VISUALSTYLE
  5
32
102
{ACAD_XDICTIONARY
360
4A0
102
}
102
{ACAD_REACTORS
330
2A
102
}
330
2A
100
AcDbVisualStyle
  2
Basic
 70
     7
 71
     1
 72
     0
 73
     1
 90
        0
 40
-0.6
 41
-30.0
 62
     5
 63
     7
 74
     0
 91
        4
 64
     7
 65
   257
 75
     1
175
     1
 42
1.0
 92
        8
 66
     7
 43
1.0
 76
     1
 77
     6
 78
     2
 67
     7
 79
     5
170
     0
171
     0
290
     0
174
     0
 93
        1
 44
0.0
173
     0
291
     1
 45
0.0
1001
ACAD
1000
AcDbSavedByObjectVersion
1070
     0
  0
VISUALSTYLE
  5
36
102
{ACAD_XDICTIONARY
360
4A8
102
}
102
{ACAD_REACTORS
330
2A
102
}
330
2A
100
AcDbVisualStyle
  2
Brighten
 70
    12
 71
     2
 72
     2
 73
     0
 90
        0
 40
-0.6
 41
-30.0
 62
     5
 63
     7
 74
     1
 91
        4
 64
     7
 65
   257
 75
     1
175
     1
 42
1.0
 92
        8
 66
     7
 43
1.0
 76
     1
 77
     6
 78
     2
 67
     7
 79
     5
170
     0
171
     0
290
     0
174
     0
 93
        1
 44
50.0
173
     0
291
     1
 45
0.0
1001
ACAD
1000
AcDbSavedByObjectVersion
1070
     0
  0
VISUALSTYLE
  5
3A
102
{ACAD_XDICTIONARY
360
4B0
102
}
102
{ACAD_REACTORS
330
2A
102
}
330
2A
100
AcDbVisualStyle
  2
ColorChange
 70
    16
 71
     2
 72
     2
 73
     3
 90
        0
 40
-0.6
 41
-30.0
 62
     5
 63
     8
 74
     1
 91
        4
 64
     7
 65
   257
 75
     1
175
     1
 42
1.0
 92
        8
 66
     8
 43
1.0
 76
     1
 77
     6
 78
     2
 67
     7
 79
     5
170
     0
171
     0
290
     0
174
     0
 93
        1
 44
0.0
173
     0
291
     1
 45
0.0
1001
ACAD
1000
AcDbSavedByObjectVersion
1070
     0
  0
VISUALSTYLE
  5
A4B
102
{ACAD_REACTORS
330
2A
102
}
330
2A
100
AcDbVisualStyle
  2
Conceptual
 70
     9
 71
     3
 72
     2
 73
     0
 90
        0
 40
-0.6
 41
-30.0
 62
     5
 63
     7
 74
     2
 91
        2
 64
     7
 65
   257
 75
     1
175
     1
 42
40.0
 92
        8
 66
     7
 43
1.0
 76
     1
 77
     6
 78
     2
 67
     7
 79
     3
170
     0
171
     0
290
     0
174
     0
 93
        1
 44
0.0
173
     0
291
     0
 45
0.0
1001
ACAD
1000
AcDbSavedByObjectVersion
1070
     0
  0
VISUALSTYLE
  5
35
102
{ACAD_XDICTIONARY
360
4A6
102
}
102
{ACAD_REACTORS
330
2A
102
}
330
2A
100
AcDbVisualStyle
  2
Dim
 70
    11
 71
     2
 72
     2
 73
     0
 90
        0
 40
-0.6
 41
-30.0
 62
     5
 63
     7
 74
     1
 91
        4
 64
     7
 65
   257
 75
     1
175
     1
 42
1.0
 92
        8
 66
     7
 43
1.0
 76
     1
 77
     6
 78
     2
 67
     7
 79
     5
170
     0
171
     0
290
     0
174
     0
 93
        1
 44
-50.0
173
     0
291
     1
 45
0.0
1001
ACAD
1000
AcDbSavedByObjectVersion
1070
     0
  0
VISUALSTYLE
  5
39
102
{ACAD_XDICTIONARY
360
4AE
102
}
102
{ACAD_REACTORS
330
2A
102
}
330
2A
100
AcDbVisualStyle
  2
Facepattern
 70
    15
 71
     2
 72
     2
 73
     0
 90
        0
 40
-0.6
 41
-30.0
 62
     5
 63
     7
 74
     1
 91
        4
 64
     7
 65
   257
 75
     1
175
     1
 42
1.0
 92
        8
 66
     7
 43
1.0
 76
     1
 77
     6
 78
     2
 67
     7
 79
     5
170
     0
171
     0
290
     0
174
     0
 93
        1
 44
0.0
173
     0
291
     1
 45
0.0
1001
ACAD
1000
AcDbSavedByObjectVersion
1070
     0
  0
VISUALSTYLE
  5
2B
102
{ACAD_XDICTIONARY
360
492
102
}
102
{ACAD_REACTORS
330
2A
102
}
330
2A
100
AcDbVisualStyle
  2
Flat
 70
     0
 71
     2
 72
     1
 73
     1
 90
        2
 40
-0.6
 41
30.0
 62
     5
 63
     7
 74
     0
 91
        4
 64
     7
 65
   257
 75
     1
175
     1
 42
1.0
 92
        8
 66
     7
 43
1.0
 76
     1
 77
     6
 78
     2
 67
     7
 79
     5
170
     0
171
     0
290
     0
174
     0
 93
       13
 44
0.0
173
     0
291
     1
 45
0.0
1001
ACAD
1000
AcDbSavedByObjectVersion
1070
     0
  0
VISUALSTYLE
  5
2C
102
{ACAD_XDICTIONARY
360
494
102
}
102
{ACAD_REACTORS
330
2A
102
}
330
2A
100
AcDbVisualStyle
  2
FlatWithEdges
 70
     1
 71
     2
 72
     1
 73
     1
 90
        2
 40
-0.6
 41
30.0
 62
     5
 63
     7
 74
     1
 91
        4
 64
     7
 65
   257
 75
     1
175
     1
 42
1.0
 92
        0
 66
   257
 43
1.0
 76
     1
 77
     6
 78
     2
 67
     7
 79
     5
170
     0
171
     0
290
     0
174
     0
 93
       13
 44
0.0
173
     0
291
     1
 45
0.0
1001
ACAD
1000
AcDbSavedByObjectVersion
1070
     0
  0
VISUALSTYLE
  5
2D
102
{ACAD_XDICTIONARY
360
496
102
}
102
{ACAD_REACTORS
330
2A
102
}
330
2A
100
AcDbVisualStyle
  2
Gouraud
 70
     2
 71
     2
 72
     2
 73
     1
 90
        2
 40
-0.6
 41
30.0
 62
     5
 63
     7
 74
     0
 91
        4
 64
     7
 65
   257
 75
     1
175
     1
 42
1.0
 92
        0
 66
     7
 43
1.0
 76
     1
 77
     6
 78
     2
 67
     7
 79
     5
170
     0
171
     0
290
     0
174
     0
 93
       13
 44
0.0
173
     0
291
     1
 45
0.0
1001
ACAD
1000
AcDbSavedByObjectVersion
1070
     0
  0
VISUALSTYLE
  5
2E
102
{ACAD_XDICTIONARY
360
498
102
}
102
{ACAD_REACTORS
330
2A
102
}
330
2A
100
AcDbVisualStyle
  2
GouraudWithEdges
 70
     3
 71
     2
 72
     2
 73
     1
 90
        2
 40
-0.6
 41
30.0
 62
     5
 63
     7
 74
     1
 91
        4
 64
     7
 65
   257
 75
     1
175
     1
 42
1.0
 92
        0
 66
   257
 43
1.0
 76
     1
 77
     6
 78
     2
 67
     7
 79
     5
170
     0
171
     0
290
     0
174
     0
 93
       13
 44
0.0
173
     0
291
     1
 45
0.0
1001
ACAD
1000
AcDbSavedByObjectVersion
1070
     0
  0
VISUALSTYLE
  5
38
102
{ACAD_XDICTIONARY
360
4AC
102
}
102
{ACAD_REACTORS
330
2A
102
}
330
2A
100
AcDbVisualStyle
  2
Linepattern
 70
    14
 71
     2
 72
     2
 73
     0
 90
        0
 40
-0.6
 41
-30.0
 62
     5
 63
     7
 74
     1
 91
        4
 64
     7
 65
   257
 75
     7
175
     7
 42
1.0
 92
        8
 66
     7
 43
1.0
 76
     1
 77
     6
 78
     2
 67
     7
 79
     5
170
     0
171
     0
290
     0
174
     0
 93
        1
 44
0.0
173
     0
291
     1
 45
0.0
1001
ACAD
1000
AcDbSavedByObjectVersion
1070
     0
  0
VISUALSTYLE
  5
A4C
102
{ACAD_XDICTIONARY
360
A4D
102
}
102
{ACAD_REACTORS
330
2A
102
}
330
2A
100
AcDbVisualStyle
  2
Realistic
 70
     8
 71
     2
 72
     2
 73
     0
 90
        0
 40
-0.6
 41
-30.0
 62
     5
 63
     7
 74
     1
 91
        0
 64
     7
 65
   257
 75
     1
175
     1
 42
1.0
 92
        8
 66
     8
 43
1.0
 76
     1
 77
     6
 78
     2
 67
     7
 79
     5
170
     0
171
     0
290
     0
174
     0
 93
       13
 44
0.0
173
     0
291
     0
 45
0.0
1001
ACAD
1000
AcDbSavedByObjectVersion
1070
     0
  0
VISUALSTYLE
  5
37
102
{ACAD_XDICTIONARY
360
4AA
102
}
102
{ACAD_REACTORS
330
2A
102
}
330
2A
100
AcDbVisualStyle
  2
Thicken
 70
    13
 71
     2
 72
     2
 73
     0
 90
        0
 40
-0.6
 41
-30.0
 62
     5
 63
     7
 74
     1
 91
        4
 64
     7
 65
   257
 75
     1
175
     1
 42
1.0
 92
       12
 66
     7
 43
1.0
 76
     1
 77
     6
 78
     2
 67
     7
 79
     5
170
     0
171
     0
290
     0
174
     0
 93
        1
 44
0.0
173
     0
291
     1
 45
0.0
1001
ACAD
1000
AcDbSavedByObjectVersion
1070
     0
  0
DICTIONARYVAR
  5
7E22
102
{ACAD_REACTORS
330
487
102
}
330
487
100
DictionaryVariables
280
     0
  1
1:1
  0
DICTIONARYVAR
  5
7E20
102
{ACAD_REACTORS
330
487
102
}
330
487
100
DictionaryVariables
280
     0
  1
STANDARD
  0
DICTIONARYVAR
  5
5FE
102
{ACAD_REACTORS
330
487
102
}
330
487
100
DictionaryVariables
280
     0
  1
STANDARD
  0
DICTIONARYVAR
  5
48A
102
{ACAD_REACTORS
330
487
102
}
330
487
100
DictionaryVariables
280
     0
  1
2
  0
DICTIONARYVAR
  5
48B
102
{ACAD_REACTORS
330
487
102
}
330
487
100
DictionaryVariables
280
     0
  1
1
  0
DICTIONARYVAR
  5
86B
102
{ACAD_REACTORS
330
487
102
}
330
487
100
DictionaryVariables
280
     0
  1
0
  0
DICTIONARYVAR
  5
7E23
102
{ACAD_REACTORS
330
487
102
}
330
487
100
DictionaryVariables
280
     0
  1
0
  0
DICTIONARYVAR
  5
7E21
102
{ACAD_REACTORS
330
487
102
}
330
487
100
DictionaryVariables
280
     0
  1
0
  0
DICTIONARYVAR
  5
86A
102
{ACAD_REACTORS
330
487
102
}
330
487
100
DictionaryVariables
280
     0
  1
127
  0
DICTIONARY
  5
7D4
330
1E
100
AcDbDictionary
280
     1
281
     1
  3
ADSK_XREC_LAYOUTTHUMBNAIL
360
7D5
  0
DICTIONARY
  5
96EB
330
3D
100
AcDbDictionary
280
     1
281
     1
  3
ACAD_XREC_ROUNDTRIP
360
96EC
  0
DICTIONARY
  5
96E9
330
3C
100
AcDbDictionary
280
     1
281
     1
  3
ACAD_XREC_ROUNDTRIP
360
96EA
  0
DICTIONARY
  5
96ED
330
3E
100
AcDbDictionary
280
     1
281
     1
  3
ACAD_XREC_ROUNDTRIP
360
96EE
  0
DICTIONARY
  5
7E1D
330
4BB
100
AcDbDictionary
280
     1
281
     1
  3
ACAD_ROUNDTRIP_2008_TABLESTYLE_CELLSTYLEMAP
360
96E8
  3
ACAD_XREC_ROUNDTRIP
360
96EF
  0
DICTIONARY
  5
49A
330
2F
100
AcDbDictionary
280
     1
281
     1
  3
ACAD_XREC_ROUNDTRIP
360
49B
  0
DICTIONARY
  5
A49
330
A48
100
AcDbDictionary
280
     1
281
     1
  3
ACAD_XREC_ROUNDTRIP
360
A4A
  0
DICTIONARY
  5
4A0
330
32
100
AcDbDictionary
280
     1
281
     1
  3
ACAD_XREC_ROUNDTRIP
360
4A1
  0
DICTIONARY
  5
4A8
330
36
100
AcDbDictionary
280
     1
281
     1
  3
ACAD_XREC_ROUNDTRIP
360
4A9
  0
DICTIONARY
  5
4B0
330
3A
100
AcDbDictionary
280
     1
281
     1
  3
ACAD_XREC_ROUNDTRIP
360
4B1
  0
DICTIONARY
  5
4A6
330
35
100
AcDbDictionary
280
     1
281
     1
  3
ACAD_XREC_ROUNDTRIP
360
4A7
  0
DICTIONARY
  5
4AE
330
39
100
AcDbDictionary
280
     1
281
     1
  3
ACAD_XREC_ROUNDTRIP
360
4AF
  0
DICTIONARY
  5
492
330
2B
100
AcDbDictionary
280
     1
281
     1
  3
ACAD_XREC_ROUNDTRIP
360
493
  0
DICTIONARY
  5
494
330
2C
100
AcDbDictionary
280
     1
281
     1
  3
ACAD_XREC_ROUNDTRIP
360
495
  0
DICTIONARY
  5
496
330
2D
100
AcDbDictionary
280
     1
281
     1
  3
ACAD_XREC_ROUNDTRIP
360
497
  0
DICTIONARY
  5
498
330
2E
100
AcDbDictionary
280
     1
281
     1
  3
ACAD_XREC_ROUNDTRIP
360
499
  0
DICTIONARY
  5
4AC
330
38
100
AcDbDictionary
280
     1
281
     1
  3
ACAD_XREC_ROUNDTRIP
360
4AD
  0
DICTIONARY
  5
A4D
330
A4C
100
AcDbDictionary
280
     1
281
     1
  3
ACAD_XREC_ROUNDTRIP
360
A4E
  0
DICTIONARY
  5
4AA
330
37
100
AcDbDictionary
280
     1
281
     1
  3
ACAD_XREC_ROUNDTRIP
360
4AB
  0
XRECORD
  5
7D5
102
{ACAD_REACTORS
330
7D4
102
}
330
7D4
100
AcDbXrecord
280
     1
310
28000000B40000007F00000001000800000000004C59000000000000000000000001000000000000FFFFFF0000000000FFFFFF000000000000000000000000000000000000000000000000000000000000000000330000006600000099000000CC000000FF00000000330000333300006633000099330000CC330000FF3300
310
0000660000336600006666000099660000CC660000FF66000000990000339900006699000099990000CC990000FF99000000CC000033CC000066CC000099CC0000CCCC0000FFCC000000FF000033FF000066FF000099FF0000CCFF0000FFFF000000003300330033006600330099003300CC003300FF003300003333003333
310
33006633330099333300CC333300FF33330000663300336633006666330099663300CC663300FF66330000993300339933006699330099993300CC993300FF99330000CC330033CC330066CC330099CC3300CCCC3300FFCC330000FF330033FF330066FF330099FF3300CCFF3300FFFF330000006600330066006600660099
310
006600CC006600FF00660000336600333366006633660099336600CC336600FF33660000666600336666006666660099666600CC666600FF66660000996600339966006699660099996600CC996600FF99660000CC660033CC660066CC660099CC6600CCCC6600FFCC660000FF660033FF660066FF660099FF6600CCFF6600
310
FFFF660000009900330099006600990099009900CC009900FF00990000339900333399006633990099339900CC339900FF33990000669900336699006666990099669900CC669900FF66990000999900339999006699990099999900CC999900FF99990000CC990033CC990066CC990099CC9900CCCC9900FFCC990000FF99
310
0033FF990066FF990099FF9900CCFF9900FFFF99000000CC003300CC006600CC009900CC00CC00CC00FF00CC000033CC003333CC006633CC009933CC00CC33CC00FF33CC000066CC003366CC006666CC009966CC00CC66CC00FF66CC000099CC003399CC006699CC009999CC00CC99CC00FF99CC0000CCCC0033CCCC0066CC
310
CC0099CCCC00CCCCCC00FFCCCC0000FFCC0033FFCC0066FFCC0099FFCC00CCFFCC00FFFFCC000000FF003300FF006600FF009900FF00CC00FF00FF00FF000033FF003333FF006633FF009933FF00CC33FF00FF33FF000066FF003366FF006666FF009966FF00CC66FF00FF66FF000099FF003399FF006699FF009999FF00CC
310
99FF00FF99FF0000CCFF0033CCFF0066CCFF0099CCFF00CCCCFF00FFCCFF0000FFFF0033FFFF0066FFFF0099FFFF00CCFFFF00FFFFFF00000000000D0D0D001A1A1A00282828003535350043434300505050005D5D5D006B6B6B00787878008686860093939300A1A1A100AEAEAE00BBBBBB00C9C9C900D6D6D600E4E4E400
310
F1F1F100FFFFFF0000000000000000000000000000000000000000000000000000000000000000000000000000000000E2E2E2E2E2E2E2E2E2E2E2E2E2E2E2E2E2E2E2E2E2E2E2E2E2E2E2E2E2E2E2E2E2E2E2E2E2E2E2E2E2E2E2E2E2E2E2E2E2E2E2E2E2E2E2E2E2E2E2E2E2E2E2E2E2E2E2E2E2E2E2E2E2E2E2E2E2E2E2
310
E2E2E2E2E2E2E2E2E2E2E2E2E2E2E2E2E2E2E2E2E2E2E2E2E2E2E2E2E2E2E2E2E2E2E2E2E2E2E2E2E2E2E2E2E2E2E2E2E2E2E2E2E2E2E2E2E2E2E2E2E2E2E2E2E2E2E2E2E2E2E2E2E2E2E2E2E2E2E2E2E2E2E2E2E2E2E2E2E2E2E2E2E2E2E2E2E2E2E2E2EFE2E2E2E2E2E2E2E2E2E2E2E2E2E2E2E2E2E2E2E2E2E2E2E2E2E2
310
E2E2E2E2E2E2E2E2E2E2E2E2E2E2E2E2E2E2E2E2E2E2E2E2E2E2E2E2E2E2E2E2E2E2E2E2E2E2E2E2E2E2E2E2E2E2E2E2E2E2E2E2E2E2E2E2E2E2E2E2E2E2E2E2E2E2E2E2E2E2E2E2E2E2E2E2E2E2E2E2E2E2E2E2E2E2E2E2E2E2E2E2E2E2E2E2E2E2E2E2E2E2E2E2E2E2E2E2E2E2E2E2E2E2E2E2E2E2E2E2E2E2E2E2E2E2E2
310
E2E2E2E2E2E2E2E2E2E2E2E2E2E2E2E2E2E2E2E2E2E2E2E2E2E2EFE2E2F5F5F5F5F5F5F5F5F5F5F5F5F5F5F5F5F5F5F5F5F5F5F5F5F5F5F5F5F5F5F5F5F5F5F5F5F5F5F5F5F5F5F5F5F5F5F5F5F5F5F5F5F5F5F5F5F5F5F5F5F5F5F5F5F5F5F5F5F5F5F5F5F5F5F5F5F5F5F5F5F5F5F5F5F5F5F5F5F5F5F5F5F5F5F5F5F5F5
310
F5F5F5F5F5F5F5F5F5F5F5F5F5F5F5F5F5F5F5F5F5F5F5F5F5F5F5F5F5F5F5F5F5F5F5F5F5F5F5F5F5F5F5F5F5F5F5F5F5F5F5F5F5F5F5F5F5F5F5F5F5F5F5F5F5F5F5F5F5F5F5F5F5F5F5E2E2E2E2EFE2E2F5F5F5F5F5F5F5F5F5F5F5F5F5F5F5F5F5F5F5F5F5F5F5F5F5F5F5F5F5F5F5F5F5F5F5F5F5F5F5F5F5F5F5F5F5
310
F5F5F5F5F5F5F5F5F5F5F5F5F5F5F5F5F5F5F5F5F5F5F5F5F5F5F5F5F5F5F5F5F5F5F5F5F5F5F5F5F5F5F5F5F5F5F5F5F5F5F5F5F5F5F5F5F5F5F5F5F5F5F5F5F5F5F5F5F5F5F5F5F5F5F5F5F5F5F5F5F5F5F5F5F5F5F5F5F5F5F5F5F5F5F5F5F5F5F5F5F5F5F5F5F5F5F5F5F5F5F5F5F5F5F5F5F5F5F5F5F5F5F5F5F5F5F5
310
F5E2E2E2E2EFE2E2F5F5F5F5F5F5F5F5F5F5F5F5F5F5F5F5F5F5F5F5F5F5F5F5F5F5F5F5F5F5F5F5F5F5F5F5F5F5F5F5F5F5F5F5F5F5F5F5F5F5F5F5F5F5F5F5F5F5F5F5F5F5F5F5F5F5F5F5F5F5F5F5F5F5F5F5F5F5F5F5F5F5F5F5F5F5F5F5F5F5F5F5F5F5F5F5F5F5F5F5F5F5F5F5F5F5F5F5F5F5F5F5F5F5F5F5F5F5F5
310
F5F5F5F5F5F5F5F5F5F5F5F5F5F5F5F5F5F5F5F5F5F5F5F5F5F5F5F5F5F5F5F5F5F5F5F5F5F5F5F5F5F5F5F5F5F5F5F5F5F5F5F5F5F5E2E2E2E2EFE2E2F5F5F5F5F5F5F5F5F5F5F5F5F5F5F5F5F5F5F5F5F5F5F5F5F5F5F5F5F5F5F5F5F5F5F5F5F5F5F5F5F5F5F5F5F5F5F5F5F5F5F5F5F5F5F5F5F5F5F5F5F5F5F5F5F5F5
310
F5F5F5F5F5F5F5F5F5F5F5F5F5F5F5F5F5F5F5F5F5F5F5F5F5F5F5F5F5F5F5F5F5F5F5F5F5F5F5F5F5F5F5F5F5F5F5F5F5F5F5F5F5F5F5F5F5F5F5F5F5F5F5F5F5F5F5F5F5F5F5F5F5F5F5F5F5F5F5F5F5F5F5F5F5F5F5F5F5F5F5F5F5F5F5F5F5F5F5F5F5F5F5F5F5F5F5E2E2E2E2EFE2E2F5F5F5F5F5F5F5F5F5F5F5F5F5
310
F5F5F5F5F5F5F5F5F5F5F5F5F5F5F5F5F5F5F5F5F5F5F5F5F5F5F5F5F5F5F5F5F5F5F5F5F5F5F5F5F5F5F5F5F5F5F5F5F5F5F5F5F5F5F5F5F5F5F5F5F5F5F5F5F5F5F5F5F5F5F5F5F5F5F5F5F5F5F5F5F5F5F5F5F5F5F5F5F5F5F5F5F5F5F5F5F5F5F5F5F5F5F5F5F5F5F5F5F5F5F5F5F5F5F5F5F5F5F5F5F5F5F5F5F5F5F5
310
F5F5F5F5F5F5F5F5F5F5F5F5F5F5F5F5F5F5F5F5F5F5F5F5F5F5F5F5F5F5F5F5F5E2E2E2E2EFE2E2F5F5F5F5F5F5F5F5F5F5F5F5F5F5F5F5F5F5F5F5F5F5F5F5F5F5F5F5F5F5F5F5F5F5F5F5F5F5F5F5F5F5F5F5F5F5F5F5F5F5F5F5F5F5F5F5F5F5F5F5F5F5F5F5F5F5F5F5F5F5F5F5F5F5F5F5F5F5F5F5F5F5F5F5F5F5F5
310
F5F5F5F5F5F5F5F5F5F5F5F5F5F5F5F5F5F5F5F5F5F5F5F5F5F5F5F5F5F5F5F5F5F5F5F5F5F5F5F5F5F5F5F5F5F5F5F5F5F5F5F5F5F5F5F5F5F5F5F5F5F5F5F5F5F5F5F5F5F5F5F5F5F5F5F5F5F5F5F5F5F5F5F5F5F5E2E2E2E2EFE2E2F5F5F5F5F5F5F5F5F5F5F5F5F5F5F5F5F5F5F5F5F5F5F5F5F5F5F5F5F5F5F5F5F5F5
310
F5F5F5F5F5F5F5F5F5F5F5F5F5F5F5F5F5F5F5F5F5F5F5F5F5F5F5F5F5F5F5F5F5F5F5F5F5F5F5F5F5F5F5F5F5F5F5F5F5F5F5F5F5F5F5F5F5F5F5F5F5F5F5F5F5F5F5F5F5F5F5F5F5F5F5F5F5F5F5F5F5F5F5F5F5F5F5F5F5F5F5F5F5F5F5F5F5F5F5F5F5F5F5F5F5F5F5F5F5F5F5F5F5F5F5F5F5F5F5F5F5F5F5F5F5F5F5
310
F5F5F5F5F5F5F5F5F5F5F5F5E2E2E2E2EFE2E2F5F5F5F5F5F5F5F5F5F5F5F5F5F5F5F5F5F5F5F5F5F5F5F5F5F5F5F5F5F5F5F5F5F5F5F5F5F5F5F5F5F5F5F5F5F5F5F5F5F5F5F5F5F5F5F5F5F5F5F5F5F5F5F5F5F5F5F5F5F5F5F5F5F5F5F5F5F5F5F5F5F5F5F5F5F5F5F5F5F5F5F5F5F5F5F5F5F5F5F5F5F5F5F5F5F5F5F5
310
F5F5F5F5F5F5F5F5F5F5F5F5F5F5F5F5F5F5F5F5F5F5F5F5F5F5F5F5F5F5F5F5F5F5F5F5F5F5F5F5F5F5F5F5F5F5F5F5F5F5F5F5F5F5F5F5F5F5F5F5F5F5F5F5F5E2F5E2E2EFE2E2F5F5F5F5F5F5F5F5F5F5F5F5F5F5F5F5F5F5F5F5F5F5F5F5F5F5F5F5F5F5F5F5F5F5F5F5F5F5F5F5F5F5F5F5F5F5F5F5F5F5F5F5F5F5F5
310
F5F5F5F5F5F5F5F5F5F5F5F5F5F5F5F5F5F5F5F5F5F5F5F5F5F5F5F5F5F5F5F5F5F5F5F5F5F5F5F5F5F5F5F5F5F5F5F5F5F5F5F5F5F5F5F5F5F5F5F5F5F5F5F5F5F5F5F5F5F5F5F5F5F5F5F5F5F5F5F5F5F5F5F5F5F5F5F5F5F5F5F5F5F5F5F5F5F5F5F5F5F5F5F5F5F5F5F5F5F5F5F5F5F5F5F5F5F5E2F5E2E2EFE2E2F5F5
310
F5F5F5F5F5F5F5F5F5F5F5F5F5F5F5F5F5F5F5F5F5F5F5F5F5F5F5F5F5F5F5F5F5F5F5F5F5F5F5F5F5F5F5F5F5F5F5F5F5F5F5F5F5F5F5F5F5F5F5F5F5F5F5F5F5F5F5F5F5F5F5F5F5F5F5F5F5E2E2E2E2E2E2E2E2E2E2E2E2E2E2E2E2E2E2E2E2E2E2E2E2E2E2E2E2E2E2E2F5F5F5F5F5F5F5F5F5F5F5F5F5F5F5F5F5F5F5
310
F5F5F5F5F5F5F5F5F5F5F5F5F5F5F5F5F5F5F5F5F5F5F5F5F5F5F5F5F5F5F5F5F5F5F5F5F5F5F5F5F5F5F5F5E2F5E2E2EFE2E2F5F5F5F5F5F5F5F5F5F5F5F5F5F5F5F5F5F5F5F5F5F5F5F5F5F5F5F5F5F5F5F5F5F5F5F5F5F5F5F5F5F5F5F5F5F5F5F5F5F5F5F5F5F5F5F5F5F5F5F5F5F5F5F5F5F5F5F5F5F5F5F5F5F5F5F5
310
F5F5F5E2E2E2E2E2E2E2E2E2E2E2E2E2E2E2E2E2E2E2E2E2E2E2E2E2E2E2E2E2E2E2F5F5F5F5F5F5F5F5F5F5F5F5F5F5F5F5F5F5F5F5F5F5F5F5F5F5F5F5F5F5F5F5F5F5F5F5F5F5F5F5F5F5F5F5F5F5F5F5F5F5F5F5F5F5F5F5F5F5F5F5F5F5F5E2F5E2E2EFE2E2F5F5F5F5F5F5F5F5F5F5F5F5F5F5F5F5F5F5F5F5F5F5F5
310
F5F5F5F5F5F5F5F5F5F5F5F5F5F5F5F5F5F5F5F5F5F5F5F5F5F5F5F5F5F5F5F5F5F5F5F5F5F5F5F5F5F5F5F5F5F5F5F5F5F5F5F5F5F5F5F5E2E2E2E2E2E2E2E2E2E2E2E2E2E2E2E2E2E2E2E2E2E2E2E2E2E2E2E2E2E2E2F5F5F5F5F5F5F5F5F5F5F5F5F5F5F5F5F5F5F5F5F5F5F5F5F5F5F5F5F5F5F5F5F5F5F5F5F5F5F5F5
310
F5F5F5F5F5F5F5F5F5F5F5F5F5F5F5F5F5F5F5F5F5F5F5E2F5E2E2EFE2E2F5F5F5F5F5F5F5F5F5F5F5F5F5F5F5F5F5F5F5F5F5F5F5F5F5F5F5F5F5F5F5F5F5F5F5F5F5F5F5F5F5F5F5F5F5F5F5F5F5F5F5F5F5F5F5F5F5F5F5F5F5F5F5F5F5F5F5F5F5F5F5F5F5F5F5F5F5F5F5F5F5F5F5F5F5F5F5F5F5F5F5F5F5F5F5F5F5
310
F5F5F5F5F5F5F5F5F5F5F5F5F5F5F5F5F5F5F5F5F5F5F5F5F5F5F5F5F5F5F5F5F5F5F5F5F5F5F5F5F5F5F5F5F5F5F5F5F5F5F5F5F5F5F5F5F5F5F5F5F5F5F5F5F5F5F5F5F5F5F5F5F5F5F5F5E2F5E2E2EFE2E2F5F5F5F5F5F5F5F5F5F5F5F5F5F5F5F5F5F5F5F5F5F5F5F5F5F5F5F5F5F5F5F5F5F5F5F5F5F5F5F5F5F5F5F5
310
F5F5F5F5F5F5F5F5F5F5F5F5F5F5F5F5F5F5F5F5F5F5F5F5F5F5F5F5F5F5F5F5F5F5F5F5F5F5F5F5F5F5F5F5F5F5F5F5F5F5F5F5F5F5F5F5F5F5F5F5F5F5F5F5F5F5F5F5F5F5F5F5F5F5F5F5F5F5F5F5F5F5F5F5F5F5F5F5F5F5F5F5F5F5F5F5F5F5F5F5F5F5F5F5F5F5F5F5F5F5F5F5F5F5F5F5F5F5F5F5F5F5F5F5F5F5F5
310
F5F5E2F5E2E2EFE2E2F5F5F5F5F5F5F5F5F5F5F5F5F5F5F5F5F5F5F5F5F5F5F5F5F5F5F5F5F5F5F5F5F5F5F5F5F5F5F5F5F5F5F5F5F5F5F5F5F5F5F5F5F5F5F5F5F5F5F5F5F5F5F5F5F5F5F5F5F5F5F5F5F5F5F5F5F5F5F5F5F5F5F5F5F5F5F5F5F5F5F5F5F5F5F5F5F5F5F5F5F5F5F5F5F5F5F5F5F5F5F5F5F5F5F5F5F5F5
310
F5F5F5F5F5F5F5F5F5F5F5F5F5F5F5F5F5F5F5F5F5F5F5F5F5F5F5F5F5F5F5F5F5F5F5F5F5F5F5F5F5F5F5F5F5F5F5F5F5F5F5F5F5F5F5E2F5E2E2EFE2E2F5F5F5F5F5F5F5F5F5F5F5F5F5F5F5F5F5F5F5F5F5F5F5F5F5F5F5F5F5F5F5F5F5F5F5F5F5F5F5F5F5F5F5F5F5F5F5F5F5F5F5F5F5F5F5F5F5F5F5F5F5F5F5F5F5
310
F5F5F5F5F5F5F5F5F5F5F5F5F5F5F5F5F5F5F5F5F5F5F5F5F5F5F5F5F5F5F5F5F5F5F5F5F5F5F5F5F5F5F5F5F5F5F5F5F5F5F5F5F5F5F5F5F5F5F5F5F5F5F5F5F5F5F5F5F5F5F5F5F5F5F5F5F5F5F5F5F5F5F5F5F5F5F5F5F5F5F5F5F5F5F5F5F5F5F5F5F5F5F5F5F5F5F5F5E2F5E2E2EFE2E2F5F5F5F5F5F5F5F5F5F5F5F5
310
F5F5F5F5F5F5F5F5F5F5F5F5F5F5F5F5F5F5F5F5F5F5F5F5F5F5F5F5E2BEF5F5F5F5F5F5F5F5F5F5F5F5F5F5F5F5F5F5F5F5F5F5F5F5F5F5F5F5F5F5F5F5F5F5F5F5F5F5F5F5F5F5F5F5F5F5F5F5F5F5F5F5F5F5F5F5F5F5F5F5F5F5F5F5F5F5F5F5F5F5F5F5F5F5F5F5F5F5F5F5F5F5F5F5F5F5F5F5F5F5F5F5F5F5F5F5F5
310
F5F5F5F5F5F5F5F5F5F5F5F5F5F5F5F5F5F5F5F5F5F5F5F5F5F5F5F5F5F5F5F5F5F5E2E2E2E2EFE2E2F5F5F5F5F5F5F5F5F5F5F5F5F5F5F5F5F5F5F5F5F5F5F5F5F5F5F5F5F5F5F5F5F5F5F5F5F5F5F5E2E2E2E2F5F5F5F5F5F5F5F5F5F5F5F5F5F5F5F5F5F5F5F5F5F5F5F5F5F5F5F5F5F5F5F5F5F5F5E2E2E2E2F5E2E2E2
310
E2E2F5E2E2E2E2E2E2F5E2E2E2E2E2F5E2E2E2E2E2F5E2E2E2E2F5F5F5F5F5F5F5F5F5F5F5F5F5F5F5F5F5F5F5F5F5F5F5F5F5F5F5F5F5F5F5F5F5F5F5F5F5F5F5F5F5F5F5F5F5F5F5F5F5F5F5F5F5F5F5F5F5F5F5F5F5E2E2E2E2EFE2E2F5F5F5F5F5F5F5F5F5F5F5F5F5F5F5F5F5F5F5F5F5F5F5F5F5F5F5F5F5F5F5F5F5
310
F5F5F5F5F5F5F5E2F5F5F5F5F5F5F5F5F5F5F5F5F5F5F5F5F5F5F5F5F5F5F5F5F5F5F5F5F5F5F5F5F5F5F5F5F5E2F5F5F5F5F5F5F5F5F5F5F5F5F5F5F5F5F5F5F5F5F5F5F5F5F5F5F5F5F5F5F5F5E2F5F5F5F5F5F5F5F5F5F5F5F5F5F5F5F5F5F5F5F5F5F5F5F5F5F5F5F5F5F5F5F5F5F5F5F5F5F5F5F5F5F5F5F5F5F5F5F5
310
F5F5F5F5F5F5F5F5F5F5F5F5F5E2E2E2E2EFE2E2F5F5F5F5F5F5F5F5F5F5F5F5F5F5F5F5F5F5F5F5F5F5F5F5F5F5F5F5F5F5F5F5F5F5F5F5F5F5F5F5E2F5F5F5F5F5F5F5F5F5F5F5F5F5F5F5F5F5F5F5F5F5F5F5F5F5F5F5F5F5F5F5F5F5F5F5F5F5E2F5F5F5F5F5F5F5F5F5F5F5F5F5F5F5F5F5F5F5F5F5F5F5F5F5F5F5F5
310
F5F5F5F5E2F5F5F5F5F5F5F5F5F5F5F5F5F5F5F5F5F5F5F5F5F5F5F5F5F5F5F5F5F5F5F5F5F5F5F5F5F5F5F5F5F5F5F5F5F5F5F5F5F5F5F5F5F5F5F5F5F5F5F5F5F5E2E2E2E2EFE2E2F5F5F5F5F5F5F5F5F5F5F5F5F5F5F5F5F5F5F5F5F5F5F5F5F5F5F5F5F5F5F5F5F5F5F5F5F5F5F5F5E2F5F5F5F5F5F5F5F5F5F5F5F5F5
310
F5F5F5F5F5F5F5F5F5F5F5F5F5F5F5F5F5F5F5F5F5F5F5F5F5F5F5F5F5F5F5F5F5F5F5F5F5F5F5F5F5F5F5F5F5F5F5F5F5F5F5F5F5F5F5F5F5E2F5F5F5F5F5F5F5F5F5F5F5F5F5F5F5F5F5F5F5F5F5F5F5F5F5F5F5F5F5F5F5F5F5F5F5F5F5F5F5F5F5F5F5F5F5F5F5F5F5F5F5F5F5F5F5F5F5F5F5F5F5E2E2E2E2EFE2E2F5
310
F5F5F5F5F5F5F5F5F5F5F5F5F5F5F5F5F5F5F5F5F5F5F5F5F5F5F5F5F5F5F5F5F5F5F5F5F5F5F5E2F5F5F5F5F5F5F5F5F5F5F5F5F5F5F5F5F5F5F5F5F5F5F5F5F5F5F5F5F5F5F5F5F5F5F5F5F5F5F5F5F5F5F5F5F5F5F5F5F5F5F5F5F5F5F5F5F5F5F5F5F5F5F5F5F5F5F5F5F5F5E2F5F5F5F5F5F5F5F5F5F5F5F5F5F5F5F5
310
F5F5F5F5F5F5F5F5F5F5F5F5F5F5F5F5F5F5F5F5F5F5F5F5F5F5F5F5F5F5F5F5F5F5F5F5F5F5F5F5F5F5F5F5F5E2E2E2E2EFE2E2F5F5F5F5F5F5F5F5F5F5F5F5F5F5F5F5F5F5F5F5F5F5F5F5F5F5F5F5F5F5F5F5F5F5F5F5F5F5F5F5E2F5F5F5F5F5F5F5F5F5F5F5F5F5F5F5F5F5F5F5F5F5F5F5F5F5F5F5F5F5F5F5F5F5F5
310
F5F5F5E2F5F5F5F5F5F5F5F5F5F5F5F5F5F5F5F5F5F5F5F5F5F5F5F5F5F5F5F5F5F5F5F5F5F5F5F5F5F5F5F5F5F5F5F5F5F5F5F5F5F5F5F5F5F5F5F5F5F5F5F5F5F5F5F5F5F5F5F5F5F5F5F5F5F5F5F5F5F5F5F5F5F5F5F5F5F5F5F5F5F5F5F5F5F5E2E2E2E2EFE2E2F5F5F5F5F5F5F5F5F5F5F5F5F5F5F5F5F5F5F5F5F5F5
310
F5F5F5F5F5F5F5F5F5F5F5F5F5F5F5F5F5F5E2F5F5F5F5F5F5F5F5F5F5F5F5F5F5F5F5F5F5F5F5F5F5F5F5F5F5F5F5F5F5F5F5F5F5F5F5F5E2F5F5F5F5F5F5F5F5F5F5F5F5F5F5F5F5F5F5F5F5F5F5F5F5F5F5F5F5F5F5F5F5E2F5F5F5F5F5F5F5F5F5F5F5F5F5F5F5F5F5F5F5F5F5F5F5F5F5F5F5F5F5F5F5F5F5F5F5F5F5
310
F5F5F5F5F5F5F5F5F5F5F5F5F5F5F5F5F5F5F5F5F5F5F5F5E2E2E2E2EFE2E2F5F5F5F5F5F5F5F5F5F5F5F5F5F5F5F5F5F5F5F5F5F5F5F5F5F5F5F5F5F5F5F5F5F5F5F5F5F5F5F5E2F5F5F5F5F5F5F5E2E2E2E2E2E2F5E2E2E2E2E2F5E2E2E2E2E2F5E2E2E2E2E2E2F5E2E2E2E2E2F5F5F5F5F5F5F5F5F5F5F5F5F5F5F5F5F5
310
F5F5F5F5F5F5F5F5F5F5F5F5F5F5F5E2F5F5F5F5F5F5F5F5F5F5F5F5F5F5F5F5F5F5F5F5F5F5F5F5F5F5F5F5F5F5F5F5F5F5F5F5F5F5F5F5F5F5F5F5F5F5F5F5F5F5F5F5F5F5F5F5F5F5F5F5F5E2E2E2E2EFE2E2F5F5F5F5F5F5F5F5F5F5F5F5F5F5F5F5F5F5F5F5F5F5F5F5F5F5F5F5F5F5F5F5F5F5F5F5F5F5F5F5E2F5F5
310
F5F5F5F5F5E2F5F5F5F5F5F5F5F5F5F5F5F5F5F5F5F5F5F5F5F5F5F5F5F5F5F5F5F5F5F5F5F5F5F5F5F5F5F5F5F5F5F5F5F5F5F5F5F5F5F5F5F5F5F5F5F5F5F5F5F5F5F5E2F5F5F5F5F5F5F5F5F5F5F5F5F5F5F5F5F5F5F5F5F5F5F5F5F5F5F5F5F5F5F5F5F5F5F5F5F5F5F5F5F5F5F5F5F5F5F5F5F5F5F5F5F5F5F5F5F5F5
310
F5F5F5E2E2E2E2EFE2E2F5F5F5F5F5F5F5F5F5F5F5F5F5F5F5F5F5F5F5F5F5F5F5F5F5F5F5F5F5F5F5F5F5F5F5F5F5F5F5F5E2F5F5F5F5F5F5F5E2F5F5F5F5F5F5F5F5F5F5F5F5F5F5F5F5F5F5F5F5F5F5F5F5F5F5F5F5F5F5F5F5F5F5F5F5F5F5F5F5F5F5F5F5F5F5F5F5F5F5F5F5F5F5F5F5F5F5F5F5F5F5E2F5F5F5F5F5
310
F5F5F5F5F5F5F5F5F5F5F5F5F5F5F5F5F5F5F5F5F5F5F5F5F5F5F5F5F5F5F5F5F5F5F5F5F5F5F5F5F5F5F5F5F5F5F5F5F5F5F5F5F5F5F5F5E2E2E2E2EFE2E2F5F5F5F5F5F5F5F5F5F5F5F5F5F5F5F5F5F5F5F5F5F5F5F5F5F5F5F5F5F5F5F5F5F5F5F5F5F5F5F5E2F5F5F5F5F5F5F5E2F5F5F5F5F5F5F5F5F5F5F5F5F5F5F5
310
F5F5F5F5F5F5F5F5F5F5F5F5F5F5F5F5F5F5F5F5F5F5F5F5F5F5F5F5F5F5F5F5F5F5F5F5F5F5F5F5F5F5F5F5F5F5F5E2F5F5F5F5F5F5F5F5F5F5F5F5F5F5F5F5F5F5F5F5F5F5F5F5F5F5F5F5F5F5F5F5F5F5F5F5F5F5F5F5F5F5F5F5F5F5F5F5F5F5F5F5F5F5F5F5F5F5F5F5F5E2E2E2E2EFE2E2F5F5F5F5F5F5F5F5F5F5F5
310
F5F5F5F5F5F5F5F5F5F5F5F5F5F5F5F5F5F5F5F5F5F5F5F5F5F5F5F5F5E2F5F5F5F5F5F5F5E2F5F5F5F5F5F5F5F5F5F5F5F5F5F5F5F5F5F5F5F5F5F5F5F5F5F5F5F5F5F5F5F5F5F5F5F5F5F5F5F5F5F5F5F5F5F5F5F5F5F5F5F5F5F5F5F5F5F5F5F5F5F5F5F5F5F5F5F5F5F5F5F5F5F5F5F5F5F5F5F5F5F5F5F5F5F5F5F5F5
310
F5F5F5F5F5F5F5F5F5F5F5F5F5F5F5F5F5F5F5F5F5F5F5F5F5F5F5F5F5F5F5F5F5F5F5E2E2E2E2EFE2E2F5F5F5F5F5F5F5F5F5F5F5F5F5F5F5F5F5F5F5F5F5F5F5F5F5F5F5F5F5F5F5F5F5F5F5F5F5F5F5F5E2F5F5F5F5F5F5F5F5F5F5F5F5F5F5F5F5F5F5F5F5F5F5F5F5F5F5F5F5F5F5F5F5F5F5F5F5F5F5F5F5F5F5F5F5
310
F5F5F5F5F5E2E2E2F5F5F5F5E2E2E2F5F5F5F5F5F5F5F5F5F5F5E2F5F5F5F5F5F5F5F5F5F5F5F5F5F5F5F5F5F5F5F5F5F5F5F5F5F5F5F5F5F5F5F5F5F5F5F5F5F5F5F5F5F5F5F5F5F5F5F5F5F5F5F5F5F5F5F5F5F5F5F5F5E2E2E2E2EFE2E2F5F5F5F5F5F5F5F5F5F5F5F5F5F5F5F5F5F5F5F5F5F5F5F5F5F5F5F5F5F5F5F5
310
F5F5F5F5F5F5F5F5E2F5F5F5F5F5F5F5E2F5F5F5F5F5F5F5F5F5F5F5F5F5F5F5F5F5F5F5F5F5F5F5F5F5F5F5F5F5F5F5F5F5F5F5F5F5F5F5F5F5E2E2E2E2E2E2E2E2E2E2F5F5F5F5F5F5F5F5F5F5F5E2F5F5F5F5F5F5F5F5F5F5F5F5F5F5F5F5F5F5F5F5F5F5F5F5F5F5F5F5F5F5F5F5F5F5F5F5F5F5F5F5F5F5F5F5F5F5F5
310
F5F5F5F5F5F5F5F5F5F5F5F5F5F5E2E2E2E2EFE2E2F5F5F5F5F5F5F5F5F5F5F5F5F5F5F5F5F5F5F5F5F5F5F5F5F5F5F5F5F5F5F5F5F5F5F5F5F5F5F5F5E2F5F5F5F5F5F5F5E2F5F5F5F5F5F5F5F5F5F5F5F5F5F5F5F5F5F5F5F5F5F5F5F5F5F5F5F5F5F5F5F5F5F5F5F5F5F5F5F5F5F5E2E2E2E2E2E2E2E2F5F5F5F5F5F5F5
310
F5F5F5F5F5E2F5F5F5F5F5F5F5F5F5F5F5F5F5F5F5F5F5F5F5F5F5F5F5F5F5F5F5F5F5F5F5F5F5F5F5F5F5F5F5F5F5F5F5F5F5F5F5F5F5F5F5F5F5F5F5F5F5F5F5F5F5E2E2E2E2EFE2E2F5F5F5F5F5F5F5F5F5F5F5F5F5F5F5F5F5F5F5F5F5F5F5F5F5F5F5F5F5F5F5F5F5F5F5F5F5F5F5F5E2F5F5F5F5F5F5F5E2F5F5F5F5
310
F5F5F5F5F5F5F5F5F5F5F5F5F5F5F5F5F5F5F5F5F5F5F5F5F5F5F5F5F5F5F5F5F5F5F5F5F5F5E2E2E2E2E2E2E2E2F5F5F5F5F5F5F5F5F5F5F5F5E2F5F5F5F5F5F5F5F5F5F5F5F5F5F5F5F5F5F5F5F5F5F5F5F5F5F5F5F5F5F5F5F5F5F5F5F5F5F5F5F5F5F5F5F5F5F5F5F5F5F5F5F5F5F5F5F5F5F5F5F5F5E2F5E2E2EFE2E2
310
F5F5F5F5F5F5F5F5F5F5F5F5F5F5F5F5F5F5F5F5F5F5F5F5F5F5F5F5F5F5F5F5F5F5F5F5F5F5F5F5E2F5F5F5F5F5F5F5E2F5F5F5F5F5F5F5F5F5F5F5F5F5F5F5F5F5F5F5F5F5F5F5F5F5F5F5F5F5F5F5F5F5F5F5F5F5F5F5F5F5F5E2E2F5F5F5F5E2E2F5F5F5F5F5F5F5F5F5F5F5F5E2F5F5F5F5F5F5F5F5F5F5F5F5F5F5F5
310
F5F5F5F5F5F5F5F5F5F5F5F5F5F5F5F5F5F5F5F5F5F5F5F5F5F5F5F5F5F5F5F5F5F5F5F5F5F5F5F5F5F5F5F5F5F5E2F5E2E2EFE2E2F5F5F5F5F5F5F5F5F5F5F5F5F5F5F5F5F5F5F5F5F5F5F5F5F5F5F5F5F5F5F5F5F5F5F5F5F5F5F5F5E2F5F5F5F5F5F5F5E2F5F5F5F5F5F5F5F5F5F5F5F5F5F5F5F5F5F5F5F5F5F5F5F5F5
310
F5F5F5F5F5F5F5F5F5F5F5F5F5F5F5F5F5E2E2E2E2E2E2E2E2F5F5F5F5F5F5F5F5F5F5F5F5E2E2E2E2F5E2E2E2E2E2F5F5E2E2E2E2F5F5F5F5F5F5F5F5F5F5F5F5F5F5F5F5F5F5F5F5F5F5F5F5F5F5F5F5F5F5F5F5F5F5F5F5F5F5F5F5F5F5F5F5F5F5E2F5E2E2EFE2E2F5F5F5F5F5F5F5F5F5F5F5F5F5F5F5F5F5F5F5F5F5
310
F5F5F5F5F5F5F5F5F5F5F5F5F5F5F5F5F5F5F5E2F5F5F5F5F5F5F5F5F5F5F5F5F5F5F5F5F5F5F5F5F5F5F5F5F5F5F5F5F5F5F5F5F5F5F5F5F5F5F5F5F5F5F5F5F5F5F5F5F5F5E2E2F5F5F5F5E2E2F5F5F5F5F5F5F5F5F5F5F5F5F5F5F5F5F5F5F5F5F5F5F5F5F5F5F5E2F5F5F5F5F5F5F5F5F5F5F5F5F5F5F5F5F5F5F5F5F5
310
F5F5F5F5F5F5F5F5F5F5F5F5F5F5F5F5F5F5F5F5F5F5F5F5F5E2F5E2E2EFE2E2F5F5F5F5F5F5F5F5F5F5F5F5F5F5F5F5F5F5F5F5F5F5F5F5F5F5F5F5F5F5F5F5F5F5F5F5F5F5F5F5E2F5F5F5F5F5F5F5F5F5F5F5F5F5F5F5F5F5F5F5F5F5F5F5F5F5F5F5F5F5F5F5F5F5F5F5F5F5F5F5F5F5F5F5F5F5F5F5F5F5F5E2E2E2E2
310
E2E2E2E2F5F5F5F5F5F5F5F5F5F5F5F5F5F5F5F5F5F5F5F5F5F5F5F5F5F5F5E2F5F5F5F5F5F5F5F5F5F5F5F5F5F5F5F5F5F5F5F5F5F5F5F5F5F5F5F5F5F5F5F5F5F5F5F5F5F5F5F5F5F5F5F5F5F5E2F5E2E2EFE2E2F5F5F5F5F5F5F5F5F5F5F5F5F5F5F5F5F5F5F5F5F5F5F5F5F5F5F5F5F5F5F5F5F5F5F5F5F5F5F5F5E2F5
310
F5F5F5F5F5F5E2F5F5F5F5F5F5F5F5F5F5F5F5E2E2E2E2E2E2E2E2E2E2F5F5F5F5F5F5F5F5F5F5F5F5F5F5F5F5F5F5F5F5E2E2F5F5F5F5E2E2F5F5F5F5F5F5F5F5F5F5F5F5F5F5F5F5F5F5F5F5F5F5F5F5F5F5F5E2F5F5F5F5F5F5F5F5F5F5F5F5F5F5F5F5F5F5F5F5F5F5F5F5F5F5F5F5F5F5F5F5F5F5F5F5F5F5F5F5F5F5
310
F5F5F5F5E2F5E2E2EFE2E2F5F5F5F5F5F5F5F5F5F5F5F5F5F5F5F5F5F5F5F5F5F5F5F5F5F5F5F5F5F5F5F5F5F5F5F5F5F5F5F5E2F5F5F5F5F5F5F5E2F5F5F5F5F5F5F5F5F5F5F5F5E2E2E2E2E2E2E2E2E2E2F5F5F5F5F5F5F5F5F5F5F5F5F5F5F5F5F5F5F5F5E2E2E2E2E2E2E2E2F5F5F5F5F5F5F5F5F5F5F5F5F5F5F5F5F5
310
F5F5F5F5F5F5F5F5F5F5E2F5F5F5F5F5F5F5F5F5F5F5F5F5F5F5F5F5F5F5F5F5F5F5F5F5F5F5F5F5F5F5F5F5F5F5F5F5F5F5F5F5F5F5F5F5F5E2F5E2E2EFE2E2F5F5F5F5F5F5F5F5F5F5F5F5F5F5F5F5F5F5F5F5F5F5F5F5F5F5F5F5F5F5F5F5F5F5F5F5F5F5F5F5E2F5F5F5F5F5F5F5E2F5F5F5F5F5F5F5F5F5F5F5F5E2E2
310
E2E2E2E2E2E2E2E2F5F5F5F5F5F5F5F5F5F5F5F5F5F5F5F5F5F5F5F5E2E2E2E2E2E2E2E2F5F5F5F5F5F5F5F5F5F5F5F5F5F5F5F5F5F5F5F5F5F5F5F5F5F5F5F5F5F5F5F5F5F5F5F5F5F5F5F5F5F5F5F5F5F5F5F5F5F5F5F5F5F5F5F5F5F5F5F5F5F5F5F5F5F5F5F5F5F5F5F5F5F5E2F5E2E2EFE2E2F5F5F5F5F5F5F5F5F5F5
310
F5F5F5F5F5F5F5F5F5F5F5F5F5F5F5F5F5F5F5F5F5F5F5F5F5F5F5F5F5F5E2F5F5F5F5F5F5F5E2F5F5F5F5F5F5F5F5F5F5F5F5E2E2E2E2E2E2E2E2E2E2F5F5F5F5F5F5F5F5F5F5F5F5F5F5F5F5F5F5F5F5E2E2F5F5F5F5E2E2F5F5F5F5F5F5F5F5F5F5F5F5F5F5F5F5F5F5F5F5F5F5F5F5F5F5F5E2F5F5F5F5F5F5F5F5F5F5
310
F5F5F5F5F5F5F5F5F5F5F5F5F5F5F5F5F5F5F5F5F5F5F5F5F5F5F5F5F5F5F5F5F5F5F5F5E2F5E2E2EFE2E2F5F5F5F5F5F5F5F5F5F5F5F5F5F5F5F5F5F5F5F5F5F5F5F5F5F5F5F5F5F5F5F5F5F5F5F5F5F5F5F5E2F5F5F5F5F5F5F5E2F5F5F5F5F5F5F5F5F5F5F5F5E2E2E2E2E2E2E2E2E2E2F5F5F5F5F5F5F5F5F5F5F5F5F5
310
F5F5F5F5F5F5F5E2E2F5F5F5F5E2E2F5F5F5F5F5F5F5F5F5F5F5F5F5F5F5F5F5F5F5F5F5F5F5F5F5F5F5E2F5F5F5F5F5F5F5F5F5F5F5F5F5F5F5F5F5F5F5F5F5F5F5F5F5F5F5F5F5F5F5F5F5F5F5F5F5F5F5F5F5F5F5F5F5F5E2E2E2E2EFE2E2F5F5F5F5F5F5F5F5F5F5F5F5F5F5F5F5F5F5F5F5F5F5F5F5F5F5F5F5F5F5F5
310
F5F5F5F5F5F5F5F5F5E2F5F5F5F5F5F5F5F5F5F5F5F5F5F5F5F5F5F5F5F5E2E2E2E2E2E2E2E2E2E2F5F5F5F5F5F5F5F5F5F5F5F5F5F5F5F5F5F5F5F5E2E2F5F5F5F5E2E2F5F5F5F5F5F5F5F5F5F5F5F5F5F5F5F5F5F5F5F5F5F5F5F5F5F5F5E2F5F5F5F5F5F5F5F5F5F5F5F5F5F5F5F5F5F5F5F5F5F5F5F5F5F5F5F5F5F5F5
310
F5F5F5F5F5F5F5F5F5F5F5F5F5F5F5E2E2E2E2EFE2E2F5F5F5F5F5F5F5F5F5F5F5F5F5F5F5F5F5F5F5F5F5F5F5F5F5F5F5F5F5F5F5F5F5F5F5F5F5F5F5F5E2F5F5F5F5F5F5F5E2F5F5F5F5F5F5F5F5F5F5F5F5E2E2E2E2E2E2E2E2E2E2F5F5F5F5F5F5F5F5F5F5F5F5F5F5F5F5F5F5F5F5E2E2F5F5F5F5E2E2F5F5F5F5F5F5
310
F5F5F5F5F5F5F5F5F5F5F5F5F5F5F5F5F5F5F5F5F5E2F5F5F5F5F5F5F5F5F5F5F5F5F5F5F5F5F5F5F5F5F5F5F5F5F5F5F5F5F5F5F5F5F5F5F5F5F5F5F5F5F5F5F5F5F5F5E2E2E2E2EFE2E2F5F5F5F5F5F5F5F5F5F5F5F5F5F5F5F5F5F5F5F5F5F5F5F5F5F5F5F5F5F5F5F5F5F5F5F5F5F5F5F5E2F5F5F5F5F5F5F5E2F5F5F5
310
F5F5F5F5F5F5F5F5F5E2E2E2E2E2E2E2E2E2E2F5F5F5F5F5F5F5F5F5F5F5F5F5F5F5F5F5F5F5E2E2E2E2E2E2E2E2E2E2F5F5F5F5F5F5F5F5F5F5F5F5F5F5F5F5F5F5F5F5F5F5F5F5F5F5E2F5F5F5F5F5F5F5F5F5F5F5F5F5F5F5F5F5F5F5F5F5F5F5F5F5F5F5F5F5F5F5F5F5F5F5F5F5F5F5F5F5F5F5F5F5F5E2E2E2E2EFE2
310
E2F5F5F5F5F5F5F5F5F5F5F5F5F5F5F5F5F5F5F5F5F5F5F5F5F5F5F5F5F5F5F5F5F5F5F5F5F5F5F5F5E2F5F5F5F5F5F5F5E2F5F5F5F5F5F5F5F5F5F5F5F5E2E2E2E2E2E2E2E2E2E2E2E2E2E2E2E2E2E2E2E2E2E2E2E2E2E2E2E2E2E2F5F5F5F5F5F5F5F5E2F5F5F5F5F5F5F5F5F5F5F5F5F5F5F5F5F5F5F5F5F5F5F5F5F5F5
310
E2F5F5F5F5F5F5F5F5F5F5F5F5F5F5F5F5F5F5F5F5F5F5F5F5F5F5F5F5F5F5F5F5F5F5F5F5F5F5F5F5F5F5F5F5F5F5E2E2E2E2EFE2E2F5F5F5F5F5F5F5F5F5F5F5F5F5F5F5F5F5F5F5F5F5F5F5F5F5F5F5F5F5F5F5F5F5F5F5F5F5F5F5F5E2F5F5F5F5F5F5F5E2F5F5F5F5F5F5F5F5F5F5F5F5E2E2E2E2E2E2E2E2E2E2E2E2
310
E2E2E2E2E2E2E2E2E2E2E2E2E2E2E2E2E2E2F5F5F5F5F5F5F5F5E2E2E2E2E2E2E2E2E2E2E2E2E2E2E2F5F5F5F5F5F5F5F5F5F5F5F5F5F5F5F5F5F5F5F5F5F5F5F5F5F5F5F5F5F5F5F5F5F5F5F5F5F5F5F5F5F5F5F5F5F5F5F5F5F5F5F5F5F5F5F5F5F5F5E2E2E2E2EFE2E2F5F5F5F5F5F5F5F5F5F5F5F5F5F5F5F5F5F5F5F5
310
F5F5F5F5F5F5F5F5F5F5F5F5F5F5F5F5F5F5F5F5E2F5F5F5F5F5F5F5E2F5F5F5F5F5F5F5F5F5F5F5F5E2E2E2E2E2E2E2E2E2E2E2E2E2E2E2E2E2E2E2E2E2E2E2E2E2E2E2E2E2E2F5F5F5F5F5F5F5F5E2E2E2E2E2E2E2E2E2E2E2E2E2E2E2F5F5F5F5F5F5F5F5F5F5F5F5E2F5F5F5F5F5F5F5F5F5F5F5F5F5F5F5F5F5F5F5F5
310
F5F5F5F5F5F5F5F5F5F5F5F5F5F5F5F5F5F5F5F5F5F5F5F5F5F5E2E2E2E2EFE2E2F5F5F5F5F5F5F5F5F5F5F5F5F5F5F5F5F5F5F5F5F5F5F5F5F5F5F5F5F5F5F5F5F5F5F5F5F5F5F5F5E2F5F5F5F5F5F5F5F5F5F5F5F5F5F5F5F5F5F5F5F5E2E2E2E2E2E2E2E2E2E2E2E2E2E2E2E2E2E2E2E2E2E2E2E2E2E2E2E2E2E2F5F5F5
310
F5F5F5F5F5E2F5E2F5F5F5F5F5F5F5F5F5E2F5E2F5F5F5F5F5F5F5F5F5F5F5F5E2F5F5F5F5F5F5F5F5F5F5F5F5F5F5F5F5F5F5F5F5F5F5F5F5F5F5F5F5F5F5F5F5F5F5F5F5F5F5F5F5F5F5F5F5F5F5E2E2E2E2EFE2E2F5F5F5F5F5F5F5F5F5F5F5F5F5F5F5F5F5F5F5F5F5F5F5F5F5F5F5F5F5F5F5F5F5F5F5F5F5F5F5F5E2
310
F5F5F5F5F5F5F5E2F5F5F5F5F5F5F5F5F5F5F5F5E2E2E2E2E2E2E2E2E2E2E2E2E2E2E2E2E2E2E2E2E2E2E2E2E2E2E2E2E2E2E2E2E2E2E2E2E2E2E2F5E2F5F5F5F5F5F5F5F5F5E2F5E2F5F5F5F5F5F5F5F5F5F5F5F5E2F5F5F5F5F5F5F5F5F5F5F5F5F5F5F5F5F5F5F5F5F5F5F5F5F5F5F5F5F5F5F5F5F5F5F5F5F5F5F5F5F5
310
F5F5F5F5F5E2E2E2E2EFE2E2F5F5F5F5F5F5F5F5F5F5F5F5F5F5F5F5F5F5F5F5F5F5F5F5F5F5F5F5F5F5F5F5F5F5F5F5F5F5F5F5E2F5F5F5F5F5F5F5E2F5F5F5F5F5F5F5F5F5F5F5F5E2E2E2E2E2E2E2E2E2E2E2E2E2E2E2E2E2E2E2E2E2E2E2E2E2E2E2E2E2E2F5F5F5F5F5F5F5F5E2F5E2F5F5F5F5F5F5F5F5F5E2F5E2F5
310
F5F5F5F5F5F5F5F5F5F5F5E2F5F5F5F5F5F5F5F5F5F5F5F5F5F5F5F5F5F5F5F5F5F5F5F5F5F5F5F5F5F5F5F5F5F5F5F5F5F5F5F5F5F5F5F5F5F5E2E2E2E2EFE2E2F5F5F5F5F5F5F5F5F5F5F5F5F5F5F5F5F5F5F5F5F5F5F5F5F5F5F5F5F5F5F5F5F5F5F5F5F5F5F5F5E2F5F5F5F5F5F5F5E2F5F5F5F5F5F5F5F5F5F5F5F5E2
310
E2E2E2E2E2E2E2E2E2E2E2E2E2E2E2E2E2E2E2E2E2E2E2E2E2E2E2E2E2F5F5F5F5F5F5F5F5E2E2E2E2E2E2E2E2E2E2E2E2E2E2E2F5F5F5F5F5F5F5F5F5F5F5F5E2F5F5F5F5F5F5F5F5F5F5F5F5F5F5F5F5F5F5F5F5F5F5F5F5F5F5F5F5F5F5F5F5F5F5F5F5F5F5F5F5F5F5F5F5F5F5E2E2E2E2EFE2E2F5F5F5F5F5F5F5F5F5
310
F5F5F5F5F5F5F5F5F5F5F5F5F5F5F5F5F5F5F5F5F5F5F5F5F5F5F5F5F5F5F5E2F5F5F5F5F5F5F5E2F5F5F5F5F5F5F5F5F5F5F5F5E2E2E2E2E2E2E2E2E2E2E2E2E2E2E2E2E2E2E2E2E2E2E2E2E2E2E2E2E2E2F5F5F5F5F5F5F5F5E2F5F5F5F5F5F5F5F5F5F5F5F5F5F5F5F5F5F5F5F5F5F5F5F5F5F5F5F5F5F5F5F5F5F5F5F5
310
F5F5F5F5F5F5F5F5F5F5F5F5F5F5F5F5F5F5F5F5F5F5F5F5F5F5F5F5F5F5F5F5F5F5F5F5F5E2E2E2E2EFE2E2F5F5F5F5F5F5F5F5F5F5F5F5F5F5F5F5F5F5F5F5F5F5F5F5F5F5F5F5F5F5F5F5F5F5F5F5F5F5F5F5E2F5F5F5F5F5F5F5E2F5F5F5F5F5F5F5F5F5F5F5F5E2E2E2E2E2E2E2E2E2E2E2E2E2E2E2E2E2E2E2E2E2E2
310
E2E2E2E2E2E2E2E2F5F5F5F5F5F5F5F5E2F5F5F5F5F5F5F5F5F5F5F5F5F5F5F5F5F5F5F5F5F5F5F5F5F5F5E2F5F5F5F5F5F5F5F5F5F5F5F5F5F5F5F5F5F5F5F5F5F5F5F5F5F5F5F5F5F5F5F5F5F5F5F5F5F5F5F5F5F5F5F5F5F5E2E2E2E2EFE2E2F5F5F5F5F5F5F5F5F5F5F5F5F5F5F5F5F5F5F5F5F5F5F5F5F5F5F5F5F5F5
310
F5F5F5F5F5F5F5F5F5F5E2F5F5F5F5F5F5F5F5F5F5F5F5F5F5F5F5F5F5F5F5F5F5F5F5F5F5F5F5E2E2F5F5F5F5F5F5F5F5F5F5F5F5F5F5F5F5F5F5F5E2E2E2E2E2E2E2E2E2E2F5F5F5F5F5F5F5F5F5F5F5F5F5F5F5F5F5F5F5F5F5F5F5F5F5F5E2F5F5F5F5F5F5F5F5F5F5F5F5F5F5F5F5F5F5F5F5F5F5F5F5F5F5F5F5F5F5
310
F5F5F5F5F5F5F5F5F5F5F5F5F5F5F5F5E2E2E2E2EFE2E2F5F5F5F5F5F5F5F5F5F5F5F5F5F5F5F5F5F5F5F5F5F5F5F5F5F5F5F5F5F5F5F5F5F5F5F5F5F5F5F5E2F5F5F5F5F5F5F5F5F5F5F5F5F5F5F5F5F5F5F5F5F5F5F5F5F5F5F5F5E2E2E2F5F5F5F5F5F5F5F5F5F5F5F5F5F5F5F5F5F5F5E2E2E2E2E2E2E2E2F5F5F5F5F5
310
F5F5F5F5F5F5F5F5F5F5F5F5F5F5F5F5F5F5F5F5F5F5E2F5F5F5F5F5F5F5F5F5F5F5F5F5F5F5F5F5F5F5F5F5F5F5F5F5F5F5F5F5F5F5F5F5F5F5F5F5F5F5F5F5F5F5F5F5F5E2E2E2E2EFE2E2F5F5F5F5F5F5F5F5F5F5F5F5F5F5F5F5F5F5F5F5F5F5F5F5F5F5F5F5F5F5F5F5F5F5F5F5F5F5F5F5E2F5F5F5F5F5F5F5E2F5F5
310
F5F5F5F5F5F5F5F5F5F5F5F5F5F5F5F5F5F5E2E2E2F5F5F5F5F5F5F5F5F5F5F5F5F5F5F5F5F5F5F5E2E2E2E2E2E2E2E2F5F5F5F5F5F5F5F5F5F5F5F5F5F5F5F5F5F5F5F5F5F5F5F5F5F5F5E2F5F5F5F5F5F5F5F5F5F5F5F5F5F5F5F5F5F5F5F5F5F5F5F5F5F5F5F5F5F5F5F5F5F5F5F5F5F5F5F5F5F5F5F5F5F5E2E2E2E2EF
310
E2E2F5F5F5F5F5F5F5F5F5F5F5F5F5F5F5F5F5F5F5F5F5F5F5F5F5F5F5F5F5F5F5F5F5F5F5F5F5F5F5F5E2F5F5F5F5F5F5F5E2F5F5F5F5F5F5F5F5F5F5F5F5F5F5F5F5F5F5F5F5E2E2E2F5F5F5F5F5F5F5F5F5F5F5F5F5F5F5F5F5F5F5E2E2E2E2E2E2E2E2F5F5F5F5F5F5F5F5F5F5F5F5F5F5F5F5F5F5F5F5F5F5F5F5F5F5
310
F5E2F5F5F5F5F5F5F5F5F5F5F5F5F5F5F5F5F5F5F5F5F5F5F5F5F5F5F5F5F5F5F5F5F5F5F5F5F5F5F5F5F5F5F5F5F5F5E2F5E2E2EFE2E2F5F5F5F5F5F5F5F5F5F5F5F5F5F5F5F5F5F5F5F5F5F5F5F5F5F5F5F5F5F5F5F5F5F5F5F5F5E2E2E2E2F5F5F5F5F5F5F5E2F5F5F5F5F5F5F5F5F5F5F5F5F5F5F5F5F5F5F5F5E2E2E2
310
F5F5F5F5F5F5F5F5F5F5F5F5F5F5F5F5F5F5F5E2E2E2E2E2E2E2E2F5F5F5F5F5F5F5F5F5F5F5F5F5F5F5F5F5F5F5F5F5F5F5F5F5F5F5F5F5F5F5F5F5F5F5F5F5F5F5F5F5F5F5F5F5F5F5F5F5F5F5F5F5F5F5F5F5F5F5F5F5F5F5F5F5F5F5F5F5F5F5F5F5F5E2F5E2E2EFE2E2F5F5F5F5F5F5F5F5F5F5F5F5F5F5F5F5F5F5F5
310
F5F5F5F5F5F5F5F5F5F5F5F5F5F5F5F5F5F5E2E2E2E2F5F5F5F5F5F5F5E2F5F5F5F5F5F5F5F5F5F5F5F5F5F5F5F5F5F5F5F5E2E2E2F5F5F5F5F5F5F5F5F5F5F5F5F5F5F5F5F5F5F5E2E2F5F5F5F5E2E2F5F5F5F5F5F5F5F5F5F5F5F5F5F5F5F5F5F5F5F5F5F5F5F5F5F5F5E2F5F5F5F5F5F5F5F5F5F5F5F5F5F5F5F5F5F5F5
310
F5F5F5F5F5F5F5F5F5F5F5F5F5F5F5F5F5F5F5F5F5F5F5F5F5F5F5E2F5E2E2EFE2E2F5F5F5F5F5F5F5F5F5F5F5F5F5F5F5F5F5F5F5F5F5F5F5F5F5F5F5F5F5F5F5F5F5F5F5F5F5E2E2E2E2F5F5F5F5F5F5F5E2F5F5F5F5F5F5F5F5F5F5F5F5F5F5F5F5F5F5F5F5E2E2E2F5F5F5F5F5F5F5F5F5F5F5F5F5F5F5F5F5F5F5E2E2
310
F5F5F5F5E2E2F5F5F5F5F5F5F5F5F5F5F5F5F5F5F5F5F5F5F5F5F5F5F5F5F5F5F5E2F5F5F5F5F5F5F5F5F5F5F5F5F5F5F5F5F5F5F5F5F5F5F5F5F5F5F5F5F5F5F5F5F5F5F5F5F5F5F5F5F5F5F5F5F5F5E2F5E2E2EFE2E2F5F5F5F5F5F5F5F5F5F5F5F5F5F5F5F5F5F5F5F5F5F5F5F5F5F5F5F5F5F5F5F5F5F5F5F5F5E2E2E2
310
E2F5F5F5F5F5F5F5F5F5F5F5F5F5F5F5F5F5F5F5F5F5F5F5F5F5F5F5F5E2E2E2F5F5F5F5F5F5F5F5F5F5F5F5F5F5F5F5F5F5F5F5F5F5F5F5F5F5F5F5F5F5F5F5F5F5F5F5F5F5F5F5F5F5F5F5F5F5F5F5F5F5F5F5F5F5E2F5F5F5F5F5F5F5F5F5F5F5F5F5F5F5F5F5F5F5F5F5F5F5F5F5F5F5F5F5F5F5F5F5F5F5F5F5F5F5F5
310
F5F5F5F5F5F5E2F5E2E2EFE2E2F5F5F5F5F5F5F5F5F5F5F5F5F5F5F5F5F5F5F5F5F5F5F5F5F5F5F5F5F5F5F5F5F5F5F5F5F5E2E2E2E2F5F5F5F5F5F5F5E2F5F5F5F5F5F5F5F5F5F5F5F5F5F5F5F5F5F5F5F5E2E2E2F5F5F5F5F5F5F5F5F5F5F5F5F5F5F5F5F5F5F5F5F5F5F5F5F5F5F5F5F5F5F5F5F5F5F5F5F5F5F5F5F5F5
310
F5F5F5F5F5F5F5F5F5F5F5F5E2F5F5F5F5F5F5F5F5F5F5F5F5F5F5F5F5F5F5F5F5F5F5F5F5F5F5F5F5F5F5F5F5F5F5F5F5F5F5F5F5F5F5F5F5F5F5E2F5E2E2EFE2E2F5F5F5F5F5F5F5F5F5F5F5F5F5F5F5F5F5F5F5F5F5F5F5F5F5F5F5F5F5F5F5F5F5F5F5F5F5F5F5F5E2F5F5F5F5F5F5F5E2F5F5F5F5F5F5F5F5F5F5F5F5
310
F5F5F5F5F5F5F5F5E2E2E2F5F5F5F5F5F5F5F5F5F5F5F5F5F5F5F5F5F5F5F5F5F5F5F5F5F5F5F5F5F5F5F5F5F5F5F5F5F5F5F5F5F5F5F5F5F5F5F5F5F5F5F5F5F5E2F5F5F5F5F5F5F5F5F5F5F5F5F5F5F5F5F5F5F5F5F5F5F5F5F5F5F5F5F5F5F5F5F5F5F5F5F5F5F5F5F5F5F5F5F5F5E2F5E2E2EFE2E2F5F5F5F5F5F5F5F5
310
F5F5F5F5F5F5F5F5F5F5F5F5F5F5F5F5F5F5F5F5F5F5F5F5F5F5F5F5F5F5F5F5E2F5F5F5F5F5F5F5E2F5F5F5F5F5F5F5F5F5F5F5F5F5F5F5F5F5F5F5F5E2E2E2F5F5F5F5F5F5F5F5F5F5F5F5F5F5F5F5F5F5F5F5F5F5F5F5F5F5F5F5F5F5F5F5F5F5F5F5F5F5F5E2E2E2E2F5E2E2E2E2E2F5E2E2E2E2E2F5F5F5F5F5F5F5F5
310
F5F5F5F5F5F5F5F5F5F5F5F5F5F5F5F5F5F5F5F5F5F5F5F5F5F5F5F5F5F5F5F5F5F5F5F5F5F5E2F5E2E2EFE2E2F5F5F5F5F5F5F5F5F5F5F5F5F5F5F5F5F5F5F5F5F5F5F5F5F5F5F5F5F5F5F5F5F5F5F5F5F5F5F5F5E2F5F5F5F5F5F5F5E2F5F5F5F5F5F5F5F5F5F5F5F5F5F5F5F5F5F5F5F5E2E2E2F5F5F5F5F5F5F5F5F5F5
310
F5F5F5F5F5F5F5F5F5F5F5F5F5F5F5F5F5F5F5F5F5F5F5F5F5F5F5F5F5E2F5F5F5F5F5F5F5F5F5F5F5F5F5F5F5F5F5F5F5F5F5F5F5F5F5F5F5F5F5F5F5F5F5F5F5F5F5F5F5F5F5F5F5F5F5F5F5F5F5F5F5F5F5F5F5F5F5F5F5F5F5E2F5E2E2EFE2E2F5F5F5F5F5F5F5F5F5F5F5F5F5F5F5F5F5F5F5F5F5F5F5F5F5F5F5F5F5
310
F5F5F5F5F5F5F5F5F5F5F5E2F5F5F5F5F5F5F5E2E2E2E2E2F5F5F5F5F5F5F5F5F5F5F5F5F5F5F5F5E2E2E2F5F5F5F5F5F5F5F5F5F5F5F5F5F5F5F5F5F5F5F5F5F5F5F5F5F5F5F5F5F5F5F5F5F5F5F5F5F5F5E2F5F5F5F5F5F5F5F5F5F5F5F5F5F5F5F5F5F5F5F5F5F5F5F5F5F5F5F5F5F5F5F5F5F5F5F5F5F5F5F5F5F5F5F5
310
F5F5F5F5F5F5F5F5F5F5F5F5F5F5F5F5F5E2E2E2E2EFE2E2F5F5F5F5F5F5F5F5F5F5F5F5F5F5F5F5F5F5F5F5F5F5F5F5F5F5F5F5F5F5F5F5F5F5F5F5F5F5F5F5E2F5F5F5F5F5F5F5F5F5F5F5E2F5F5F5F5F5F5F5F5F5F5F5F5F5F5F5F5E2E2E2F5F5F5F5F5F5F5F5F5F5F5F5F5F5F5F5F5F5F5F5F5F5F5F5F5F5F5F5F5F5F5
310
F5F5F5F5F5F5F5F5E2F5F5F5F5F5F5F5F5F5F5F5F5F5F5F5F5F5F5F5F5F5F5F5F5F5F5F5F5F5F5F5F5F5F5F5F5F5F5F5F5F5F5F5F5F5F5F5F5F5F5F5F5F5F5F5F5F5F5F5F5F5E2E2E2E2EFE2E2F5F5F5F5F5F5F5F5F5F5F5F5F5F5F5F5F5F5F5F5F5F5F5F5F5F5F5F5F5F5F5F5F5F5F5F5F5F5F5F5E2F5F5F5F5F5F5F5F5F5
310
F5F5E2F5F5F5F5F5F5F5F5F5F5F5F5F5F5F5F5E2E2E2F5F5F5F5F5F5F5F5F5F5F5F5F5F5F5F5F5F5F5F5F5F5F5F5F5F5F5F5F5F5F5F5F5F5F5F5F5F5F5F5F5F5F5F5F5F5F5F5F5F5F5F5F5F5F5F5F5F5F5F5F5F5F5F5F5F5F5F5F5F5F5F5F5F5F5F5F5F5F5F5F5F5F5F5F5F5F5F5F5F5F5F5F5F5F5F5F5F5F5F5F5E2E2E2E2
310
EFE2E2F5F5F5F5F5F5F5F5F5F5F5F5F5F5F5F5F5F5F5F5F5F5F5F5F5F5F5F5F5F5F5F5F5F5F5F5F5F5F5F5E2F5F5F5F5F5F5F5F5F5F5F5F5F5F5F5F5F5F5F5F5F5F5F5F5F5F5F5F5E2E2E2F5F5F5F5F5F5F5F5F5F5F5F5F5F5F5F5F5F5F5F5F5F5F5F5F5F5F5F5F5F5F5F5F5F5F5F5F5F5F5E2F5F5F5F5F5F5F5F5F5F5F5F5
310
F5F5F5F5F5F5F5F5F5F5F5F5F5F5F5F5F5F5F5F5F5F5F5F5F5F5F5F5F5F5F5F5F5F5F5F5F5F5F5F5F5F5F5F5F5F5F5F5F5E2E2E2E2EFE2E2F5F5F5F5F5F5F5F5F5F5F5F5F5F5F5F5F5F5F5F5F5F5F5F5F5F5F5F5F5F5F5F5F5F5F5F5F5F5F5F5E2F5F5F5F5F5F5F5F5F5F5F5F5F5F5F5F5F5F5F5F5F5F5F5F5F5F5F5F5E2E2
310
E2F5F5F5F5F5F5F5F5F5F5F5F5F5F5F5F5F5F5F5F5F5F5F5F5F5F5F5F5F5F5F5F5F5F5F5F5F5F5F5E2F5F5F5F5F5F5F5F5F5F5F5F5F5F5F5F5F5F5F5F5F5F5F5F5F5F5F5F5F5F5F5F5F5F5F5F5F5F5F5F5F5F5F5F5F5F5F5F5F5F5F5F5F5F5F5F5F5F5F5F5F5E2E2E2E2EFE2E2F5F5F5F5F5F5F5F5F5F5F5F5F5F5F5F5F5F5
310
F5F5F5F5F5F5F5F5F5F5F5F5F5F5F5F5F5F5F5F5F5F5E2F5F5F5F5F5F5F5F5F5F5F5E2F5F5F5F5F5F5F5F5F5F5F5F5F5F5F5F5E2E2E2F5F5F5F5F5F5F5F5F5F5F5F5F5F5F5F5F5F5F5F5F5F5F5F5F5F5F5F5F5F5F5F5F5F5F5F5F5F5F5E2F5F5F5F5F5F5F5F5F5F5F5F5F5F5F5F5F5F5F5F5F5F5F5F5F5F5F5F5F5F5F5F5F5
310
F5F5F5F5F5F5F5F5F5F5F5F5F5F5F5F5F5F5F5F5F5F5F5F5F5F5F5F5E2E2E2E2EFE2E2F5F5F5F5F5F5F5F5F5F5F5F5F5F5F5F5F5F5F5F5F5F5F5F5F5F5F5F5F5F5F5F5F5F5F5F5F5F5F5F5E2F5F5F5F5F5F5F5F5F5F5F5E2F5F5F5F5F5F5F5F5F5F5F5F5F5F5F5F5E2E2F5F5F5F5F5F5F5F5F5F5F5F5F5F5F5F5E2E2E2E2E2
310
E2F5E2E2E2E2E2F5E2E2E2E2E2F5E2E2E2E2E2E2F5F5F5F5F5F5F5F5F5F5F5F5F5F5F5F5F5F5F5F5F5F5F5F5F5F5F5F5F5F5F5F5F5F5F5F5F5F5F5F5F5F5F5F5F5F5F5F5F5F5F5F5F5F5F5F5F5F5F5F5F5E2E2E2E2EFE2E2F5F5F5F5F5F5F5F5F5F5F5F5F5F5F5F5F5F5F5F5F5F5F5F5F5F5F5F5F5F5F5F5F5F5F5F5F5F5F5
310
F5E2F5F5F5F5F5F5F5F5F5F5F5E2F5F5F5F5F5F5F5F5F5F5F5F5E2E2F5E2E2E2E2F5F5F5F5F5F5F5F5F5F5F5F5F5F5F5E2F5F5F5F5F5F5F5F5F5F5F5F5F5F5F5F5F5F5F5F5F5F5F5F5F5F5F5F5F5F5F5F5F5F5F5F5F5F5F5F5F5F5F5F5F5F5F5F5F5F5F5F5F5F5F5F5F5F5F5F5F5F5F5F5F5F5F5F5F5F5F5F5F5F5F5F5F5F5
310
F5F5F5F5F5F5F5E2E2E2E2EFE2E2F5F5F5F5F5F5F5F5F5F5F5F5F5F5F5F5F5F5F5F5F5F5F5F5F5F5F5F5F5F5F5F5F5F5F5F5F5F5F5F5E2F5F5F5F5F5F5F5F5F5F5F5E2F5F5F5F5F5F5F5F5F5F5F5F5E2E2E2E2E2E2E2F5E2E2E2F5F5F5F5F5F5F5F5F5F5F5E2F5F5F5F5F5F5F5F5F5F5F5F5F5F5F5F5F5F5F5F5F5F5F5F5F5
310
F5F5F5F5F5F5F5F5F5F5F5F5F5F5F5F5F5F5F5F5F5F5F5F5F5F5F5F5F5F5F5F5F5F5F5F5F5F5F5F5F5F5F5F5F5F5F5F5F5F5F5F5F5F5F5F5F5F5F5F5E2E2E2E2EFE2E2F5F5F5F5F5F5F5F5F5F5F5F5F5F5F5F5F5F5F5F5F5F5F5F5F5F5F5F5F5F5F5F5F5F5F5F5F5F5F5F5E2F5F5F5F5F5F5F5F5F5F5F5E2F5F5F5F5F5F5F5
310
F5F5F5F5F5E2E2E2E2E2E2E2E2E2E2E2F5F5F5F5F5F5F5F5F5F5F5E2F5F5F5F5F5F5F5F5F5F5F5F5F5F5F5F5F5F5F5F5F5F5F5F5F5F5F5F5F5F5F5F5F5F5F5F5F5F5F5F5F5F5F5F5F5F5F5F5F5F5F5F5F5F5F5F5F5F5F5F5F5F5F5F5F5F5F5F5F5F5F5F5F5F5F5F5F5F5F5F5F5F5F5F5F5E2E2E2E2EFE2E2F5F5F5F5F5F5F5
310
F5F5F5F5F5F5F5F5F5F5F5F5F5F5F5F5F5F5F5F5F5F5F5F5F5F5F5F5F5F5F5F5F5E2F5F5F5F5F5F5F5F5F5F5F5F5F5F5F5F5F5F5F5F5F5F5F5F5F5E2E2E2E2E2E2E2E2E2E2F5F5F5F5F5F5F5F5F5F5F5F5F5F5F5F5F5F5F5F5F5F5F5F5F5F5F5F5F5F5F5F5F5F5F5F5F5F5F5F5F5F5F5F5F5F5F5F5F5F5F5F5F5F5F5F5F5F5
310
F5F5F5F5F5F5F5F5F5F5F5F5F5F5F5F5F5F5F5F5F5F5F5F5F5F5F5F5F5F5F5F5F5F5F5F5F5F5F5E2E2E2E2EFE2E2F5F5F5F5F5F5F5F5F5F5F5F5F5F5F5F5F5F5F5F5F5F5F5F5F5F5F5F5F5F5F5F5F5F5F5F5F5F5F5F5E2F5F5F5F5F5F5F5F5F5F5F5E2F5F5F5F5F5F5F5F5F5F5F5F5F5E2E2E2E2E2E2E2E2E2F5F5F5F5F5F5
310
F5F5F5F5F5F5E2F5F5F5F5F5F5F5F5F5F5F5F5F5F5F5F5F5F5F5F5F5F5F5F5F5F5F5F5F5F5F5F5F5F5F5F5F5F5F5F5F5F5F5F5F5F5F5F5F5F5F5F5F5F5F5F5F5F5F5F5F5F5F5F5F5F5F5F5F5F5F5F5F5F5F5F5F5F5F5F5F5F5F5F5F5E2E2E2E2EFE2E2F5F5F5F5F5F5F5F5F5F5F5F5F5F5F5F5F5F5F5F5F5F5F5F5F5F5F5F5
310
F5F5F5F5F5F5F5F5F5F5F5F5E2F5F5F5F5F5F5F5F5F5F5F5E2F5F5F5F5F5F5F5F5F5F5F5F5F5E2E2E2E2E2E2E2E2E2F5F5F5F5F5F5F5F5F5F5F5F5E2F5F5F5F5F5F5F5F5F5F5F5F5F5F5F5F5F5F5F5F5F5F5F5F5F5F5F5F5F5F5F5F5F5F5F5F5F5F5F5F5F5F5F5F5F5F5F5F5F5F5F5F5F5F5F5F5F5F5F5F5F5F5F5F5F5F5F5
310
F5F5F5F5F5F5F5F5F5F5F5F5F5F5F5F5F5F5E2E2E2E2EFE2E2F5F5F5F5F5F5F5F5F5F5F5F5F5F5F5F5F5F5F5F5F5F5F5F5F5F5F5F5F5F5F5F5F5F5F5F5F5F5F5F5E2F5F5F5F5F5F5F5F5F5F5F5E2F5F5F5F5F5F5F5F5F5F5F5F5F5E2E2E2E2E2E2E2E2E2F5F5F5F5F5F5F5F5F5F5F5F5E2F5F5F5F5F5F5F5F5F5F5F5F5F5F5
310
F5F5F5F5F5F5F5F5F5F5F5F5F5F5F5F5F5F5F5F5F5F5F5F5F5F5F5F5F5F5F5F5F5F5F5F5F5F5F5F5F5F5F5F5F5F5F5F5F5F5F5F5F5F5F5F5F5F5F5F5F5F5F5F5F5F5F5F5F5F5F5E2E2E2E2EFE2E2F5F5F5F5F5F5F5F5F5F5F5F5F5F5F5F5F5F5F5F5F5F5F5F5F5F5F5F5F5F5F5F5F5F5F5F5F5F5F5F5E2F5F5F5F5F5F5F5F5
310
F5F5F5E2F5F5F5F5F5F5F5F5F5F5F5F5F5E2E2E2E2E2E2E2E2E2F5F5F5F5F5F5F5F5F5F5F5F5E2F5F5F5F5F5F5F5F5F5F5F5F5F5F5F5F5F5F5F5F5F5F5F5F5F5F5F5F5F5F5F5F5F5F5F5F5F5F5F5F5F5F5F5F5F5F5F5F5F5F5F5F5F5F5F5F5F5F5F5F5F5F5F5F5F5F5F5F5F5F5F5F5F5F5F5F5F5F5F5F5F5F5F5F5F5E2E2E2
310
E2EFE2E2F5F5F5F5F5F5F5F5F5F5F5F5F5F5F5F5F5F5F5F5F5F5F5F5F5F5F5F5F5F5F5F5F5F5F5F5F5F5F5F5E2F5F5F5F5F5F5F5F5F5F5F5E2F5F5F5F5F5F5F5F5F5F5F5F5F5E2E2E2E2E2E2E2E2E2F5F5F5F5F5F5F5F5F5F5F5F5E2F5F5F5F5F5F5F5F5F5F5F5F5F5F5F5F5F5F5F5F5F5F5F5F5F5F5F5F5F5F5F5F5F5F5F5
310
F5F5F5F5F5F5F5F5F5F5F5F5F5F5F5F5F5F5F5F5F5F5F5F5F5F5F5F5F5F5F5F5F5F5F5F5F5F5F5F5F5F5F5F5F5F5F5F5F5F5E2E2E2E2EFE2E2F5F5F5F5F5F5F5F5F5F5F5F5F5F5F5F5F5F5F5F5F5F5F5F5F5F5F5F5F5F5F5F5F5F5F5F5F5F5F5F5E2F5F5F5F5F5F5F5F5F5F5F5F5F5F5F5F5F5F5F5F5F5F5F5F5F5E2E2E2E2
310
E2E2E2E2E2F5F5F5F5F5F5F5F5F5F5F5F5F5F5F5F5F5F5F5F5F5F5F5F5F5F5F5F5F5F5F5F5F5F5F5F5F5F5F5F5F5F5F5F5F5F5F5F5F5F5F5F5F5F5F5F5F5F5F5F5F5F5F5F5F5F5F5F5F5F5F5F5F5F5F5F5F5F5F5F5F5F5F5F5F5F5F5F5F5F5F5F5F5F5F5F5F5F5E2F5E2E2EFE2E2F5F5F5F5F5F5F5F5F5F5F5F5F5F5F5F5F5
310
F5F5F5F5F5F5F5F5F5F5F5F5F5F5F5F5F5F5F5F5F5F5F5E2F5F5F5F5F5F5F5F5F5F5F5E2F5F5F5F5F5F5F5F5F5F5F5F5F5E2E2E2E2E2E2E2E2E2F5F5F5F5F5F5F5F5F5F5F5F5E2F5F5F5F5F5F5F5F5F5F5F5F5F5F5F5F5F5F5F5F5F5F5F5F5F5F5F5F5F5F5F5F5F5F5F5F5F5F5F5F5F5F5F5F5F5F5F5F5F5F5F5F5F5F5F5F5
310
F5F5F5F5F5F5F5F5F5F5F5F5F5F5F5F5F5F5F5F5F5F5F5F5F5F5F5F5F5E2F5E2E2EFE2E2F5F5F5F5F5F5F5F5F5F5F5F5F5F5F5F5F5F5F5F5F5F5F5F5F5F5F5F5F5F5F5F5F5F5F5F5F5F5F5F5E2F5F5F5F5F5F5F5F5F5F5F5E2F5F5F5F5F5F5F5F5F5F5F5F5E2E2E2E2E2E2E2E2E2E2F5F5F5F5F5F5F5F5F5F5F5F5E2F5F5F5
310
F5F5F5F5F5F5F5F5F5F5F5F5F5F5F5F5F5F5F5F5F5F5F5F5F5F5F5F5F5F5F5F5F5F5F5F5F5F5F5F5F5F5F5F5F5F5F5F5F5F5F5F5F5F5F5F5F5F5F5F5F5F5F5F5F5F5F5F5F5F5F5F5F5F5F5F5F5F5F5F5F5F5E2F5E2E2EFE2E2F5F5F5F5F5F5F5F5F5F5F5F5F5F5F5F5F5F5F5F5F5F5F5F5F5F5F5F5F5F5F5F5F5F5F5F5F5F5
310
F5F5E2F5F5F5F5F5F5F5F5F5F5F5E2F5F5F5F5F5F5F5F5F5F5F5F5E2E2E2E2E2E2E2E2E2E2E2F5F5F5F5F5F5F5F5F5F5F5E2F5F5F5F5F5F5F5F5F5F5F5F5F5F5F5F5F5F5F5F5F5F5F5F5F5F5F5F5F5F5F5F5F5F5F5F5F5F5F5F5F5F5F5F5F5F5F5F5F5F5F5F5F5F5F5F5F5F5F5F5F5F5F5F5F5F5F5F5F5F5F5F5F5F5F5F5F5
310
F5F5F5F5F5F5F5F5E2F5E2E2EFE2E2F5F5F5F5F5F5F5F5F5F5F5F5F5F5F5F5F5F5F5F5F5F5F5F5F5F5F5F5F5F5F5F5F5F5F5F5F5F5F5F5E2F5F5F5F5F5F5F5F5F5F5F5E2F5F5F5F5F5F5F5F5F5F5F5F5F5F5F5E2E2E2E2E2E2E2E2F5F5F5F5F5F5F5F5F5F5F5E2F5F5F5F5F5F5F5F5F5F5F5F5F5F5F5F5F5F5F5F5F5F5F5F5
310
F5F5F5F5F5F5F5F5F5F5F5F5F5F5F5F5F5F5F5F5F5F5F5F5F5F5F5F5F5F5F5F5F5F5F5F5F5F5F5F5F5F5F5F5F5F5F5F5F5F5F5F5F5F5F5F5F5F5F5F5F5E2F5E2E2EFE2E2F5F5F5F5F5F5F5F5F5F5F5F5F5F5F5F5F5F5F5F5F5F5F5F5F5F5F5F5F5F5F5F5F5F5F5F5F5F5F5F5E2F5F5F5F5F5F5F5F5F5F5F5E2F5F5F5F5F5F5
310
F5F5F5F5F5F5F5F5F5F5F5F5F5F5F5F5F5F5F5F5F5F5F5F5F5F5F5F5E2F5F5F5F5F5F5F5F5F5F5F5F5F5F5F5F5F5F5F5F5F5F5F5F5F5F5F5F5F5F5F5F5F5F5F5F5F5F5F5F5F5F5F5F5F5F5F5F5F5F5F5F5F5F5F5F5F5F5F5F5F5F5F5F5F5F5F5F5F5F5F5F5F5F5F5F5F5F5F5F5F5F5F5F5F5E2F5E2E2EFE2E2F5F5F5F5F5F5
310
F5F5F5F5F5F5F5F5F5F5F5F5F5F5F5F5F5F5F5F5F5F5F5F5F5F5F5F5F5F5F5F5F5F5E2F5F5F5F5F5F5F5F5F5F5F5F5F5F5F5F5F5F5F5F5F5F5F5F5F5F5F5F5F5F5F5F5F5F5F5F5F5F5F5F5F5F5F5F5F5F5E2F5F5F5F5F5F5F5F5F5F5F5F5F5F5F5F5F5F5F5F5F5F5F5F5F5F5F5F5F5F5F5F5F5F5F5F5F5F5F5F5F5F5F5F5F5
310
F5F5F5F5F5F5F5F5F5F5F5F5F5F5F5F5F5F5F5F5F5F5F5F5F5F5F5F5F5F5F5F5F5F5F5F5F5F5F5F5E2F5E2E2EFE2E2F5F5F5F5F5F5F5F5F5F5F5F5F5F5F5F5F5F5F5F5F5F5F5F5F5F5F5F5F5F5F5F5F5F5F5F5F5F5F5F5E2F5F5F5F5F5F5F5F5F5F5F5F5F5F5F5F5F5F5F5F5F5F5F5F5F5F5F5F5F5F5F5F5F5F5F5F5F5F5F5
310
F5F5F5F5F5F5F5F5F5F5F5F5F5F5F5F5F5F5F5F5F5F5F5F5F5F5F5F5F5F5F5F5F5F5F5F5F5F5F5F5F5F5F5F5F5F5F5F5F5F5F5F5F5F5F5F5F5F5F5F5F5F5F5F5F5F5F5F5F5F5F5F5F5F5F5F5F5F5F5F5F5F5F5F5F5F5F5F5F5F5F5F5F5E2F5E2E2EFE2E2F5F5F5F5F5F5F5F5F5F5F5F5F5F5F5F5F5F5F5F5F5F5F5F5F5F5F5
310
F5F5F5F5F5F5F5F5F5F5F5F5F5E2F5F5F5F5F5F5F5F5F5F5F5E2F5F5F5F5F5F5F5F5F5F5F5F5F5F5F5F5F5F5F5F5F5F5F5F5F5F5F5F5F5F5F5F5F5F5E2F5F5F5F5F5F5F5F5F5F5F5F5F5F5F5F5F5F5F5F5F5F5F5F5F5F5F5F5F5F5F5F5F5F5F5F5F5F5F5F5F5F5F5F5F5F5F5F5F5F5F5F5F5F5F5F5F5F5F5F5F5F5F5F5F5F5
310
F5F5F5F5F5F5F5F5F5F5F5F5F5F5F5F5F5F5F5E2F5E2E2EFE2E2F5F5F5F5F5F5F5F5F5F5F5F5F5F5F5F5F5F5F5F5F5F5F5F5F5F5F5F5F5F5F5F5F5F5F5F5F5F5F5F5E2F5F5F5F5F5F5F5F5F5F5F5E2F5F5F5F5F5F5F5F5F5F5F5F5F5F5F5F5F5F5F5F5F5F5F5F5F5F5F5F5F5F5F5F5F5F5E2F5F5F5F5F5F5F5F5F5F5F5F5F5
310
F5F5F5F5F5F5F5F5F5F5F5F5F5F5F5F5F5F5F5F5F5F5F5F5F5F5F5F5F5F5F5F5F5F5F5F5F5F5F5F5F5F5F5F5F5F5F5F5F5F5F5F5F5F5F5F5F5F5F5F5F5F5F5F5F5F5F5F5F5F5F5F5E2E2E2E2EFE2E2F5F5F5F5F5F5F5F5F5F5F5F5F5F5F5F5F5F5F5F5F5F5F5F5F5F5F5F5F5F5F5F5F5F5F5F5F5F5F5F5E2F5F5F5F5F5F5F5
310
F5F5F5F5E2F5F5F5F5F5F5F5F5F5F5F5F5F5F5F5F5F5F5F5F5F5F5F5F5F5F5F5F5F5F5F5F5F5F5E2F5F5F5F5F5F5F5F5F5F5F5F5F5F5F5F5F5F5F5F5F5F5F5F5F5F5F5F5F5F5F5F5F5F5F5F5F5F5F5F5F5F5F5F5F5F5F5F5F5F5F5F5F5F5F5F5F5F5F5F5F5F5F5F5F5F5F5F5F5F5F5F5F5F5F5F5F5F5F5F5F5F5F5F5F5E2E2
310
E2E2EFE2E2F5F5F5F5F5F5F5F5F5F5F5F5F5F5F5F5F5F5F5F5F5F5F5F5F5F5F5F5F5F5F5F5F5F5F5F5F5F5F5F5E2F5F5F5F5F5F5F5F5F5F5F5E2F5F5F5F5F5F5F5F5F5F5F5F5F5F5F5F5F5F5F5F5F5F5F5F5F5F5F5F5F5F5F5F5F5F5E2F5F5F5F5F5F5F5F5F5F5F5F5F5F5F5F5F5F5F5F5F5F5F5F5F5F5F5F5F5F5F5F5F5F5
310
F5F5F5F5F5F5F5F5F5F5F5F5F5F5F5F5F5F5F5F5F5F5F5F5F5F5F5F5F5F5F5F5F5F5F5F5F5F5F5F5F5F5F5F5F5F5F5F5F5F5F5E2E2E2E2EFE2E2F5F5F5F5F5F5F5F5F5F5F5F5F5F5F5F5F5F5F5F5F5F5F5F5F5F5F5F5F5F5F5F5F5F5F5F5F5F5F5F5E2F5F5F5F5F5F5F5F5F5F5F5E2F5F5F5F5F5F5F5F5F5F5F5F5F5F5F5F5
310
F5F5F5F5F5F5F5F5F5F5F5F5F5F5F5F5F5F5E2F5F5F5F5F5F5F5F5F5F5F5F5F5F5F5F5F5F5F5F5F5F5F5F5F5F5F5F5F5F5F5F5F5F5F5F5F5F5F5F5F5F5F5F5F5F5F5F5F5F5F5F5F5F5F5F5F5F5F5F5F5F5F5F5F5F5F5F5F5F5F5F5F5F5F5F5F5F5F5F5F5F5F5F5F5E2E2E2E2EFE2E2F5F5F5F5F5F5F5F5F5F5F5F5F5F5F5F5
310
F5F5F5F5F5F5F5F5F5F5F5F5F5F5F5F5F5F5F5F5F5F5F5F5E2F5F5F5F5F5F5F5F5F5F5F5F5F5F5F5F5F5F5F5F5F5F5F5F5F5F5F5F5F5F5F5F5F5F5F5F5F5F5F5F5F5F5F5F5F5F5F5F5F5F5F5F5F5F5F5F5F5F5F5F5F5F5F5F5F5F5F5F5F5F5F5F5F5F5F5F5F5F5F5F5F5F5F5F5F5F5F5F5F5F5F5F5F5F5F5F5F5F5F5F5F5F5
310
F5F5F5F5F5F5F5F5F5F5F5F5F5F5F5F5F5F5F5F5F5F5F5F5F5F5F5F5F5F5E2E2E2E2EFE2E2F5F5F5F5F5F5F5F5F5F5F5F5F5F5F5F5F5F5F5F5F5F5F5F5F5F5F5F5F5F5F5F5F5F5F5F5F5F5F5F5E2F5F5F5F5F5F5F5F5F5F5F5E2F5F5F5F5F5F5F5F5F5F5F5F5F5F5F5F5F5F5F5F5F5F5F5F5F5F5F5F5F5F5F5F5F5F5E2F5F5
310
F5F5F5F5F5F5F5F5F5F5F5F5F5F5F5F5F5F5F5F5F5F5F5F5F5F5F5F5F5F5F5F5F5F5F5F5F5F5F5F5F5F5F5F5F5F5F5F5F5F5F5F5F5F5F5F5F5F5F5F5F5F5F5F5F5F5F5F5F5F5F5F5F5F5F5F5F5F5F5F5F5F5F5E2E2E2E2EFE2E2F5F5F5F5F5F5F5F5F5F5F5F5F5F5F5F5F5F5F5F5F5F5F5F5F5F5F5F5F5F5F5F5F5F5F5F5F5
310
F5F5F5E2F5F5F5F5F5F5F5F5F5F5F5E2F5F5F5F5F5F5F5F5F5F5F5F5F5F5F5F5F5F5F5F5F5F5F5F5F5F5F5F5F5F5F5F5F5F5E2F5F5F5F5F5F5F5F5F5F5F5F5F5F5F5F5F5F5F5F5F5F5F5F5F5F5F5F5F5F5F5F5F5F5F5F5F5F5F5F5F5F5F5F5F5F5F5F5F5F5F5F5F5F5F5F5F5F5F5F5F5F5F5F5F5F5F5F5F5F5F5F5F5F5F5F5
310
F5F5F5F5F5F5F5F5F5E2E2E2E2EFE2E2F5F5F5F5F5F5F5F5F5F5F5F5F5F5F5F5F5F5F5F5F5F5F5F5F5F5F5F5F5F5F5F5F5F5F5F5F5F5F5F5E2F5F5F5F5F5F5F5F5F5F5F5E2F5F5F5F5F5F5F5F5F5F5F5F5F5F5F5F5F5F5F5F5F5F5F5F5F5F5F5F5F5F5F5F5F5F5E2F5F5F5F5F5F5F5F5F5F5F5F5F5F5F5F5F5F5F5F5F5F5F5
310
F5F5F5F5F5F5F5F5F5F5F5F5F5F5F5F5F5F5F5F5F5F5F5F5F5F5F5F5F5F5F5F5F5F5F5F5F5F5F5F5F5F5F5F5F5F5F5F5F5F5F5F5F5F5F5F5F5F5F5F5F5F5E2E2E2E2EFE2E2F5F5F5F5F5F5F5F5F5F5F5F5F5F5F5F5F5F5F5F5F5F5F5F5F5F5F5F5F5F5F5F5F5F5F5F5F5F5F5F5E2F5F5F5F5F5F5F5F5F5F5F5E2F5F5F5F5F5
310
F5F5F5F5F5F5F5F5F5F5F5F5F5F5F5F5F5F5F5F5F5F5F5F5F5F5F5F5F5E2F5F5F5F5F5F5F5F5F5F5F5F5F5F5F5F5F5F5F5F5F5F5F5F5F5F5F5F5F5F5F5F5F5F5F5F5F5F5F5F5F5F5F5F5F5F5F5F5F5F5F5F5F5F5F5F5F5F5F5F5F5F5F5F5F5F5F5F5F5F5F5F5F5F5F5F5F5F5F5F5F5F5F5F5F5E2E2E2E2EFE2E2F5F5F5F5F5
310
F5F5F5F5F5F5F5F5F5F5F5F5F5F5F5F5F5F5F5F5F5F5F5F5F5F5F5F5F5F5F5F5F5F5F5E2F5F5F5F5F5F5F5F5F5F5F5E2F5F5F5F5F5F5F5F5F5F5F5F5F5F5F5F5F5F5F5F5F5F5F5F5F5F5F5F5F5F5F5F5F5F5E2F5F5F5F5F5F5F5F5F5F5F5F5F5F5F5F5F5F5F5F5F5F5F5F5F5F5F5F5F5F5F5F5F5F5F5F5F5F5F5F5F5F5F5F5
310
F5F5F5F5F5F5F5F5F5F5F5F5F5F5F5F5F5F5F5F5F5F5F5F5F5F5F5F5F5F5F5F5F5F5F5F5F5F5F5F5F5E2E2E2E2EFE2E2F5F5F5F5F5F5F5F5F5F5F5F5F5F5F5F5F5F5F5F5F5F5F5F5F5F5F5F5F5F5F5F5F5F5F5F5F5F5F5F5E2F5F5F5F5F5F5F5F5F5F5F5F5F5F5F5F5F5F5F5F5F5F5F5F5F5F5F5F5F5F5F5F5F5F5F5F5F5F5
310
F5F5F5F5F5F5F5F5F5F5F5F5F5F5F5F5F5F5F5F5F5F5F5F5F5F5F5F5F5F5F5F5F5F5F5F5F5F5F5F5F5F5F5F5F5F5F5F5F5F5F5F5F5F5F5F5F5F5F5F5F5F5F5F5F5F5F5F5F5F5F5F5F5F5F5F5F5F5F5F5F5F5F5F5F5F5F5F5F5F5F5F5F5F5E2E2E2E2EFE2E2F5F5F5F5F5F5F5F5F5F5F5F5F5F5F5F5F5F5F5F5F5F5F5F5F5F5
310
F5F5F5F5F5F5F5F5F5F5F5F5F5F5E2F5F5F5F5F5F5F5F5F5F5F5E2F5F5F5F5F5F5F5F5F5F5F5F5F5F5F5F5F5F5F5F5F5F5F5F5F5F5F5F5F5F5F5F5F5F5E2F5F5F5F5F5F5F5F5F5F5F5F5F5F5F5F5F5F5F5F5F5F5F5F5F5F5F5F5F5F5F5F5F5F5F5F5F5F5F5F5F5F5F5F5F5F5F5F5F5F5F5F5F5F5F5F5F5F5F5F5F5F5F5F5F5
310
F5F5F5F5F5F5F5F5F5F5F5F5F5F5F5F5F5F5F5F5E2E2E2E2EFE2E2F5F5F5F5F5F5F5F5F5F5F5F5F5F5F5F5F5F5F5F5F5F5F5F5F5F5F5F5F5F5F5F5F5F5F5F5F5F5F5F5E2F5F5F5F5F5F5F5F5F5F5F5E2F5F5F5F5F5F5F5F5F5F5F5F5F5F5F5F5F5F5F5F5F5F5F5F5F5F5F5F5F5F5F5F5F5F5E2F5F5F5F5F5F5F5F5F5F5F5F5
310
F5F5F5F5F5F5F5F5F5F5F5F5F5F5F5F5F5F5F5F5F5F5F5F5F5F5F5F5F5F5F5F5F5F5F5F5F5F5F5F5F5F5F5F5F5F5F5F5F5F5F5F5F5F5F5F5F5F5F5F5F5F5F5F5F5F5F5F5F5F5F5F5F5E2E2E2E2EFE2E2F5F5F5F5F5F5F5F5F5F5F5F5F5F5F5F5F5F5F5F5F5F5F5F5F5F5F5F5F5F5F5F5F5F5F5F5F5F5F5F5E2BEF5F5F5F5F5
310
F5F5F5F5F5E2F5F5F5F5F5F5F5F5F5F5F5F5F5F5F5F5F5F5F5F5F5F5F5F5F5F5F5F5F5F5F5F5F5F5E2F5F5F5F5F5F5F5F5F5F5F5F5F5F5F5F5F5F5F5F5F5F5F5F5F5F5F5F5F5F5F5F5F5F5F5F5F5F5F5F5F5F5F5F5F5F5F5F5F5F5F5F5F5F5F5F5F5F5F5F5F5F5F5F5F5F5F5F5F5F5F5F5F5F5F5F5F5F5F5F5F5F5F5F5F5E2
310
E2E2E2EFE2E2F5F5F5F5F5F5F5F5F5F5F5F5F5F5F5F5F5F5F5F5F5F5F5F5F5F5F5F5F5F5F5F5F5F5F5F5F5F5F5E2E2BEE2F5F5F5F5F5F5F5F5F5E2E2E2E2E2F5E2E2E2E2E2F5E2E2E2E2E2E2F5E2E2E2E2E2F5E2E2E2E2E2F5E2E2E2E2E2F5F5F5F5F5F5F5F5F5F5F5F5F5F5F5F5F5F5F5F5F5F5F5F5F5F5F5F5F5F5F5F5F5
310
F5F5F5F5F5F5F5F5F5F5F5F5F5F5F5F5F5F5F5F5F5F5F5F5F5F5F5F5F5F5F5F5F5F5F5F5F5F5F5F5F5F5F5F5F5F5F5F5F5F5F5F5E2E2E2E2EFE2E2F5F5F5F5F5F5F5F5F5F5F5F5F5F5F5F5F5F5F5F5F5F5F5F5F5F5F5F5F5F5F5F5F5F5F5F5F5F5F5F5E2F5F5F5F5F5F5F5F5F5F5F5F5F5F5F5F5F5F5F5F5F5F5F5F5F5F5F5
310
F5F5F5F5F5F5F5F5F5F5F5F5F5F5F5F5F5F5F5F5F5F5F5F5F5F5F5F5F5F5F5F5F5F5F5F5F5F5F5F5F5F5F5F5F5F5F5F5F5F5F5F5F5F5F5F5F5F5F5F5F5F5F5F5F5F5F5F5F5F5F5F5F5F5F5F5F5F5F5F5F5F5F5F5F5F5F5F5F5F5F5F5F5F5F5F5F5F5F5F5F5F5F5F5F5E2E2E2E2EFE2E2F5F5F5F5F5F5F5F5F5F5F5F5F5F5F5
310
F5F5F5F5F5F5F5F5F5F5F5F5F5F5F5F5F5F5F5F5F5F5F5F5F5F5F5F5F5F5F5F5F5F5F5F5F5F5F5F5F5F5F5F5F5F5F5F5F5F5F5F5F5F5F5F5F5F5F5F5F5F5F5F5F5F5F5F5F5F5F5F5F5F5F5F5F5F5F5F5F5F5F5F5F5F5F5F5F5F5F5F5F5F5F5F5F5F5F5F5F5F5F5F5F5F5F5F5F5F5F5F5F5F5F5F5F5F5F5F5F5F5F5F5F5F5F5
310
F5F5F5F5F5F5F5F5F5F5F5F5F5F5F5F5F5F5F5F5F5F5F5F5F5F5F5F5F5F5F5E2F5E2E2EFE2E2F5F5F5F5F5F5F5F5F5F5F5F5F5F5F5F5F5F5F5F5F5F5F5F5F5F5F5F5F5F5F5F5F5F5F5F5F5F5F5F5F5F5F5F5F5F5F5F5F5F5F5F5F5F5F5F5F5F5F5F5F5F5F5F5F5F5F5F5F5F5F5F5F5F5F5F5F5F5F5F5F5F5F5F5F5F5F5F5F5
310
F5F5F5F5F5F5F5F5F5F5F5F5F5F5F5F5F5F5F5F5F5F5F5F5F5F5F5F5F5F5F5F5F5F5F5F5F5F5F5F5F5F5F5F5F5F5F5F5F5F5F5F5F5F5F5F5F5F5F5F5F5F5F5F5F5F5F5F5F5F5F5F5F5F5F5F5F5F5F5F5F5F5F5F5E2F5E2E2EFE2E2F5F5F5F5F5F5F5F5F5F5F5F5F5F5F5F5F5F5F5F5F5F5F5F5F5F5F5F5F5F5F5F5F5F5F5F5
310
F5F5F5F5F5F5F5F5F5F5F5F5F5F5F5F5F5F5F5F5F5F5F5F5F5F5F5F5F5F5F5F5F5F5F5F5F5F5F5F5F5F5F5F5F5F5F5F5F5F5F5F5F5F5F5F5F5F5F5F5F5F5F5F5F5F5F5F5F5F5F5F5F5F5F5F5F5F5F5F5F5F5F5F5F5F5F5F5F5F5F5F5F5F5F5F5F5F5F5F5F5F5F5F5F5F5F5F5F5F5F5F5F5F5F5F5F5F5F5F5F5F5F5F5F5F5F5
310
F5F5F5F5F5F5F5F5F5F5E2F5E2E2EFE2E2F5F5F5F5F5F5F5F5F5F5F5F5F5F5F5F5F5F5F5F5F5F5F5F5F5F5F5F5F5F5F5F5F5F5F5F5F5F5F5F5F5F5F5F5F5F5F5F5F5F5F5F5F5F5F5F5F5F5F5F5F5F5F5F5F5F5F5F5F5F5F5F5F5F5F5F5F5F5F5F5F5F5F5F5F5F5F5F5F5F5F5F5F5F5F5F5F5F5F5F5F5F5F5F5F5F5F5F5F5F5
310
F5F5F5F5F5F5F5F5F5F5F5F5F5F5F5F5F5F5F5F5F5F5F5F5F5F5F5F5F5F5F5F5F5F5F5F5F5F5F5F5F5F5F5F5F5F5F5F5F5F5F5F5F5F5F5F5F5F5F5F5F5F5F5E2F5E2E2EFE2E2F5F5F5F5F5F5F5F5F5F5F5F5F5F5F5F5F5F5F5F5F5F5F5F5F5F5F5F5F5F5F5F5F5F5F5F5F5F5F5F5F5F5F5F5F5F5F5F5F5F5F5F5F5F5F5F5F5
310
F5F5F5F5F5F5F5F5F5F5F5F5F5F5F5F5F5F5F5F5F5F5F5F5F5F5F5F5F5F5F5F5F5F5F5F5F5F5F5F5F5F5F5F5F5F5F5F5F5F5F5F5F5F5F5F5F5F5F5F5F5F5F5F5F5F5F5F5F5F5F5F5F5F5F5F5F5F5F5F5F5F5F5F5F5F5F5F5F5F5F5F5F5F5F5F5F5F5F5F5F5F5F5F5F5F5F5F5F5F5F5F5F5F5F5F5E2F5E2E2EFE2E2F5F5F5F5
310
F5F5F5F5F5F5F5F5F5F5F5F5F5F5F5F5F5F5F5F5F5F5F5F5F5F5F5F5F5F5F5F5F5F5F5F5F5F5F5F5F5F5F5F5F5F5F5F5F5F5F5F5F5F5F5F5F5F5F5F5F5F5F5F5F5F5F5F5F5F5F5F5F5F5F5F5F5F5F5F5F5F5F5F5F5F5F5F5F5F5F5F5F5F5F5F5F5F5F5F5F5F5F5F5F5F5F5F5F5F5F5F5F5F5F5F5F5F5F5F5F5F5F5F5F5F5F5
310
F5F5F5F5F5F5F5F5F5F5F5F5F5F5F5F5F5F5F5F5F5F5F5F5F5F5F5F5F5F5F5F5F5F5F5F5F5F5F5F5F5F5E2F5E2E2EFE2E2F5F5F5F5F5F5F5F5F5F5F5F5F5F5F5F5F5F5F5F5F5F5F5F5F5F5F5F5F5F5F5F5F5F5F5F5F5F5F5F5F5F5F5F5F5F5F5BEE2F5F5F5F5F5F5F5F5F5F5F5F5F5F5F5F5F5F5F5F5F5F5F5F5F5F5F5F5F5
310
F5F5F5F5F5F5F5F5F5F5F5F5F5F5F5F5F5F5F5F5F5F5F5F5F5F5F5F5F5F5F5F5F5F5F5F5F5F5F5F5F5F5F5F5F5F5F5BEE2F5F5F5F5F5F5F5F5F5F5F5F5F5F5F5F5F5F5F5F5F5F5F5F5F5F5F5F5F5F5F5F5F5F5F5F5F5F5F5F5F5F5F5F5F5F5E2F5E2E2EFE2E2F5F5F5F5F5F5F5F5F5F5F5F5F5F5F5F5F5F5F5F5F5F5F5F5F5
310
F5F5F5F5F5F5F5F5F5F5F5F5F5F5F5F5F5F5F5F5F5F5E2E2E2E2E2E2E2E2E2E2E2E2E2E2E2E2E2E2E2E2E2E2E2E2E2E2E2E2E2E2E2E2E2E2E2E2E2E2E2E2E2E2E2E2E2E2E2E2E2E2E2E2E2E2E2E2E2E2E2E2E2E2E2E2E2E2E2E2E2E2E2E2E2E2E2E2E2E2E2E2E2F5F5F5F5F5F5F5F5F5F5F5F5F5F5F5F5F5F5F5F5F5F5F5F5
310
F5F5F5F5F5F5F5F5F5F5F5F5F5F5F5F5F5F5F5F5F5E2F5E2E2EFE2E2F5F5F5F5F5F5F5F5F5F5F5F5F5F5F5F5F5F5F5F5F5F5F5F5F5F5F5F5F5F5F5F5F5F5F5F5F5F5F5F5F5F5F5F5F5F5F5F5BEF5F5F5F5F5F5F5F5F5F5F5F5F5F5F5F5F5F5F5F5F5F5F5F5F5F5F5F5F5F5F5F5F5F5F5F5E2E2E2E2F5F5F5F5F5F5F5F5F5F5
310
F5F5F5F5F5F5F5F5F5F5F5F5F5F5F5F5F5F5F5F5F5F5F5F5F5F5F5E2BEF5F5F5F5F5F5F5F5F5F5F5F5F5F5F5F5F5F5F5F5F5F5F5F5F5F5F5F5F5F5F5F5F5F5F5F5F5F5F5F5F5F5F5F5F5E2F5E2E2EFE2E2F5F5F5F5F5F5F5F5F5F5F5F5F5F5F5F5F5F5F5F5F5F5F5F5F5F5F5F5F5F5F5F5F5F5F5F5F5F5F5F5F5F5F5F5F5F5
310
F5F5F5F5F5F5F5F5F5F5F5F5F5F5F5F5F5F5F5F5F5F5F5F5F5F5F5F5F5F5F5F5F5F5F5F5F5F5F5E2E2E2E2F5F5F5F5F5F5F5F5F5F5F5F5F5F5F5F5F5F5F5F5F5F5F5F5F5F5F5F5F5F5F5F5F5F5F5F5F5F5F5F5F5F5F5F5F5F5F5F5F5F5F5F5F5F5F5F5F5F5F5F5F5F5F5F5F5F5F5F5F5F5F5F5F5F5F5F5F5F5F5F5F5F5F5F5
310
E2E2E2E2EFE2E2F5F5F5F5F5F5F5F5F5F5F5F5F5F5F5F5F5F5F5F5F5F5F5F5F5F5F5F5F5F5F5F5F5F5F5F5F5F5F5F5F5F5F5F5F5F5F5F5F5F5F5F5F5F5F5F5F5F5F5F5F5F5F5F5F5F5F5F5F5F5F5F5F5F5F5F5F5F5F5F5F5F5F5F5F5F5F5F5F5F5F5F5F5F5F5F5F5F5F5F5F5F5F5F5F5F5F5F5F5F5F5F5F5F5F5F5F5F5F5F5
310
F5F5F5F5F5F5F5F5F5F5F5F5F5F5F5F5F5F5F5F5F5F5F5F5F5F5F5F5F5F5F5F5F5F5F5F5F5F5F5F5F5F5F5F5F5F5F5F5F5F5F5F5F5E2E2E2E2EFE2E2F5F5F5F5F5F5F5F5F5F5F5F5F5F5F5F5F5F5F5F5F5F5F5F5F5F5F5F5F5F5F5F5F5F5F5F5F5F5F5F5F5F5F5F5F5F5F5F5F5F5F5F5F5F5F5F5F5F5F5F5F5F5F5F5F5F5F5
310
F5F5F5F5F5F5F5F5F5F5F5F5F5F5F5F5F5F5F5F5F5F5F5F5F5F5F5F5F5F5F5F5F5F5F5F5F5F5F5F5F5F5F5F5F5F5F5F5F5F5F5F5F5F5F5F5F5F5F5F5F5F5F5F5F5F5F5F5F5F5F5F5F5F5F5F5F5F5F5F5F5F5F5F5F5F5F5F5F5F5F5F5F5F5F5F5F5F5F5F5F5F5F5F5F5F5E2E2E2E2EFE2E2F5F5F5F5F5F5F5F5F5F5F5F5F5F5
310
F5F5F5F5F5F5F5F5F5F5F5F5F5F5F5F5F5F5F5F5F5F5F5F5F5F5F5F5F5F5F5F5F5F5F5F5F5F5F5F5F5F5F5F5F5F5F5F5F5F5F5F5F5F5F5F5F5F5F5F5F5F5F5F5F5F5F5F5F5F5F5F5F5F5F5F5F5F5F5F5F5F5F5F5F5F5F5F5F5F5F5F5F5F5F5F5F5F5F5F5F5F5F5F5F5F5F5F5F5F5F5F5F5F5F5F5F5F5F5F5F5F5F5F5F5F5F5
310
F5F5F5F5F5F5F5F5F5F5F5F5F5F5F5F5F5F5F5F5F5F5F5F5F5F5F5F5F5F5F5F5E2E2E2E2EFE2E2F5F5F5F5F5F5F5F5F5F5F5F5F5F5F5F5F5F5F5F5F5F5F5F5F5F5F5F5F5F5F5F5F5F5F5F5F5F5F5F5F5F5F5F5F5F5F5F5F5F5F5F5F5F5F5F5F5F5F5F5F5F5F5F5F5F5F5F5F5F5F5F5F5F5F5F5F5F5F5F5F5F5F5F5F5F5F5F5
310
F5F5F5F5F5F5F5F5F5F5F5F5F5F5F5F5F5F5F5F5F5F5F5F5F5F5F5F5F5F5F5F5F5F5F5F5F5F5F5F5F5F5F5F5F5F5F5F5F5F5F5F5F5F5F5F5F5F5F5F5F5F5F5F5F5F5F5F5F5F5F5F5F5F5F5F5F5F5F5F5F5F5F5F5F5E2E2E2E2EFE2E2E2E2E2E2E2E2E2E2E2E2E2E2E2E2E2E2E2E2E2E2E2E2E2E2E2E2E2E2E2E2E2E2E2E2E2
310
E2E2E2E2E2E2E2E2E2E2E2E2E2E2E2E2E2E2E2E2E2E2E2E2E2E2E2E2E2E2E2E2E2E2E2E2E2E2E2E2E2E2E2E2E2E2E2E2E2E2E2E2E2E2E2E2E2E2E2E2E2E2E2E2E2E2E2E2E2E2E2E2E2E2E2E2E2E2E2E2E2E2E2E2E2E2E2E2E2E2E2E2E2E2E2E2E2E2E2E2E2E2E2E2E2E2E2E2E2E2E2E2E2E2E2E2E2E2E2E2E2E2E2E2E2E2E2
310
E2E2E2E2E2E2E2E2E2E2E2E2E2E2E2EFE2E2F5F5F5F5F5F5F5F5F5F5F5F5F5F5F5F5F5F5F5F5F5F5F5F5F5F5F5F5F5F5F5F5F5F5F5F5F5F5F5F5F5F5F5F5F5F5F5F5F5F5F5F5F5F5F5F5F5F5F5F5F5F5F5F5F5F5F5F5F5F5F5F5F5F5F5F5F5F5F5F5F5F5F5F5F5F5F5F5F5F5F5F5F5F5F5F5F5F5F5F5F5F5F5F5F5F5F5F5F5
310
F5F5F5F5F5F5F5F5F5F5F5F5F5F5F5F5F5F5F5F5F5F5F5F5F5F5F5F5F5F5F5F5F5F5F5F5F5F5F5F5F5F5F5F5F5F5F5F5F5F5F5F5F5F5F5F5F5F5F5F5F5F5F5F5F5E2E2E2EFE2E2E2E2E2E2E2E2E2E2F5F5F5F5F5F5F5F5F5E2E2E2E2E2E2E2E2E2E2E2E2E2E2E2E2F5F5F5F5F5F5F5F5F5E2E2E2E2E2E2E2E2E2E2E2E2E2E2
310
E2E2F5F5F5F5F5F5F5F5F5E2E2E2E2E2E2E2E2E2E2E2E2E2E2E2E2F5F5F5F5F5F5F5F5F5E2E2E2E2E2E2E2E2E2E2E2E2E2E2E2E2F5F5F5F5F5F5F5F5F5E2E2E2E2E2E2E2E2E2E2E2E2E2E2E2E2F5F5F5F5F5F5F5F5F5E2E2E2E2E2E2E2E2E2E2E2E2E2E2E2E2F5F5F5F5F5F5F5F5F5E2E2E2E2E2E2E2E2E2EFEFE2E2E2E2E2
310
E2E2E2E2E2E2E2E2E2E2E2E2E2E2E2E2E2E2E2E2E2E2E2E2E2E2E2E2E2E2E2E2E2E2E2E2E2E2E2E2E2E2E2E2E2E2E2E2E2E2E2E2E2E2E2E2E2E2E2E2E2E2E2E2E2E2E2E2E2E2E2E2E2E2E2E2E2E2E2E2E2E2E2E2E2E2E2E2E2E2E2E2E2E2E2E2E2E2E2E2E2E2E2E2E2E2E2E2E2E2E2E2E2E2E2E2E2E2E2E2E2E2E2E2E2E2E2
310
E2E2E2E2E2E2E2E2E2E2E2E2E2E2E2E2E2E2E2E2E2E2E2E2E2E2E2E2E2E2E2E2E2E2E2E2E2E2E2E2E2E2E2E2E2E2EFEF
  0
XRECORD
  5
96EC
102
{ACAD_REACTORS
330
96EB
102
}
330
96EB
100
AcDbXrecord
280
     1
102
MATERIAL
148
0.0
149
0.0
149
0.0
 93
        0
 94
      127
282
     0
 72
     1
 77
     1
171
     1
175
     1
179
     1
273
     0
  0
XRECORD
  5
96EA
102
{ACAD_REACTORS
330
96E9
102
}
330
96E9
100
AcDbXrecord
280
     1
102
MATERIAL
148
0.0
149
0.0
149
0.0
 93
        0
 94
      127
282
     0
 72
     1
 77
     1
171
     1
175
     1
179
     1
273
     0
  0
XRECORD
  5
96EE
102
{ACAD_REACTORS
330
96ED
102
}
330
96ED
100
AcDbXrecord
280
     1
102
MATERIAL
148
0.0
149
0.0
149
0.0
 93
        0
 94
      127
282
     0
 72
     1
 77
     1
171
     1
175
     1
179
     1
273
     0
  0
CELLSTYLEMAP
  5
96E8
102
{ACAD_REACTORS
330
7E1D
102
}
330
7E1D
100
AcDbCellStyleMap
 90
        3
300
CELLSTYLE
  1
TABLEFORMAT_BEGIN
 90
        5
170
     1
 91
        0
 92
    32768
 62
   257
 93
        1
300
CONTENTFORMAT
  1
CONTENTFORMAT_BEGIN
 90
        0
 91
        0
 92
      512
 93
        0
300

 40
0.0
140
1.0
 94
        5
 62
     0
340
11
144
0.25
309
CONTENTFORMAT_END
171
     0
 94
        6
 95
        1
302
GRIDFORMAT
  1
GRIDFORMAT_BEGIN
 90
        0
 91
        1
 62
     0
 92
       -2
340
0
 93
        0
 40
0.045
309
GRIDFORMAT_END
 95
        2
302
GRIDFORMAT
  1
GRIDFORMAT_BEGIN
 90
        0
 91
        1
 62
     0
 92
       -2
340
0
 93
        0
 40
0.045
309
GRIDFORMAT_END
 95
        4
302
GRIDFORMAT
  1
GRIDFORMAT_BEGIN
 90
        0
 91
        1
 62
     0
 92
       -2
340
0
 93
        0
 40
0.045
309
GRIDFORMAT_END
 95
        8
302
GRIDFORMAT
  1
GRIDFORMAT_BEGIN
 90
        0
 91
        1
 62
     0
 92
       -2
340
0
 93
        0
 40
0.045
309
GRIDFORMAT_END
 95
       16
302
GRIDFORMAT
  1
GRIDFORMAT_BEGIN
 90
        0
 91
        1
 62
     0
 92
       -2
340
0
 93
        0
 40
0.045
309
GRIDFORMAT_END
 95
       32
302
GRIDFORMAT
  1
GRIDFORMAT_BEGIN
 90
        0
 91
        1
 62
     0
 92
       -2
340
0
 93
        0
 40
0.045
309
GRIDFORMAT_END
309
TABLEFORMAT_END
  1
CELLSTYLE_BEGIN
 90
        1
 91
        1
300
_TITLE
309
CELLSTYLE_END
300
CELLSTYLE
  1
TABLEFORMAT_BEGIN
 90
        5
170
     1
 91
        0
 92
        0
 62
   257
 93
        1
300
CONTENTFORMAT
  1
CONTENTFORMAT_BEGIN
 90
        0
 91
        0
 92
      512
 93
        0
300

 40
0.0
140
1.0
 94
        5
 62
     0
340
11
144
0.18
309
CONTENTFORMAT_END
171
     0
 94
        6
 95
        1
302
GRIDFORMAT
  1
GRIDFORMAT_BEGIN
 90
        0
 91
        1
 62
     0
 92
       -2
340
0
 93
        0
 40
0.045
309
GRIDFORMAT_END
 95
        2
302
GRIDFORMAT
  1
GRIDFORMAT_BEGIN
 90
        0
 91
        1
 62
     0
 92
       -2
340
0
 93
        0
 40
0.045
309
GRIDFORMAT_END
 95
        4
302
GRIDFORMAT
  1
GRIDFORMAT_BEGIN
 90
        0
 91
        1
 62
     0
 92
       -2
340
0
 93
        0
 40
0.045
309
GRIDFORMAT_END
 95
        8
302
GRIDFORMAT
  1
GRIDFORMAT_BEGIN
 90
        0
 91
        1
 62
     0
 92
       -2
340
0
 93
        0
 40
0.045
309
GRIDFORMAT_END
 95
       16
302
GRIDFORMAT
  1
GRIDFORMAT_BEGIN
 90
        0
 91
        1
 62
     0
 92
       -2
340
0
 93
        0
 40
0.045
309
GRIDFORMAT_END
 95
       32
302
GRIDFORMAT
  1
GRIDFORMAT_BEGIN
 90
        0
 91
        1
 62
     0
 92
       -2
340
0
 93
        0
 40
0.045
309
GRIDFORMAT_END
309
TABLEFORMAT_END
  1
CELLSTYLE_BEGIN
 90
        2
 91
        1
300
_HEADER
309
CELLSTYLE_END
300
CELLSTYLE
  1
TABLEFORMAT_BEGIN
 90
        5
170
     1
 91
        0
 92
        0
 62
   257
 93
        1
300
CONTENTFORMAT
  1
CONTENTFORMAT_BEGIN
 90
        0
 91
        0
 92
      512
 93
        0
300

 40
0.0
140
1.0
 94
        2
 62
     0
340
11
144
0.18
309
CONTENTFORMAT_END
171
     0
 94
        6
 95
        1
302
GRIDFORMAT
  1
GRIDFORMAT_BEGIN
 90
        0
 91
        1
 62
     0
 92
       -2
340
0
 93
        0
 40
0.045
309
GRIDFORMAT_END
 95
        2
302
GRIDFORMAT
  1
GRIDFORMAT_BEGIN
 90
        0
 91
        1
 62
     0
 92
       -2
340
0
 93
        0
 40
0.045
309
GRIDFORMAT_END
 95
        4
302
GRIDFORMAT
  1
GRIDFORMAT_BEGIN
 90
        0
 91
        1
 62
     0
 92
       -2
340
0
 93
        0
 40
0.045
309
GRIDFORMAT_END
 95
        8
302
GRIDFORMAT
  1
GRIDFORMAT_BEGIN
 90
        0
 91
        1
 62
     0
 92
       -2
340
0
 93
        0
 40
0.045
309
GRIDFORMAT_END
 95
       16
302
GRIDFORMAT
  1
GRIDFORMAT_BEGIN
 90
        0
 91
        1
 62
     0
 92
       -2
340
0
 93
        0
 40
0.045
309
GRIDFORMAT_END
 95
       32
302
GRIDFORMAT
  1
GRIDFORMAT_BEGIN
 90
        0
 91
        1
 62
     0
 92
       -2
340
0
 93
        0
 40
0.045
309
GRIDFORMAT_END
309
TABLEFORMAT_END
  1
CELLSTYLE_BEGIN
 90
        3
 91
        2
300
_DATA
309
CELLSTYLE_END
  0
XRECORD
  5
96EF
102
{ACAD_REACTORS
330
7E1D
102
}
330
7E1D
100
AcDbXrecord
280
     1
102
ACAD_ROUNDTRIP_PRE2007_TABLESTYLE
 90
      512
 91
        0
  1

 92
      512
 93
        0
  2

 94
      512
 95
        0
  3

  0
XRECORD
  5
49B
102
{ACAD_REACTORS
330
49A
102
}
330
49A
100
AcDbXrecord
280
     1
102
RTVSPropertyOp0
 70
     1
102
RTVSPropertyOp1
 70
     1
102
RTVSPropertyOp2
 70
     1
102
RTVSPropertyOp3
 70
     1
102
RTVSPropertyOp4
 70
     1
102
RTVSPropertyOp5
 70
     1
102
RTVSPropertyOp6
 70
     1
102
RTVSPropertyOp7
 70
     1
102
RTVSPropertyOp8
 70
     1
102
RTVSPropertyOp9
 70
     1
102
RTVSPropertyOp10
 70
     1
102
RTVSPropertyOp11
 70
     1
102
RTVSPropertyOp12
 70
     1
102
RTVSPropertyOp13
 70
     1
102
RTVSPropertyOp14
 70
     1
102
RTVSPropertyOp15
 70
     1
102
RTVSPropertyOp16
 70
     1
102
RTVSPropertyOp17
 70
     1
102
RTVSPropertyOp18
 70
     1
102
RTVSPropertyOp19
 70
     1
102
RTVSPropertyOp20
 70
     1
102
RTVSPropertyOp21
 70
     1
102
RTVSPropertyOp22
 70
     1
102
RTVSPropertyOp23
 70
     1
102
RTVSPropertyOp24
 70
     1
102
RTVSPropertyOp25
 70
     1
102
RTVSPropertyOp26
 70
     1
102
RTVSPropertyOp27
 70
     1
  0
XRECORD
  5
A4A
102
{ACAD_REACTORS
330
A49
102
}
330
A49
100
AcDbXrecord
280
     1
102
RTVSPropertyOp0
 70
     1
102
RTVSPropertyOp1
 70
     1
102
RTVSPropertyOp2
 70
     1
102
RTVSPropertyOp3
 70
     1
102
RTVSPropertyOp4
 70
     1
102
RTVSPropertyOp5
 70
     1
102
RTVSPropertyOp6
 70
     1
102
RTVSPropertyOp7
 70
     1
102
RTVSPropertyOp8
 70
     1
102
RTVSPropertyOp9
 70
     1
102
RTVSPropertyOp10
 70
     1
102
RTVSPropertyOp11
 70
     1
102
RTVSPropertyOp12
 70
     1
102
RTVSPropertyOp13
 70
     1
102
RTVSPropertyOp14
 70
     1
102
RTVSPropertyOp15
 70
     1
102
RTVSPropertyOp16
 70
     1
102
RTVSPropertyOp17
 70
     1
102
RTVSPropertyOp18
 70
     1
102
RTVSPropertyOp19
 70
     1
102
RTVSPropertyOp20
 70
     1
102
RTVSPropertyOp21
 70
     1
102
RTVSPropertyOp22
 70
     1
102
RTVSPropertyOp23
 70
     1
102
RTVSPropertyOp24
 70
     1
102
RTVSPropertyOp25
 70
     1
102
RTVSPropertyOp26
 70
     1
102
RTVSPropertyOp27
 70
     1
  0
XRECORD
  5
4A1
102
{ACAD_REACTORS
330
4A0
102
}
330
4A0
100
AcDbXrecord
280
     1
102
RTVSPropertyOp0
 70
     1
102
RTVSPropertyOp1
 70
     1
102
RTVSPropertyOp2
 70
     1
102
RTVSPropertyOp3
 70
     1
102
RTVSPropertyOp4
 70
     1
102
RTVSPropertyOp5
 70
     1
102
RTVSPropertyOp6
 70
     1
102
RTVSPropertyOp7
 70
     1
102
RTVSPropertyOp8
 70
     1
102
RTVSPropertyOp9
 70
     1
102
RTVSPropertyOp10
 70
     1
102
RTVSPropertyOp11
 70
     1
102
RTVSPropertyOp12
 70
     1
102
RTVSPropertyOp13
 70
     1
102
RTVSPropertyOp14
 70
     1
102
RTVSPropertyOp15
 70
     1
102
RTVSPropertyOp16
 70
     1
102
RTVSPropertyOp17
 70
     1
102
RTVSPropertyOp18
 70
     1
102
RTVSPropertyOp19
 70
     1
102
RTVSPropertyOp20
 70
     1
102
RTVSPropertyOp21
 70
     1
102
RTVSPropertyOp22
 70
     1
102
RTVSPropertyOp23
 70
     1
102
RTVSPropertyOp24
 70
     1
102
RTVSPropertyOp25
 70
     1
102
RTVSPropertyOp26
 70
     1
102
RTVSPropertyOp27
 70
     1
  0
XRECORD
  5
4A9
102
{ACAD_REACTORS
330
4A8
102
}
330
4A8
100
AcDbXrecord
280
     1
102
RTVSPropertyOp0
 70
     1
102
RTVSPropertyOp1
 70
     1
102
RTVSPropertyOp2
 70
     1
102
RTVSPropertyOp3
 70
     1
102
RTVSPropertyOp4
 70
     1
102
RTVSPropertyOp5
 70
     1
102
RTVSPropertyOp6
 70
     1
102
RTVSPropertyOp7
 70
     1
102
RTVSPropertyOp8
 70
     1
102
RTVSPropertyOp9
 70
     1
102
RTVSPropertyOp10
 70
     1
102
RTVSPropertyOp11
 70
     1
102
RTVSPropertyOp12
 70
     1
102
RTVSPropertyOp13
 70
     1
102
RTVSPropertyOp14
 70
     1
102
RTVSPropertyOp15
 70
     1
102
RTVSPropertyOp16
 70
     1
102
RTVSPropertyOp17
 70
     1
102
RTVSPropertyOp18
 70
     1
102
RTVSPropertyOp19
 70
     1
102
RTVSPropertyOp20
 70
     1
102
RTVSPropertyOp21
 70
     1
102
RTVSPropertyOp22
 70
     1
102
RTVSPropertyOp23
 70
     1
102
RTVSPropertyOp24
 70
     1
102
RTVSPropertyOp25
 70
     1
102
RTVSPropertyOp26
 70
     1
102
RTVSPropertyOp27
 70
     1
  0
XRECORD
  5
4B1
102
{ACAD_REACTORS
330
4B0
102
}
330
4B0
100
AcDbXrecord
280
     1
102
RTVSPropertyOp0
 70
     1
102
RTVSPropertyOp1
 70
     1
102
RTVSPropertyOp2
 70
     1
102
RTVSPropertyOp3
 70
     1
102
RTVSPropertyOp4
 70
     1
102
RTVSPropertyOp5
 70
     1
102
RTVSPropertyOp6
 70
     1
102
RTVSPropertyOp7
 70
     1
102
RTVSPropertyOp8
 70
     1
102
RTVSPropertyOp9
 70
     1
102
RTVSPropertyOp10
 70
     1
102
RTVSPropertyOp11
 70
     1
102
RTVSPropertyOp12
 70
     1
102
RTVSPropertyOp13
 70
     1
102
RTVSPropertyOp14
 70
     1
102
RTVSPropertyOp15
 70
     1
102
RTVSPropertyOp16
 70
     1
102
RTVSPropertyOp17
 70
     1
102
RTVSPropertyOp18
 70
     1
102
RTVSPropertyOp19
 70
     1
102
RTVSPropertyOp20
 70
     1
102
RTVSPropertyOp21
 70
     1
102
RTVSPropertyOp22
 70
     1
102
RTVSPropertyOp23
 70
     1
102
RTVSPropertyOp24
 70
     1
102
RTVSPropertyOp25
 70
     1
102
RTVSPropertyOp26
 70
     1
102
RTVSPropertyOp27
 70
     1
  0
XRECORD
  5
4A7
102
{ACAD_REACTORS
330
4A6
102
}
330
4A6
100
AcDbXrecord
280
     1
102
RTVSPropertyOp0
 70
     1
102
RTVSPropertyOp1
 70
     1
102
RTVSPropertyOp2
 70
     1
102
RTVSPropertyOp3
 70
     1
102
RTVSPropertyOp4
 70
     1
102
RTVSPropertyOp5
 70
     1
102
RTVSPropertyOp6
 70
     1
102
RTVSPropertyOp7
 70
     1
102
RTVSPropertyOp8
 70
     1
102
RTVSPropertyOp9
 70
     1
102
RTVSPropertyOp10
 70
     1
102
RTVSPropertyOp11
 70
     1
102
RTVSPropertyOp12
 70
     1
102
RTVSPropertyOp13
 70
     1
102
RTVSPropertyOp14
 70
     1
102
RTVSPropertyOp15
 70
     1
102
RTVSPropertyOp16
 70
     1
102
RTVSPropertyOp17
 70
     1
102
RTVSPropertyOp18
 70
     1
102
RTVSPropertyOp19
 70
     1
102
RTVSPropertyOp20
 70
     1
102
RTVSPropertyOp21
 70
     1
102
RTVSPropertyOp22
 70
     1
102
RTVSPropertyOp23
 70
     1
102
RTVSPropertyOp24
 70
     1
102
RTVSPropertyOp25
 70
     1
102
RTVSPropertyOp26
 70
     1
102
RTVSPropertyOp27
 70
     1
  0
XRECORD
  5
4AF
102
{ACAD_REACTORS
330
4AE
102
}
330
4AE
100
AcDbXrecord
280
     1
102
RTVSPropertyOp0
 70
     1
102
RTVSPropertyOp1
 70
     1
102
RTVSPropertyOp2
 70
     1
102
RTVSPropertyOp3
 70
     1
102
RTVSPropertyOp4
 70
     1
102
RTVSPropertyOp5
 70
     1
102
RTVSPropertyOp6
 70
     1
102
RTVSPropertyOp7
 70
     1
102
RTVSPropertyOp8
 70
     1
102
RTVSPropertyOp9
 70
     1
102
RTVSPropertyOp10
 70
     1
102
RTVSPropertyOp11
 70
     1
102
RTVSPropertyOp12
 70
     1
102
RTVSPropertyOp13
 70
     1
102
RTVSPropertyOp14
 70
     1
102
RTVSPropertyOp15
 70
     1
102
RTVSPropertyOp16
 70
     1
102
RTVSPropertyOp17
 70
     1
102
RTVSPropertyOp18
 70
     1
102
RTVSPropertyOp19
 70
     1
102
RTVSPropertyOp20
 70
     1
102
RTVSPropertyOp21
 70
     1
102
RTVSPropertyOp22
 70
     1
102
RTVSPropertyOp23
 70
     1
102
RTVSPropertyOp24
 70
     1
102
RTVSPropertyOp25
 70
     1
102
RTVSPropertyOp26
 70
     1
102
RTVSPropertyOp27
 70
     1
  0
XRECORD
  5
493
102
{ACAD_REACTORS
330
492
102
}
330
492
100
AcDbXrecord
280
     1
102
RTVSPropertyOp0
 70
     1
102
RTVSPropertyOp1
 70
     1
102
RTVSPropertyOp2
 70
     1
102
RTVSPropertyOp3
 70
     1
102
RTVSPropertyOp4
 70
     1
102
RTVSPropertyOp5
 70
     1
102
RTVSPropertyOp6
 70
     1
102
RTVSPropertyOp7
 70
     1
102
RTVSPropertyOp8
 70
     1
102
RTVSPropertyOp9
 70
     1
102
RTVSPropertyOp10
 70
     1
102
RTVSPropertyOp11
 70
     1
102
RTVSPropertyOp12
 70
     1
102
RTVSPropertyOp13
 70
     1
102
RTVSPropertyOp14
 70
     1
102
RTVSPropertyOp15
 70
     1
102
RTVSPropertyOp16
 70
     1
102
RTVSPropertyOp17
 70
     1
102
RTVSPropertyOp18
 70
     1
102
RTVSPropertyOp19
 70
     1
102
RTVSPropertyOp20
 70
     1
102
RTVSPropertyOp21
 70
     1
102
RTVSPropertyOp22
 70
     1
102
RTVSPropertyOp23
 70
     1
102
RTVSPropertyOp24
 70
     1
102
RTVSPropertyOp25
 70
     1
102
RTVSPropertyOp26
 70
     1
102
RTVSPropertyOp27
 70
     1
  0
XRECORD
  5
495
102
{ACAD_REACTORS
330
494
102
}
330
494
100
AcDbXrecord
280
     1
102
RTVSPropertyOp0
 70
     1
102
RTVSPropertyOp1
 70
     1
102
RTVSPropertyOp2
 70
     1
102
RTVSPropertyOp3
 70
     1
102
RTVSPropertyOp4
 70
     1
102
RTVSPropertyOp5
 70
     1
102
RTVSPropertyOp6
 70
     1
102
RTVSPropertyOp7
 70
     1
102
RTVSPropertyOp8
 70
     1
102
RTVSPropertyOp9
 70
     1
102
RTVSPropertyOp10
 70
     1
102
RTVSPropertyOp11
 70
     1
102
RTVSPropertyOp12
 70
     1
102
RTVSPropertyOp13
 70
     1
102
RTVSPropertyOp14
 70
     1
102
RTVSPropertyOp15
 70
     1
102
RTVSPropertyOp16
 70
     1
102
RTVSPropertyOp17
 70
     1
102
RTVSPropertyOp18
 70
     1
102
RTVSPropertyOp19
 70
     1
102
RTVSPropertyOp20
 70
     1
102
RTVSPropertyOp21
 70
     1
102
RTVSPropertyOp22
 70
     1
102
RTVSPropertyOp23
 70
     1
102
RTVSPropertyOp24
 70
     1
102
RTVSPropertyOp25
 70
     1
102
RTVSPropertyOp26
 70
     1
102
RTVSPropertyOp27
 70
     1
  0
XRECORD
  5
497
102
{ACAD_REACTORS
330
496
102
}
330
496
100
AcDbXrecord
280
     1
102
RTVSPropertyOp0
 70
     1
102
RTVSPropertyOp1
 70
     1
102
RTVSPropertyOp2
 70
     1
102
RTVSPropertyOp3
 70
     1
102
RTVSPropertyOp4
 70
     1
102
RTVSPropertyOp5
 70
     1
102
RTVSPropertyOp6
 70
     1
102
RTVSPropertyOp7
 70
     1
102
RTVSPropertyOp8
 70
     1
102
RTVSPropertyOp9
 70
     1
102
RTVSPropertyOp10
 70
     1
102
RTVSPropertyOp11
 70
     1
102
RTVSPropertyOp12
 70
     1
102
RTVSPropertyOp13
 70
     1
102
RTVSPropertyOp14
 70
     1
102
RTVSPropertyOp15
 70
     1
102
RTVSPropertyOp16
 70
     1
102
RTVSPropertyOp17
 70
     1
102
RTVSPropertyOp18
 70
     1
102
RTVSPropertyOp19
 70
     1
102
RTVSPropertyOp20
 70
     1
102
RTVSPropertyOp21
 70
     1
102
RTVSPropertyOp22
 70
     1
102
RTVSPropertyOp23
 70
     1
102
RTVSPropertyOp24
 70
     1
102
RTVSPropertyOp25
 70
     1
102
RTVSPropertyOp26
 70
     1
102
RTVSPropertyOp27
 70
     1
  0
XRECORD
  5
499
102
{ACAD_REACTORS
330
498
102
}
330
498
100
AcDbXrecord
280
     1
102
RTVSPropertyOp0
 70
     1
102
RTVSPropertyOp1
 70
     1
102
RTVSPropertyOp2
 70
     1
102
RTVSPropertyOp3
 70
     1
102
RTVSPropertyOp4
 70
     1
102
RTVSPropertyOp5
 70
     1
102
RTVSPropertyOp6
 70
     1
102
RTVSPropertyOp7
 70
     1
102
RTVSPropertyOp8
 70
     1
102
RTVSPropertyOp9
 70
     1
102
RTVSPropertyOp10
 70
     1
102
RTVSPropertyOp11
 70
     1
102
RTVSPropertyOp12
 70
     1
102
RTVSPropertyOp13
 70
     1
102
RTVSPropertyOp14
 70
     1
102
RTVSPropertyOp15
 70
     1
102
RTVSPropertyOp16
 70
     1
102
RTVSPropertyOp17
 70
     1
102
RTVSPropertyOp18
 70
     1
102
RTVSPropertyOp19
 70
     1
102
RTVSPropertyOp20
 70
     1
102
RTVSPropertyOp21
 70
     1
102
RTVSPropertyOp22
 70
     1
102
RTVSPropertyOp23
 70
     1
102
RTVSPropertyOp24
 70
     1
102
RTVSPropertyOp25
 70
     1
102
RTVSPropertyOp26
 70
     1
102
RTVSPropertyOp27
 70
     1
  0
XRECORD
  5
4AD
102
{ACAD_REACTORS
330
4AC
102
}
330
4AC
100
AcDbXrecord
280
     1
102
RTVSPropertyOp0
 70
     1
102
RTVSPropertyOp1
 70
     1
102
RTVSPropertyOp2
 70
     1
102
RTVSPropertyOp3
 70
     1
102
RTVSPropertyOp4
 70
     1
102
RTVSPropertyOp5
 70
     1
102
RTVSPropertyOp6
 70
     1
102
RTVSPropertyOp7
 70
     1
102
RTVSPropertyOp8
 70
     1
102
RTVSPropertyOp9
 70
     1
102
RTVSPropertyOp10
 70
     1
102
RTVSPropertyOp11
 70
     1
102
RTVSPropertyOp12
 70
     1
102
RTVSPropertyOp13
 70
     1
102
RTVSPropertyOp14
 70
     1
102
RTVSPropertyOp15
 70
     1
102
RTVSPropertyOp16
 70
     1
102
RTVSPropertyOp17
 70
     1
102
RTVSPropertyOp18
 70
     1
102
RTVSPropertyOp19
 70
     1
102
RTVSPropertyOp20
 70
     1
102
RTVSPropertyOp21
 70
     1
102
RTVSPropertyOp22
 70
     1
102
RTVSPropertyOp23
 70
     1
102
RTVSPropertyOp24
 70
     1
102
RTVSPropertyOp25
 70
     1
102
RTVSPropertyOp26
 70
     1
102
RTVSPropertyOp27
 70
     1
  0
XRECORD
  5
A4E
102
{ACAD_REACTORS
330
A4D
102
}
330
A4D
100
AcDbXrecord
280
     1
102
RTVSPropertyOp0
 70
     1
102
RTVSPropertyOp1
 70
     1
102
RTVSPropertyOp2
 70
     1
102
RTVSPropertyOp3
 70
     1
102
RTVSPropertyOp4
 70
     1
102
RTVSPropertyOp5
 70
     1
102
RTVSPropertyOp6
 70
     1
102
RTVSPropertyOp7
 70
     1
102
RTVSPropertyOp8
 70
     1
102
RTVSPropertyOp9
 70
     1
102
RTVSPropertyOp10
 70
     1
102
RTVSPropertyOp11
 70
     1
102
RTVSPropertyOp12
 70
     1
102
RTVSPropertyOp13
 70
     1
102
RTVSPropertyOp14
 70
     1
102
RTVSPropertyOp15
 70
     1
102
RTVSPropertyOp16
 70
     1
102
RTVSPropertyOp17
 70
     1
102
RTVSPropertyOp18
 70
     1
102
RTVSPropertyOp19
 70
     1
102
RTVSPropertyOp20
 70
     1
102
RTVSPropertyOp21
 70
     1
102
RTVSPropertyOp22
 70
     1
102
RTVSPropertyOp23
 70
     1
102
RTVSPropertyOp24
 70
     1
102
RTVSPropertyOp25
 70
     1
102
RTVSPropertyOp26
 70
     1
102
RTVSPropertyOp27
 70
     1
  0
XRECORD
  5
4AB
102
{ACAD_REACTORS
330
4AA
102
}
330
4AA
100
AcDbXrecord
280
     1
102
RTVSPropertyOp0
 70
     1
102
RTVSPropertyOp1
 70
     1
102
RTVSPropertyOp2
 70
     1
102
RTVSPropertyOp3
 70
     1
102
RTVSPropertyOp4
 70
     1
102
RTVSPropertyOp5
 70
     1
102
RTVSPropertyOp6
 70
     1
102
RTVSPropertyOp7
 70
     1
102
RTVSPropertyOp8
 70
     1
102
RTVSPropertyOp9
 70
     1
102
RTVSPropertyOp10
 70
     1
102
RTVSPropertyOp11
 70
     1
102
RTVSPropertyOp12
 70
     1
102
RTVSPropertyOp13
 70
     1
102
RTVSPropertyOp14
 70
     1
102
RTVSPropertyOp15
 70
     1
102
RTVSPropertyOp16
 70
     1
102
RTVSPropertyOp17
 70
     1
102
RTVSPropertyOp18
 70
     1
102
RTVSPropertyOp19
 70
     1
102
RTVSPropertyOp20
 70
     1
102
RTVSPropertyOp21
 70
     1
102
RTVSPropertyOp22
 70
     1
102
RTVSPropertyOp23
 70
     1
102
RTVSPropertyOp24
 70
     1
102
RTVSPropertyOp25
 70
     1
102
RTVSPropertyOp26
 70
     1
102
RTVSPropertyOp27
 70
     1
  0
ENDSEC
  0
EOF
