  0
SECTION
  2
HEADER
  9
$ACADVER
  1
AC1018
  9
$ACADMAINTVER
 70
   104
  9
$DWGCODEPAGE
  3
ANSI_1250
  9
$LASTSAVEDBY
  1
bonzo
  9
$INSBASE
 10
0.0
 20
0.0
 30
0.0
  9
$EXTMIN
 10
3.390458263247537
 20
1.22810030729511
 30
0.0
  9
$EXTMAX
 10
13.57174868698976
 20
12.40788151454381
 30
0.0
  9
$LIMMIN
 10
0.0
 20
0.0
  9
$LIMMAX
 10
12.0
 20
9.0
  9
$ORTHOMODE
 70
     1
  9
$REGENMODE
 70
     1
  9
$FILLMODE
 70
     1
  9
$QTEXTMODE
 70
     0
  9
$MIRRTEXT
 70
     1
  9
$LTSCALE
 40
1.0
  9
$ATTMODE
 70
     1
  9
$TEXTSIZE
 40
0.2
  9
$TRACEWID
 40
0.05
  9
$TEXTSTYLE
  7
Standard
  9
$CLAYER
  8
WYMIAR
  9
$CELTYPE
  6
ByLayer
  9
$CECOLOR
 62
   256
  9
$CELTSCALE
 40
1.0
  9
$DISPSILH
 70
     0
  9
$DIMSCALE
 40
0.02
  9
$DIMASZ
 40
3.0
  9
$DIMEXO
 40
20.0
  9
$DIMDLI
 40
0.0
  9
$DIMRND
 40
0.05
  9
$DIMDLE
 40
0.0
  9
$DIMEXE
 40
5.0
  9
$DIMTP
 40
0.0
  9
$DIMTM
 40
0.0
  9
$DIMTXT
 40
9.0
  9
$DIMCEN
 40
12.0
  9
$DIMTSZ
 40
0.0
  9
$DIMTOL
 70
     0
  9
$DIMLIM
 70
     0
  9
$DIMTIH
 70
     0
  9
$DIMTOH
 70
     0
  9
$DIMSE1
 70
     1
  9
$DIMSE2
 70
     1
  9
$DIMTAD
 70
     1
  9
$DIMZIN
 70
     1
  9
$DIMBLK
  1

  9
$DIMASO
 70
     1
  9
$DIMSHO
 70
     1
  9
$DIMPOST
  1

  9
$DIMAPOST
  1

  9
$DIMALT
 70
     0
  9
$DIMALTD
 70
     4
  9
$DIMALTF
 40
1.0
  9
$DIMLFAC
 40
1.0
  9
$DIMTOFL
 70
     1
  9
$DIMTVP
 40
0.0
  9
$DIMTIX
 70
     1
  9
$DIMSOXD
 70
     0
  9
$DIMSAH
 70
     1
  9
$DIMBLK1
  1
MAR-STRZ
  9
$DIMBLK2
  1
MAR-STRZ
  9
$DIMSTYLE
  2
AR SKALA 1-50
  9
$DIMCLRD
 70
   256
  9
$DIMCLRE
 70
   256
  9
$DIMCLRT
 70
   256
  9
$DIMTFAC
 40
0.01
  9
$DIMGAP
 40
6.0
  9
$DIMJUST
 70
     0
  9
$DIMSD1
 70
     0
  9
$DIMSD2
 70
     0
  9
$DIMTOLJ
 70
     1
  9
$DIMTZIN
 70
     0
  9
$DIMALTZ
 70
     0
  9
$DIMALTTZ
 70
     0
  9
$DIMUPT
 70
     0
  9
$DIMDEC
 70
     2
  9
$DIMTDEC
 70
     2
  9
$DIMALTU
 70
     2
  9
$DIMALTTD
 70
     4
  9
$DIMTXSTY
  7
AR 01 SWIS
  9
$DIMAUNIT
 70
     0
  9
$DIMADEC
 70
     1
  9
$DIMALTRND
 40
0.0
  9
$DIMAZIN
 70
     0
  9
$DIMDSEP
 70
    46
  9
$DIMATFIT
 70
     3
  9
$DIMFRAC
 70
     0
  9
$DIMLDRBLK
  1
MAR-STRZ
  9
$DIMLUNIT
 70
     2
  9
$DIMLWD
 70
    -2
  9
$DIMLWE
 70
    -2
  9
$DIMTMOVE
 70
     2
  9
$LUNITS
 70
     2
  9
$LUPREC
 70
     4
  9
$SKETCHINC
 40
0.1
  9
$FILLETRAD
 40
0.5
  9
$AUNITS
 70
     0
  9
$AUPREC
 70
     0
  9
$MENU
  1
.
  9
$ELEVATION
 40
0.0
  9
$PELEVATION
 40
0.0
  9
$THICKNESS
 40
0.0
  9
$LIMCHECK
 70
     0
  9
$CHAMFERA
 40
0.5
  9
$CHAMFERB
 40
0.5
  9
$CHAMFERC
 40
1.0
  9
$CHAMFERD
 40
0.0
  9
$SKPOLY
 70
     0
  9
$TDCREATE
 40
2455956.499359827
  9
$TDUCREATE
 40
2455956.416026493
  9
$TDUPDATE
 40
2459311.318293114
  9
$TDUUPDATE
 40
2459311.234959780
  9
$TDINDWG
 40
0.1303296991
  9
$TDUSRTIMER
 40
0.1303296991
  9
$USRTIMER
 70
     1
  9
$ANGBASE
 50
0.0
  9
$ANGDIR
 70
     0
  9
$PDMODE
 70
     0
  9
$PDSIZE
 40
0.0
  9
$PLINEWID
 40
0.0
  9
$SPLFRAME
 70
     0
  9
$SPLINETYPE
 70
     6
  9
$SPLINESEGS
 70
     8
  9
$HANDSEED
  5
5254
  9
$SURFTAB1
 70
     6
  9
$SURFTAB2
 70
     6
  9
$SURFTYPE
 70
     6
  9
$SURFU
 70
     6
  9
$SURFV
 70
     6
  9
$UCSBASE
  2

  9
$UCSNAME
  2

  9
$UCSORG
 10
0.0
 20
0.0
 30
0.0
  9
$UCSXDIR
 10
1.0
 20
0.0
 30
0.0
  9
$UCSYDIR
 10
0.0
 20
1.0
 30
0.0
  9
$UCSORTHOREF
  2

  9
$UCSORTHOVIEW
 70
     0
  9
$UCSORGTOP
 10
0.0
 20
0.0
 30
0.0
  9
$UCSORGBOTTOM
 10
0.0
 20
0.0
 30
0.0
  9
$UCSORGLEFT
 10
0.0
 20
0.0
 30
0.0
  9
$UCSORGRIGHT
 10
0.0
 20
0.0
 30
0.0
  9
$UCSORGFRONT
 10
0.0
 20
0.0
 30
0.0
  9
$UCSORGBACK
 10
0.0
 20
0.0
 30
0.0
  9
$PUCSBASE
  2

  9
$PUCSNAME
  2

  9
$PUCSORG
 10
0.0
 20
0.0
 30
0.0
  9
$PUCSXDIR
 10
1.0
 20
0.0
 30
0.0
  9
$PUCSYDIR
 10
0.0
 20
1.0
 30
0.0
  9
$PUCSORTHOREF
  2

  9
$PUCSORTHOVIEW
 70
     0
  9
$PUCSORGTOP
 10
0.0
 20
0.0
 30
0.0
  9
$PUCSORGBOTTOM
 10
0.0
 20
0.0
 30
0.0
  9
$PUCSORGLEFT
 10
0.0
 20
0.0
 30
0.0
  9
$PUCSORGRIGHT
 10
0.0
 20
0.0
 30
0.0
  9
$PUCSORGFRONT
 10
0.0
 20
0.0
 30
0.0
  9
$PUCSORGBACK
 10
0.0
 20
0.0
 30
0.0
  9
$USERI1
 70
     0
  9
$USERI2
 70
     0
  9
$USERI3
 70
     0
  9
$USERI4
 70
     0
  9
$USERI5
 70
     0
  9
$USERR1
 40
0.0
  9
$USERR2
 40
0.0
  9
$USERR3
 40
0.0
  9
$USERR4
 40
0.0
  9
$USERR5
 40
0.0
  9
$WORLDVIEW
 70
     1
  9
$SHADEDGE
 70
     3
  9
$SHADEDIF
 70
    70
  9
$TILEMODE
 70
     1
  9
$MAXACTVP
 70
    64
  9
$PINSBASE
 10
0.0
 20
0.0
 30
0.0
  9
$PLIMCHECK
 70
     0
  9
$PEXTMIN
 10
6.561544945354853
 20
3.282189374834842
 30
0.0
  9
$PEXTMAX
 10
416.7133315898103
 20
290.5875349075164
 30
0.0
  9
$PLIMMIN
 10
3.386557152386103
 20
0.1071894225185588
  9
$PLIMMAX
 10
423.5448823476986
 20
297.1601984557217
  9
$UNITMODE
 70
     0
  9
$VISRETAIN
 70
     1
  9
$PLINEGEN
 70
     0
  9
$PSLTSCALE
 70
     0
  9
$TREEDEPTH
 70
  3020
  9
$CMLSTYLE
  2
Standard
  9
$CMLJUST
 70
     0
  9
$CMLSCALE
 40
1.0
  9
$PROXYGRAPHICS
 70
     1
  9
$MEASUREMENT
 70
     0
  9
$CELWEIGHT
370
    -1
  9
$ENDCAPS
280
     0
  9
$JOINSTYLE
280
     0
  9
$LWDISPLAY
290
     0
  9
$INSUNITS
 70
     1
  9
$HYPERLINKBASE
  1

  9
$STYLESHEET
  1

  9
$XEDIT
290
     1
  9
$CEPSNTYPE
380
     0
  9
$PSTYLEMODE
290
     1
  9
$FINGERPRINTGUID
  2
{1B330B5B-CE04-4EC8-B886-8C8BFC3A02BF}
  9
$VERSIONGUID
  2
{9A000D28-AA46-4117-897A-D4F784E1DA43}
  9
$EXTNAMES
290
     1
  9
$PSVPSCALE
 40
0.0
  9
$OLESTARTUP
290
     0
  9
$SORTENTS
280
   127
  9
$INDEXCTL
280
     0
  9
$HIDETEXT
280
     1
  9
$XCLIPFRAME
290
     0
  9
$HALOGAP
280
     0
  9
$OBSCOLOR
 70
   257
  9
$OBSLTYPE
280
     0
  9
$INTERSECTIONDISPLAY
280
     0
  9
$INTERSECTIONCOLOR
 70
   257
  9
$DIMASSOC
280
     2
  9
$PROJECTNAME
  1

  0
ENDSEC
  0
SECTION
  2
CLASSES
  0
CLASS
  1
ACDBDICTIONARYWDFLT
  2
AcDbDictionaryWithDefault
  3
ObjectDBX Classes
 90
        0
 91
        1
280
     0
281
     0
  0
CLASS
  1
VISUALSTYLE
  2
AcDbVisualStyle
  3
ObjectDBX Classes
 90
     4095
 91
       16
280
     0
281
     0
  0
CLASS
  1
MATERIAL
  2
AcDbMaterial
  3
ObjectDBX Classes
 90
     1153
 91
        3
280
     0
281
     0
  0
CLASS
  1
DICTIONARYVAR
  2
AcDbDictionaryVar
  3
ObjectDBX Classes
 90
        0
 91
        9
280
     0
281
     0
  0
CLASS
  1
TABLESTYLE
  2
AcDbTableStyle
  3
ObjectDBX Classes
 90
     4095
 91
        1
280
     0
281
     0
  0
CLASS
  1
SORTENTSTABLE
  2
AcDbSortentsTable
  3
ObjectDBX Classes
 90
        0
 91
        1
280
     0
281
     0
  0
CLASS
  1
DIMASSOC
  2
AcDbDimAssoc
  3
"AcDbDimAssoc|Product Desc:     AcDim ARX App For Dimension|Company:          Autodesk, Inc.|WEB Address:      www.autodesk.com"
 90
        0
 91
        0
280
     0
281
     0
  0
CLASS
  1
SCALE
  2
AcDbScale
  3
ObjectDBX Classes
 90
     1153
 91
       33
280
     0
281
     0
  0
CLASS
  1
MLEADERSTYLE
  2
AcDbMLeaderStyle
  3
ACDB_MLEADERSTYLE_CLASS
 90
     4095
 91
        1
280
     0
281
     0
  0
CLASS
  1
CELLSTYLEMAP
  2
AcDbCellStyleMap
  3
ObjectDBX Classes
 90
     1152
 91
        3
280
     0
281
     0
  0
ENDSEC
  0
SECTION
  2
TABLES
  0
TABLE
  2
VPORT
  5
8
102
{ACAD_XDICTIONARY
360
84C
102
}
330
0
100
AcDbSymbolTable
 70
     1
  0
VPORT
  5
29
330
8
100
AcDbSymbolTableRecord
100
AcDbViewportTableRecord
  2
*Active
 70
     0
 10
0.0
 20
0.0
 11
1.0
 21
1.0
 12
6.774199003457765
 22
7.147883149133625
 13
0.0
 23
0.0
 14
0.5
 24
0.5
 15
0.5
 25
0.5
 16
0.0
 26
0.0
 36
1.0
 17
0.0
 27
0.0
 37
-1000.0
 40
12.45306788558323
 41
2.060556464811783
 42
50.0
 43
4.148984367261674
 44
9.217858496371269
 50
0.0
 51
0.0
 71
     0
 72
   100
 73
     1
 74
     3
 75
     0
 76
     0
 77
     0
 78
     0
281
     0
 65
     1
110
0.0
120
0.0
130
0.0
111
1.0
121
0.0
131
0.0
112
0.0
122
1.0
132
0.0
 79
     0
146
0.0
  0
ENDTAB
  0
TABLE
  2
LTYPE
  5
5
330
0
100
AcDbSymbolTable
 70
     2
  0
LTYPE
  5
14
330
5
100
AcDbSymbolTableRecord
100
AcDbLinetypeTableRecord
  2
ByBlock
 70
     0
  3

 72
    65
 73
     0
 40
0.0
  0
LTYPE
  5
15
330
5
100
AcDbSymbolTableRecord
100
AcDbLinetypeTableRecord
  2
ByLayer
 70
     0
  3

 72
    65
 73
     0
 40
0.0
  0
LTYPE
  5
16
330
5
100
AcDbSymbolTableRecord
100
AcDbLinetypeTableRecord
  2
Continuous
 70
     0
  3
Solid line
 72
    65
 73
     0
 40
0.0
  0
LTYPE
  5
886
330
5
100
AcDbSymbolTableRecord
100
AcDbLinetypeTableRecord
  2
DASHED
 70
     0
  3
Dashed __ __ __ __ __ __ __ __ __ __ __ __ __ _
 72
    65
 73
     2
 40
0.75
 49
0.5
 74
     0
 49
-0.25
 74
     0
  0
ENDTAB
  0
TABLE
  2
LAYER
  5
2
102
{ACAD_XDICTIONARY
360
7D1
102
}
330
0
100
AcDbSymbolTable
 70
     4
  0
LAYER
  5
10
102
{ACAD_XDICTIONARY
360
51A2
102
}
330
2
100
AcDbSymbolTableRecord
100
AcDbLayerTableRecord
  2
0
 70
     0
 62
     7
  6
Continuous
370
    25
390
F
  0
LAYER
  5
87B
102
{ACAD_XDICTIONARY
360
51A4
102
}
330
2
100
AcDbSymbolTableRecord
100
AcDbLayerTableRecord
  2
STREFA BEZPIECZEŃSTWA
 70
     0
 62
     7
  6
DASHED
370
    25
390
F
1001
AcAecLayerStandard
1000

1000

  0
LAYER
  5
87D
102
{ACAD_XDICTIONARY
360
51A6
102
}
330
2
100
AcDbSymbolTableRecord
100
AcDbLayerTableRecord
  2
WYMIAR
 70
     0
 62
     7
  6
Continuous
370
    25
390
F
1001
AcAecLayerStandard
1000

1000

  0
LAYER
  5
8CC
330
2
100
AcDbSymbolTableRecord
100
AcDbLayerTableRecord
  2
Defpoints
 70
     0
 62
     7
  6
Continuous
290
     0
370
     5
390
F
1001
RAK
1000
{ACET-LAYISO
1070
     0
1070
     7
1000
Continuous
1071
        5
1071
        0
1005
F
1000
ACET-LAYISO}
  0
ENDTAB
  0
TABLE
  2
STYLE
  5
3
330
0
100
AcDbSymbolTable
 70
     2
  0
STYLE
  5
11
330
3
100
AcDbSymbolTableRecord
100
AcDbTextStyleTableRecord
  2
Standard
 70
     0
 40
0.0
 41
1.0
 50
0.0
 71
     0
 42
0.2
  3
txt
  4

  0
STYLE
  5
8CE
330
3
100
AcDbSymbolTableRecord
100
AcDbTextStyleTableRecord
  2
AR 01 SWIS
 70
     0
 40
0.0
 41
1.0
 50
0.0
 71
     0
 42
55.0
  3
swissc.ttf
  4

1001
ACAD
1000
Swis721 Cn BT
1071
       34
  0
ENDTAB
  0
TABLE
  2
VIEW
  5
6
330
0
100
AcDbSymbolTable
 70
     0
  0
ENDTAB
  0
TABLE
  2
UCS
  5
7
330
0
100
AcDbSymbolTable
 70
     0
  0
ENDTAB
  0
TABLE
  2
APPID
  5
9
330
0
100
AcDbSymbolTable
 70
     9
  0
APPID
  5
12
330
9
100
AcDbSymbolTableRecord
100
AcDbRegAppTableRecord
  2
ACAD
 70
     0
  0
APPID
  5
7CB
330
9
100
AcDbSymbolTableRecord
100
AcDbRegAppTableRecord
  2
ACAD_PSEXT
 70
     0
  0
APPID
  5
875
330
9
100
AcDbSymbolTableRecord
100
AcDbRegAppTableRecord
  2
ACAD_EXEMPT_FROM_CAD_STANDARDS
 70
     0
  0
APPID
  5
87C
330
9
100
AcDbSymbolTableRecord
100
AcDbRegAppTableRecord
  2
AcAecLayerStandard
 70
     0
  0
APPID
  5
8D4
330
9
100
AcDbSymbolTableRecord
100
AcDbRegAppTableRecord
  2
RAK
 70
     0
  0
APPID
  5
8D5
330
9
100
AcDbSymbolTableRecord
100
AcDbRegAppTableRecord
  2
ACAD_DSTYLE_DIMJOGGED_JOGANGLE_SYMBOL
 70
     0
  0
APPID
  5
8D6
330
9
100
AcDbSymbolTableRecord
100
AcDbRegAppTableRecord
  2
ACAD_DSTYLE_DIMJAG
 70
     0
  0
APPID
  5
8D7
330
9
100
AcDbSymbolTableRecord
100
AcDbRegAppTableRecord
  2
ACAD_DSTYLE_DIMTALN
 70
     0
  0
APPID
  5
5194
330
9
100
AcDbSymbolTableRecord
100
AcDbRegAppTableRecord
  2
ACAD_MLEADERVER
 70
     0
  0
ENDTAB
  0
TABLE
  2
DIMSTYLE
  5
A
330
0
100
AcDbSymbolTable
 70
     2
100
AcDbDimStyleTable
 71
     1
340
8CF
  0
DIMSTYLE
105
8CF
102
{ACAD_REACTORS
330
5106
330
511A
102
}
330
A
100
AcDbSymbolTableRecord
100
AcDbDimStyleTableRecord
  2
AR SKALA 1-50
 70
     0
 40
0.02
 41
3.0
 42
20.0
 43
0.0
 44
5.0
 45
0.05
 73
     0
 74
     0
 75
     1
 76
     1
 77
     1
 78
     1
140
9.0
141
12.0
143
1.0
146
0.01
147
6.0
171
     4
172
     1
173
     1
174
     1
176
   256
177
   256
178
   256
179
     1
271
     2
272
     2
274
     4
279
     2
340
8CE
341
8BC
343
8BC
344
8BC
  0
DIMSTYLE
105
A46
330
A
100
AcDbSymbolTableRecord
100
AcDbDimStyleTableRecord
  2
Standard
 70
     0
340
11
  0
ENDTAB
  0
TABLE
  2
BLOCK_RECORD
  5
1
330
0
100
AcDbSymbolTable
 70
     3
  0
BLOCK_RECORD
  5
1F
102
{ACAD_XDICTIONARY
360
5F8
102
}
330
1
100
AcDbSymbolTableRecord
100
AcDbBlockTableRecord
  2
*Model_Space
340
22
  0
BLOCK_RECORD
  5
1B
330
1
100
AcDbSymbolTableRecord
100
AcDbBlockTableRecord
  2
*Paper_Space
340
1E
  0
BLOCK_RECORD
  5
8BC
330
1
100
AcDbSymbolTableRecord
100
AcDbBlockTableRecord
  2
MAR-STRZ
340
0
310
2800000020000000200000000100080000000000000400000000000000000000000000000000000000000000000080000080000000808000800000008000800080800000C0C0C000C0DCC000F0CAA6000020400000206000002080000020A0000020C0000020E00000400000004020000040400000406000004080000040A0
310
000040C0000040E00000600000006020000060400000606000006080000060A0000060C0000060E00000800000008020000080400000806000008080000080A0000080C0000080E00000A0000000A0200000A0400000A0600000A0800000A0A00000A0C00000A0E00000C0000000C0200000C0400000C0600000C0800000C0
310
A00000C0C00000C0E00000E0000000E0200000E0400000E0600000E0800000E0A00000E0C00000E0E00040000000400020004000400040006000400080004000A0004000C0004000E00040200000402020004020400040206000402080004020A0004020C0004020E000404000004040200040404000404060004040800040
310
40A0004040C0004040E00040600000406020004060400040606000406080004060A0004060C0004060E00040800000408020004080400040806000408080004080A0004080C0004080E00040A0000040A0200040A0400040A0600040A0800040A0A00040A0C00040A0E00040C0000040C0200040C0400040C0600040C08000
310
40C0A00040C0C00040C0E00040E0000040E0200040E0400040E0600040E0800040E0A00040E0C00040E0E00080000000800020008000400080006000800080008000A0008000C0008000E00080200000802020008020400080206000802080008020A0008020C0008020E00080400000804020008040400080406000804080
310
008040A0008040C0008040E00080600000806020008060400080606000806080008060A0008060C0008060E00080800000808020008080400080806000808080008080A0008080C0008080E00080A0000080A0200080A0400080A0600080A0800080A0A00080A0C00080A0E00080C0000080C0200080C0400080C0600080C0
310
800080C0A00080C0C00080C0E00080E0000080E0200080E0400080E0600080E0800080E0A00080E0C00080E0E000C0000000C0002000C0004000C0006000C0008000C000A000C000C000C000E000C0200000C0202000C0204000C0206000C0208000C020A000C020C000C020E000C0400000C0402000C0404000C0406000C0
310
408000C040A000C040C000C040E000C0600000C0602000C0604000C0606000C0608000C060A000C060C000C060E000C0800000C0802000C0804000C0806000C0808000C080A000C080C000C080E000C0A00000C0A02000C0A04000C0A06000C0A08000C0A0A000C0A0C000C0A0E000C0C00000C0C02000C0C04000C0C06000
310
C0C08000C0C0A000F0FBFF00A4A0A000808080000000FF0000FF000000FFFF00FF000000FF00FF00FFFF0000FFFFFF00000000000000000000000000000000000000000000000000000000000000000000000000000000000000000000000000FF000000000000000000000000000000000000000000000000000000000000
310
00FF00000000000000000000000000000000000000000000000000000000000000FF00000000000000000000000000000000000000000000000000000000000000FF00000000000000000000000000000000000000000000000000000000000000FF000000000000000000000000000000000000000000F900000000000000
310
0000FF00000000000000000000000000000000000000000000F90000000000000000FF0000000000000000000000000000000000000000000000F900000000000000FF000000000000000000000000000000000000000000000000F9000000000000FF00000000000000000000000000000000000000000000000000F90000
310
000000FF0000000000000000000000000000000000000000000000000000F900000000FF000000000000000000000000000000000000000000000000000000F9000000FF00000000000000000000000000000000000000000000000000000000F90000FF000000000000000000000000000000000000000000000000000000
310
0000F900FF000000000000000000000000000000000000000000000000000000000000F9FF00000000000000000000000000000000000000000000FFFFFFFFFFFFFFFFFFFFFFFFFFFFFFFFFFFF0000000000000000000000000000000000000000000000FFF900000000000000000000000000000000000000000000000000
310
0000000000FF00F90000000000000000000000000000000000000000000000000000000000FF0000F900000000000000000000000000000000000000000000000000000000FF000000F9000000000000000000000000000000000000000000000000000000FF00000000F90000000000000000000000000000000000000000
310
000000000000FF0000000000F900000000000000000000000000000000000000000000000000FF000000000000F9000000000000000000000000000000000000000000000000FF00000000000000F90000000000000000000000000000000000000000000000FF0000000000000000F9000000000000000000000000000000
310
00000000000000FF00000000000000000000000000000000000000000000000000000000000000FF00000000000000000000000000000000000000000000000000000000000000FF00000000000000000000000000000000000000000000000000000000000000FF0000000000000000000000000000000000000000000000
310
0000000000000000FF0000000000000000000000000000000000000000000000000000000000000000000000000000000000000000000000
102
{BLKREFS
331
51FE
331
51FF
331
520C
331
520D
102
}
  0
BLOCK_RECORD
  5
5107
330
1
100
AcDbSymbolTableRecord
100
AcDbBlockTableRecord
  2
*D1
340
0
  0
BLOCK_RECORD
  5
511B
330
1
100
AcDbSymbolTableRecord
100
AcDbBlockTableRecord
  2
*D2
340
0
  0
ENDTAB
  0
ENDSEC
  0
SECTION
  2
BLOCKS
  0
BLOCK
  5
20
330
1F
100
AcDbEntity
  8
0
100
AcDbBlockBegin
  2
*Model_Space
 70
     0
 10
0.0
 20
0.0
 30
0.0
  3
*Model_Space
  1

  0
ENDBLK
  5
21
330
1F
100
AcDbEntity
  8
0
100
AcDbBlockEnd
  0
BLOCK
  5
1C
330
1B
100
AcDbEntity
 67
     1
  8
0
100
AcDbBlockBegin
  2
*Paper_Space
 70
     0
 10
0.0
 20
0.0
 30
0.0
  3
*Paper_Space
  1

  0
ENDBLK
  5
1D
330
1B
100
AcDbEntity
 67
     1
  8
0
100
AcDbBlockEnd
  0
BLOCK
  5
8BD
330
8BC
100
AcDbEntity
  8
0
100
AcDbBlockBegin
  2
MAR-STRZ
 70
     0
 10
0.0
 20
0.0
 30
0.0
  3
MAR-STRZ
  1

  0
LINE
  5
8BE
330
8BC
100
AcDbEntity
  8
0
100
AcDbLine
 10
0.0
 20
2.299999999999272
 30
0.0
 11
0.0
 21
-2.299999999999272
 31
0.0
  0
LINE
  5
8BF
330
8BC
100
AcDbEntity
  8
0
 62
    10
100
AcDbLine
 10
1.5
 20
1.5
 30
0.0
 11
-1.5
 21
-1.5
 31
0.0
  0
LINE
  5
8C0
330
8BC
100
AcDbEntity
  8
0
100
AcDbLine
 10
1.399999999999636
 20
0.0
 30
0.0
 11
-1.399999999999636
 21
0.0
 31
0.0
  0
ENDBLK
  5
8C1
330
8BC
100
AcDbEntity
  8
0
100
AcDbBlockEnd
  0
BLOCK
  5
510F
330
5107
100
AcDbEntity
  8
0
100
AcDbBlockBegin
  2
*D1
 70
     1
 10
0.0
 20
0.0
 30
0.0
  3
*D1
  1

  0
LINE
  5
51FD
330
5107
100
AcDbEntity
  8
WYMIAR
370
    -2
100
AcDbLine
 10
4.553177429791891
 20
12.05318021584251
 30
0.0
 11
13.42174868698976
 21
12.05318021584251
 31
0.0
  0
INSERT
  5
51FE
330
5107
100
AcDbEntity
  8
WYMIAR
370
    -2
100
AcDbBlockReference
  2
MAR-STRZ
 10
4.493177429791892
 20
12.05318021584251
 30
0.0
 41
0.06
 42
0.06
 43
0.06
 50
180.0
  0
INSERT
  5
51FF
330
5107
100
AcDbEntity
  8
WYMIAR
370
    -2
100
AcDbBlockReference
  2
MAR-STRZ
 10
13.48174868698976
 20
12.05318021584251
 30
0.0
 41
0.06
 42
0.06
 43
0.06
  0
MTEXT
  5
5200
330
5107
100
AcDbEntity
  8
WYMIAR
100
AcDbMText
 10
8.987463058390826
 20
12.26557631973862
 30
0.0
 40
0.18
 41
0.0
 71
     5
 72
     1
  1
\A1;9.00
  7
AR 01 SWIS
 73
     1
 44
1.0
  0
POINT
  5
5201
330
5107
100
AcDbEntity
  8
Defpoints
 62
     0
100
AcDbPoint
 10
4.493177429791892
 20
6.497758975027104
 30
0.0
  0
POINT
  5
5202
330
5107
100
AcDbEntity
  8
Defpoints
 62
     0
100
AcDbPoint
 10
13.48174868698976
 20
7.403477548510281
 30
0.0
  0
POINT
  5
5203
330
5107
100
AcDbEntity
  8
Defpoints
 62
     0
100
AcDbPoint
 10
13.48174868698976
 20
12.05318021584251
 30
0.0
  0
ENDBLK
  5
5110
330
5107
100
AcDbEntity
  8
0
100
AcDbBlockEnd
  0
BLOCK
  5
5123
330
511B
100
AcDbEntity
  8
0
100
AcDbBlockBegin
  2
*D2
 70
     1
 10
0.0
 20
0.0
 30
0.0
  3
*D2
  1

  0
LINE
  5
520B
330
511B
100
AcDbEntity
  8
WYMIAR
370
    -2
100
AcDbLine
 10
3.745159561948836
 20
1.982359026152614
 30
0.0
 11
3.745159561948838
 21
11.36236067552572
 31
0.0
  0
INSERT
  5
520C
330
511B
100
AcDbEntity
  8
WYMIAR
370
    -2
100
AcDbBlockReference
  2
MAR-STRZ
 10
3.745159561948836
 20
1.922359026152614
 30
0.0
 41
0.06
 42
0.06
 43
0.06
 50
270.0
  0
INSERT
  5
520D
330
511B
100
AcDbEntity
  8
WYMIAR
370
    -2
100
AcDbBlockReference
  2
MAR-STRZ
 10
3.745159561948838
 20
11.42236067552572
 30
0.0
 41
0.06
 42
0.06
 43
0.06
 50
90.0
  0
MTEXT
  5
520E
330
511B
100
AcDbEntity
  8
WYMIAR
100
AcDbMText
 10
3.532763458052732
 20
6.67235985083917
 30
0.0
 40
0.18
 41
0.0
 71
     5
 72
     1
  1
\A1;9.50
  7
AR 01 SWIS
 11
0.0000000000000001
 21
1.0
 31
0.0
 73
     1
 44
1.0
  0
POINT
  5
520F
330
511B
100
AcDbEntity
  8
Defpoints
 62
     0
100
AcDbPoint
 10
10.48080926224694
 20
1.922359026152612
 30
0.0
  0
POINT
  5
5210
330
511B
100
AcDbEntity
  8
Defpoints
 62
     0
100
AcDbPoint
 10
12.07261852247076
 20
11.42236067552572
 30
0.0
  0
POINT
  5
5211
330
511B
100
AcDbEntity
  8
Defpoints
 62
     0
100
AcDbPoint
 10
3.745159561948838
 20
11.42236067552572
 30
0.0
  0
ENDBLK
  5
5124
330
511B
100
AcDbEntity
  8
0
100
AcDbBlockEnd
  0
ENDSEC
  0
SECTION
  2
ENTITIES
  0
LINE
  5
4BB7
330
1F
100
AcDbEntity
  8
0
100
AcDbLine
 10
10.37545086902292
 20
8.720821743903139
 30
0.0
 11
10.37013258344403
 21
8.718642765894653
 31
0.0
  0
LINE
  5
4BB8
330
1F
100
AcDbEntity
  8
0
100
AcDbLine
 10
10.38119319496336
 20
8.72149641070089
 30
0.0
 11
10.37545086902292
 21
8.720821743903139
 31
0.0
  0
LINE
  5
4BB9
330
1F
100
AcDbEntity
  8
0
100
AcDbLine
 10
10.38696823124215
 20
8.720620788860564
 30
0.0
 11
10.38119319496336
 21
8.72149641070089
 31
0.0
  0
LINE
  5
4BBA
330
1F
100
AcDbEntity
  8
0
100
AcDbLine
 10
10.39238241868058
 20
8.718254550563562
 30
0.0
 11
10.38696823124215
 21
8.720620788860564
 31
0.0
  0
LINE
  5
4BBB
330
1F
100
AcDbEntity
  8
0
100
AcDbLine
 10
10.3970667893521
 20
8.714558951039418
 30
0.0
 11
10.39238241868058
 21
8.718254550563562
 31
0.0
  0
LINE
  5
4BBC
330
1F
100
AcDbEntity
  8
0
100
AcDbLine
 10
10.40070211113673
 20
8.709785839288439
 30
0.0
 11
10.3970667893521
 21
8.714558951039418
 31
0.0
  0
LINE
  5
4BBD
330
1F
100
AcDbEntity
  8
0
100
AcDbLine
 10
10.4030406428625
 20
8.704260494988517
 30
0.0
 11
10.40070211113673
 21
8.709785839288439
 31
0.0
  0
LINE
  5
4BBE
330
1F
100
AcDbEntity
  8
0
100
AcDbLine
 10
10.40392301745691
 20
8.698359461222622
 30
0.0
 11
10.4030406428625
 21
8.704260494988517
 31
0.0
  0
LINE
  5
4BBF
330
1F
100
AcDbEntity
  8
0
100
AcDbLine
 10
10.40328910254953
 20
8.692484883689989
 30
0.0
 11
10.40392301745691
 21
8.698359461222622
 31
0.0
  0
LINE
  5
4BC0
330
1F
100
AcDbEntity
  8
0
100
AcDbLine
 10
10.40118209839373
 20
8.687037105141264
 30
0.0
 11
10.40328910254953
 21
8.692484883689989
 31
0.0
  0
LINE
  5
4BC1
330
1F
100
AcDbEntity
  8
0
100
AcDbLine
 10
10.39774559384071
 20
8.68238738268166
 30
0.0
 11
10.40118209839373
 21
8.687037105141264
 31
0.0
  0
LINE
  5
4BC2
330
1F
100
AcDbEntity
  8
0
100
AcDbLine
 10
10.39321378099668
 20
8.67885258721278
 30
0.0
 11
10.39774559384071
 21
8.68238738268166
 31
0.0
  0
LINE
  5
4BC3
330
1F
100
AcDbEntity
  8
0
100
AcDbLine
 10
10.61484338709993
 20
8.259428955284242
 30
0.0
 11
10.37674059063309
 21
8.669296938716087
 31
0.0
  0
LINE
  5
4BC4
330
1F
100
AcDbEntity
  8
0
100
AcDbLine
 10
10.63697177737422
 20
8.271165949394944
 30
0.0
 11
10.63158986490345
 21
8.269143130372135
 31
0.0
  0
LINE
  5
4BC5
330
1F
100
AcDbEntity
  8
0
100
AcDbLine
 10
10.64273663518743
 20
8.271674492189429
 30
0.0
 11
10.63697177737422
 21
8.271165949394944
 31
0.0
  0
LINE
  5
4BC6
330
1F
100
AcDbEntity
  8
0
100
AcDbLine
 10
10.64849157280999
 20
8.270634102404557
 30
0.0
 11
10.64273663518743
 21
8.271674492189429
 31
0.0
  0
LINE
  5
4BC7
330
1F
100
AcDbEntity
  8
0
100
AcDbLine
 10
10.65384440075342
 20
8.268115680884843
 30
0.0
 11
10.64849157280999
 21
8.270634102404557
 31
0.0
  0
LINE
  5
4BC8
330
1F
100
AcDbEntity
  8
0
100
AcDbLine
 10
10.65843033263933
 20
8.264290853894962
 30
0.0
 11
10.65384440075342
 21
8.268115680884843
 31
0.0
  0
LINE
  5
4BC9
330
1F
100
AcDbEntity
  8
0
100
AcDbLine
 10
10.66193684478831
 20
8.259420277073449
 30
0.0
 11
10.65843033263933
 21
8.264290853894962
 31
0.0
  0
LINE
  5
4BCA
330
1F
100
AcDbEntity
  8
0
100
AcDbLine
 10
10.66412497419219
 20
8.253835872181685
 30
0.0
 11
10.66193684478831
 21
8.259420277073449
 31
0.0
  0
LINE
  5
4BCB
330
1F
100
AcDbEntity
  8
0
100
AcDbLine
 10
10.66484560344815
 20
8.247918207184376
 30
0.0
 11
10.66412497419219
 21
8.253835872181685
 31
0.0
  0
LINE
  5
4BCC
330
1F
100
AcDbEntity
  8
0
100
AcDbLine
 10
10.6640496228633
 20
8.242070561171694
 30
0.0
 11
10.66484560344815
 21
8.247918207184376
 31
0.0
  0
LINE
  5
4BCD
330
1F
100
AcDbEntity
  8
0
100
AcDbLine
 10
10.66179127719907
 20
8.236691441555695
 30
0.0
 11
10.6640496228633
 21
8.242070561171694
 31
0.0
  0
LINE
  5
4BCE
330
1F
100
AcDbEntity
  8
0
100
AcDbLine
 10
10.65822446898039
 20
8.232147426448804
 30
0.0
 11
10.66179127719907
 21
8.236691441555695
 31
0.0
  0
LINE
  5
4BCF
330
1F
100
AcDbEntity
  8
0
100
AcDbLine
 10
10.65359227029292
 20
8.228748182971216
 30
0.0
 11
10.65822446898039
 21
8.232147426448804
 31
0.0
  0
LINE
  5
4BD0
330
1F
100
AcDbEntity
  8
0
100
AcDbLine
 10
10.11167424832194
 20
8.567812119572291
 30
0.0
 11
10.11076949529535
 21
8.568193311437859
 31
0.0
  0
LINE
  5
4BD1
330
1F
100
AcDbEntity
  8
0
100
AcDbLine
 10
10.11330381665982
 20
8.566101087842017
 30
0.0
 11
10.11167424832194
 21
8.567812119572291
 31
0.0
  0
LINE
  5
4BD2
330
1F
100
AcDbEntity
  8
0
100
AcDbLine
 10
10.11530365983626
 20
8.563494216208408
 30
0.0
 11
10.11330381665982
 21
8.566101087842017
 31
0.0
  0
LINE
  5
4BD3
330
1F
100
AcDbEntity
  8
0
100
AcDbLine
 10
10.13329272009019
 20
8.531641782282392
 30
0.0
 11
10.13202265429547
 21
8.534671977873696
 31
0.0
  0
LINE
  5
4BD4
330
1F
100
AcDbEntity
  8
0
100
AcDbLine
 10
10.13396897313973
 20
8.529377758350811
 30
0.0
 11
10.13329272009019
 21
8.531641782282392
 31
0.0
  0
LINE
  5
4BD5
330
1F
100
AcDbEntity
  8
0
100
AcDbLine
 10
10.133850692848
 20
8.528403132755983
 30
0.0
 11
10.13396897313973
 21
8.529377758350811
 31
0.0
  0
LINE
  5
4BD6
330
1F
100
AcDbEntity
  8
0
100
AcDbLine
 10
10.37000819548509
 20
8.117406737422768
 30
0.0
 11
10.13213978379131
 21
8.52741068106965
 31
0.0
  0
LINE
  5
4BD7
330
1F
100
AcDbEntity
  8
0
100
AcDbLine
 10
10.37273394314889
 20
8.117888787676172
 30
0.0
 11
10.37174748823346
 21
8.118415653714599
 31
0.0
  0
LINE
  5
4BD8
330
1F
100
AcDbEntity
  8
0
100
AcDbLine
 10
10.37443554929599
 20
8.116040348986317
 30
0.0
 11
10.37273394314889
 21
8.117888787676172
 31
0.0
  0
LINE
  5
4BD9
330
1F
100
AcDbEntity
  8
0
100
AcDbLine
 10
10.37494418318055
 20
8.115367406340162
 30
0.0
 11
10.37443554929599
 21
8.116040348986317
 31
0.0
  0
LINE
  5
4BDA
330
1F
100
AcDbEntity
  8
0
100
AcDbLine
 10
10.39432034337803
 20
8.081538846929909
 30
0.0
 11
10.39375204189483
 21
8.082924515405181
 31
0.0
  0
LINE
  5
4BDB
330
1F
100
AcDbEntity
  8
0
100
AcDbLine
 10
10.39491254907702
 20
8.079407362377992
 30
0.0
 11
10.39432034337803
 21
8.081538846929909
 31
0.0
  0
LINE
  5
4BDC
330
1F
100
AcDbEntity
  8
0
100
AcDbLine
 10
10.39470847066556
 20
8.078576750715164
 30
0.0
 11
10.39491254907702
 21
8.079407362377992
 31
0.0
  0
LINE
  5
4BE5
330
1F
100
AcDbEntity
  8
0
100
AcDbLine
 10
8.449933752965559
 20
4.41861864437731
 30
0.0
 11
8.450705845445366
 21
4.42431390379745
 31
0.0
  0
LINE
  5
4BE6
330
1F
100
AcDbEntity
  8
0
100
AcDbLine
 10
8.447646868581276
 20
4.413308310837201
 30
0.0
 11
8.449933752965559
 21
4.41861864437731
 31
0.0
  0
LINE
  5
4BE7
330
1F
100
AcDbEntity
  8
0
100
AcDbLine
 10
8.444001039684057
 20
4.408744793632159
 30
0.0
 11
8.447646868581276
 21
4.413308310837201
 31
0.0
  0
LINE
  5
4BE8
330
1F
100
AcDbEntity
  8
0
100
AcDbLine
 10
8.439244723488226
 20
4.405239088918129
 30
0.0
 11
8.444001039684057
 21
4.408744793632159
 31
0.0
  0
LINE
  5
4BE9
330
1F
100
AcDbEntity
  8
0
100
AcDbLine
 10
8.433702055082342
 20
4.403030104677917
 30
0.0
 11
8.439244723488226
 21
4.405239088918129
 31
0.0
  0
LINE
  5
4BEA
330
1F
100
AcDbEntity
  8
0
100
AcDbLine
 10
8.42775075815858
 20
4.402268379536987
 30
0.0
 11
8.433702055082342
 21
4.403030104677917
 31
0.0
  0
LINE
  5
4BEB
330
1F
100
AcDbEntity
  8
0
100
AcDbLine
 10
8.421796403767306
 20
4.403005823804875
 30
0.0
 11
8.42775075815858
 21
4.402268379536987
 31
0.0
  0
LINE
  5
4BEC
330
1F
100
AcDbEntity
  8
0
100
AcDbLine
 10
8.416244771320247
 20
4.40519218187341
 30
0.0
 11
8.421796403767306
 21
4.403005823804875
 31
0.0
  0
LINE
  5
4BED
330
1F
100
AcDbEntity
  8
0
100
AcDbLine
 10
8.411474195394173
 20
4.408678457053351
 30
0.0
 11
8.416244771320247
 21
4.40519218187341
 31
0.0
  0
LINE
  5
4BEE
330
1F
100
AcDbEntity
  8
0
100
AcDbLine
 10
8.407809782854688
 20
4.41322706545252
 30
0.0
 11
8.411474195394173
 21
4.408678457053351
 31
0.0
  0
LINE
  5
4BEF
330
1F
100
AcDbEntity
  8
0
100
AcDbLine
 10
8.405501257360633
 20
4.418528026925457
 30
0.0
 11
8.407809782854688
 21
4.41322706545252
 31
0.0
  0
LINE
  5
4BF0
330
1F
100
AcDbEntity
  8
0
100
AcDbLine
 10
8.404705941109416
 20
4.424220089708022
 30
0.0
 11
8.405501257360633
 21
4.418528026925457
 31
0.0
  0
LINE
  5
4BF1
330
1F
100
AcDbEntity
  8
0
100
AcDbLine
 10
7.930659617860147
 20
4.441995036556146
 30
0.0
 11
8.404667101943442
 21
4.443264115292617
 31
0.0
  0
LINE
  5
4BF2
330
1F
100
AcDbEntity
  8
0
100
AcDbLine
 10
7.929759957786938
 20
4.416962791378399
 30
0.0
 11
7.930699101361309
 21
4.422635073810429
 31
0.0
  0
LINE
  5
4BF3
330
1F
100
AcDbEntity
  8
0
100
AcDbLine
 10
7.927317939859268
 20
4.411716006665713
 30
0.0
 11
7.929759957786938
 21
4.416962791378399
 31
0.0
  0
LINE
  5
4BF4
330
1F
100
AcDbEntity
  8
0
100
AcDbLine
 10
7.923539467064447
 20
4.407252279379811
 30
0.0
 11
7.927317939859268
 21
4.411716006665713
 31
0.0
  0
LINE
  5
4BF5
330
1F
100
AcDbEntity
  8
0
100
AcDbLine
 10
7.918682036079221
 20
4.40387580515857
 30
0.0
 11
7.923539467064447
 21
4.407252279379811
 31
0.0
  0
LINE
  5
4BF6
330
1F
100
AcDbEntity
  8
0
100
AcDbLine
 10
7.913076672797949
 20
4.401816685140289
 30
0.0
 11
7.918682036079221
 21
4.40387580515857
 31
0.0
  0
LINE
  5
4BF7
330
1F
100
AcDbEntity
  8
0
100
AcDbLine
 10
7.907105373464947
 20
4.401215244951352
 30
0.0
 11
7.913076672797949
 21
4.401816685140289
 31
0.0
  0
LINE
  5
4BF8
330
1F
100
AcDbEntity
  8
0
100
AcDbLine
 10
7.901175072261722
 20
4.402112471746708
 30
0.0
 11
7.907105373464947
 21
4.401215244951352
 31
0.0
  0
LINE
  5
4BF9
330
1F
100
AcDbEntity
  8
0
100
AcDbLine
 10
7.895689909414983
 20
4.404447221002989
 30
0.0
 11
7.901175072261722
 21
4.402112471746708
 31
0.0
  0
LINE
  5
4BFA
330
1F
100
AcDbEntity
  8
0
100
AcDbLine
 10
7.891023689708084
 20
4.408060383416732
 30
0.0
 11
7.895689909414983
 21
4.404447221002989
 31
0.0
  0
LINE
  5
4BFB
330
1F
100
AcDbEntity
  8
0
100
AcDbLine
 10
7.887494408302753
 20
4.41270572794048
 30
0.0
 11
7.891023689708084
 21
4.408060383416732
 31
0.0
  0
LINE
  5
4BFC
330
1F
100
AcDbEntity
  8
0
100
AcDbLine
 10
7.885342579894349
 20
4.418066682021731
 30
0.0
 11
7.887494408302753
 21
4.41270572794048
 31
0.0
  0
LINE
  5
4BFD
330
1F
100
AcDbEntity
  8
0
100
AcDbLine
 10
7.884714848032839
 20
4.42377790549925
 30
0.0
 11
7.885342579894349
 21
4.418066682021731
 31
0.0
  0
LINE
  5
4BFE
330
1F
100
AcDbEntity
  8
0
100
AcDbLine
 10
8.449311841622016
 20
4.723560710994188
 30
0.0
 11
8.450094339974608
 21
4.724153654166588
 31
0.0
  0
LINE
  5
4BFF
330
1F
100
AcDbEntity
  8
0
100
AcDbLine
 10
8.447015260507978
 20
4.723004979281522
 30
0.0
 11
8.449311841622016
 21
4.723560710994188
 31
0.0
  0
LINE
  5
4C00
330
1F
100
AcDbEntity
  8
0
100
AcDbLine
 10
8.443757721860649
 20
4.722576500103951
 30
0.0
 11
8.447015260507978
 21
4.723004979281522
 31
0.0
  0
LINE
  5
4C01
330
1F
100
AcDbEntity
  8
0
100
AcDbLine
 10
8.407178174781389
 20
4.722923733896841
 30
0.0
 11
8.410437434039256
 21
4.722508545343899
 31
0.0
  0
LINE
  5
4C02
330
1F
100
AcDbEntity
  8
0
100
AcDbLine
 10
8.404879346017093
 20
4.723470093542339
 30
0.0
 11
8.407178174781389
 21
4.722923733896841
 31
0.0
  0
LINE
  5
4C03
330
1F
100
AcDbEntity
  8
0
100
AcDbLine
 10
8.404094435638661
 20
4.72405984007716
 30
0.0
 11
8.404879346017093
 21
4.723470093542339
 31
0.0
  0
LINE
  5
4C04
330
1F
100
AcDbEntity
  8
0
100
AcDbLine
 10
7.930082365097721
 20
4.725039641165757
 30
0.0
 11
8.404090401794615
 21
4.726037756626993
 31
0.0
  0
LINE
  5
4C05
330
1F
100
AcDbEntity
  8
0
100
AcDbLine
 10
7.929136959031168
 20
4.722438049317904
 30
0.0
 11
7.930086465862551
 21
4.72302891131514
 31
0.0
  0
LINE
  5
4C06
330
1F
100
AcDbEntity
  8
0
100
AcDbLine
 10
7.926685361094868
 20
4.721888634512211
 30
0.0
 11
7.929136959031168
 21
4.722438049317904
 31
0.0
  0
LINE
  5
4C07
330
1F
100
AcDbEntity
  8
0
100
AcDbLine
 10
7.925848258725729
 20
4.72178461597003
 30
0.0
 11
7.926685361094868
 21
4.721888634512211
 31
0.0
  0
LINE
  5
4C08
330
1F
100
AcDbEntity
  8
0
100
AcDbLine
 10
7.886863786804273
 20
4.721918648716343
 30
0.0
 11
7.888347961646683
 21
4.721717978000167
 31
0.0
  0
LINE
  5
4C09
330
1F
100
AcDbEntity
  8
0
100
AcDbLine
 10
7.884721764185048
 20
4.722471525812707
 30
0.0
 11
7.886863786804273
 21
4.721918648716343
 31
0.0
  0
LINE
  5
4C0A
330
1F
100
AcDbEntity
  8
0
100
AcDbLine
 10
7.884104472590088
 20
4.723063568732811
 30
0.0
 11
7.884721764185048
 21
4.722471525812707
 31
0.0
  0
LINE
  5
4C34
330
1F
100
AcDbEntity
  8
0
100
AcDbLine
 10
8.897064695658247
 20
5.891920430596108
 30
0.0
 11
8.180126063938818
 21
7.109698422660806
 31
0.0
  0
LINE
  5
4C35
330
1F
100
AcDbEntity
  8
0
100
AcDbLine
 10
7.465905852097908
 20
5.884664756347952
 30
0.0
 11
8.155348671005835
 21
7.10945817552157
 31
0.0
  0
LINE
  5
4C36
330
1F
100
AcDbEntity
  8
0
100
AcDbLine
 10
8.179962799009427
 20
7.152588888634309
 30
0.0
 11
8.89295180993869
 21
8.385023713341887
 31
0.0
  0
LINE
  5
4C37
330
1F
100
AcDbEntity
  8
0
100
AcDbLine
 10
8.192359054533007
 20
7.131164146762682
 30
0.0
 11
9.621366045304494
 21
7.135085250861532
 31
0.0
  0
LINE
  5
4C3C
330
1F
100
AcDbEntity
  8
0
100
AcDbLine
 10
7.456786414547813
 20
8.383280972327092
 30
0.0
 11
8.155278264367408
 21
7.152694068934883
 31
0.0
  0
LINE
  5
4C3F
330
1F
100
AcDbEntity
  8
0
100
AcDbLine
 10
6.737238578619958
 20
7.129905935642327
 30
0.0
 11
8.072636263203339
 21
7.13101705829589
 31
0.0
  0
LINE
  5
4C48
330
1F
100
AcDbEntity
  8
0
100
AcDbLine
 10
8.241771587656725
 20
7.070802366811392
 30
0.0
 11
8.242002777018729
 21
7.065750317160304
 31
0.0
  0
LINE
  5
4C49
330
1F
100
AcDbEntity
  8
0
100
AcDbLine
 10
8.242002777018729
 20
7.065750317160304
 30
0.0
 11
8.243478171772085
 21
7.061049809467558
 31
0.0
  0
LINE
  5
4C4A
330
1F
100
AcDbEntity
  8
0
100
AcDbLine
 10
8.243478171772085
 20
7.061049809467558
 30
0.0
 11
8.246097226202554
 21
7.057021175564464
 31
0.0
  0
LINE
  5
4C4B
330
1F
100
AcDbEntity
  8
0
100
AcDbLine
 10
8.246097226202554
 20
7.057021175564464
 30
0.0
 11
8.249681456078903
 21
7.053938960193892
 31
0.0
  0
LINE
  5
4C4C
330
1F
100
AcDbEntity
  8
0
100
AcDbLine
 10
8.270838714627164
 20
7.087878636214469
 30
0.0
 11
8.266533568647798
 21
7.089804385168626
 31
0.0
  0
LINE
  5
4C4D
330
1F
100
AcDbEntity
  8
0
100
AcDbLine
 10
8.266533568647798
 20
7.089804385168626
 30
0.0
 11
8.261800895149313
 21
7.090442431097592
 31
0.0
  0
LINE
  5
4C4E
330
1F
100
AcDbEntity
  8
0
100
AcDbLine
 10
8.261800895149313
 20
7.090442431097592
 30
0.0
 11
8.25696321800952
 21
7.089749292225729
 31
0.0
  0
LINE
  5
4C4F
330
1F
100
AcDbEntity
  8
0
100
AcDbLine
 10
8.25696321800952
 20
7.089749292225729
 30
0.0
 11
8.25235021693086
 21
7.087772204821678
 31
0.0
  0
LINE
  5
4C50
330
1F
100
AcDbEntity
  8
0
100
AcDbLine
 10
8.25235021693086
 20
7.087772204821678
 30
0.0
 11
8.248276260313492
 21
7.084645904124748
 31
0.0
  0
LINE
  5
4C51
330
1F
100
AcDbEntity
  8
0
100
AcDbLine
 10
8.248276260313492
 20
7.084645904124748
 30
0.0
 11
8.24501898156836
 21
7.080583442360971
 31
0.0
  0
LINE
  5
4C52
330
1F
100
AcDbEntity
  8
0
100
AcDbLine
 10
8.24501898156836
 20
7.080583442360971
 30
0.0
 11
8.242800358859042
 21
7.075861669586014
 31
0.0
  0
LINE
  5
4C53
330
1F
100
AcDbEntity
  8
0
100
AcDbLine
 10
8.242800358859042
 20
7.075861669586014
 30
0.0
 11
8.241771587656725
 21
7.070802366811392
 31
0.0
  0
LINE
  5
4C54
330
1F
100
AcDbEntity
  8
0
100
AcDbLine
 10
9.49532283417367
 20
7.079129766025573
 30
0.0
 11
9.496351605375981
 21
7.084189068800199
 31
0.0
  0
LINE
  5
4C55
330
1F
100
AcDbEntity
  8
0
100
AcDbLine
 10
9.496351605375981
 20
7.084189068800199
 30
0.0
 11
9.498570228085302
 21
7.088910841575152
 31
0.0
  0
LINE
  5
4C56
330
1F
100
AcDbEntity
  8
0
100
AcDbLine
 10
9.498570228085302
 20
7.088910841575152
 30
0.0
 11
9.50182750683043
 21
7.092973303338933
 31
0.0
  0
LINE
  5
4C57
330
1F
100
AcDbEntity
  8
0
100
AcDbLine
 10
9.50182750683043
 20
7.092973303338933
 30
0.0
 11
9.505901463447798
 21
7.096099604035863
 31
0.0
  0
LINE
  5
4C58
330
1F
100
AcDbEntity
  8
0
100
AcDbLine
 10
9.505901463447798
 20
7.096099604035863
 30
0.0
 11
9.510514464526462
 21
7.09807669143991
 31
0.0
  0
LINE
  5
4C59
330
1F
100
AcDbEntity
  8
0
100
AcDbLine
 10
9.510514464526462
 20
7.09807669143991
 30
0.0
 11
9.515352141666255
 21
7.098769830311773
 31
0.0
  0
LINE
  5
4C5A
330
1F
100
AcDbEntity
  8
0
100
AcDbLine
 10
9.515352141666255
 20
7.098769830311773
 30
0.0
 11
9.520084815164739
 21
7.098131784382808
 31
0.0
  0
LINE
  5
4C5B
330
1F
100
AcDbEntity
  8
0
100
AcDbLine
 10
9.520084815164739
 20
7.098131784382808
 30
0.0
 11
9.524389961144109
 21
7.09620603542865
 31
0.0
  0
LINE
  5
4C5C
330
1F
100
AcDbEntity
  8
0
100
AcDbLine
 10
9.503232702595845
 20
7.06226635940807
 30
0.0
 11
9.499648472719496
 21
7.065348574778649
 31
0.0
  0
LINE
  5
4C5D
330
1F
100
AcDbEntity
  8
0
100
AcDbLine
 10
9.499648472719496
 20
7.065348574778649
 30
0.0
 11
9.49702941828902
 21
7.069377208681743
 31
0.0
  0
LINE
  5
4C5E
330
1F
100
AcDbEntity
  8
0
100
AcDbLine
 10
9.49702941828902
 20
7.069377208681743
 30
0.0
 11
9.495554023535671
 21
7.074077716374482
 31
0.0
  0
LINE
  5
4C5F
330
1F
100
AcDbEntity
  8
0
100
AcDbLine
 10
9.495554023535671
 20
7.074077716374482
 30
0.0
 11
9.49532283417367
 21
7.079129766025573
 31
0.0
  0
LINE
  5
4C60
330
1F
100
AcDbEntity
  8
0
100
AcDbLine
 10
8.902192236723291
 20
6.038878569628881
 30
0.0
 11
8.898531187458218
 21
6.035212197058552
 31
0.0
  0
LINE
  5
4C61
330
1F
100
AcDbEntity
  8
0
100
AcDbLine
 10
8.898531187458218
 20
6.035212197058552
 30
0.0
 11
8.895815520862822
 21
6.030753446435994
 31
0.0
  0
LINE
  5
4C62
330
1F
100
AcDbEntity
  8
0
100
AcDbLine
 10
8.895815520862822
 20
6.030753446435994
 30
0.0
 11
8.89423030512772
 21
6.025806174247698
 31
0.0
  0
LINE
  5
4C63
330
1F
100
AcDbEntity
  8
0
100
AcDbLine
 10
8.89423030512772
 20
6.025806174247698
 30
0.0
 11
8.893883570085581
 21
6.020707528917544
 31
0.0
  0
LINE
  5
4C64
330
1F
100
AcDbEntity
  8
0
100
AcDbLine
 10
8.893883570085581
 20
6.020707528917544
 30
0.0
 11
8.894798945156512
 21
6.015804974698873
 31
0.0
  0
LINE
  5
4C65
330
1F
100
AcDbEntity
  8
0
100
AcDbLine
 10
8.894798945156512
 20
6.015804974698873
 30
0.0
 11
8.896914049042159
 21
6.011432612559836
 31
0.0
  0
LINE
  5
4C66
330
1F
100
AcDbEntity
  8
0
100
AcDbLine
 10
8.896914049042159
 20
6.011432612559836
 30
0.0
 11
8.900084740908084
 21
6.007888411754535
 31
0.0
  0
LINE
  5
4C67
330
1F
100
AcDbEntity
  8
0
100
AcDbLine
 10
8.900084740908084
 20
6.007888411754535
 30
0.0
 11
8.904094943343448
 21
6.005413903710778
 31
0.0
  0
LINE
  5
4C68
330
1F
100
AcDbEntity
  8
0
100
AcDbLine
 10
8.920712276618871
 20
6.041755985133441
 30
0.0
 11
8.91613585228287
 21
6.042992166781786
 31
0.0
  0
LINE
  5
4C69
330
1F
100
AcDbEntity
  8
0
100
AcDbLine
 10
8.91613585228287
 20
6.042992166781786
 30
0.0
 11
8.911305081801824
 21
6.042905778298266
 31
0.0
  0
LINE
  5
4C6A
330
1F
100
AcDbEntity
  8
0
100
AcDbLine
 10
8.911305081801824
 20
6.042905778298266
 30
0.0
 11
8.906549174200797
 21
6.041502706915277
 31
0.0
  0
LINE
  5
4C6B
330
1F
100
AcDbEntity
  8
0
100
AcDbLine
 10
8.906549174200797
 20
6.041502706915277
 30
0.0
 11
8.902192236723291
 21
6.038878569628881
 31
0.0
  0
LINE
  5
4C6C
330
1F
100
AcDbEntity
  8
0
100
AcDbLine
 10
8.236784500354026
 20
7.194309658007966
 30
0.0
 11
8.233231066499882
 21
7.191183503491359
 31
0.0
  0
LINE
  5
4C6D
330
1F
100
AcDbEntity
  8
0
100
AcDbLine
 10
8.233231066499882
 20
7.191183503491359
 30
0.0
 11
8.230652305770536
 21
7.187121324683953
 31
0.0
  0
LINE
  5
4C6E
330
1F
100
AcDbEntity
  8
0
100
AcDbLine
 10
8.230652305770536
 20
7.187121324683953
 30
0.0
 11
8.229223956448095
 21
7.182399952358409
 31
0.0
  0
LINE
  5
4C6F
330
1F
100
AcDbEntity
  8
0
100
AcDbLine
 10
8.229223956448095
 20
7.182399952358409
 30
0.0
 11
8.229043358178433
 21
7.177341140236258
 31
0.0
  0
LINE
  5
4C70
330
1F
100
AcDbEntity
  8
0
100
AcDbLine
 10
8.229043358178433
 20
7.177341140236258
 30
0.0
 11
8.230122818435159
 21
7.172289638003565
 31
0.0
  0
LINE
  5
4C71
330
1F
100
AcDbEntity
  8
0
100
AcDbLine
 10
8.230122818435159
 20
7.172289638003565
 30
0.0
 11
8.232388773785672
 21
7.167589697189477
 31
0.0
  0
LINE
  5
4C72
330
1F
100
AcDbEntity
  8
0
100
AcDbLine
 10
8.232388773785672
 20
7.167589697189477
 30
0.0
 11
8.235686803117516
 21
7.163561610993447
 31
0.0
  0
LINE
  5
4C73
330
1F
100
AcDbEntity
  8
0
100
AcDbLine
 10
8.235686803117516
 20
7.163561610993447
 30
0.0
 11
8.239792151181962
 21
7.160479886833023
 31
0.0
  0
LINE
  5
4C74
330
1F
100
AcDbEntity
  8
0
100
AcDbLine
 10
8.239792151181962
 20
7.160479886833023
 30
0.0
 11
8.244425045292835
 21
7.158554539116934
 31
0.0
  0
LINE
  5
4C75
330
1F
100
AcDbEntity
  8
0
100
AcDbLine
 10
8.244425045292835
 20
7.158554539116934
 30
0.0
 11
8.249269761372694
 21
7.157916777110251
 31
0.0
  0
LINE
  5
4C76
330
1F
100
AcDbEntity
  8
0
100
AcDbLine
 10
8.249269761372694
 20
7.157916777110251
 30
0.0
 11
8.253996140026973
 21
7.158610063239777
 31
0.0
  0
LINE
  5
4C77
330
1F
100
AcDbEntity
  8
0
100
AcDbLine
 10
8.253996140026973
 20
7.158610063239777
 30
0.0
 11
8.258282086361088
 21
7.160587151201493
 31
0.0
  0
LINE
  5
4C78
330
1F
100
AcDbEntity
  8
0
100
AcDbLine
 10
9.490157121647097
 20
7.197664856407008
 30
0.0
 11
9.485922304910531
 21
7.195584372161274
 31
0.0
  0
LINE
  5
4C79
330
1F
100
AcDbEntity
  8
0
100
AcDbLine
 10
9.485922304910531
 20
7.195584372161274
 30
0.0
 11
9.481220939237267
 21
7.194779605864368
 31
0.0
  0
LINE
  5
4C7A
330
1F
100
AcDbEntity
  8
0
100
AcDbLine
 10
9.481220939237267
 20
7.194779605864368
 30
0.0
 11
9.476373414928559
 21
7.195305401009495
 31
0.0
  0
LINE
  5
4C7B
330
1F
100
AcDbEntity
  8
0
100
AcDbLine
 10
9.476373414928559
 20
7.195305401009495
 30
0.0
 11
9.471710082755141
 21
7.197125925526425
 31
0.0
  0
LINE
  5
4C7C
330
1F
100
AcDbEntity
  8
0
100
AcDbLine
 10
9.471710082755141
 20
7.197125925526425
 30
0.0
 11
9.467548741098102
 21
7.200117113677894
 31
0.0
  0
LINE
  5
4C7D
330
1F
100
AcDbEntity
  8
0
100
AcDbLine
 10
9.467548741098102
 20
7.200117113677894
 30
0.0
 11
9.464172978514433
 21
7.20407512093454
 31
0.0
  0
LINE
  5
4C7E
330
1F
100
AcDbEntity
  8
0
100
AcDbLine
 10
9.464172978514433
 20
7.20407512093454
 30
0.0
 11
9.4618128476455
 21
7.208730215642752
 31
0.0
  0
LINE
  5
4C7F
330
1F
100
AcDbEntity
  8
0
100
AcDbLine
 10
9.4618128476455
 20
7.208730215642752
 30
0.0
 11
9.460629187509713
 21
7.213765160791069
 31
0.0
  0
LINE
  5
4C80
330
1F
100
AcDbEntity
  8
0
100
AcDbLine
 10
9.460629187509713
 20
7.213765160791069
 30
0.0
 11
9.460702662589241
 21
7.218836833188269
 31
0.0
  0
LINE
  5
4C81
330
1F
100
AcDbEntity
  8
0
100
AcDbLine
 10
9.460702662589241
 20
7.218836833188269
 30
0.0
 11
9.462028265678835
 21
7.223599606741821
 31
0.0
  0
LINE
  5
4C82
330
1F
100
AcDbEntity
  8
0
100
AcDbLine
 10
9.462028265678835
 20
7.223599606741821
 30
0.0
 11
9.464515659118603
 21
7.227728906304911
 31
0.0
  0
LINE
  5
4C83
330
1F
100
AcDbEntity
  8
0
100
AcDbLine
 10
9.464515659118603
 20
7.227728906304911
 30
0.0
 11
9.467995331156238
 21
7.230943326936298
 31
0.0
  0
LINE
  5
4C84
330
1F
100
AcDbEntity
  8
0
100
AcDbLine
 10
8.898589750103781
 20
8.242275775436297
 30
0.0
 11
8.894202350740176
 21
8.240521048741854
 31
0.0
  0
LINE
  5
4C85
330
1F
100
AcDbEntity
  8
0
100
AcDbLine
 10
8.894202350740176
 20
8.240521048741854
 30
0.0
 11
8.889430589489634
 21
8.240065184744402
 31
0.0
  0
LINE
  5
4C86
330
1F
100
AcDbEntity
  8
0
100
AcDbLine
 10
8.889430589489634
 20
8.240065184744402
 30
0.0
 11
8.884599653995682
 21
8.240939249822016
 31
0.0
  0
LINE
  5
4C87
330
1F
100
AcDbEntity
  8
0
100
AcDbLine
 10
8.884599653995682
 20
8.240939249822016
 30
0.0
 11
8.880038764528727
 21
8.243083677884122
 31
0.0
  0
LINE
  5
4C88
330
1F
100
AcDbEntity
  8
0
100
AcDbLine
 10
8.880038764528727
 20
8.243083677884122
 30
0.0
 11
8.876058738168719
 21
8.246352329702119
 31
0.0
  0
LINE
  5
4C89
330
1F
100
AcDbEntity
  8
0
100
AcDbLine
 10
8.876058738168719
 20
8.246352329702119
 30
0.0
 11
8.872930807134782
 21
8.250522452056316
 31
0.0
  0
LINE
  5
4C8A
330
1F
100
AcDbEntity
  8
0
100
AcDbLine
 10
8.872930807134782
 20
8.250522452056316
 30
0.0
 11
8.870868134757738
 21
8.255309857999723
 31
0.0
  0
LINE
  5
4C8B
330
1F
100
AcDbEntity
  8
0
100
AcDbLine
 10
8.870868134757738
 20
8.255309857999723
 30
0.0
 11
8.870011288751349
 21
8.260388293728865
 31
0.0
  0
LINE
  5
4C8C
330
1F
100
AcDbEntity
  8
0
100
AcDbLine
 10
8.870011288751349
 20
8.260388293728865
 30
0.0
 11
8.870418661754943
 21
8.265411672241306
 31
0.0
  0
LINE
  5
4C8D
330
1F
100
AcDbEntity
  8
0
100
AcDbLine
 10
8.870418661754943
 20
8.265411672241306
 30
0.0
 11
8.872062491971547
 21
8.270037658592954
 31
0.0
  0
LINE
  5
4C8E
330
1F
100
AcDbEntity
  8
0
100
AcDbLine
 10
8.872062491971547
 20
8.270037658592954
 30
0.0
 11
8.874830755088456
 21
8.273950999458747
 31
0.0
  0
LINE
  5
4C8F
330
1F
100
AcDbEntity
  8
0
100
AcDbLine
 10
8.874830755088456
 20
8.273950999458747
 30
0.0
 11
8.878534798549019
 21
8.276885007125784
 31
0.0
  0
LINE
  5
4C90
330
1F
100
AcDbEntity
  8
0
100
AcDbLine
 10
8.143971909857942
 20
7.240346097209513
 30
0.0
 11
8.144392690926419
 21
7.235989410342025
 31
0.0
  0
LINE
  5
4C91
330
1F
100
AcDbEntity
  8
0
100
AcDbLine
 10
8.144392690926419
 20
7.235989410342025
 30
0.0
 11
8.146048521072419
 21
7.231880446259175
 31
0.0
  0
LINE
  5
4C92
330
1F
100
AcDbEntity
  8
0
100
AcDbLine
 10
8.146048521072419
 20
7.231880446259175
 30
0.0
 11
8.148826558207883
 21
7.228299224072831
 31
0.0
  0
LINE
  5
4C93
330
1F
100
AcDbEntity
  8
0
100
AcDbLine
 10
8.148826558207883
 20
7.228299224072831
 30
0.0
 11
8.152537483692956
 21
7.225489798156743
 31
0.0
  0
LINE
  5
4C94
330
1F
100
AcDbEntity
  8
0
100
AcDbLine
 10
8.152537483692956
 20
7.225489798156743
 30
0.0
 11
8.156928404088418
 21
7.223643626244296
 31
0.0
  0
LINE
  5
4C95
330
1F
100
AcDbEntity
  8
0
100
AcDbLine
 10
8.156928404088418
 20
7.223643626244296
 30
0.0
 11
8.161700085425664
 21
7.222886521900377
 31
0.0
  0
LINE
  5
4C96
330
1F
100
AcDbEntity
  8
0
100
AcDbLine
 10
8.161700085425664
 20
7.222886521900377
 30
0.0
 11
8.16652734550713
 21
7.223270080534852
 31
0.0
  0
LINE
  5
4C97
330
1F
100
AcDbEntity
  8
0
100
AcDbLine
 10
8.16652734550713
 20
7.223270080534852
 30
0.0
 11
8.171081214535693
 21
7.224768163260648
 31
0.0
  0
LINE
  5
4C98
330
1F
100
AcDbEntity
  8
0
100
AcDbLine
 10
8.171081214535693
 20
7.224768163260648
 30
0.0
 11
8.175051353862677
 21
7.227278678215689
 31
0.0
  0
LINE
  5
4C99
330
1F
100
AcDbEntity
  8
0
100
AcDbLine
 10
8.175051353862677
 20
7.227278678215689
 30
0.0
 11
8.178167205053924
 21
7.230630537954617
 31
0.0
  0
LINE
  5
4C9A
330
1F
100
AcDbEntity
  8
0
100
AcDbLine
 10
8.178167205053924
 20
7.230630537954617
 30
0.0
 11
8.180216427999926
 21
7.234595318775436
 31
0.0
  0
LINE
  5
4C9B
330
1F
100
AcDbEntity
  8
0
100
AcDbLine
 10
8.180216427999926
 20
7.234595318775436
 30
0.0
 11
8.181059371543415
 21
7.238902827417316
 31
0.0
  0
LINE
  5
4C9C
330
1F
100
AcDbEntity
  8
0
100
AcDbLine
 10
7.588789137141517
 20
8.307677725934347
 30
0.0
 11
7.587946193598025
 21
8.303370217292467
 31
0.0
  0
LINE
  5
4C9D
330
1F
100
AcDbEntity
  8
0
100
AcDbLine
 10
7.587946193598025
 20
8.303370217292467
 30
0.0
 11
7.585896970652026
 21
8.299405436471648
 31
0.0
  0
LINE
  5
4C9E
330
1F
100
AcDbEntity
  8
0
100
AcDbLine
 10
7.585896970652026
 20
8.299405436471648
 30
0.0
 11
7.582781119460783
 21
8.296053576732713
 31
0.0
  0
LINE
  5
4C9F
330
1F
100
AcDbEntity
  8
0
100
AcDbLine
 10
7.582781119460783
 20
8.296053576732713
 30
0.0
 11
7.578810980133798
 21
8.293543061777672
 31
0.0
  0
LINE
  5
4CA0
330
1F
100
AcDbEntity
  8
0
100
AcDbLine
 10
7.578810980133798
 20
8.293543061777672
 30
0.0
 11
7.574257111105232
 21
8.29204497905188
 31
0.0
  0
LINE
  5
4CA1
330
1F
100
AcDbEntity
  8
0
100
AcDbLine
 10
7.574257111105232
 20
8.29204497905188
 30
0.0
 11
7.56942985102377
 21
8.291661420417401
 31
0.0
  0
LINE
  5
4CA2
330
1F
100
AcDbEntity
  8
0
100
AcDbLine
 10
7.56942985102377
 20
8.291661420417401
 30
0.0
 11
7.56465816968652
 21
8.292418524761323
 31
0.0
  0
LINE
  5
4CA3
330
1F
100
AcDbEntity
  8
0
100
AcDbLine
 10
7.56465816968652
 20
8.292418524761323
 30
0.0
 11
7.560267249291058
 21
8.294264696673771
 31
0.0
  0
LINE
  5
4CA4
330
1F
100
AcDbEntity
  8
0
100
AcDbLine
 10
7.560267249291058
 20
8.294264696673771
 30
0.0
 11
7.556556323805981
 21
8.297074122589862
 31
0.0
  0
LINE
  5
4CA5
330
1F
100
AcDbEntity
  8
0
100
AcDbLine
 10
7.556556323805981
 20
8.297074122589862
 30
0.0
 11
7.553778286670517
 21
8.300655344776203
 31
0.0
  0
LINE
  5
4CA6
330
1F
100
AcDbEntity
  8
0
100
AcDbLine
 10
7.553778286670517
 20
8.300655344776203
 30
0.0
 11
7.552122456524514
 21
8.304764308859049
 31
0.0
  0
LINE
  5
4CA7
330
1F
100
AcDbEntity
  8
0
100
AcDbLine
 10
7.552122456524514
 20
8.304764308859049
 30
0.0
 11
7.55170167545604
 21
8.309120995726541
 31
0.0
  0
LINE
  5
4CA8
330
1F
100
AcDbEntity
  8
0
100
AcDbLine
 10
8.778976014711286
 20
8.320307836339107
 30
0.0
 11
8.778002417165616
 21
8.315677300100272
 31
0.0
  0
LINE
  5
4CA9
330
1F
100
AcDbEntity
  8
0
100
AcDbLine
 10
8.778002417165616
 20
8.315677300100272
 30
0.0
 11
8.775734392280899
 21
8.311430947908668
 31
0.0
  0
LINE
  5
4CAA
330
1F
100
AcDbEntity
  8
0
100
AcDbLine
 10
8.775734392280899
 20
8.311430947908668
 30
0.0
 11
8.772326502204936
 21
8.307858161648724
 31
0.0
  0
LINE
  5
4CAB
330
1F
100
AcDbEntity
  8
0
100
AcDbLine
 10
8.772326502204936
 20
8.307858161648724
 30
0.0
 11
8.768010989014598
 21
8.305202420799748
 31
0.0
  0
LINE
  5
4CAC
330
1F
100
AcDbEntity
  8
0
100
AcDbLine
 10
8.768010989014598
 20
8.305202420799748
 30
0.0
 11
8.763081947802081
 21
8.303644709711775
 31
0.0
  0
LINE
  5
4CAD
330
1F
100
AcDbEntity
  8
0
100
AcDbLine
 10
8.763081947802081
 20
8.303644709711775
 30
0.0
 11
8.757875284580389
 21
8.303291183821219
 31
0.0
  0
LINE
  5
4CAE
330
1F
100
AcDbEntity
  8
0
100
AcDbLine
 10
8.757875284580389
 20
8.303291183821219
 30
0.0
 11
8.752745824843675
 21
8.304165935333287
 31
0.0
  0
LINE
  5
4CAF
330
1F
100
AcDbEntity
  8
0
100
AcDbLine
 10
8.752745824843675
 20
8.304165935333287
 30
0.0
 11
8.748043132796155
 21
8.306209351378022
 31
0.0
  0
LINE
  5
4CB0
330
1F
100
AcDbEntity
  8
0
100
AcDbLine
 10
8.748043132796155
 20
8.306209351378022
 30
0.0
 11
8.744087689129301
 21
8.309282176528892
 31
0.0
  0
LINE
  5
4CB1
330
1F
100
AcDbEntity
  8
0
100
AcDbLine
 10
8.744087689129301
 20
8.309282176528892
 30
0.0
 11
8.741149050792333
 21
8.313175002829936
 31
0.0
  0
LINE
  5
4CB2
330
1F
100
AcDbEntity
  8
0
100
AcDbLine
 10
8.741149050792333
 20
8.313175002829936
 30
0.0
 11
8.739427481131581
 21
8.317622540601945
 31
0.0
  0
LINE
  5
4CB3
330
1F
100
AcDbEntity
  8
0
100
AcDbLine
 10
8.739427481131581
 20
8.317622540601945
 30
0.0
 11
8.739040302274403
 21
8.322321697495659
 31
0.0
  0
LINE
  5
4CB4
330
1F
100
AcDbEntity
  8
0
100
AcDbLine
 10
8.0700803922585
 20
7.157680527381753
 30
0.0
 11
8.074028412023249
 21
7.156119903875065
 31
0.0
  0
LINE
  5
4CB5
330
1F
100
AcDbEntity
  8
0
100
AcDbLine
 10
8.074028412023249
 20
7.156119903875065
 30
0.0
 11
8.078319115507774
 21
7.155730198013973
 31
0.0
  0
LINE
  5
4CB6
330
1F
100
AcDbEntity
  8
0
100
AcDbLine
 10
8.078319115507774
 20
7.155730198013973
 30
0.0
 11
8.082660098360321
 21
7.156537967608887
 31
0.0
  0
LINE
  5
4CB7
330
1F
100
AcDbEntity
  8
0
100
AcDbLine
 10
8.082660098360321
 20
7.156537967608887
 30
0.0
 11
8.086755529773316
 21
7.158488164496819
 31
0.0
  0
LINE
  5
4CB8
330
1F
100
AcDbEntity
  8
0
100
AcDbLine
 10
8.086755529773316
 20
7.158488164496819
 30
0.0
 11
8.090326312863968
 21
7.16144788598271
 31
0.0
  0
LINE
  5
4CB9
330
1F
100
AcDbEntity
  8
0
100
AcDbLine
 10
8.090326312863968
 20
7.16144788598271
 30
0.0
 11
8.09312910466566
 21
7.16521543193847
 31
0.0
  0
LINE
  5
4CBA
330
1F
100
AcDbEntity
  8
0
100
AcDbLine
 10
8.09312910466566
 20
7.16521543193847
 30
0.0
 11
8.094972899548931
 21
7.169534050333371
 31
0.0
  0
LINE
  5
4CBB
330
1F
100
AcDbEntity
  8
0
100
AcDbLine
 10
8.094972899548931
 20
7.169534050333371
 30
0.0
 11
8.095732045939509
 21
7.174109434460657
 31
0.0
  0
LINE
  5
4CBC
330
1F
100
AcDbEntity
  8
0
100
AcDbLine
 10
8.095732045939509
 20
7.174109434460657
 30
0.0
 11
8.095354809265412
 21
7.178629779453238
 31
0.0
  0
LINE
  5
4CBD
330
1F
100
AcDbEntity
  8
0
100
AcDbLine
 10
8.095354809265412
 20
7.178629779453238
 30
0.0
 11
8.093866897582582
 21
7.182787031270084
 31
0.0
  0
LINE
  5
4CBE
330
1F
100
AcDbEntity
  8
0
100
AcDbLine
 10
8.093866897582582
 20
7.182787031270084
 30
0.0
 11
8.091369709613303
 21
7.186297880070071
 31
0.0
  0
LINE
  5
4CBF
330
1F
100
AcDbEntity
  8
0
100
AcDbLine
 10
8.091369709613303
 20
7.186297880070071
 30
0.0
 11
8.088033424590882
 21
7.188923067309428
 31
0.0
  0
LINE
  5
4CC0
330
1F
100
AcDbEntity
  8
0
100
AcDbLine
 10
7.485609826722825
 20
8.249522808710196
 30
0.0
 11
7.489549609610513
 21
8.246951311171685
 31
0.0
  0
LINE
  5
4CC1
330
1F
100
AcDbEntity
  8
0
100
AcDbLine
 10
7.489549609610513
 20
8.246951311171685
 30
0.0
 11
7.492628852608056
 21
8.243328300948014
 31
0.0
  0
LINE
  5
4CC2
330
1F
100
AcDbEntity
  8
0
100
AcDbLine
 10
7.492628852608056
 20
8.243328300948014
 30
0.0
 11
7.494637710393867
 21
8.238900680198618
 31
0.0
  0
LINE
  5
4CC3
330
1F
100
AcDbEntity
  8
0
100
AcDbLine
 10
7.494637710393867
 20
8.238900680198618
 30
0.0
 11
7.495439282629629
 21
8.233970183960586
 31
0.0
  0
LINE
  5
4CC4
330
1F
100
AcDbEntity
  8
0
100
AcDbLine
 10
7.495439282629629
 20
8.233970183960586
 30
0.0
 11
7.494978943492142
 21
8.228872817404496
 31
0.0
  0
LINE
  5
4CC5
330
1F
100
AcDbEntity
  8
0
100
AcDbLine
 10
7.494978943492142
 20
8.228872817404496
 30
0.0
 11
7.493288064332876
 21
8.223955957637361
 31
0.0
  0
LINE
  5
4CC6
330
1F
100
AcDbEntity
  8
0
100
AcDbLine
 10
7.493288064332876
 20
8.223955957637361
 30
0.0
 11
7.490481875772228
 21
8.219554680526812
 31
0.0
  0
LINE
  5
4CC7
330
1F
100
AcDbEntity
  8
0
100
AcDbLine
 10
7.490481875772228
 20
8.219554680526812
 30
0.0
 11
7.486751614923164
 21
8.215968925834481
 31
0.0
  0
LINE
  5
4CC8
330
1F
100
AcDbEntity
  8
0
100
AcDbLine
 10
7.486751614923164
 20
8.215968925834481
 30
0.0
 11
7.482351492897997
 21
8.213443056816906
 31
0.0
  0
LINE
  5
4CC9
330
1F
100
AcDbEntity
  8
0
100
AcDbLine
 10
7.482351492897997
 20
8.213443056816906
 30
0.0
 11
7.477581370741194
 21
8.212149207273441
 31
0.0
  0
LINE
  5
4CCA
330
1F
100
AcDbEntity
  8
0
100
AcDbLine
 10
7.477581370741194
 20
8.212149207273441
 30
0.0
 11
7.47276632439474
 21
8.212175550912284
 31
0.0
  0
LINE
  5
4CCB
330
1F
100
AcDbEntity
  8
0
100
AcDbLine
 10
7.47276632439474
 20
8.212175550912284
 30
0.0
 11
7.46823449130991
 21
8.213520292457985
 31
0.0
  0
LINE
  5
4CCC
330
1F
100
AcDbEntity
  8
0
100
AcDbLine
 10
6.888243231983373
 20
7.205003641662983
 30
0.0
 11
6.891946776769067
 21
7.202089472625733
 31
0.0
  0
LINE
  5
4CCD
330
1F
100
AcDbEntity
  8
0
100
AcDbLine
 10
6.891946776769067
 20
7.202089472625733
 30
0.0
 11
6.894718856318739
 21
7.198192148002931
 31
0.0
  0
LINE
  5
4CCE
330
1F
100
AcDbEntity
  8
0
100
AcDbLine
 10
6.894718856318739
 20
7.198192148002931
 30
0.0
 11
6.896370557992156
 21
7.193577264026998
 31
0.0
  0
LINE
  5
4CCF
330
1F
100
AcDbEntity
  8
0
100
AcDbLine
 10
6.896370557992156
 20
7.193577264026998
 30
0.0
 11
6.896789321049844
 21
7.18855931741443
 31
0.0
  0
LINE
  5
4CD0
330
1F
100
AcDbEntity
  8
0
100
AcDbLine
 10
6.896789321049844
 20
7.18855931741443
 30
0.0
 11
6.895946607481459
 21
7.183480272934325
 31
0.0
  0
LINE
  5
4CD1
330
1F
100
AcDbEntity
  8
0
100
AcDbLine
 10
6.895946607481459
 20
7.183480272934325
 30
0.0
 11
6.893899846824041
 21
7.178686259074488
 31
0.0
  0
LINE
  5
4CD2
330
1F
100
AcDbEntity
  8
0
100
AcDbLine
 10
6.893899846824041
 20
7.178686259074488
 30
0.0
 11
6.89078852243395
 21
7.174503979956984
 31
0.0
  0
LINE
  5
4CD3
330
1F
100
AcDbEntity
  8
0
100
AcDbLine
 10
6.89078852243395
 20
7.174503979956984
 30
0.0
 11
6.886824665926674
 21
7.171218450992125
 31
0.0
  0
LINE
  5
4CD4
330
1F
100
AcDbEntity
  8
0
100
AcDbLine
 10
6.886824665926674
 20
7.171218450992125
 30
0.0
 11
6.882278407572599
 21
7.169053575549273
 31
0.0
  0
LINE
  5
4CD5
330
1F
100
AcDbEntity
  8
0
100
AcDbLine
 10
6.882278407572599
 20
7.169053575549273
 30
0.0
 11
6.877459567365502
 21
7.168156886312235
 31
0.0
  0
LINE
  5
4CD6
330
1F
100
AcDbEntity
  8
0
100
AcDbLine
 10
6.877459567365502
 20
7.168156886312235
 30
0.0
 11
6.872696541301994
 21
7.168589491170664
 31
0.0
  0
LINE
  5
4CD7
330
1F
100
AcDbEntity
  8
0
100
AcDbLine
 10
6.872696541301994
 20
7.168589491170664
 30
0.0
 11
6.86831392173703
 21
7.170321908818376
 31
0.0
  0
LINE
  5
4CD8
330
1F
100
AcDbEntity
  8
0
100
AcDbLine
 10
8.067489215286709
 20
7.056777926772877
 30
0.0
 11
8.071124606516026
 21
7.059778062558269
 31
0.0
  0
LINE
  5
4CD9
330
1F
100
AcDbEntity
  8
0
100
AcDbLine
 10
8.071124606516026
 20
7.059778062558269
 30
0.0
 11
8.073810282089766
 21
7.06374199142423
 31
0.0
  0
LINE
  5
4CDA
330
1F
100
AcDbEntity
  8
0
100
AcDbLine
 10
8.073810282089766
 20
7.06374199142423
 30
0.0
 11
8.075363217655862
 21
7.068399578169245
 31
0.0
  0
LINE
  5
4CDB
330
1F
100
AcDbEntity
  8
0
100
AcDbLine
 10
8.075363217655862
 20
7.068399578169245
 30
0.0
 11
8.075677583221846
 21
7.073433415953665
 31
0.0
  0
LINE
  5
4CDC
330
1F
100
AcDbEntity
  8
0
100
AcDbLine
 10
8.075677583221846
 20
7.073433415953665
 30
0.0
 11
8.074731955293898
 21
7.078500457051298
 31
0.0
  0
LINE
  5
4CDD
330
1F
100
AcDbEntity
  8
0
100
AcDbLine
 10
8.074731955293898
 20
7.078500457051298
 30
0.0
 11
8.072590776852589
 21
7.083255390985019
 31
0.0
  0
LINE
  5
4CDE
330
1F
100
AcDbEntity
  8
0
100
AcDbLine
 10
8.072590776852589
 20
7.083255390985019
 30
0.0
 11
8.069399965670225
 21
7.087374176865147
 31
0.0
  0
LINE
  5
4CDF
330
1F
100
AcDbEntity
  8
0
100
AcDbLine
 10
8.069399965670225
 20
7.087374176865147
 30
0.0
 11
8.065376970255822
 21
7.090576126240556
 31
0.0
  0
LINE
  5
4CE0
330
1F
100
AcDbEntity
  8
0
100
AcDbLine
 10
8.065376970255822
 20
7.090576126240556
 30
0.0
 11
8.060795951098558
 21
7.092643031552796
 31
0.0
  0
LINE
  5
4CE1
330
1F
100
AcDbEntity
  8
0
100
AcDbLine
 10
8.060795951098558
 20
7.092643031552796
 30
0.0
 11
8.055969097083508
 21
7.093434036620557
 31
0.0
  0
LINE
  5
4CE2
330
1F
100
AcDbEntity
  8
0
100
AcDbLine
 10
8.055969097083508
 20
7.093434036620557
 30
0.0
 11
8.051225350335045
 21
7.092895235755666
 31
0.0
  0
LINE
  5
4CE3
330
1F
100
AcDbEntity
  8
0
100
AcDbLine
 10
8.051225350335045
 20
7.092895235755666
 30
0.0
 11
8.046887989354658
 21
7.091063347346658
 31
0.0
  0
LINE
  5
4CE4
330
1F
100
AcDbEntity
  8
0
100
AcDbLine
 10
6.847117813589925
 20
7.068545795299179
 30
0.0
 11
6.851214099168007
 21
7.070853226625878
 31
0.0
  0
LINE
  5
4CE5
330
1F
100
AcDbEntity
  8
0
100
AcDbLine
 10
6.851214099168007
 20
7.070853226625878
 30
0.0
 11
6.855836620883724
 21
7.071906158726626
 31
0.0
  0
LINE
  5
4CE6
330
1F
100
AcDbEntity
  8
0
100
AcDbLine
 10
6.855836620883724
 20
7.071906158726626
 30
0.0
 11
6.860670361521233
 21
7.071632836018807
 31
0.0
  0
LINE
  5
4CE7
330
1F
100
AcDbEntity
  8
0
100
AcDbLine
 10
6.860670361521233
 20
7.071632836018807
 30
0.0
 11
6.865385909644231
 21
7.070051884993272
 31
0.0
  0
LINE
  5
4CE8
330
1F
100
AcDbEntity
  8
0
100
AcDbLine
 10
6.865385909644231
 20
7.070051884993272
 30
0.0
 11
6.869661908440932
 21
7.067271044849768
 31
0.0
  0
LINE
  5
4CE9
330
1F
100
AcDbEntity
  8
0
100
AcDbLine
 10
6.869661908440932
 20
7.067271044849768
 30
0.0
 11
6.873206955659771
 21
7.063479825248517
 31
0.0
  0
LINE
  5
4CEA
330
1F
100
AcDbEntity
  8
0
100
AcDbLine
 10
6.873206955659771
 20
7.063479825248517
 30
0.0
 11
6.875779462191253
 21
7.05893659154006
 31
0.0
  0
LINE
  5
4CEB
330
1F
100
AcDbEntity
  8
0
100
AcDbLine
 10
6.875779462191253
 20
7.05893659154006
 30
0.0
 11
6.877204115966517
 21
7.053950957593574
 31
0.0
  0
LINE
  5
4CEC
330
1F
100
AcDbEntity
  8
0
100
AcDbLine
 10
6.877204115966517
 20
7.053950957593574
 30
0.0
 11
6.877383829185138
 21
7.048862686123371
 31
0.0
  0
LINE
  5
4CED
330
1F
100
AcDbEntity
  8
0
100
AcDbLine
 10
6.877383829185138
 20
7.048862686123371
 30
0.0
 11
6.876306354688267
 21
7.044018534421372
 31
0.0
  0
LINE
  5
4CEE
330
1F
100
AcDbEntity
  8
0
100
AcDbLine
 10
6.876306354688267
 20
7.044018534421372
 30
0.0
 11
6.874045120582234
 21
7.039748623420734
 31
0.0
  0
LINE
  5
4CEF
330
1F
100
AcDbEntity
  8
0
100
AcDbLine
 10
6.874045120582234
 20
7.039748623420734
 30
0.0
 11
6.870754226234506
 21
7.036343940499786
 31
0.0
  0
LINE
  5
4CF0
330
1F
100
AcDbEntity
  8
0
100
AcDbLine
 10
7.447629735573336
 20
6.042277608781198
 30
0.0
 11
7.452005193639319
 21
6.044023011390592
 31
0.0
  0
LINE
  5
4CF1
330
1F
100
AcDbEntity
  8
0
100
AcDbLine
 10
7.452005193639319
 20
6.044023011390592
 30
0.0
 11
7.456765300936879
 21
6.044469881828497
 31
0.0
  0
LINE
  5
4CF2
330
1F
100
AcDbEntity
  8
0
100
AcDbLine
 10
7.456765300936879
 20
6.044469881828497
 30
0.0
 11
7.461585664020145
 21
6.04358776661305
 31
0.0
  0
LINE
  5
4CF3
330
1F
100
AcDbEntity
  8
0
100
AcDbLine
 10
7.461585664020145
 20
6.04358776661305
 30
0.0
 11
7.466137783111019
 21
6.041436780438417
 31
0.0
  0
LINE
  5
4CF4
330
1F
100
AcDbEntity
  8
0
100
AcDbLine
 10
7.466137783111019
 20
6.041436780438417
 30
0.0
 11
7.470111438816189
 21
6.038163509457735
 31
0.0
  0
LINE
  5
4CF5
330
1F
100
AcDbEntity
  8
0
100
AcDbLine
 10
7.470111438816189
 20
6.038163509457735
 30
0.0
 11
7.473235833066119
 21
6.033991021678996
 31
0.0
  0
LINE
  5
4CF6
330
1F
100
AcDbEntity
  8
0
100
AcDbLine
 10
7.473235833066119
 20
6.033991021678996
 30
0.0
 11
7.475298043555991
 21
6.02920366524896
 31
0.0
  0
LINE
  5
4CF7
330
1F
100
AcDbEntity
  8
0
100
AcDbLine
 10
7.475298043555991
 20
6.02920366524896
 30
0.0
 11
7.476157534048869
 21
6.024127690596852
 31
0.0
  0
LINE
  5
4CF8
330
1F
100
AcDbEntity
  8
0
100
AcDbLine
 10
7.476157534048869
 20
6.024127690596852
 30
0.0
 11
7.47575573168806
 21
6.019109017006769
 31
0.0
  0
LINE
  5
4CF9
330
1F
100
AcDbEntity
  8
0
100
AcDbLine
 10
7.47575573168806
 20
6.019109017006769
 30
0.0
 11
7.474120018640423
 21
6.014489658790132
 31
0.0
  0
LINE
  5
4CFA
330
1F
100
AcDbEntity
  8
0
100
AcDbLine
 10
7.474120018640423
 20
6.014489658790132
 30
0.0
 11
7.471361866047029
 21
6.010584417575543
 31
0.0
  0
LINE
  5
4CFB
330
1F
100
AcDbEntity
  8
0
100
AcDbLine
 10
7.471361866047029
 20
6.010584417575543
 30
0.0
 11
7.46766923744904
 21
6.007659429098065
 31
0.0
  0
LINE
  5
4CFC
330
1F
100
AcDbEntity
  8
0
100
AcDbLine
 10
8.192634307000236
 20
7.026492211134836
 30
0.0
 11
8.191941057965586
 21
7.031155703591121
 31
0.0
  0
LINE
  5
4CFD
330
1F
100
AcDbEntity
  8
0
100
AcDbLine
 10
8.191941057965586
 20
7.031155703591121
 30
0.0
 11
8.189932090094622
 21
7.035497948748236
 31
0.0
  0
LINE
  5
4CFE
330
1F
100
AcDbEntity
  8
0
100
AcDbLine
 10
8.189932090094622
 20
7.035497948748236
 30
0.0
 11
8.18674431122778
 21
7.039223029774625
 31
0.0
  0
LINE
  5
4CFF
330
1F
100
AcDbEntity
  8
0
100
AcDbLine
 10
8.18674431122778
 20
7.039223029774625
 30
0.0
 11
8.182594963226783
 21
7.042077088554318
 31
0.0
  0
LINE
  5
4D00
330
1F
100
AcDbEntity
  8
0
100
AcDbLine
 10
8.182594963226783
 20
7.042077088554318
 30
0.0
 11
8.177766817300774
 21
7.043865625698046
 31
0.0
  0
LINE
  5
4D01
330
1F
100
AcDbEntity
  8
0
100
AcDbLine
 10
8.177766817300774
 20
7.043865625698046
 30
0.0
 11
8.172588903615725
 21
7.044466755355152
 31
0.0
  0
LINE
  5
4D02
330
1F
100
AcDbEntity
  8
0
100
AcDbLine
 10
8.172588903615725
 20
7.044466755355152
 30
0.0
 11
8.167414088432362
 21
7.043839511532919
 31
0.0
  0
LINE
  5
4D03
330
1F
100
AcDbEntity
  8
0
100
AcDbLine
 10
8.167414088432362
 20
7.043839511532919
 30
0.0
 11
8.162595026853654
 21
7.042026639861269
 31
0.0
  0
LINE
  5
4D04
330
1F
100
AcDbEntity
  8
0
100
AcDbLine
 10
8.162595026853654
 20
7.042026639861269
 30
0.0
 11
8.158460129962296
 21
7.039151684548709
 31
0.0
  0
LINE
  5
4D05
330
1F
100
AcDbEntity
  8
0
100
AcDbLine
 10
8.158460129962296
 20
7.039151684548709
 30
0.0
 11
8.155291184148214
 21
7.0354105690487
 31
0.0
  0
LINE
  5
4D06
330
1F
100
AcDbEntity
  8
0
100
AcDbLine
 10
8.155291184148214
 20
7.0354105690487
 30
0.0
 11
8.153304147831693
 21
7.031058244200085
 31
0.0
  0
LINE
  5
4D07
330
1F
100
AcDbEntity
  8
0
100
AcDbLine
 10
8.153304147831693
 20
7.031058244200085
 30
0.0
 11
8.152634434253975
 21
7.026391313748735
 31
0.0
  0
LINE
  5
4D08
330
1F
100
AcDbEntity
  8
0
100
AcDbLine
 10
8.771956485556341
 20
5.993069329356135
 30
0.0
 11
8.768017718341798
 21
5.989978724664808
 31
0.0
  0
LINE
  5
4D09
330
1F
100
AcDbEntity
  8
0
100
AcDbLine
 10
8.768017718341798
 20
5.989978724664808
 30
0.0
 11
8.76510017540135
 21
5.986075086721982
 31
0.0
  0
LINE
  5
4D0A
330
1F
100
AcDbEntity
  8
0
100
AcDbLine
 10
8.76510017540135
 20
5.986075086721982
 30
0.0
 11
8.763402682464921
 21
5.981624442002392
 31
0.0
  0
LINE
  5
4D0B
330
1F
100
AcDbEntity
  8
0
100
AcDbLine
 10
8.763402682464921
 20
5.981624442002392
 30
0.0
 11
8.763040920870881
 21
5.976930094588638
 31
0.0
  0
LINE
  5
4D0C
330
1F
100
AcDbEntity
  8
0
100
AcDbLine
 10
8.80296514056674
 20
5.979166666044676
 30
0.0
 11
8.801966517363585
 21
5.983784804134117
 31
0.0
  0
LINE
  5
4D0D
330
1F
100
AcDbEntity
  8
0
100
AcDbLine
 10
8.801966517363585
 20
5.983784804134117
 30
0.0
 11
8.799675563884228
 21
5.988012014420288
 31
0.0
  0
LINE
  5
4D0E
330
1F
100
AcDbEntity
  8
0
100
AcDbLine
 10
8.799675563884228
 20
5.988012014420288
 30
0.0
 11
8.796248404822321
 21
5.991560219507981
 31
0.0
  0
LINE
  5
4D0F
330
1F
100
AcDbEntity
  8
0
100
AcDbLine
 10
8.796248404822321
 20
5.991560219507981
 30
0.0
 11
8.791918595404268
 21
5.99418761508415
 31
0.0
  0
LINE
  5
4D10
330
1F
100
AcDbEntity
  8
0
100
AcDbLine
 10
8.791918595404268
 20
5.99418761508415
 30
0.0
 11
8.78698120498657
 21
5.995715148482268
 31
0.0
  0
LINE
  5
4D11
330
1F
100
AcDbEntity
  8
0
100
AcDbLine
 10
8.78698120498657
 20
5.995715148482268
 30
0.0
 11
8.781772708566773
 21
5.996038720825612
 31
0.0
  0
LINE
  5
4D12
330
1F
100
AcDbEntity
  8
0
100
AcDbLine
 10
8.781772708566773
 20
5.996038720825612
 30
0.0
 11
8.776648056568429
 21
5.995136281193708
 31
0.0
  0
LINE
  5
4D13
330
1F
100
AcDbEntity
  8
0
100
AcDbLine
 10
8.776648056568429
 20
5.995136281193708
 30
0.0
 11
8.771956485556341
 21
5.993069329356135
 31
0.0
  0
LINE
  5
4D14
330
1F
100
AcDbEntity
  8
0
100
AcDbLine
 10
7.597924103563304
 20
5.981824302100918
 30
0.0
 11
7.601103188036123
 21
5.978093189056661
 31
0.0
  0
LINE
  5
4D15
330
1F
100
AcDbEntity
  8
0
100
AcDbLine
 10
7.601103188036123
 20
5.978093189056661
 30
0.0
 11
7.603102026694706
 21
5.973747144666123
 31
0.0
  0
LINE
  5
4D16
330
1F
100
AcDbEntity
  8
0
100
AcDbLine
 10
7.603102026694706
 20
5.973747144666123
 30
0.0
 11
7.603784401987709
 21
5.969082344672333
 31
0.0
  0
LINE
  5
4D17
330
1F
100
AcDbEntity
  8
0
100
AcDbLine
 10
7.563784426472995
 20
5.969057188005983
 30
0.0
 11
7.564465017294118
 21
5.973722845192391
 31
0.0
  0
LINE
  5
4D18
330
1F
100
AcDbEntity
  8
0
100
AcDbLine
 10
7.564465017294118
 20
5.973722845192391
 30
0.0
 11
7.56646219308963
 21
5.978071402744529
 31
0.0
  0
LINE
  5
4D19
330
1F
100
AcDbEntity
  8
0
100
AcDbLine
 10
7.56646219308963
 20
5.978071402744529
 30
0.0
 11
7.569639849629552
 21
5.981806513651548
 31
0.0
  0
LINE
  5
4D1A
330
1F
100
AcDbEntity
  8
0
100
AcDbLine
 10
7.569639849629552
 20
5.981806513651548
 30
0.0
 11
7.573781434872028
 21
5.984673636277694
 31
0.0
  0
LINE
  5
4D1B
330
1F
100
AcDbEntity
  8
0
100
AcDbLine
 10
7.573781434872028
 20
5.984673636277694
 30
0.0
 11
7.578604706627064
 21
5.986477380954148
 31
0.0
  0
LINE
  5
4D1C
330
1F
100
AcDbEntity
  8
0
100
AcDbLine
 10
7.578604706627064
 20
5.986477380954148
 30
0.0
 11
7.5837809668954
 21
5.987094825462033
 31
0.0
  0
LINE
  5
4D1D
330
1F
100
AcDbEntity
  8
0
100
AcDbLine
 10
7.5837809668954
 20
5.987094825462033
 30
0.0
 11
7.588957462093912
 21
5.986483891978512
 31
0.0
  0
LINE
  5
4D1E
330
1F
100
AcDbEntity
  8
0
100
AcDbLine
 10
7.588957462093912
 20
5.986483891978512
 30
0.0
 11
7.593781422629387
 21
5.984686214610874
 31
0.0
  0
LINE
  5
4D1F
330
1F
100
AcDbEntity
  8
0
100
AcDbLine
 10
7.593781422629387
 20
5.984686214610874
 30
0.0
 11
7.597924103563304
 21
5.981824302100918
 31
0.0
  0
LINE
  5
4D20
330
1F
100
AcDbEntity
  8
0
100
AcDbLine
 10
9.499057849505142
 20
7.076983498431353
 30
0.0
 11
9.50008662070746
 21
7.082042801205979
 31
0.0
  0
LINE
  5
4D21
330
1F
100
AcDbEntity
  8
0
100
AcDbLine
 10
9.499289038867143
 20
7.071931448780262
 30
0.0
 11
9.499057849505142
 21
7.076983498431353
 31
0.0
  0
LINE
  5
4D22
330
1F
100
AcDbEntity
  8
0
100
AcDbLine
 10
9.500764433620496
 20
7.067230941087522
 30
0.0
 11
9.499289038867143
 21
7.071931448780262
 31
0.0
  0
LINE
  5
4D23
330
1F
100
AcDbEntity
  8
0
100
AcDbLine
 10
9.503383488050967
 20
7.063202307184429
 30
0.0
 11
9.500764433620496
 21
7.067230941087522
 31
0.0
  0
LINE
  5
4D24
330
1F
100
AcDbEntity
  8
0
100
AcDbLine
 10
9.50696771792732
 20
7.06012009181385
 30
0.0
 11
9.503383488050967
 21
7.063202307184429
 31
0.0
  0
LINE
  5
4D25
330
1F
100
AcDbEntity
  8
0
100
AcDbLine
 10
9.511272863906683
 20
7.058194342859692
 30
0.0
 11
9.50696771792732
 21
7.06012009181385
 31
0.0
  0
LINE
  5
4D26
330
1F
100
AcDbEntity
  8
0
100
AcDbLine
 10
9.516005537405167
 20
7.057556296930727
 30
0.0
 11
9.511272863906683
 21
7.058194342859692
 31
0.0
  0
LINE
  5
4D27
330
1F
100
AcDbEntity
  8
0
100
AcDbLine
 10
9.520843214544964
 20
7.05824943580259
 30
0.0
 11
9.516005537405167
 21
7.057556296930727
 31
0.0
  0
LINE
  5
4D28
330
1F
100
AcDbEntity
  8
0
100
AcDbLine
 10
9.525456215623623
 20
7.060226523206637
 30
0.0
 11
9.520843214544964
 21
7.05824943580259
 31
0.0
  0
LINE
  5
4D29
330
1F
100
AcDbEntity
  8
0
100
AcDbLine
 10
9.529530172240992
 20
7.063352823903567
 30
0.0
 11
9.525456215623623
 21
7.060226523206637
 31
0.0
  0
LINE
  5
4D2A
330
1F
100
AcDbEntity
  8
0
100
AcDbLine
 10
9.53278745098612
 20
7.067415285667344
 30
0.0
 11
9.529530172240992
 21
7.063352823903567
 31
0.0
  0
LINE
  5
4D2B
330
1F
100
AcDbEntity
  8
0
100
AcDbLine
 10
9.535006073695441
 20
7.072137058442304
 30
0.0
 11
9.53278745098612
 21
7.067415285667344
 31
0.0
  0
LINE
  5
4D2C
330
1F
100
AcDbEntity
  8
0
100
AcDbLine
 10
9.536034844897756
 20
7.077196361216927
 30
0.0
 11
9.535006073695441
 21
7.072137058442304
 31
0.0
  0
LINE
  5
4D2D
330
1F
100
AcDbEntity
  8
0
100
AcDbLine
 10
9.535803655535751
 20
7.082248410868018
 30
0.0
 11
9.536034844897756
 21
7.077196361216927
 31
0.0
  0
LINE
  5
4D2E
330
1F
100
AcDbEntity
  8
0
100
AcDbLine
 10
9.534328260782402
 20
7.086948918560757
 30
0.0
 11
9.535803655535751
 21
7.082248410868018
 31
0.0
  0
LINE
  5
4D2F
330
1F
100
AcDbEntity
  8
0
100
AcDbLine
 10
9.531709206351926
 20
7.090977552463854
 30
0.0
 11
9.534328260782402
 21
7.086948918560757
 31
0.0
  0
LINE
  5
4D30
330
1F
100
AcDbEntity
  8
0
100
AcDbLine
 10
9.528124976475581
 20
7.094059767834426
 30
0.0
 11
9.531709206351926
 21
7.090977552463854
 31
0.0
  0
LINE
  5
4D31
330
1F
100
AcDbEntity
  8
0
100
AcDbLine
 10
9.523819830496211
 20
7.095985516788587
 30
0.0
 11
9.528124976475581
 21
7.094059767834426
 31
0.0
  0
LINE
  5
4D32
330
1F
100
AcDbEntity
  8
0
100
AcDbLine
 10
9.519087156997727
 20
7.096623562717553
 30
0.0
 11
9.523819830496211
 21
7.095985516788587
 31
0.0
  0
LINE
  5
4D33
330
1F
100
AcDbEntity
  8
0
100
AcDbLine
 10
9.514249479857941
 20
7.095930423845686
 30
0.0
 11
9.519087156997727
 21
7.096623562717553
 31
0.0
  0
LINE
  5
4D34
330
1F
100
AcDbEntity
  8
0
100
AcDbLine
 10
9.509636478779274
 20
7.093953336441643
 30
0.0
 11
9.514249479857941
 21
7.095930423845686
 31
0.0
  0
LINE
  5
4D35
330
1F
100
AcDbEntity
  8
0
100
AcDbLine
 10
9.505562522161906
 20
7.090827035744712
 30
0.0
 11
9.509636478779274
 21
7.093953336441643
 31
0.0
  0
LINE
  5
4D36
330
1F
100
AcDbEntity
  8
0
100
AcDbLine
 10
9.502305243416778
 20
7.086764573980932
 30
0.0
 11
9.505562522161906
 21
7.090827035744712
 31
0.0
  0
LINE
  5
4D37
330
1F
100
AcDbEntity
  8
0
100
AcDbLine
 10
9.50008662070746
 20
7.082042801205979
 30
0.0
 11
9.502305243416778
 21
7.086764573980932
 31
0.0
  0
LINE
  5
4D38
330
1F
100
AcDbEntity
  8
0
100
AcDbLine
 10
9.503232702595845
 20
7.06226635940807
 30
0.0
 11
9.50696771792732
 21
7.06012009181385
 31
0.0
  0
LINE
  5
4D39
330
1F
100
AcDbEntity
  8
0
100
AcDbLine
 10
9.524389961144109
 20
7.09620603542865
 30
0.0
 11
9.528124976475581
 21
7.094059767834426
 31
0.0
  0
LINE
  5
4D3A
330
1F
100
AcDbEntity
  8
0
100
AcDbLine
 10
9.497691177502098
 20
7.226683876642216
 30
0.0
 11
9.500051308371034
 21
7.222028781934003
 31
0.0
  0
LINE
  5
4D3B
330
1F
100
AcDbEntity
  8
0
100
AcDbLine
 10
9.494315414918432
 20
7.230641883898865
 30
0.0
 11
9.497691177502098
 21
7.226683876642216
 31
0.0
  0
LINE
  5
4D3C
330
1F
100
AcDbEntity
  8
0
100
AcDbLine
 10
9.49015407326139
 20
7.233633072050331
 30
0.0
 11
9.494315414918432
 21
7.230641883898865
 31
0.0
  0
LINE
  5
4D3D
330
1F
100
AcDbEntity
  8
0
100
AcDbLine
 10
9.485490741087975
 20
7.235453596567261
 30
0.0
 11
9.49015407326139
 21
7.233633072050331
 31
0.0
  0
LINE
  5
4D3E
330
1F
100
AcDbEntity
  8
0
100
AcDbLine
 10
9.480643216779267
 20
7.235979391712387
 30
0.0
 11
9.485490741087975
 21
7.235453596567261
 31
0.0
  0
LINE
  5
4D3F
330
1F
100
AcDbEntity
  8
0
100
AcDbLine
 10
9.475941851106
 20
7.235174625415485
 30
0.0
 11
9.480643216779267
 21
7.235979391712387
 31
0.0
  0
LINE
  5
4D40
330
1F
100
AcDbEntity
  8
0
100
AcDbLine
 10
9.471707034369437
 20
7.233094141169747
 30
0.0
 11
9.475941851106
 21
7.235174625415485
 31
0.0
  0
LINE
  5
4D41
330
1F
100
AcDbEntity
  8
0
100
AcDbLine
 10
9.468227362331802
 20
7.22987972053836
 30
0.0
 11
9.471707034369437
 21
7.233094141169747
 31
0.0
  0
LINE
  5
4D42
330
1F
100
AcDbEntity
  8
0
100
AcDbLine
 10
9.465739968892037
 20
7.225750420975273
 30
0.0
 11
9.468227362331802
 21
7.22987972053836
 31
0.0
  0
LINE
  5
4D43
330
1F
100
AcDbEntity
  8
0
100
AcDbLine
 10
9.46441436580244
 20
7.220987647421718
 30
0.0
 11
9.465739968892037
 21
7.225750420975273
 31
0.0
  0
LINE
  5
4D44
330
1F
100
AcDbEntity
  8
0
100
AcDbLine
 10
9.464340890722905
 20
7.215915975024522
 30
0.0
 11
9.46441436580244
 21
7.220987647421718
 31
0.0
  0
LINE
  5
4D45
330
1F
100
AcDbEntity
  8
0
100
AcDbLine
 10
9.465524550858695
 20
7.210881029876205
 30
0.0
 11
9.464340890722905
 21
7.215915975024522
 31
0.0
  0
LINE
  5
4D46
330
1F
100
AcDbEntity
  8
0
100
AcDbLine
 10
9.467884681727628
 20
7.206225935167992
 30
0.0
 11
9.465524550858695
 21
7.210881029876205
 31
0.0
  0
LINE
  5
4D47
330
1F
100
AcDbEntity
  8
0
100
AcDbLine
 10
9.471260444311297
 20
7.202267927911343
 30
0.0
 11
9.467884681727628
 21
7.206225935167992
 31
0.0
  0
LINE
  5
4D48
330
1F
100
AcDbEntity
  8
0
100
AcDbLine
 10
9.47542178596834
 20
7.199276739759874
 30
0.0
 11
9.471260444311297
 21
7.202267927911343
 31
0.0
  0
LINE
  5
4D49
330
1F
100
AcDbEntity
  8
0
100
AcDbLine
 10
9.480085118141758
 20
7.197456215242947
 30
0.0
 11
9.47542178596834
 21
7.199276739759874
 31
0.0
  0
LINE
  5
4D4A
330
1F
100
AcDbEntity
  8
0
100
AcDbLine
 10
9.484932642450466
 20
7.196930420097821
 30
0.0
 11
9.480085118141758
 21
7.197456215242947
 31
0.0
  0
LINE
  5
4D4B
330
1F
100
AcDbEntity
  8
0
100
AcDbLine
 10
9.489634008123729
 20
7.197735186394726
 30
0.0
 11
9.484932642450466
 21
7.196930420097821
 31
0.0
  0
LINE
  5
4D4C
330
1F
100
AcDbEntity
  8
0
100
AcDbLine
 10
9.493868824860296
 20
7.199815670640461
 30
0.0
 11
9.489634008123729
 21
7.197735186394726
 31
0.0
  0
LINE
  5
4D4D
330
1F
100
AcDbEntity
  8
0
100
AcDbLine
 10
9.497348496897931
 20
7.203030091271848
 30
0.0
 11
9.493868824860296
 21
7.199815670640461
 31
0.0
  0
LINE
  5
4D4E
330
1F
100
AcDbEntity
  8
0
100
AcDbLine
 10
9.499835890337699
 20
7.207159390834934
 30
0.0
 11
9.497348496897931
 21
7.203030091271848
 31
0.0
  0
LINE
  5
4D4F
330
1F
100
AcDbEntity
  8
0
100
AcDbLine
 10
9.501161493427293
 20
7.211922164388489
 30
0.0
 11
9.499835890337699
 21
7.207159390834934
 31
0.0
  0
LINE
  5
4D50
330
1F
100
AcDbEntity
  8
0
100
AcDbLine
 10
9.501234968506821
 20
7.21699383678569
 30
0.0
 11
9.501161493427293
 21
7.211922164388489
 31
0.0
  0
LINE
  5
4D51
330
1F
100
AcDbEntity
  8
0
100
AcDbLine
 10
9.500051308371034
 20
7.222028781934003
 30
0.0
 11
9.501234968506821
 21
7.21699383678569
 31
0.0
  0
LINE
  5
4D52
330
1F
100
AcDbEntity
  8
0
100
AcDbLine
 10
9.467995331156238
 20
7.230943326936298
 30
0.0
 11
9.471707034369437
 21
7.233094141169747
 31
0.0
  0
LINE
  5
4D53
330
1F
100
AcDbEntity
  8
0
100
AcDbLine
 10
9.490157121647097
 20
7.197664856407008
 30
0.0
 11
9.493868824860296
 21
7.199815670640461
 31
0.0
  0
LINE
  5
4D54
330
1F
100
AcDbEntity
  8
0
100
AcDbLine
 10
8.907905444731216
 20
8.270789144739204
 30
0.0
 11
8.90996811710826
 21
8.266001738795797
 31
0.0
  0
LINE
  5
4D55
330
1F
100
AcDbEntity
  8
0
100
AcDbLine
 10
8.904777513697279
 20
8.2749592670934
 30
0.0
 11
8.907905444731216
 21
8.270789144739204
 31
0.0
  0
LINE
  5
4D56
330
1F
100
AcDbEntity
  8
0
100
AcDbLine
 10
8.900797487337271
 20
8.278227918911397
 30
0.0
 11
8.904777513697279
 21
8.2749592670934
 31
0.0
  0
LINE
  5
4D57
330
1F
100
AcDbEntity
  8
0
100
AcDbLine
 10
8.896236597870316
 20
8.280372346973503
 30
0.0
 11
8.900797487337271
 21
8.278227918911397
 31
0.0
  0
LINE
  5
4D58
330
1F
100
AcDbEntity
  8
0
100
AcDbLine
 10
8.89140566237636
 20
8.281246412051121
 30
0.0
 11
8.896236597870316
 21
8.280372346973503
 31
0.0
  0
LINE
  5
4D59
330
1F
100
AcDbEntity
  8
0
100
AcDbLine
 10
8.886633901125826
 20
8.280790548053669
 30
0.0
 11
8.89140566237636
 21
8.281246412051121
 31
0.0
  0
LINE
  5
4D5A
330
1F
100
AcDbEntity
  8
0
100
AcDbLine
 10
8.882246501762217
 20
8.279035821359226
 30
0.0
 11
8.886633901125826
 21
8.280790548053669
 31
0.0
  0
LINE
  5
4D5B
330
1F
100
AcDbEntity
  8
0
100
AcDbLine
 10
8.878542458301655
 20
8.276101813692189
 30
0.0
 11
8.882246501762217
 21
8.279035821359226
 31
0.0
  0
LINE
  5
4D5C
330
1F
100
AcDbEntity
  8
0
100
AcDbLine
 10
8.875774195184746
 20
8.2721884728264
 30
0.0
 11
8.878542458301655
 21
8.276101813692189
 31
0.0
  0
LINE
  5
4D5D
330
1F
100
AcDbEntity
  8
0
100
AcDbLine
 10
8.874130364968142
 20
8.267562486474751
 30
0.0
 11
8.875774195184746
 21
8.2721884728264
 31
0.0
  0
LINE
  5
4D5E
330
1F
100
AcDbEntity
  8
0
100
AcDbLine
 10
8.873722991964545
 20
8.262539107962307
 30
0.0
 11
8.874130364968142
 21
8.267562486474751
 31
0.0
  0
LINE
  5
4D5F
330
1F
100
AcDbEntity
  8
0
100
AcDbLine
 10
8.874579837970937
 20
8.257460672233168
 30
0.0
 11
8.873722991964545
 21
8.262539107962307
 31
0.0
  0
LINE
  5
4D60
330
1F
100
AcDbEntity
  8
0
100
AcDbLine
 10
8.876642510347984
 20
8.252673266289761
 30
0.0
 11
8.874579837970937
 21
8.257460672233168
 31
0.0
  0
LINE
  5
4D61
330
1F
100
AcDbEntity
  8
0
100
AcDbLine
 10
8.879770441381918
 20
8.248503143935565
 30
0.0
 11
8.876642510347984
 21
8.252673266289761
 31
0.0
  0
LINE
  5
4D62
330
1F
100
AcDbEntity
  8
0
100
AcDbLine
 10
8.883750467741926
 20
8.245234492117567
 30
0.0
 11
8.879770441381918
 21
8.248503143935565
 31
0.0
  0
LINE
  5
4D63
330
1F
100
AcDbEntity
  8
0
100
AcDbLine
 10
8.88831135720888
 20
8.243090064055461
 30
0.0
 11
8.883750467741926
 21
8.245234492117567
 31
0.0
  0
LINE
  5
4D64
330
1F
100
AcDbEntity
  8
0
100
AcDbLine
 10
8.893142292702837
 20
8.242215998977844
 30
0.0
 11
8.88831135720888
 21
8.243090064055461
 31
0.0
  0
LINE
  5
4D65
330
1F
100
AcDbEntity
  8
0
100
AcDbLine
 10
8.897914053953371
 20
8.242671862975299
 30
0.0
 11
8.893142292702837
 21
8.242215998977844
 31
0.0
  0
LINE
  5
4D66
330
1F
100
AcDbEntity
  8
0
100
AcDbLine
 10
8.902301453316979
 20
8.244426589669743
 30
0.0
 11
8.897914053953371
 21
8.242671862975299
 31
0.0
  0
LINE
  5
4D67
330
1F
100
AcDbEntity
  8
0
100
AcDbLine
 10
8.906005496777545
 20
8.247360597336776
 30
0.0
 11
8.902301453316979
 21
8.244426589669743
 31
0.0
  0
LINE
  5
4D68
330
1F
100
AcDbEntity
  8
0
100
AcDbLine
 10
8.908773759894451
 20
8.251273938202565
 30
0.0
 11
8.906005496777545
 21
8.247360597336776
 31
0.0
  0
LINE
  5
4D69
330
1F
100
AcDbEntity
  8
0
100
AcDbLine
 10
8.910417590111055
 20
8.255899924554217
 30
0.0
 11
8.908773759894451
 21
8.251273938202565
 31
0.0
  0
LINE
  5
4D6A
330
1F
100
AcDbEntity
  8
0
100
AcDbLine
 10
8.910824963114649
 20
8.260923303066658
 30
0.0
 11
8.910417590111055
 21
8.255899924554217
 31
0.0
  0
LINE
  5
4D6B
330
1F
100
AcDbEntity
  8
0
100
AcDbLine
 10
8.90996811710826
 20
8.266001738795797
 30
0.0
 11
8.910824963114649
 21
8.260923303066658
 31
0.0
  0
LINE
  5
4D6C
330
1F
100
AcDbEntity
  8
0
100
AcDbLine
 10
8.878534798549019
 20
8.276885007125784
 30
0.0
 11
8.882246501762217
 21
8.279035821359226
 31
0.0
  0
LINE
  5
4D6D
330
1F
100
AcDbEntity
  8
0
100
AcDbLine
 10
8.898589750103781
 20
8.242275775436297
 30
0.0
 11
8.902301453316979
 21
8.244426589669743
 31
0.0
  0
LINE
  5
4D6E
330
1F
100
AcDbEntity
  8
0
100
AcDbLine
 10
8.778957885051941
 20
8.324612965349551
 30
0.0
 11
8.777984287506274
 21
8.319982429110716
 31
0.0
  0
LINE
  5
4D6F
330
1F
100
AcDbEntity
  8
0
100
AcDbLine
 10
8.778570706194759
 20
8.329312122243266
 30
0.0
 11
8.778957885051941
 21
8.324612965349551
 31
0.0
  0
LINE
  5
4D70
330
1F
100
AcDbEntity
  8
0
100
AcDbLine
 10
8.776849136534007
 20
8.333759660015275
 30
0.0
 11
8.778570706194759
 21
8.329312122243266
 31
0.0
  0
LINE
  5
4D71
330
1F
100
AcDbEntity
  8
0
100
AcDbLine
 10
8.773910498197036
 20
8.337652486316322
 30
0.0
 11
8.776849136534007
 21
8.333759660015275
 31
0.0
  0
LINE
  5
4D72
330
1F
100
AcDbEntity
  8
0
100
AcDbLine
 10
8.769955054530189
 20
8.340725311467188
 30
0.0
 11
8.773910498197036
 21
8.337652486316322
 31
0.0
  0
LINE
  5
4D73
330
1F
100
AcDbEntity
  8
0
100
AcDbLine
 10
8.765252362482666
 20
8.342768727511923
 30
0.0
 11
8.769955054530189
 21
8.340725311467188
 31
0.0
  0
LINE
  5
4D74
330
1F
100
AcDbEntity
  8
0
100
AcDbLine
 10
8.760122902745951
 20
8.343643479023988
 30
0.0
 11
8.765252362482666
 21
8.342768727511923
 31
0.0
  0
LINE
  5
4D75
330
1F
100
AcDbEntity
  8
0
100
AcDbLine
 10
8.754916239524263
 20
8.343289953133435
 30
0.0
 11
8.760122902745951
 21
8.343643479023988
 31
0.0
  0
LINE
  5
4D76
330
1F
100
AcDbEntity
  8
0
100
AcDbLine
 10
8.74998719831175
 20
8.341732242045463
 30
0.0
 11
8.754916239524263
 21
8.343289953133435
 31
0.0
  0
LINE
  5
4D77
330
1F
100
AcDbEntity
  8
0
100
AcDbLine
 10
8.745671685121404
 20
8.339076501196487
 30
0.0
 11
8.74998719831175
 21
8.341732242045463
 31
0.0
  0
LINE
  5
4D78
330
1F
100
AcDbEntity
  8
0
100
AcDbLine
 10
8.742263795045442
 20
8.335503714936542
 30
0.0
 11
8.745671685121404
 21
8.339076501196487
 31
0.0
  0
LINE
  5
4D79
330
1F
100
AcDbEntity
  8
0
100
AcDbLine
 10
8.739995770160721
 20
8.331257362744942
 30
0.0
 11
8.742263795045442
 21
8.335503714936542
 31
0.0
  0
LINE
  5
4D7A
330
1F
100
AcDbEntity
  8
0
100
AcDbLine
 10
8.739022172615054
 20
8.326626826506107
 30
0.0
 11
8.739995770160721
 21
8.331257362744942
 31
0.0
  0
LINE
  5
4D7B
330
1F
100
AcDbEntity
  8
0
100
AcDbLine
 10
8.739409351472239
 20
8.321927669612392
 30
0.0
 11
8.739022172615054
 21
8.326626826506107
 31
0.0
  0
LINE
  5
4D7C
330
1F
100
AcDbEntity
  8
0
100
AcDbLine
 10
8.741130921132988
 20
8.317480131840383
 30
0.0
 11
8.739409351472239
 21
8.321927669612392
 31
0.0
  0
LINE
  5
4D7D
330
1F
100
AcDbEntity
  8
0
100
AcDbLine
 10
8.744069559469956
 20
8.313587305539336
 30
0.0
 11
8.741130921132988
 21
8.317480131840383
 31
0.0
  0
LINE
  5
4D7E
330
1F
100
AcDbEntity
  8
0
100
AcDbLine
 10
8.74802500313681
 20
8.310514480388469
 30
0.0
 11
8.744069559469956
 21
8.313587305539336
 31
0.0
  0
LINE
  5
4D7F
330
1F
100
AcDbEntity
  8
0
100
AcDbLine
 10
8.752727695184329
 20
8.308471064343734
 30
0.0
 11
8.74802500313681
 21
8.310514480388469
 31
0.0
  0
LINE
  5
4D80
330
1F
100
AcDbEntity
  8
0
100
AcDbLine
 10
8.757857154921044
 20
8.307596312831666
 30
0.0
 11
8.752727695184329
 21
8.308471064343734
 31
0.0
  0
LINE
  5
4D81
330
1F
100
AcDbEntity
  8
0
100
AcDbLine
 10
8.763063818142732
 20
8.307949838722223
 30
0.0
 11
8.757857154921044
 21
8.307596312831666
 31
0.0
  0
LINE
  5
4D82
330
1F
100
AcDbEntity
  8
0
100
AcDbLine
 10
8.767992859355249
 20
8.309507549810192
 30
0.0
 11
8.763063818142732
 21
8.307949838722223
 31
0.0
  0
LINE
  5
4D83
330
1F
100
AcDbEntity
  8
0
100
AcDbLine
 10
8.772308372545595
 20
8.312163290659167
 30
0.0
 11
8.767992859355249
 21
8.309507549810192
 31
0.0
  0
LINE
  5
4D84
330
1F
100
AcDbEntity
  8
0
100
AcDbLine
 10
8.775716262621557
 20
8.315736076919115
 30
0.0
 11
8.772308372545595
 21
8.312163290659167
 31
0.0
  0
LINE
  5
4D85
330
1F
100
AcDbEntity
  8
0
100
AcDbLine
 10
8.777984287506274
 20
8.319982429110716
 30
0.0
 11
8.775716262621557
 21
8.315736076919115
 31
0.0
  0
LINE
  5
4D86
330
1F
100
AcDbEntity
  8
0
100
AcDbLine
 10
8.778976014711286
 20
8.320307836339107
 30
0.0
 11
8.778957885051941
 21
8.324612965349551
 31
0.0
  0
LINE
  5
4D87
330
1F
100
AcDbEntity
  8
0
100
AcDbLine
 10
8.739040302274403
 20
8.322321697495659
 30
0.0
 11
8.739022172615054
 21
8.326626826506107
 31
0.0
  0
LINE
  5
4D88
330
1F
100
AcDbEntity
  8
0
100
AcDbLine
 10
7.580205433647154
 20
8.326839153997564
 30
0.0
 11
7.583916359132224
 21
8.32402972808147
 31
0.0
  0
LINE
  5
4D89
330
1F
100
AcDbEntity
  8
0
100
AcDbLine
 10
7.575814513251689
 20
8.328685325910008
 30
0.0
 11
7.580205433647154
 21
8.326839153997564
 31
0.0
  0
LINE
  5
4D8A
330
1F
100
AcDbEntity
  8
0
100
AcDbLine
 10
7.571042831914443
 20
8.32944243025393
 30
0.0
 11
7.575814513251689
 21
8.328685325910008
 31
0.0
  0
LINE
  5
4D8B
330
1F
100
AcDbEntity
  8
0
100
AcDbLine
 10
7.566215571832977
 20
8.329058871619452
 30
0.0
 11
7.571042831914443
 21
8.32944243025393
 31
0.0
  0
LINE
  5
4D8C
330
1F
100
AcDbEntity
  8
0
100
AcDbLine
 10
7.561661702804418
 20
8.327560788893659
 30
0.0
 11
7.566215571832977
 21
8.329058871619452
 31
0.0
  0
LINE
  5
4D8D
330
1F
100
AcDbEntity
  8
0
100
AcDbLine
 10
7.557691563477426
 20
8.325050273938618
 30
0.0
 11
7.561661702804418
 21
8.327560788893659
 31
0.0
  0
LINE
  5
4D8E
330
1F
100
AcDbEntity
  8
0
100
AcDbLine
 10
7.55457571228619
 20
8.321698414199683
 30
0.0
 11
7.557691563477426
 21
8.325050273938618
 31
0.0
  0
LINE
  5
4D8F
330
1F
100
AcDbEntity
  8
0
100
AcDbLine
 10
7.552526489340184
 20
8.317733633378868
 30
0.0
 11
7.55457571228619
 21
8.321698414199683
 31
0.0
  0
LINE
  5
4D90
330
1F
100
AcDbEntity
  8
0
100
AcDbLine
 10
7.551683545796691
 20
8.313426124736988
 30
0.0
 11
7.552526489340184
 21
8.317733633378868
 31
0.0
  0
LINE
  5
4D91
330
1F
100
AcDbEntity
  8
0
100
AcDbLine
 10
7.552104326865169
 20
8.309069437869492
 30
0.0
 11
7.551683545796691
 21
8.313426124736988
 31
0.0
  0
LINE
  5
4D92
330
1F
100
AcDbEntity
  8
0
100
AcDbLine
 10
7.553760157011172
 20
8.304960473786646
 30
0.0
 11
7.552104326865169
 21
8.309069437869492
 31
0.0
  0
LINE
  5
4D93
330
1F
100
AcDbEntity
  8
0
100
AcDbLine
 10
7.556538194146639
 20
8.301379251600302
 30
0.0
 11
7.553760157011172
 21
8.304960473786646
 31
0.0
  0
LINE
  5
4D94
330
1F
100
AcDbEntity
  8
0
100
AcDbLine
 10
7.560249119631709
 20
8.298569825684214
 30
0.0
 11
7.556538194146639
 21
8.301379251600302
 31
0.0
  0
LINE
  5
4D95
330
1F
100
AcDbEntity
  8
0
100
AcDbLine
 10
7.564640040027175
 20
8.296723653771763
 30
0.0
 11
7.560249119631709
 21
8.298569825684214
 31
0.0
  0
LINE
  5
4D96
330
1F
100
AcDbEntity
  8
0
100
AcDbLine
 10
7.569411721364421
 20
8.295966549427845
 30
0.0
 11
7.564640040027175
 21
8.296723653771763
 31
0.0
  0
LINE
  5
4D97
330
1F
100
AcDbEntity
  8
0
100
AcDbLine
 10
7.574238981445887
 20
8.296350108062323
 30
0.0
 11
7.569411721364421
 21
8.295966549427845
 31
0.0
  0
LINE
  5
4D98
330
1F
100
AcDbEntity
  8
0
100
AcDbLine
 10
7.578792850474453
 20
8.297848190788116
 30
0.0
 11
7.574238981445887
 21
8.296350108062323
 31
0.0
  0
LINE
  5
4D99
330
1F
100
AcDbEntity
  8
0
100
AcDbLine
 10
7.582762989801437
 20
8.300358705743157
 30
0.0
 11
7.578792850474453
 21
8.297848190788116
 31
0.0
  0
LINE
  5
4D9A
330
1F
100
AcDbEntity
  8
0
100
AcDbLine
 10
7.58587884099268
 20
8.303710565482091
 30
0.0
 11
7.582762989801437
 21
8.300358705743157
 31
0.0
  0
LINE
  5
4D9B
330
1F
100
AcDbEntity
  8
0
100
AcDbLine
 10
7.587928063938679
 20
8.307675346302907
 30
0.0
 11
7.58587884099268
 21
8.303710565482091
 31
0.0
  0
LINE
  5
4D9C
330
1F
100
AcDbEntity
  8
0
100
AcDbLine
 10
7.588771007482169
 20
8.31198285494479
 30
0.0
 11
7.587928063938679
 21
8.307675346302907
 31
0.0
  0
LINE
  5
4D9D
330
1F
100
AcDbEntity
  8
0
100
AcDbLine
 10
7.588350226413695
 20
8.316339541812283
 30
0.0
 11
7.588771007482169
 21
8.31198285494479
 31
0.0
  0
LINE
  5
4D9E
330
1F
100
AcDbEntity
  8
0
100
AcDbLine
 10
7.586694396267692
 20
8.320448505895129
 30
0.0
 11
7.588350226413695
 21
8.316339541812283
 31
0.0
  0
LINE
  5
4D9F
330
1F
100
AcDbEntity
  8
0
100
AcDbLine
 10
7.583916359132224
 20
8.32402972808147
 30
0.0
 11
7.586694396267692
 21
8.320448505895129
 31
0.0
  0
LINE
  5
4DA0
330
1F
100
AcDbEntity
  8
0
100
AcDbLine
 10
7.55170167545604
 20
8.309120995726541
 30
0.0
 11
7.551683545796691
 21
8.313426124736988
 31
0.0
  0
LINE
  5
4DA1
330
1F
100
AcDbEntity
  8
0
100
AcDbLine
 10
7.588789137141517
 20
8.307677725934347
 30
0.0
 11
7.588771007482169
 21
8.31198285494479
 31
0.0
  0
LINE
  5
4DA2
330
1F
100
AcDbEntity
  8
0
100
AcDbLine
 10
7.459598083982086
 20
8.245651549696802
 30
0.0
 11
7.463328344831154
 21
8.249237304389133
 31
0.0
  0
LINE
  5
4DA3
330
1F
100
AcDbEntity
  8
0
100
AcDbLine
 10
7.456791895421446
 20
8.241250272586249
 30
0.0
 11
7.459598083982086
 21
8.245651549696802
 31
0.0
  0
LINE
  5
4DA4
330
1F
100
AcDbEntity
  8
0
100
AcDbLine
 10
7.455101016262176
 20
8.236333412819114
 30
0.0
 11
7.456791895421446
 21
8.241250272586249
 31
0.0
  0
LINE
  5
4DA5
330
1F
100
AcDbEntity
  8
0
100
AcDbLine
 10
7.454640677124697
 20
8.231236046263028
 30
0.0
 11
7.455101016262176
 21
8.236333412819114
 31
0.0
  0
LINE
  5
4DA6
330
1F
100
AcDbEntity
  8
0
100
AcDbLine
 10
7.455442249360455
 20
8.226305550024996
 30
0.0
 11
7.454640677124697
 21
8.231236046263028
 31
0.0
  0
LINE
  5
4DA7
330
1F
100
AcDbEntity
  8
0
100
AcDbLine
 10
7.457451107146262
 20
8.221877929275599
 30
0.0
 11
7.455442249360455
 21
8.226305550024996
 31
0.0
  0
LINE
  5
4DA8
330
1F
100
AcDbEntity
  8
0
100
AcDbLine
 10
7.460530350143805
 20
8.218254919051929
 30
0.0
 11
7.457451107146262
 21
8.221877929275599
 31
0.0
  0
LINE
  5
4DA9
330
1F
100
AcDbEntity
  8
0
100
AcDbLine
 10
7.464470133031493
 20
8.215683421513418
 30
0.0
 11
7.460530350143805
 21
8.218254919051929
 31
0.0
  0
LINE
  5
4DAA
330
1F
100
AcDbEntity
  8
0
100
AcDbLine
 10
7.469001966116319
 20
8.21433867996772
 30
0.0
 11
7.464470133031493
 21
8.215683421513418
 31
0.0
  0
LINE
  5
4DAB
330
1F
100
AcDbEntity
  8
0
100
AcDbLine
 10
7.473817012462774
 20
8.214312336328873
 30
0.0
 11
7.469001966116319
 21
8.21433867996772
 31
0.0
  0
LINE
  5
4DAC
330
1F
100
AcDbEntity
  8
0
100
AcDbLine
 10
7.47858713461958
 20
8.215606185872339
 30
0.0
 11
7.473817012462774
 21
8.214312336328873
 31
0.0
  0
LINE
  5
4DAD
330
1F
100
AcDbEntity
  8
0
100
AcDbLine
 10
7.482987256644747
 20
8.218132054889917
 30
0.0
 11
7.47858713461958
 21
8.215606185872339
 31
0.0
  0
LINE
  5
4DAE
330
1F
100
AcDbEntity
  8
0
100
AcDbLine
 10
7.486717517493811
 20
8.221717809582251
 30
0.0
 11
7.482987256644747
 21
8.218132054889917
 31
0.0
  0
LINE
  5
4DAF
330
1F
100
AcDbEntity
  8
0
100
AcDbLine
 10
7.489523706054455
 20
8.226119086692797
 30
0.0
 11
7.486717517493811
 21
8.221717809582251
 31
0.0
  0
LINE
  5
4DB0
330
1F
100
AcDbEntity
  8
0
100
AcDbLine
 10
7.491214585213725
 20
8.231035946459932
 30
0.0
 11
7.489523706054455
 21
8.226119086692797
 31
0.0
  0
LINE
  5
4DB1
330
1F
100
AcDbEntity
  8
0
100
AcDbLine
 10
7.491674924351212
 20
8.236133313016019
 30
0.0
 11
7.491214585213725
 21
8.231035946459932
 31
0.0
  0
LINE
  5
4DB2
330
1F
100
AcDbEntity
  8
0
100
AcDbLine
 10
7.490873352115446
 20
8.241063809254054
 30
0.0
 11
7.491674924351212
 21
8.236133313016019
 31
0.0
  0
LINE
  5
4DB3
330
1F
100
AcDbEntity
  8
0
100
AcDbLine
 10
7.488864494329639
 20
8.245491430003447
 30
0.0
 11
7.490873352115446
 21
8.241063809254054
 31
0.0
  0
LINE
  5
4DB4
330
1F
100
AcDbEntity
  8
0
100
AcDbLine
 10
7.485785251332092
 20
8.249114440227117
 30
0.0
 11
7.488864494329639
 21
8.245491430003447
 31
0.0
  0
LINE
  5
4DB5
330
1F
100
AcDbEntity
  8
0
100
AcDbLine
 10
7.481845468444408
 20
8.251685937765628
 30
0.0
 11
7.485785251332092
 21
8.249114440227117
 31
0.0
  0
LINE
  5
4DB6
330
1F
100
AcDbEntity
  8
0
100
AcDbLine
 10
7.477313635359582
 20
8.253030679311329
 30
0.0
 11
7.481845468444408
 21
8.251685937765628
 31
0.0
  0
LINE
  5
4DB7
330
1F
100
AcDbEntity
  8
0
100
AcDbLine
 10
7.472498589013131
 20
8.253057022950173
 30
0.0
 11
7.477313635359582
 21
8.253030679311329
 31
0.0
  0
LINE
  5
4DB8
330
1F
100
AcDbEntity
  8
0
100
AcDbLine
 10
7.467728466856325
 20
8.251763173406708
 30
0.0
 11
7.472498589013131
 21
8.253057022950173
 31
0.0
  0
LINE
  5
4DB9
330
1F
100
AcDbEntity
  8
0
100
AcDbLine
 10
7.463328344831154
 20
8.249237304389133
 30
0.0
 11
7.467728466856325
 21
8.251763173406708
 31
0.0
  0
LINE
  5
4DBA
330
1F
100
AcDbEntity
  8
0
100
AcDbLine
 10
7.46823449130991
 20
8.213520292457985
 30
0.0
 11
7.464470133031493
 21
8.215683421513418
 31
0.0
  0
LINE
  5
4DBB
330
1F
100
AcDbEntity
  8
0
100
AcDbLine
 10
7.485609826722825
 20
8.249522808710196
 30
0.0
 11
7.481845468444408
 21
8.251685937765628
 31
0.0
  0
LINE
  5
4DBC
330
1F
100
AcDbEntity
  8
0
100
AcDbLine
 10
6.858892948617953
 20
7.198802420462307
 30
0.0
 11
6.862004273008036
 21
7.202984699579811
 31
0.0
  0
LINE
  5
4DBD
330
1F
100
AcDbEntity
  8
0
100
AcDbLine
 10
6.856846187960528
 20
7.19400840660247
 30
0.0
 11
6.858892948617953
 21
7.198802420462307
 31
0.0
  0
LINE
  5
4DBE
330
1F
100
AcDbEntity
  8
0
100
AcDbLine
 10
6.856003474392142
 20
7.188929362122365
 30
0.0
 11
6.856846187960528
 21
7.19400840660247
 31
0.0
  0
LINE
  5
4DBF
330
1F
100
AcDbEntity
  8
0
100
AcDbLine
 10
6.856422237449834
 20
7.1839114155098
 30
0.0
 11
6.856003474392142
 21
7.188929362122365
 31
0.0
  0
LINE
  5
4DC0
330
1F
100
AcDbEntity
  8
0
100
AcDbLine
 10
6.858073939123254
 20
7.179296531533861
 30
0.0
 11
6.856422237449834
 21
7.1839114155098
 31
0.0
  0
LINE
  5
4DC1
330
1F
100
AcDbEntity
  8
0
100
AcDbLine
 10
6.860846018672919
 20
7.175399206911059
 30
0.0
 11
6.858073939123254
 21
7.179296531533861
 31
0.0
  0
LINE
  5
4DC2
330
1F
100
AcDbEntity
  8
0
100
AcDbLine
 10
6.864549563458613
 20
7.172485037873808
 30
0.0
 11
6.860846018672919
 21
7.175399206911059
 31
0.0
  0
LINE
  5
4DC3
330
1F
100
AcDbEntity
  8
0
100
AcDbLine
 10
6.868932183023574
 20
7.1707526202261
 30
0.0
 11
6.864549563458613
 21
7.172485037873808
 31
0.0
  0
LINE
  5
4DC4
330
1F
100
AcDbEntity
  8
0
100
AcDbLine
 10
6.873695209087085
 20
7.170320015367671
 30
0.0
 11
6.868932183023574
 21
7.1707526202261
 31
0.0
  0
LINE
  5
4DC5
330
1F
100
AcDbEntity
  8
0
100
AcDbLine
 10
6.878514049294178
 20
7.171216704604709
 30
0.0
 11
6.873695209087085
 21
7.170320015367671
 31
0.0
  0
LINE
  5
4DC6
330
1F
100
AcDbEntity
  8
0
100
AcDbLine
 10
6.883060307648257
 20
7.173381580047561
 30
0.0
 11
6.878514049294178
 21
7.171216704604709
 31
0.0
  0
LINE
  5
4DC7
330
1F
100
AcDbEntity
  8
0
100
AcDbLine
 10
6.887024164155533
 20
7.17666710901242
 30
0.0
 11
6.883060307648257
 21
7.173381580047561
 31
0.0
  0
LINE
  5
4DC8
330
1F
100
AcDbEntity
  8
0
100
AcDbLine
 10
6.890135488545624
 20
7.180849388129921
 30
0.0
 11
6.887024164155533
 21
7.17666710901242
 31
0.0
  0
LINE
  5
4DC9
330
1F
100
AcDbEntity
  8
0
100
AcDbLine
 10
6.892182249203042
 20
7.185643401989761
 30
0.0
 11
6.890135488545624
 21
7.180849388129921
 31
0.0
  0
LINE
  5
4DCA
330
1F
100
AcDbEntity
  8
0
100
AcDbLine
 10
6.893024962771427
 20
7.190722446469866
 30
0.0
 11
6.892182249203042
 21
7.185643401989761
 31
0.0
  0
LINE
  5
4DCB
330
1F
100
AcDbEntity
  8
0
100
AcDbLine
 10
6.892606199713736
 20
7.195740393082431
 30
0.0
 11
6.893024962771427
 21
7.190722446469866
 31
0.0
  0
LINE
  5
4DCC
330
1F
100
AcDbEntity
  8
0
100
AcDbLine
 10
6.890954498040322
 20
7.200355277058367
 30
0.0
 11
6.892606199713736
 21
7.195740393082431
 31
0.0
  0
LINE
  5
4DCD
330
1F
100
AcDbEntity
  8
0
100
AcDbLine
 10
6.888182418490647
 20
7.204252601681169
 30
0.0
 11
6.890954498040322
 21
7.200355277058367
 31
0.0
  0
LINE
  5
4DCE
330
1F
100
AcDbEntity
  8
0
100
AcDbLine
 10
6.884478873704956
 20
7.207166770718416
 30
0.0
 11
6.888182418490647
 21
7.204252601681169
 31
0.0
  0
LINE
  5
4DCF
330
1F
100
AcDbEntity
  8
0
100
AcDbLine
 10
6.880096254139992
 20
7.208899188366132
 30
0.0
 11
6.884478873704956
 21
7.207166770718416
 31
0.0
  0
LINE
  5
4DD0
330
1F
100
AcDbEntity
  8
0
100
AcDbLine
 10
6.875333228076485
 20
7.20933179322456
 30
0.0
 11
6.880096254139992
 21
7.208899188366132
 31
0.0
  0
LINE
  5
4DD1
330
1F
100
AcDbEntity
  8
0
100
AcDbLine
 10
6.870514387869391
 20
7.208435103987522
 30
0.0
 11
6.875333228076485
 21
7.20933179322456
 31
0.0
  0
LINE
  5
4DD2
330
1F
100
AcDbEntity
  8
0
100
AcDbLine
 10
6.865968129515312
 20
7.206270228544671
 30
0.0
 11
6.870514387869391
 21
7.208435103987522
 31
0.0
  0
LINE
  5
4DD3
330
1F
100
AcDbEntity
  8
0
100
AcDbLine
 10
6.862004273008036
 20
7.202984699579811
 30
0.0
 11
6.865968129515312
 21
7.206270228544671
 31
0.0
  0
LINE
  5
4DD4
330
1F
100
AcDbEntity
  8
0
100
AcDbLine
 10
6.86831392173703
 20
7.170321908818376
 30
0.0
 11
6.864549563458613
 21
7.172485037873808
 31
0.0
  0
LINE
  5
4DD5
330
1F
100
AcDbEntity
  8
0
100
AcDbLine
 10
6.888243231983373
 20
7.205003641662983
 30
0.0
 11
6.884478873704956
 21
7.207166770718416
 31
0.0
  0
LINE
  5
4DD6
330
1F
100
AcDbEntity
  8
0
100
AcDbLine
 10
6.83672422365031
 20
7.053848182241885
 30
0.0
 11
6.837801698147188
 21
7.058692333943881
 31
0.0
  0
LINE
  5
4DD7
330
1F
100
AcDbEntity
  8
0
100
AcDbLine
 10
6.836903936868928
 20
7.048759910771682
 30
0.0
 11
6.83672422365031
 21
7.053848182241885
 31
0.0
  0
LINE
  5
4DD8
330
1F
100
AcDbEntity
  8
0
100
AcDbLine
 10
6.838328590644202
 20
7.043774276825196
 30
0.0
 11
6.836903936868928
 21
7.048759910771682
 31
0.0
  0
LINE
  5
4DD9
330
1F
100
AcDbEntity
  8
0
100
AcDbLine
 10
6.840901097175681
 20
7.039231043116735
 30
0.0
 11
6.838328590644202
 21
7.043774276825196
 31
0.0
  0
LINE
  5
4DDA
330
1F
100
AcDbEntity
  8
0
100
AcDbLine
 10
6.84444614439452
 20
7.035439823515488
 30
0.0
 11
6.840901097175681
 21
7.039231043116735
 31
0.0
  0
LINE
  5
4DDB
330
1F
100
AcDbEntity
  8
0
100
AcDbLine
 10
6.848722143191221
 20
7.032658983371984
 30
0.0
 11
6.84444614439452
 21
7.035439823515488
 31
0.0
  0
LINE
  5
4DDC
330
1F
100
AcDbEntity
  8
0
100
AcDbLine
 10
6.853437691314216
 20
7.031078032346449
 30
0.0
 11
6.848722143191221
 21
7.032658983371984
 31
0.0
  0
LINE
  5
4DDD
330
1F
100
AcDbEntity
  8
0
100
AcDbLine
 10
6.858271431951727
 20
7.03080470963863
 30
0.0
 11
6.853437691314216
 21
7.031078032346449
 31
0.0
  0
LINE
  5
4DDE
330
1F
100
AcDbEntity
  8
0
100
AcDbLine
 10
6.862893953667445
 20
7.031857641739378
 30
0.0
 11
6.858271431951727
 21
7.03080470963863
 31
0.0
  0
LINE
  5
4DDF
330
1F
100
AcDbEntity
  8
0
100
AcDbLine
 10
6.866990239245524
 20
7.034165073066073
 30
0.0
 11
6.862893953667445
 21
7.031857641739378
 31
0.0
  0
LINE
  5
4DE0
330
1F
100
AcDbEntity
  8
0
100
AcDbLine
 10
6.870281133593248
 20
7.037569755987021
 30
0.0
 11
6.866990239245524
 21
7.034165073066073
 31
0.0
  0
LINE
  5
4DE1
330
1F
100
AcDbEntity
  8
0
100
AcDbLine
 10
6.872542367699278
 20
7.041839666987662
 30
0.0
 11
6.870281133593248
 21
7.037569755987021
 31
0.0
  0
LINE
  5
4DE2
330
1F
100
AcDbEntity
  8
0
100
AcDbLine
 10
6.873619842196159
 20
7.046683818689658
 30
0.0
 11
6.872542367699278
 21
7.041839666987662
 31
0.0
  0
LINE
  5
4DE3
330
1F
100
AcDbEntity
  8
0
100
AcDbLine
 10
6.873440128977534
 20
7.051772090159865
 30
0.0
 11
6.873619842196159
 21
7.046683818689658
 31
0.0
  0
LINE
  5
4DE4
330
1F
100
AcDbEntity
  8
0
100
AcDbLine
 10
6.872015475202267
 20
7.056757724106347
 30
0.0
 11
6.873440128977534
 21
7.051772090159865
 31
0.0
  0
LINE
  5
4DE5
330
1F
100
AcDbEntity
  8
0
100
AcDbLine
 10
6.869442968670785
 20
7.061300957814808
 30
0.0
 11
6.872015475202267
 21
7.056757724106347
 31
0.0
  0
LINE
  5
4DE6
330
1F
100
AcDbEntity
  8
0
100
AcDbLine
 10
6.865897921451942
 20
7.065092177416058
 30
0.0
 11
6.869442968670785
 21
7.061300957814808
 31
0.0
  0
LINE
  5
4DE7
330
1F
100
AcDbEntity
  8
0
100
AcDbLine
 10
6.861621922655238
 20
7.067873017559563
 30
0.0
 11
6.865897921451942
 21
7.065092177416058
 31
0.0
  0
LINE
  5
4DE8
330
1F
100
AcDbEntity
  8
0
100
AcDbLine
 10
6.85690637453225
 20
7.069453968585094
 30
0.0
 11
6.861621922655238
 21
7.067873017559563
 31
0.0
  0
LINE
  5
4DE9
330
1F
100
AcDbEntity
  8
0
100
AcDbLine
 10
6.852072633894739
 20
7.069727291292913
 30
0.0
 11
6.85690637453225
 21
7.069453968585094
 31
0.0
  0
LINE
  5
4DEA
330
1F
100
AcDbEntity
  8
0
100
AcDbLine
 10
6.847450112179018
 20
7.068674359192169
 30
0.0
 11
6.852072633894739
 21
7.069727291292913
 31
0.0
  0
LINE
  5
4DEB
330
1F
100
AcDbEntity
  8
0
100
AcDbLine
 10
6.843353826600942
 20
7.06636692786547
 30
0.0
 11
6.847450112179018
 21
7.068674359192169
 31
0.0
  0
LINE
  5
4DEC
330
1F
100
AcDbEntity
  8
0
100
AcDbLine
 10
6.840062932253218
 20
7.062962244944522
 30
0.0
 11
6.843353826600942
 21
7.06636692786547
 31
0.0
  0
LINE
  5
4DED
330
1F
100
AcDbEntity
  8
0
100
AcDbLine
 10
6.837801698147188
 20
7.058692333943881
 30
0.0
 11
6.840062932253218
 21
7.062962244944522
 31
0.0
  0
LINE
  5
4DEE
330
1F
100
AcDbEntity
  8
0
100
AcDbLine
 10
6.870754226234506
 20
7.036343940499786
 30
0.0
 11
6.866990239245524
 21
7.034165073066073
 31
0.0
  0
LINE
  5
4DEF
330
1F
100
AcDbEntity
  8
0
100
AcDbLine
 10
6.847117813589925
 20
7.068545795299179
 30
0.0
 11
6.843353826600942
 21
7.06636692786547
 31
0.0
  0
LINE
  5
4DF0
330
1F
100
AcDbEntity
  8
0
100
AcDbLine
 10
7.438299152967275
 20
6.013767148766554
 30
0.0
 11
7.436236942477403
 21
6.01855450519659
 31
0.0
  0
LINE
  5
4DF1
330
1F
100
AcDbEntity
  8
0
100
AcDbLine
 10
7.441423547217201
 20
6.009594660987815
 30
0.0
 11
7.438299152967275
 21
6.013767148766554
 31
0.0
  0
LINE
  5
4DF2
330
1F
100
AcDbEntity
  8
0
100
AcDbLine
 10
7.445397202922372
 20
6.006321390007133
 30
0.0
 11
7.441423547217201
 21
6.009594660987815
 31
0.0
  0
LINE
  5
4DF3
330
1F
100
AcDbEntity
  8
0
100
AcDbLine
 10
7.449949322013242
 20
6.0041704038325
 30
0.0
 11
7.445397202922372
 21
6.006321390007133
 31
0.0
  0
LINE
  5
4DF4
330
1F
100
AcDbEntity
  8
0
100
AcDbLine
 10
7.454769685096511
 20
6.003288288617056
 30
0.0
 11
7.449949322013242
 21
6.0041704038325
 31
0.0
  0
LINE
  5
4DF5
330
1F
100
AcDbEntity
  8
0
100
AcDbLine
 10
7.459529792394075
 20
6.003735159054954
 30
0.0
 11
7.454769685096511
 21
6.003288288617056
 31
0.0
  0
LINE
  5
4DF6
330
1F
100
AcDbEntity
  8
0
100
AcDbLine
 10
7.463905250460058
 20
6.005480561664356
 30
0.0
 11
7.459529792394075
 21
6.003735159054954
 31
0.0
  0
LINE
  5
4DF7
330
1F
100
AcDbEntity
  8
0
100
AcDbLine
 10
7.46759787905804
 20
6.008405550141834
 30
0.0
 11
7.463905250460058
 21
6.005480561664356
 31
0.0
  0
LINE
  5
4DF8
330
1F
100
AcDbEntity
  8
0
100
AcDbLine
 10
7.470356031651441
 20
6.012310791356423
 30
0.0
 11
7.46759787905804
 21
6.008405550141834
 31
0.0
  0
LINE
  5
4DF9
330
1F
100
AcDbEntity
  8
0
100
AcDbLine
 10
7.471991744699078
 20
6.01693014957306
 30
0.0
 11
7.470356031651441
 21
6.012310791356423
 31
0.0
  0
LINE
  5
4DFA
330
1F
100
AcDbEntity
  8
0
100
AcDbLine
 10
7.472393547059891
 20
6.021948823163143
 30
0.0
 11
7.471991744699078
 21
6.01693014957306
 31
0.0
  0
LINE
  5
4DFB
330
1F
100
AcDbEntity
  8
0
100
AcDbLine
 10
7.471534056567001
 20
6.027024797815247
 30
0.0
 11
7.472393547059891
 21
6.021948823163143
 31
0.0
  0
LINE
  5
4DFC
330
1F
100
AcDbEntity
  8
0
100
AcDbLine
 10
7.469471846077134
 20
6.031812154245287
 30
0.0
 11
7.471534056567001
 21
6.027024797815247
 31
0.0
  0
LINE
  5
4DFD
330
1F
100
AcDbEntity
  8
0
100
AcDbLine
 10
7.466347451827207
 20
6.035984642024025
 30
0.0
 11
7.469471846077134
 21
6.031812154245287
 31
0.0
  0
LINE
  5
4DFE
330
1F
100
AcDbEntity
  8
0
100
AcDbLine
 10
7.462373796122037
 20
6.039257913004707
 30
0.0
 11
7.466347451827207
 21
6.035984642024025
 31
0.0
  0
LINE
  5
4DFF
330
1F
100
AcDbEntity
  8
0
100
AcDbLine
 10
7.457821677031162
 20
6.041408899179341
 30
0.0
 11
7.462373796122037
 21
6.039257913004707
 31
0.0
  0
LINE
  5
4E00
330
1F
100
AcDbEntity
  8
0
100
AcDbLine
 10
7.453001313947897
 20
6.042291014394784
 30
0.0
 11
7.457821677031162
 21
6.041408899179341
 31
0.0
  0
LINE
  5
4E01
330
1F
100
AcDbEntity
  8
0
100
AcDbLine
 10
7.448241206650333
 20
6.041844143956883
 30
0.0
 11
7.453001313947897
 21
6.042291014394784
 31
0.0
  0
LINE
  5
4E02
330
1F
100
AcDbEntity
  8
0
100
AcDbLine
 10
7.443865748584354
 20
6.040098741347485
 30
0.0
 11
7.448241206650333
 21
6.041844143956883
 31
0.0
  0
LINE
  5
4E03
330
1F
100
AcDbEntity
  8
0
100
AcDbLine
 10
7.440173119986365
 20
6.03717375287001
 30
0.0
 11
7.443865748584354
 21
6.040098741347485
 31
0.0
  0
LINE
  5
4E04
330
1F
100
AcDbEntity
  8
0
100
AcDbLine
 10
7.437414967392967
 20
6.033268511655421
 30
0.0
 11
7.440173119986365
 21
6.03717375287001
 31
0.0
  0
LINE
  5
4E05
330
1F
100
AcDbEntity
  8
0
100
AcDbLine
 10
7.435779254345334
 20
6.028649153438781
 30
0.0
 11
7.437414967392967
 21
6.033268511655421
 31
0.0
  0
LINE
  5
4E06
330
1F
100
AcDbEntity
  8
0
100
AcDbLine
 10
7.435377451984518
 20
6.023630479848698
 30
0.0
 11
7.435779254345334
 21
6.028649153438781
 31
0.0
  0
LINE
  5
4E07
330
1F
100
AcDbEntity
  8
0
100
AcDbLine
 10
7.436236942477403
 20
6.01855450519659
 30
0.0
 11
7.435377451984518
 21
6.023630479848698
 31
0.0
  0
LINE
  5
4E08
330
1F
100
AcDbEntity
  8
0
100
AcDbLine
 10
7.46766923744904
 20
6.007659429098065
 30
0.0
 11
7.463905250460058
 21
6.005480561664356
 31
0.0
  0
LINE
  5
4E09
330
1F
100
AcDbEntity
  8
0
100
AcDbLine
 10
7.447629735573336
 20
6.042277608781198
 30
0.0
 11
7.443865748584354
 21
6.040098741347485
 31
0.0
  0
LINE
  5
4E0A
330
1F
100
AcDbEntity
  8
0
100
AcDbLine
 10
7.597935033127651
 20
5.977491373374217
 30
0.0
 11
7.601114117600467
 21
5.973760260329967
 31
0.0
  0
LINE
  5
4E0B
330
1F
100
AcDbEntity
  8
0
100
AcDbLine
 10
7.59379235219373
 20
5.980353285884174
 30
0.0
 11
7.597935033127651
 21
5.977491373374217
 31
0.0
  0
LINE
  5
4E0C
330
1F
100
AcDbEntity
  8
0
100
AcDbLine
 10
7.588968391658251
 20
5.982150963251818
 30
0.0
 11
7.59379235219373
 21
5.980353285884174
 31
0.0
  0
LINE
  5
4E0D
330
1F
100
AcDbEntity
  8
0
100
AcDbLine
 10
7.583791896459743
 20
5.982761896735336
 30
0.0
 11
7.588968391658251
 21
5.982150963251818
 31
0.0
  0
LINE
  5
4E0E
330
1F
100
AcDbEntity
  8
0
100
AcDbLine
 10
7.578615636191415
 20
5.982144452227451
 30
0.0
 11
7.583791896459743
 21
5.982761896735336
 31
0.0
  0
LINE
  5
4E0F
330
1F
100
AcDbEntity
  8
0
100
AcDbLine
 10
7.573792364436371
 20
5.980340707550997
 30
0.0
 11
7.578615636191415
 21
5.982144452227451
 31
0.0
  0
LINE
  5
4E10
330
1F
100
AcDbEntity
  8
0
100
AcDbLine
 10
7.569650779193896
 20
5.977473584924847
 30
0.0
 11
7.573792364436371
 21
5.980340707550997
 31
0.0
  0
LINE
  5
4E11
330
1F
100
AcDbEntity
  8
0
100
AcDbLine
 10
7.56647312265397
 20
5.973738474017828
 30
0.0
 11
7.569650779193896
 21
5.977473584924847
 31
0.0
  0
LINE
  5
4E12
330
1F
100
AcDbEntity
  8
0
100
AcDbLine
 10
7.564475946858461
 20
5.969389916465694
 30
0.0
 11
7.56647312265397
 21
5.973738474017828
 31
0.0
  0
LINE
  5
4E13
330
1F
100
AcDbEntity
  8
0
100
AcDbLine
 10
7.563795356037342
 20
5.964724259279286
 30
0.0
 11
7.564475946858461
 21
5.969389916465694
 31
0.0
  0
LINE
  5
4E14
330
1F
100
AcDbEntity
  8
0
100
AcDbLine
 10
7.564477731330338
 20
5.960059459285496
 30
0.0
 11
7.563795356037342
 21
5.964724259279286
 31
0.0
  0
LINE
  5
4E15
330
1F
100
AcDbEntity
  8
0
100
AcDbLine
 10
7.566476569988925
 20
5.955713414894958
 30
0.0
 11
7.564477731330338
 21
5.960059459285496
 31
0.0
  0
LINE
  5
4E16
330
1F
100
AcDbEntity
  8
0
100
AcDbLine
 10
7.569655654461744
 20
5.951982301850705
 30
0.0
 11
7.566476569988925
 21
5.955713414894958
 31
0.0
  0
LINE
  5
4E17
330
1F
100
AcDbEntity
  8
0
100
AcDbLine
 10
7.573798335395665
 20
5.949120389340748
 30
0.0
 11
7.569655654461744
 21
5.951982301850705
 31
0.0
  0
LINE
  5
4E18
330
1F
100
AcDbEntity
  8
0
100
AcDbLine
 10
7.578622295931136
 20
5.947322711973111
 30
0.0
 11
7.573798335395665
 21
5.949120389340748
 31
0.0
  0
LINE
  5
4E19
330
1F
100
AcDbEntity
  8
0
100
AcDbLine
 10
7.583798791129648
 20
5.946711778489589
 30
0.0
 11
7.578622295931136
 21
5.947322711973111
 31
0.0
  0
LINE
  5
4E1A
330
1F
100
AcDbEntity
  8
0
100
AcDbLine
 10
7.58897505139798
 20
5.947329222997474
 30
0.0
 11
7.583798791129648
 21
5.946711778489589
 31
0.0
  0
LINE
  5
4E1B
330
1F
100
AcDbEntity
  8
0
100
AcDbLine
 10
7.59379832315302
 20
5.949132967673925
 30
0.0
 11
7.58897505139798
 21
5.947329222997474
 31
0.0
  0
LINE
  5
4E1C
330
1F
100
AcDbEntity
  8
0
100
AcDbLine
 10
7.597939908395492
 20
5.952000090300071
 30
0.0
 11
7.59379832315302
 21
5.949132967673925
 31
0.0
  0
LINE
  5
4E1D
330
1F
100
AcDbEntity
  8
0
100
AcDbLine
 10
7.601117564935421
 20
5.95573520120709
 30
0.0
 11
7.597939908395492
 21
5.952000090300071
 31
0.0
  0
LINE
  5
4E1E
330
1F
100
AcDbEntity
  8
0
100
AcDbLine
 10
7.60311474073093
 20
5.960083758759228
 30
0.0
 11
7.601117564935421
 21
5.95573520120709
 31
0.0
  0
LINE
  5
4E1F
330
1F
100
AcDbEntity
  8
0
100
AcDbLine
 10
7.603795331552049
 20
5.96474941594564
 30
0.0
 11
7.60311474073093
 21
5.960083758759228
 31
0.0
  0
LINE
  5
4E20
330
1F
100
AcDbEntity
  8
0
100
AcDbLine
 10
7.603112956259053
 20
5.96941421593943
 30
0.0
 11
7.603795331552049
 21
5.96474941594564
 31
0.0
  0
LINE
  5
4E21
330
1F
100
AcDbEntity
  8
0
100
AcDbLine
 10
7.601114117600467
 20
5.973760260329967
 30
0.0
 11
7.603112956259053
 21
5.96941421593943
 31
0.0
  0
LINE
  5
4E22
330
1F
100
AcDbEntity
  8
0
100
AcDbLine
 10
7.563784426472995
 20
5.969057188005983
 30
0.0
 11
7.563795356037342
 21
5.964724259279286
 31
0.0
  0
LINE
  5
4E23
330
1F
100
AcDbEntity
  8
0
100
AcDbLine
 10
7.603784401987709
 20
5.969082344672333
 30
0.0
 11
7.603795331552049
 21
5.96474941594564
 31
0.0
  0
LINE
  5
4E24
330
1F
100
AcDbEntity
  8
0
100
AcDbLine
 10
8.771967415120681
 20
5.988736400629434
 30
0.0
 11
8.768028647906135
 21
5.985645795938111
 31
0.0
  0
LINE
  5
4E25
330
1F
100
AcDbEntity
  8
0
100
AcDbLine
 10
8.768028647906135
 20
5.985645795938111
 30
0.0
 11
8.765111104965686
 21
5.981742157995284
 31
0.0
  0
LINE
  5
4E26
330
1F
100
AcDbEntity
  8
0
100
AcDbLine
 10
8.765111104965686
 20
5.981742157995284
 30
0.0
 11
8.763413612029257
 21
5.977291513275694
 31
0.0
  0
LINE
  5
4E27
330
1F
100
AcDbEntity
  8
0
100
AcDbLine
 10
8.763413612029257
 20
5.977291513275694
 30
0.0
 11
8.763051850435221
 21
5.972597165861941
 31
0.0
  0
LINE
  5
4E28
330
1F
100
AcDbEntity
  8
0
100
AcDbLine
 10
8.763051850435221
 20
5.972597165861941
 30
0.0
 11
8.764050473638373
 21
5.967979027772503
 31
0.0
  0
LINE
  5
4E29
330
1F
100
AcDbEntity
  8
0
100
AcDbLine
 10
8.764050473638373
 20
5.967979027772503
 30
0.0
 11
8.76634142711773
 21
5.963751817486333
 31
0.0
  0
LINE
  5
4E2A
330
1F
100
AcDbEntity
  8
0
100
AcDbLine
 10
8.76634142711773
 20
5.963751817486333
 30
0.0
 11
8.769768586179637
 21
5.960203612398643
 31
0.0
  0
LINE
  5
4E2B
330
1F
100
AcDbEntity
  8
0
100
AcDbLine
 10
8.769768586179637
 20
5.960203612398643
 30
0.0
 11
8.774098395597693
 21
5.957576216822467
 31
0.0
  0
LINE
  5
4E2C
330
1F
100
AcDbEntity
  8
0
100
AcDbLine
 10
8.774098395597693
 20
5.957576216822467
 30
0.0
 11
8.779035786015388
 21
5.956048683424356
 31
0.0
  0
LINE
  5
4E2D
330
1F
100
AcDbEntity
  8
0
100
AcDbLine
 10
8.779035786015388
 20
5.956048683424356
 30
0.0
 11
8.784244282435189
 21
5.955725111081012
 31
0.0
  0
LINE
  5
4E2E
330
1F
100
AcDbEntity
  8
0
100
AcDbLine
 10
8.784244282435189
 20
5.955725111081012
 30
0.0
 11
8.789368934433529
 21
5.956627550712912
 31
0.0
  0
LINE
  5
4E2F
330
1F
100
AcDbEntity
  8
0
100
AcDbLine
 10
8.789368934433529
 20
5.956627550712912
 30
0.0
 11
8.794060505445617
 21
5.958694502550486
 31
0.0
  0
LINE
  5
4E30
330
1F
100
AcDbEntity
  8
0
100
AcDbLine
 10
8.794060505445617
 20
5.958694502550486
 30
0.0
 11
8.797999272660163
 21
5.961785107241816
 31
0.0
  0
LINE
  5
4E31
330
1F
100
AcDbEntity
  8
0
100
AcDbLine
 10
8.797999272660163
 20
5.961785107241816
 30
0.0
 11
8.800916815600608
 21
5.965688745184642
 31
0.0
  0
LINE
  5
4E32
330
1F
100
AcDbEntity
  8
0
100
AcDbLine
 10
8.800916815600608
 20
5.965688745184642
 30
0.0
 11
8.802614308537037
 21
5.970139389904225
 31
0.0
  0
LINE
  5
4E33
330
1F
100
AcDbEntity
  8
0
100
AcDbLine
 10
8.802614308537037
 20
5.970139389904225
 30
0.0
 11
8.802976070131077
 21
5.974833737317979
 31
0.0
  0
LINE
  5
4E34
330
1F
100
AcDbEntity
  8
0
100
AcDbLine
 10
8.802976070131077
 20
5.974833737317979
 30
0.0
 11
8.801977446927917
 21
5.97945187540742
 31
0.0
  0
LINE
  5
4E35
330
1F
100
AcDbEntity
  8
0
100
AcDbLine
 10
8.801977446927917
 20
5.97945187540742
 30
0.0
 11
8.799686493448572
 21
5.983679085693587
 31
0.0
  0
LINE
  5
4E36
330
1F
100
AcDbEntity
  8
0
100
AcDbLine
 10
8.799686493448572
 20
5.983679085693587
 30
0.0
 11
8.796259334386657
 21
5.98722729078128
 31
0.0
  0
LINE
  5
4E37
330
1F
100
AcDbEntity
  8
0
100
AcDbLine
 10
8.796259334386657
 20
5.98722729078128
 30
0.0
 11
8.791929524968608
 21
5.989854686357453
 31
0.0
  0
LINE
  5
4E38
330
1F
100
AcDbEntity
  8
0
100
AcDbLine
 10
8.791929524968608
 20
5.989854686357453
 30
0.0
 11
8.78699213455091
 21
5.991382219755571
 31
0.0
  0
LINE
  5
4E39
330
1F
100
AcDbEntity
  8
0
100
AcDbLine
 10
8.78699213455091
 20
5.991382219755571
 30
0.0
 11
8.781783638131109
 21
5.991705792098912
 31
0.0
  0
LINE
  5
4E3A
330
1F
100
AcDbEntity
  8
0
100
AcDbLine
 10
8.781783638131109
 20
5.991705792098912
 30
0.0
 11
8.776658986132765
 21
5.990803352467015
 31
0.0
  0
LINE
  5
4E3B
330
1F
100
AcDbEntity
  8
0
100
AcDbLine
 10
8.776658986132765
 20
5.990803352467015
 30
0.0
 11
8.771967415120681
 21
5.988736400629434
 31
0.0
  0
LINE
  5
4E3C
330
1F
100
AcDbEntity
  8
0
100
AcDbLine
 10
8.763040920870881
 20
5.976930094588638
 30
0.0
 11
8.763051850435221
 21
5.972597165861941
 31
0.0
  0
LINE
  5
4E3D
330
1F
100
AcDbEntity
  8
0
100
AcDbLine
 10
8.80296514056674
 20
5.979166666044676
 30
0.0
 11
8.802976070131077
 21
5.974833737317979
 31
0.0
  0
LINE
  5
4E3E
330
1F
100
AcDbEntity
  8
0
100
AcDbLine
 10
8.90592725205477
 20
6.036732302034657
 30
0.0
 11
8.902266202789689
 21
6.033065929464328
 31
0.0
  0
LINE
  5
4E3F
330
1F
100
AcDbEntity
  8
0
100
AcDbLine
 10
8.902266202789689
 20
6.033065929464328
 30
0.0
 11
8.899550536194297
 21
6.028607178841774
 31
0.0
  0
LINE
  5
4E40
330
1F
100
AcDbEntity
  8
0
100
AcDbLine
 10
8.899550536194297
 20
6.028607178841774
 30
0.0
 11
8.897965320459196
 21
6.023659906653477
 31
0.0
  0
LINE
  5
4E41
330
1F
100
AcDbEntity
  8
0
100
AcDbLine
 10
8.897965320459196
 20
6.023659906653477
 30
0.0
 11
8.89761858541706
 21
6.018561261323323
 31
0.0
  0
LINE
  5
4E42
330
1F
100
AcDbEntity
  8
0
100
AcDbLine
 10
8.89761858541706
 20
6.018561261323323
 30
0.0
 11
8.898533960487988
 21
6.013658707104653
 31
0.0
  0
LINE
  5
4E43
330
1F
100
AcDbEntity
  8
0
100
AcDbLine
 10
8.898533960487988
 20
6.013658707104653
 30
0.0
 11
8.900649064373634
 21
6.009286344965616
 31
0.0
  0
LINE
  5
4E44
330
1F
100
AcDbEntity
  8
0
100
AcDbLine
 10
8.900649064373634
 20
6.009286344965616
 30
0.0
 11
8.903819756239563
 21
6.005742144160311
 31
0.0
  0
LINE
  5
4E45
330
1F
100
AcDbEntity
  8
0
100
AcDbLine
 10
8.903819756239563
 20
6.005742144160311
 30
0.0
 11
8.907829958674923
 21
6.003267636116557
 31
0.0
  0
LINE
  5
4E46
330
1F
100
AcDbEntity
  8
0
100
AcDbLine
 10
8.907829958674923
 20
6.003267636116557
 30
0.0
 11
8.912406383010928
 21
6.002031454468212
 31
0.0
  0
LINE
  5
4E47
330
1F
100
AcDbEntity
  8
0
100
AcDbLine
 10
8.912406383010928
 20
6.002031454468212
 30
0.0
 11
8.917237153491971
 21
6.002117842951729
 31
0.0
  0
LINE
  5
4E48
330
1F
100
AcDbEntity
  8
0
100
AcDbLine
 10
8.917237153491971
 20
6.002117842951729
 30
0.0
 11
8.921993061092997
 21
6.003520914334721
 31
0.0
  0
LINE
  5
4E49
330
1F
100
AcDbEntity
  8
0
100
AcDbLine
 10
8.921993061092997
 20
6.003520914334721
 30
0.0
 11
8.926349998570501
 21
6.006145051621118
 31
0.0
  0
LINE
  5
4E4A
330
1F
100
AcDbEntity
  8
0
100
AcDbLine
 10
8.926349998570501
 20
6.006145051621118
 30
0.0
 11
8.930011047835577
 21
6.009811424191447
 31
0.0
  0
LINE
  5
4E4B
330
1F
100
AcDbEntity
  8
0
100
AcDbLine
 10
8.930011047835577
 20
6.009811424191447
 30
0.0
 11
8.932726714430977
 21
6.014270174814001
 31
0.0
  0
LINE
  5
4E4C
330
1F
100
AcDbEntity
  8
0
100
AcDbLine
 10
8.932726714430977
 20
6.014270174814001
 30
0.0
 11
8.934311930166074
 21
6.019217447002297
 31
0.0
  0
LINE
  5
4E4D
330
1F
100
AcDbEntity
  8
0
100
AcDbLine
 10
8.934311930166074
 20
6.019217447002297
 30
0.0
 11
8.93465866520821
 21
6.024316092332455
 31
0.0
  0
LINE
  5
4E4E
330
1F
100
AcDbEntity
  8
0
100
AcDbLine
 10
8.93465866520821
 20
6.024316092332455
 30
0.0
 11
8.933743290137286
 21
6.029218646551122
 31
0.0
  0
LINE
  5
4E4F
330
1F
100
AcDbEntity
  8
0
100
AcDbLine
 10
8.933743290137286
 20
6.029218646551122
 30
0.0
 11
8.931628186251639
 21
6.033591008690162
 31
0.0
  0
LINE
  5
4E50
330
1F
100
AcDbEntity
  8
0
100
AcDbLine
 10
8.931628186251639
 20
6.033591008690162
 30
0.0
 11
8.92845749438571
 21
6.037135209495467
 31
0.0
  0
LINE
  5
4E51
330
1F
100
AcDbEntity
  8
0
100
AcDbLine
 10
8.92845749438571
 20
6.037135209495467
 30
0.0
 11
8.924447291950347
 21
6.039609717539221
 31
0.0
  0
LINE
  5
4E52
330
1F
100
AcDbEntity
  8
0
100
AcDbLine
 10
8.924447291950347
 20
6.039609717539221
 30
0.0
 11
8.919870867614342
 21
6.040845899187566
 31
0.0
  0
LINE
  5
4E53
330
1F
100
AcDbEntity
  8
0
100
AcDbLine
 10
8.919870867614342
 20
6.040845899187566
 30
0.0
 11
8.915040097133299
 21
6.040759510704045
 31
0.0
  0
LINE
  5
4E54
330
1F
100
AcDbEntity
  8
0
100
AcDbLine
 10
8.915040097133299
 20
6.040759510704045
 30
0.0
 11
8.910284189532273
 21
6.039356439321053
 31
0.0
  0
LINE
  5
4E55
330
1F
100
AcDbEntity
  8
0
100
AcDbLine
 10
8.910284189532273
 20
6.039356439321053
 30
0.0
 11
8.90592725205477
 21
6.036732302034657
 31
0.0
  0
LINE
  5
4E56
330
1F
100
AcDbEntity
  8
0
100
AcDbLine
 10
8.904094943343448
 20
6.005413903710778
 30
0.0
 11
8.907829958674923
 21
6.003267636116557
 31
0.0
  0
LINE
  5
4E57
330
1F
100
AcDbEntity
  8
0
100
AcDbLine
 10
8.920712276618871
 20
6.041755985133441
 30
0.0
 11
8.924447291950347
 21
6.039609717539221
 31
0.0
  0
LINE
  5
4E58
330
1F
100
AcDbEntity
  8
0
100
AcDbLine
 10
8.269734931749887
 20
7.179706483206643
 30
0.0
 11
8.268655471493158
 21
7.18475798543934
 31
0.0
  0
LINE
  5
4E59
330
1F
100
AcDbEntity
  8
0
100
AcDbLine
 10
8.268655471493158
 20
7.18475798543934
 30
0.0
 11
8.266389516142641
 21
7.189457926253432
 31
0.0
  0
LINE
  5
4E5A
330
1F
100
AcDbEntity
  8
0
100
AcDbLine
 10
8.266389516142641
 20
7.189457926253432
 30
0.0
 11
8.2630914868108
 21
7.193486012449454
 31
0.0
  0
LINE
  5
4E5B
330
1F
100
AcDbEntity
  8
0
100
AcDbLine
 10
8.2630914868108
 20
7.193486012449454
 30
0.0
 11
8.258986138746355
 21
7.196567736609882
 31
0.0
  0
LINE
  5
4E5C
330
1F
100
AcDbEntity
  8
0
100
AcDbLine
 10
8.258986138746355
 20
7.196567736609882
 30
0.0
 11
8.254353244635481
 21
7.198493084325967
 31
0.0
  0
LINE
  5
4E5D
330
1F
100
AcDbEntity
  8
0
100
AcDbLine
 10
8.254353244635481
 20
7.198493084325967
 30
0.0
 11
8.249508528555619
 21
7.199130846332657
 31
0.0
  0
LINE
  5
4E5E
330
1F
100
AcDbEntity
  8
0
100
AcDbLine
 10
8.249508528555619
 20
7.199130846332657
 30
0.0
 11
8.24478214990134
 21
7.198437560203128
 31
0.0
  0
LINE
  5
4E5F
330
1F
100
AcDbEntity
  8
0
100
AcDbLine
 10
8.24478214990134
 20
7.198437560203128
 30
0.0
 11
8.240496203567229
 21
7.196460472241412
 31
0.0
  0
LINE
  5
4E60
330
1F
100
AcDbEntity
  8
0
100
AcDbLine
 10
8.240496203567229
 20
7.196460472241412
 30
0.0
 11
8.236942769713078
 21
7.193334317724804
 31
0.0
  0
LINE
  5
4E61
330
1F
100
AcDbEntity
  8
0
100
AcDbLine
 10
8.236942769713078
 20
7.193334317724804
 30
0.0
 11
8.234364008983735
 21
7.189272138917402
 31
0.0
  0
LINE
  5
4E62
330
1F
100
AcDbEntity
  8
0
100
AcDbLine
 10
8.234364008983735
 20
7.189272138917402
 30
0.0
 11
8.232935659661297
 21
7.184550766591851
 31
0.0
  0
LINE
  5
4E63
330
1F
100
AcDbEntity
  8
0
100
AcDbLine
 10
8.232935659661297
 20
7.184550766591851
 30
0.0
 11
8.232755061391628
 21
7.179491954469707
 31
0.0
  0
LINE
  5
4E64
330
1F
100
AcDbEntity
  8
0
100
AcDbLine
 10
8.232755061391628
 20
7.179491954469707
 30
0.0
 11
8.233834521648354
 21
7.174440452237011
 31
0.0
  0
LINE
  5
4E65
330
1F
100
AcDbEntity
  8
0
100
AcDbLine
 10
8.233834521648354
 20
7.174440452237011
 30
0.0
 11
8.236100476998871
 21
7.169740511422922
 31
0.0
  0
LINE
  5
4E66
330
1F
100
AcDbEntity
  8
0
100
AcDbLine
 10
8.236100476998871
 20
7.169740511422922
 30
0.0
 11
8.239398506330715
 21
7.165712425226892
 31
0.0
  0
LINE
  5
4E67
330
1F
100
AcDbEntity
  8
0
100
AcDbLine
 10
8.239398506330715
 20
7.165712425226892
 30
0.0
 11
8.243503854395164
 21
7.162630701066468
 31
0.0
  0
LINE
  5
4E68
330
1F
100
AcDbEntity
  8
0
100
AcDbLine
 10
8.243503854395164
 20
7.162630701066468
 30
0.0
 11
8.248136748506034
 21
7.16070535335038
 31
0.0
  0
LINE
  5
4E69
330
1F
100
AcDbEntity
  8
0
100
AcDbLine
 10
8.248136748506034
 20
7.16070535335038
 30
0.0
 11
8.252981464585893
 21
7.160067591343697
 31
0.0
  0
LINE
  5
4E6A
330
1F
100
AcDbEntity
  8
0
100
AcDbLine
 10
8.252981464585893
 20
7.160067591343697
 30
0.0
 11
8.257707843240169
 21
7.160760877473222
 31
0.0
  0
LINE
  5
4E6B
330
1F
100
AcDbEntity
  8
0
100
AcDbLine
 10
8.257707843240169
 20
7.160760877473222
 30
0.0
 11
8.26199378957429
 21
7.162737965434939
 31
0.0
  0
LINE
  5
4E6C
330
1F
100
AcDbEntity
  8
0
100
AcDbLine
 10
8.26199378957429
 20
7.162737965434939
 30
0.0
 11
8.265547223428431
 21
7.165864119951546
 31
0.0
  0
LINE
  5
4E6D
330
1F
100
AcDbEntity
  8
0
100
AcDbLine
 10
8.265547223428431
 20
7.165864119951546
 30
0.0
 11
8.26812598415778
 21
7.169926298758952
 31
0.0
  0
LINE
  5
4E6E
330
1F
100
AcDbEntity
  8
0
100
AcDbLine
 10
8.26812598415778
 20
7.169926298758952
 30
0.0
 11
8.269554333480215
 21
7.1746476710845
 31
0.0
  0
LINE
  5
4E6F
330
1F
100
AcDbEntity
  8
0
100
AcDbLine
 10
8.269554333480215
 20
7.1746476710845
 30
0.0
 11
8.269734931749887
 21
7.179706483206643
 31
0.0
  0
LINE
  5
4E70
330
1F
100
AcDbEntity
  8
0
100
AcDbLine
 10
8.236784500354026
 20
7.194309658007966
 30
0.0
 11
8.240496203567229
 21
7.196460472241412
 31
0.0
  0
LINE
  5
4E71
330
1F
100
AcDbEntity
  8
0
100
AcDbLine
 10
8.258282086361088
 20
7.160587151201493
 30
0.0
 11
8.26199378957429
 21
7.162737965434939
 31
0.0
  0
LINE
  5
4E72
330
1F
100
AcDbEntity
  8
0
100
AcDbLine
 10
8.172475668049052
 20
7.258064255480533
 30
0.0
 11
8.16808474765359
 21
7.259910427392981
 31
0.0
  0
LINE
  5
4E73
330
1F
100
AcDbEntity
  8
0
100
AcDbLine
 10
8.16808474765359
 20
7.259910427392981
 30
0.0
 11
8.163313066316348
 21
7.260667531736896
 31
0.0
  0
LINE
  5
4E74
330
1F
100
AcDbEntity
  8
0
100
AcDbLine
 10
8.163313066316348
 20
7.260667531736896
 30
0.0
 11
8.158485806234878
 21
7.260283973102421
 31
0.0
  0
LINE
  5
4E75
330
1F
100
AcDbEntity
  8
0
100
AcDbLine
 10
8.158485806234878
 20
7.260283973102421
 30
0.0
 11
8.153931937206316
 21
7.258785890376628
 31
0.0
  0
LINE
  5
4E76
330
1F
100
AcDbEntity
  8
0
100
AcDbLine
 10
8.153931937206316
 20
7.258785890376628
 30
0.0
 11
8.149961797879331
 21
7.256275375421587
 31
0.0
  0
LINE
  5
4E77
330
1F
100
AcDbEntity
  8
0
100
AcDbLine
 10
8.149961797879331
 20
7.256275375421587
 30
0.0
 11
8.146845946688088
 21
7.252923515682656
 31
0.0
  0
LINE
  5
4E78
330
1F
100
AcDbEntity
  8
0
100
AcDbLine
 10
8.146845946688088
 20
7.252923515682656
 30
0.0
 11
8.144796723742089
 21
7.248958734861837
 31
0.0
  0
LINE
  5
4E79
330
1F
100
AcDbEntity
  8
0
100
AcDbLine
 10
8.144796723742089
 20
7.248958734861837
 30
0.0
 11
8.143953780198597
 21
7.244651226219957
 31
0.0
  0
LINE
  5
4E7A
330
1F
100
AcDbEntity
  8
0
100
AcDbLine
 10
8.143953780198597
 20
7.244651226219957
 30
0.0
 11
8.144374561267074
 21
7.240294539352465
 31
0.0
  0
LINE
  5
4E7B
330
1F
100
AcDbEntity
  8
0
100
AcDbLine
 10
8.144374561267074
 20
7.240294539352465
 30
0.0
 11
8.146030391413074
 21
7.236185575269619
 31
0.0
  0
LINE
  5
4E7C
330
1F
100
AcDbEntity
  8
0
100
AcDbLine
 10
8.146030391413074
 20
7.236185575269619
 30
0.0
 11
8.148808428548537
 21
7.232604353083274
 31
0.0
  0
LINE
  5
4E7D
330
1F
100
AcDbEntity
  8
0
100
AcDbLine
 10
8.148808428548537
 20
7.232604353083274
 30
0.0
 11
8.152519354033611
 21
7.229794927167187
 31
0.0
  0
LINE
  5
4E7E
330
1F
100
AcDbEntity
  8
0
100
AcDbLine
 10
8.152519354033611
 20
7.229794927167187
 30
0.0
 11
8.156910274429073
 21
7.227948755254736
 31
0.0
  0
LINE
  5
4E7F
330
1F
100
AcDbEntity
  8
0
100
AcDbLine
 10
8.156910274429073
 20
7.227948755254736
 30
0.0
 11
8.161681955766319
 21
7.227191650910818
 31
0.0
  0
LINE
  5
4E80
330
1F
100
AcDbEntity
  8
0
100
AcDbLine
 10
8.161681955766319
 20
7.227191650910818
 30
0.0
 11
8.166509215847785
 21
7.227575209545296
 31
0.0
  0
LINE
  5
4E81
330
1F
100
AcDbEntity
  8
0
100
AcDbLine
 10
8.166509215847785
 20
7.227575209545296
 30
0.0
 11
8.171063084876347
 21
7.229073292271088
 31
0.0
  0
LINE
  5
4E82
330
1F
100
AcDbEntity
  8
0
100
AcDbLine
 10
8.171063084876347
 20
7.229073292271088
 30
0.0
 11
8.175033224203332
 21
7.23158380722613
 31
0.0
  0
LINE
  5
4E83
330
1F
100
AcDbEntity
  8
0
100
AcDbLine
 10
8.175033224203332
 20
7.23158380722613
 30
0.0
 11
8.178149075394575
 21
7.234935666965064
 31
0.0
  0
LINE
  5
4E84
330
1F
100
AcDbEntity
  8
0
100
AcDbLine
 10
8.178149075394575
 20
7.234935666965064
 30
0.0
 11
8.180198298340577
 21
7.238900447785884
 31
0.0
  0
LINE
  5
4E85
330
1F
100
AcDbEntity
  8
0
100
AcDbLine
 10
8.180198298340577
 20
7.238900447785884
 30
0.0
 11
8.181041241884067
 21
7.24320795642776
 31
0.0
  0
LINE
  5
4E86
330
1F
100
AcDbEntity
  8
0
100
AcDbLine
 10
8.181041241884067
 20
7.24320795642776
 30
0.0
 11
8.180620460815596
 21
7.247564643295252
 31
0.0
  0
LINE
  5
4E87
330
1F
100
AcDbEntity
  8
0
100
AcDbLine
 10
8.180620460815596
 20
7.247564643295252
 30
0.0
 11
8.17896463066959
 21
7.251673607378101
 31
0.0
  0
LINE
  5
4E88
330
1F
100
AcDbEntity
  8
0
100
AcDbLine
 10
8.17896463066959
 20
7.251673607378101
 30
0.0
 11
8.176186593534122
 21
7.255254829564442
 31
0.0
  0
LINE
  5
4E89
330
1F
100
AcDbEntity
  8
0
100
AcDbLine
 10
8.176186593534122
 20
7.255254829564442
 30
0.0
 11
8.172475668049052
 21
7.258064255480533
 31
0.0
  0
LINE
  5
4E8A
330
1F
100
AcDbEntity
  8
0
100
AcDbLine
 10
8.143971909857942
 20
7.240346097209513
 30
0.0
 11
8.143953780198597
 21
7.244651226219957
 31
0.0
  0
LINE
  5
4E8B
330
1F
100
AcDbEntity
  8
0
100
AcDbLine
 10
8.181059371543415
 20
7.238902827417316
 30
0.0
 11
8.181041241884067
 21
7.24320795642776
 31
0.0
  0
LINE
  5
4E8C
330
1F
100
AcDbEntity
  8
0
100
AcDbLine
 10
8.061220353905309
 20
7.183551291808143
 30
0.0
 11
8.059376559022037
 21
7.179232673413245
 31
0.0
  0
LINE
  5
4E8D
330
1F
100
AcDbEntity
  8
0
100
AcDbLine
 10
8.059376559022037
 20
7.179232673413245
 30
0.0
 11
8.058617412631459
 21
7.174657289285953
 31
0.0
  0
LINE
  5
4E8E
330
1F
100
AcDbEntity
  8
0
100
AcDbLine
 10
8.058617412631459
 20
7.174657289285953
 30
0.0
 11
8.058994649305553
 21
7.170136944293375
 31
0.0
  0
LINE
  5
4E8F
330
1F
100
AcDbEntity
  8
0
100
AcDbLine
 10
8.058994649305553
 20
7.170136944293375
 30
0.0
 11
8.060482560988386
 21
7.165979692476529
 31
0.0
  0
LINE
  5
4E90
330
1F
100
AcDbEntity
  8
0
100
AcDbLine
 10
8.060482560988386
 20
7.165979692476529
 30
0.0
 11
8.062979748957666
 21
7.162468843676542
 31
0.0
  0
LINE
  5
4E91
330
1F
100
AcDbEntity
  8
0
100
AcDbLine
 10
8.062979748957666
 20
7.162468843676542
 30
0.0
 11
8.066316033980083
 21
7.159843656437185
 31
0.0
  0
LINE
  5
4E92
330
1F
100
AcDbEntity
  8
0
100
AcDbLine
 10
8.066316033980083
 20
7.159843656437185
 30
0.0
 11
8.070264053744828
 21
7.158283032930501
 31
0.0
  0
LINE
  5
4E93
330
1F
100
AcDbEntity
  8
0
100
AcDbLine
 10
8.070264053744828
 20
7.158283032930501
 30
0.0
 11
8.074554757229357
 21
7.157893327069405
 31
0.0
  0
LINE
  5
4E94
330
1F
100
AcDbEntity
  8
0
100
AcDbLine
 10
8.074554757229357
 20
7.157893327069405
 30
0.0
 11
8.078895740081904
 21
7.158701096664323
 31
0.0
  0
LINE
  5
4E95
330
1F
100
AcDbEntity
  8
0
100
AcDbLine
 10
8.078895740081904
 20
7.158701096664323
 30
0.0
 11
8.082991171494892
 21
7.160651293552255
 31
0.0
  0
LINE
  5
4E96
330
1F
100
AcDbEntity
  8
0
100
AcDbLine
 10
8.082991171494892
 20
7.160651293552255
 30
0.0
 11
8.086561954585551
 21
7.163611015038142
 31
0.0
  0
LINE
  5
4E97
330
1F
100
AcDbEntity
  8
0
100
AcDbLine
 10
8.086561954585551
 20
7.163611015038142
 30
0.0
 11
8.089364746387243
 21
7.167378560993903
 31
0.0
  0
LINE
  5
4E98
330
1F
100
AcDbEntity
  8
0
100
AcDbLine
 10
8.089364746387243
 20
7.167378560993903
 30
0.0
 11
8.091208541270514
 21
7.171697179388804
 31
0.0
  0
LINE
  5
4E99
330
1F
100
AcDbEntity
  8
0
100
AcDbLine
 10
8.091208541270514
 20
7.171697179388804
 30
0.0
 11
8.091967687661085
 21
7.176272563516093
 31
0.0
  0
LINE
  5
4E9A
330
1F
100
AcDbEntity
  8
0
100
AcDbLine
 10
8.091967687661085
 20
7.176272563516093
 30
0.0
 11
8.091590450986995
 21
7.180792908508671
 31
0.0
  0
LINE
  5
4E9B
330
1F
100
AcDbEntity
  8
0
100
AcDbLine
 10
8.091590450986995
 20
7.180792908508671
 30
0.0
 11
8.090102539304165
 21
7.184950160325517
 31
0.0
  0
LINE
  5
4E9C
330
1F
100
AcDbEntity
  8
0
100
AcDbLine
 10
8.090102539304165
 20
7.184950160325517
 30
0.0
 11
8.087605351334882
 21
7.188461009125504
 31
0.0
  0
LINE
  5
4E9D
330
1F
100
AcDbEntity
  8
0
100
AcDbLine
 10
8.087605351334882
 20
7.188461009125504
 30
0.0
 11
8.084269066312465
 21
7.19108619636486
 31
0.0
  0
LINE
  5
4E9E
330
1F
100
AcDbEntity
  8
0
100
AcDbLine
 10
8.084269066312465
 20
7.19108619636486
 30
0.0
 11
8.080321046547719
 21
7.192646819871548
 31
0.0
  0
LINE
  5
4E9F
330
1F
100
AcDbEntity
  8
0
100
AcDbLine
 10
8.080321046547719
 20
7.192646819871548
 30
0.0
 11
8.076030343063195
 21
7.19303652573264
 31
0.0
  0
LINE
  5
4EA0
330
1F
100
AcDbEntity
  8
0
100
AcDbLine
 10
8.076030343063195
 20
7.19303652573264
 30
0.0
 11
8.071689360210644
 21
7.192228756137726
 31
0.0
  0
LINE
  5
4EA1
330
1F
100
AcDbEntity
  8
0
100
AcDbLine
 10
8.071689360210644
 20
7.192228756137726
 30
0.0
 11
8.067593928797652
 21
7.19027855924979
 31
0.0
  0
LINE
  5
4EA2
330
1F
100
AcDbEntity
  8
0
100
AcDbLine
 10
8.067593928797652
 20
7.19027855924979
 30
0.0
 11
8.064023145707
 21
7.187318837763903
 31
0.0
  0
LINE
  5
4EA3
330
1F
100
AcDbEntity
  8
0
100
AcDbLine
 10
8.064023145707
 20
7.187318837763903
 30
0.0
 11
8.061220353905309
 21
7.183551291808143
 31
0.0
  0
LINE
  5
4EA4
330
1F
100
AcDbEntity
  8
0
100
AcDbLine
 10
8.0700803922585
 20
7.157680527381753
 30
0.0
 11
8.066316033980083
 21
7.159843656437185
 31
0.0
  0
LINE
  5
4EA5
330
1F
100
AcDbEntity
  8
0
100
AcDbLine
 10
8.088033424590882
 20
7.188923067309428
 30
0.0
 11
8.084269066312465
 21
7.19108619636486
 31
0.0
  0
LINE
  5
4EA6
330
1F
100
AcDbEntity
  8
0
100
AcDbLine
 10
8.038022440799796
 20
7.062407015700813
 30
0.0
 11
8.04121325198216
 21
7.058288229820689
 31
0.0
  0
LINE
  5
4EA7
330
1F
100
AcDbEntity
  8
0
100
AcDbLine
 10
8.04121325198216
 20
7.058288229820689
 30
0.0
 11
8.045236247396562
 21
7.055086280445273
 31
0.0
  0
LINE
  5
4EA8
330
1F
100
AcDbEntity
  8
0
100
AcDbLine
 10
8.045236247396562
 20
7.055086280445273
 30
0.0
 11
8.049817266553827
 21
7.053019375133033
 31
0.0
  0
LINE
  5
4EA9
330
1F
100
AcDbEntity
  8
0
100
AcDbLine
 10
8.049817266553827
 20
7.053019375133033
 30
0.0
 11
8.054644120568877
 21
7.052228370065272
 31
0.0
  0
LINE
  5
4EAA
330
1F
100
AcDbEntity
  8
0
100
AcDbLine
 10
8.054644120568877
 20
7.052228370065272
 30
0.0
 11
8.05938786731734
 21
7.052767170930163
 31
0.0
  0
LINE
  5
4EAB
330
1F
100
AcDbEntity
  8
0
100
AcDbLine
 10
8.05938786731734
 20
7.052767170930163
 30
0.0
 11
8.063725228297723
 21
7.054599059339174
 31
0.0
  0
LINE
  5
4EAC
330
1F
100
AcDbEntity
  8
0
100
AcDbLine
 10
8.063725228297723
 20
7.054599059339174
 30
0.0
 11
8.06736061952704
 21
7.057599195124566
 31
0.0
  0
LINE
  5
4EAD
330
1F
100
AcDbEntity
  8
0
100
AcDbLine
 10
8.06736061952704
 20
7.057599195124566
 30
0.0
 11
8.070046295100777
 21
7.061563123990527
 31
0.0
  0
LINE
  5
4EAE
330
1F
100
AcDbEntity
  8
0
100
AcDbLine
 10
8.070046295100777
 20
7.061563123990527
 30
0.0
 11
8.07159923066688
 21
7.066220710735542
 31
0.0
  0
LINE
  5
4EAF
330
1F
100
AcDbEntity
  8
0
100
AcDbLine
 10
8.07159923066688
 20
7.066220710735542
 30
0.0
 11
8.07191359623286
 21
7.071254548519963
 31
0.0
  0
LINE
  5
4EB0
330
1F
100
AcDbEntity
  8
0
100
AcDbLine
 10
8.07191359623286
 20
7.071254548519963
 30
0.0
 11
8.070967968304916
 21
7.076321589617595
 31
0.0
  0
LINE
  5
4EB1
330
1F
100
AcDbEntity
  8
0
100
AcDbLine
 10
8.070967968304916
 20
7.076321589617595
 30
0.0
 11
8.068826789863603
 21
7.081076523551317
 31
0.0
  0
LINE
  5
4EB2
330
1F
100
AcDbEntity
  8
0
100
AcDbLine
 10
8.068826789863603
 20
7.081076523551317
 30
0.0
 11
8.065635978681239
 21
7.085195309431441
 31
0.0
  0
LINE
  5
4EB3
330
1F
100
AcDbEntity
  8
0
100
AcDbLine
 10
8.065635978681239
 20
7.085195309431441
 30
0.0
 11
8.061612983266837
 21
7.088397258806857
 31
0.0
  0
LINE
  5
4EB4
330
1F
100
AcDbEntity
  8
0
100
AcDbLine
 10
8.061612983266837
 20
7.088397258806857
 30
0.0
 11
8.057031964109576
 21
7.090464164119094
 31
0.0
  0
LINE
  5
4EB5
330
1F
100
AcDbEntity
  8
0
100
AcDbLine
 10
8.057031964109576
 20
7.090464164119094
 30
0.0
 11
8.052205110094522
 21
7.091255169186851
 31
0.0
  0
LINE
  5
4EB6
330
1F
100
AcDbEntity
  8
0
100
AcDbLine
 10
8.052205110094522
 20
7.091255169186851
 30
0.0
 11
8.047461363346062
 21
7.090716368321963
 31
0.0
  0
LINE
  5
4EB7
330
1F
100
AcDbEntity
  8
0
100
AcDbLine
 10
8.047461363346062
 20
7.090716368321963
 30
0.0
 11
8.043124002365676
 21
7.088884479912955
 31
0.0
  0
LINE
  5
4EB8
330
1F
100
AcDbEntity
  8
0
100
AcDbLine
 10
8.043124002365676
 20
7.088884479912955
 30
0.0
 11
8.039488611136359
 21
7.085884344127563
 31
0.0
  0
LINE
  5
4EB9
330
1F
100
AcDbEntity
  8
0
100
AcDbLine
 10
8.039488611136359
 20
7.085884344127563
 30
0.0
 11
8.036802935562619
 21
7.081920415261603
 31
0.0
  0
LINE
  5
4EBA
330
1F
100
AcDbEntity
  8
0
100
AcDbLine
 10
8.036802935562619
 20
7.081920415261603
 30
0.0
 11
8.035249999996523
 21
7.077262828516587
 31
0.0
  0
LINE
  5
4EBB
330
1F
100
AcDbEntity
  8
0
100
AcDbLine
 10
8.035249999996523
 20
7.077262828516587
 30
0.0
 11
8.034935634430539
 21
7.072228990732163
 31
0.0
  0
LINE
  5
4EBC
330
1F
100
AcDbEntity
  8
0
100
AcDbLine
 10
8.034935634430539
 20
7.072228990732163
 30
0.0
 11
8.035881262358486
 21
7.067161949634531
 31
0.0
  0
LINE
  5
4EBD
330
1F
100
AcDbEntity
  8
0
100
AcDbLine
 10
8.035881262358486
 20
7.067161949634531
 30
0.0
 11
8.038022440799796
 21
7.062407015700813
 31
0.0
  0
LINE
  5
4EBE
330
1F
100
AcDbEntity
  8
0
100
AcDbLine
 10
8.067489215286709
 20
7.056777926772877
 30
0.0
 11
8.063725228297723
 21
7.054599059339174
 31
0.0
  0
LINE
  5
4EBF
330
1F
100
AcDbEntity
  8
0
100
AcDbLine
 10
8.046887989354658
 20
7.091063347346658
 30
0.0
 11
8.043124002365676
 21
7.088884479912955
 31
0.0
  0
LINE
  5
4EC0
330
1F
100
AcDbEntity
  8
0
100
AcDbLine
 10
8.172690767202826
 20
7.004083840801726
 30
0.0
 11
8.177865582386189
 21
7.004711084623959
 31
0.0
  0
LINE
  5
4EC1
330
1F
100
AcDbEntity
  8
0
100
AcDbLine
 10
8.177865582386189
 20
7.004711084623959
 30
0.0
 11
8.182684643964901
 21
7.006523956295605
 31
0.0
  0
LINE
  5
4EC2
330
1F
100
AcDbEntity
  8
0
100
AcDbLine
 10
8.182684643964901
 20
7.006523956295605
 30
0.0
 11
8.186819540856255
 21
7.009398911608169
 31
0.0
  0
LINE
  5
4EC3
330
1F
100
AcDbEntity
  8
0
100
AcDbLine
 10
8.186819540856255
 20
7.009398911608169
 30
0.0
 11
8.18998848667034
 21
7.013140027108178
 31
0.0
  0
LINE
  5
4EC4
330
1F
100
AcDbEntity
  8
0
100
AcDbLine
 10
8.18998848667034
 20
7.013140027108178
 30
0.0
 11
8.191975522986862
 21
7.017492351956793
 31
0.0
  0
LINE
  5
4EC5
330
1F
100
AcDbEntity
  8
0
100
AcDbLine
 10
8.191975522986862
 20
7.017492351956793
 30
0.0
 11
8.192645236564576
 21
7.022159282408143
 31
0.0
  0
LINE
  5
4EC6
330
1F
100
AcDbEntity
  8
0
100
AcDbLine
 10
8.192645236564576
 20
7.022159282408143
 30
0.0
 11
8.191951987529922
 21
7.026822774864427
 31
0.0
  0
LINE
  5
4EC7
330
1F
100
AcDbEntity
  8
0
100
AcDbLine
 10
8.191951987529922
 20
7.026822774864427
 30
0.0
 11
8.189943019658961
 21
7.031165020021539
 31
0.0
  0
LINE
  5
4EC8
330
1F
100
AcDbEntity
  8
0
100
AcDbLine
 10
8.189943019658961
 20
7.031165020021539
 30
0.0
 11
8.186755240792123
 21
7.034890101047928
 31
0.0
  0
LINE
  5
4EC9
330
1F
100
AcDbEntity
  8
0
100
AcDbLine
 10
8.186755240792123
 20
7.034890101047928
 30
0.0
 11
8.182605892791126
 21
7.037744159827621
 31
0.0
  0
LINE
  5
4ECA
330
1F
100
AcDbEntity
  8
0
100
AcDbLine
 10
8.182605892791126
 20
7.037744159827621
 30
0.0
 11
8.17777774686511
 21
7.039532696971345
 31
0.0
  0
LINE
  5
4ECB
330
1F
100
AcDbEntity
  8
0
100
AcDbLine
 10
8.17777774686511
 20
7.039532696971345
 30
0.0
 11
8.172599833180061
 21
7.040133826628455
 31
0.0
  0
LINE
  5
4ECC
330
1F
100
AcDbEntity
  8
0
100
AcDbLine
 10
8.172599833180061
 20
7.040133826628455
 30
0.0
 11
8.167425017996702
 21
7.039506582806225
 31
0.0
  0
LINE
  5
4ECD
330
1F
100
AcDbEntity
  8
0
100
AcDbLine
 10
8.167425017996702
 20
7.039506582806225
 30
0.0
 11
8.162605956417987
 21
7.037693711134572
 31
0.0
  0
LINE
  5
4ECE
330
1F
100
AcDbEntity
  8
0
100
AcDbLine
 10
8.162605956417987
 20
7.037693711134572
 30
0.0
 11
8.158471059526636
 21
7.034818755822012
 31
0.0
  0
LINE
  5
4ECF
330
1F
100
AcDbEntity
  8
0
100
AcDbLine
 10
8.158471059526636
 20
7.034818755822012
 30
0.0
 11
8.155302113712547
 21
7.031077640322003
 31
0.0
  0
LINE
  5
4ED0
330
1F
100
AcDbEntity
  8
0
100
AcDbLine
 10
8.155302113712547
 20
7.031077640322003
 30
0.0
 11
8.15331507739603
 21
7.026725315473388
 31
0.0
  0
LINE
  5
4ED1
330
1F
100
AcDbEntity
  8
0
100
AcDbLine
 10
8.15331507739603
 20
7.026725315473388
 30
0.0
 11
8.152645363818312
 21
7.022058385022042
 31
0.0
  0
LINE
  5
4ED2
330
1F
100
AcDbEntity
  8
0
100
AcDbLine
 10
8.152645363818312
 20
7.022058385022042
 30
0.0
 11
8.153338612852966
 21
7.017394892565757
 31
0.0
  0
LINE
  5
4ED3
330
1F
100
AcDbEntity
  8
0
100
AcDbLine
 10
8.153338612852966
 20
7.017394892565757
 30
0.0
 11
8.15534758072393
 21
7.013052647408638
 31
0.0
  0
LINE
  5
4ED4
330
1F
100
AcDbEntity
  8
0
100
AcDbLine
 10
8.15534758072393
 20
7.013052647408638
 30
0.0
 11
8.158535359590771
 21
7.009327566382253
 31
0.0
  0
LINE
  5
4ED5
330
1F
100
AcDbEntity
  8
0
100
AcDbLine
 10
8.158535359590771
 20
7.009327566382253
 30
0.0
 11
8.162684707591772
 21
7.006473507602557
 31
0.0
  0
LINE
  5
4ED6
330
1F
100
AcDbEntity
  8
0
100
AcDbLine
 10
8.162684707591772
 20
7.006473507602557
 30
0.0
 11
8.167512853517777
 21
7.004684970458832
 31
0.0
  0
LINE
  5
4ED7
330
1F
100
AcDbEntity
  8
0
100
AcDbLine
 10
8.167512853517777
 20
7.004684970458832
 30
0.0
 11
8.172690767202826
 21
7.004083840801726
 31
0.0
  0
LINE
  5
4ED8
330
1F
100
AcDbEntity
  8
0
100
AcDbLine
 10
8.192634307000236
 20
7.026492211134836
 30
0.0
 11
8.192645236564576
 21
7.022159282408143
 31
0.0
  0
LINE
  5
4ED9
330
1F
100
AcDbEntity
  8
0
100
AcDbLine
 10
8.152634434253975
 20
7.026391313748735
 30
0.0
 11
8.152645363818312
 21
7.022058385022042
 31
0.0
  0
LINE
  5
4EDA
330
1F
100
AcDbEntity
  8
0
100
AcDbLine
 10
8.2455066029882
 20
7.068656099217172
 30
0.0
 11
8.245737792350205
 21
7.06360404956608
 31
0.0
  0
LINE
  5
4EDB
330
1F
100
AcDbEntity
  8
0
100
AcDbLine
 10
8.245737792350205
 20
7.06360404956608
 30
0.0
 11
8.247213187103557
 21
7.058903541873338
 31
0.0
  0
LINE
  5
4EDC
330
1F
100
AcDbEntity
  8
0
100
AcDbLine
 10
8.247213187103557
 20
7.058903541873338
 30
0.0
 11
8.249832241534029
 21
7.054874907970244
 31
0.0
  0
LINE
  5
4EDD
330
1F
100
AcDbEntity
  8
0
100
AcDbLine
 10
8.249832241534029
 20
7.054874907970244
 30
0.0
 11
8.253416471410378
 21
7.051792692599672
 31
0.0
  0
LINE
  5
4EDE
330
1F
100
AcDbEntity
  8
0
100
AcDbLine
 10
8.253416471410378
 20
7.051792692599672
 30
0.0
 11
8.257721617389748
 21
7.049866943645511
 31
0.0
  0
LINE
  5
4EDF
330
1F
100
AcDbEntity
  8
0
100
AcDbLine
 10
8.257721617389748
 20
7.049866943645511
 30
0.0
 11
8.262454290888229
 21
7.049228897716545
 31
0.0
  0
LINE
  5
4EE0
330
1F
100
AcDbEntity
  8
0
100
AcDbLine
 10
8.262454290888229
 20
7.049228897716545
 30
0.0
 11
8.267291968028018
 21
7.049922036588409
 31
0.0
  0
LINE
  5
4EE1
330
1F
100
AcDbEntity
  8
0
100
AcDbLine
 10
8.267291968028018
 20
7.049922036588409
 30
0.0
 11
8.271904969106682
 21
7.051899123992459
 31
0.0
  0
LINE
  5
4EE2
330
1F
100
AcDbEntity
  8
0
100
AcDbLine
 10
8.271904969106682
 20
7.051899123992459
 30
0.0
 11
8.27597892572405
 21
7.055025424689386
 31
0.0
  0
LINE
  5
4EE3
330
1F
100
AcDbEntity
  8
0
100
AcDbLine
 10
8.27597892572405
 20
7.055025424689386
 30
0.0
 11
8.279236204469182
 21
7.059087886453166
 31
0.0
  0
LINE
  5
4EE4
330
1F
100
AcDbEntity
  8
0
100
AcDbLine
 10
8.279236204469182
 20
7.059087886453166
 30
0.0
 11
8.2814548271785
 21
7.063809659228123
 31
0.0
  0
LINE
  5
4EE5
330
1F
100
AcDbEntity
  8
0
100
AcDbLine
 10
8.2814548271785
 20
7.063809659228123
 30
0.0
 11
8.282483598380814
 21
7.068868962002746
 31
0.0
  0
LINE
  5
4EE6
330
1F
100
AcDbEntity
  8
0
100
AcDbLine
 10
8.282483598380814
 20
7.068868962002746
 30
0.0
 11
8.282252409018813
 21
7.073921011653837
 31
0.0
  0
LINE
  5
4EE7
330
1F
100
AcDbEntity
  8
0
100
AcDbLine
 10
8.282252409018813
 20
7.073921011653837
 30
0.0
 11
8.28077701426546
 21
7.078621519346576
 31
0.0
  0
LINE
  5
4EE8
330
1F
100
AcDbEntity
  8
0
100
AcDbLine
 10
8.28077701426546
 20
7.078621519346576
 30
0.0
 11
8.278157959834988
 21
7.082650153249673
 31
0.0
  0
LINE
  5
4EE9
330
1F
100
AcDbEntity
  8
0
100
AcDbLine
 10
8.278157959834988
 20
7.082650153249673
 30
0.0
 11
8.274573729958639
 21
7.085732368620249
 31
0.0
  0
LINE
  5
4EEA
330
1F
100
AcDbEntity
  8
0
100
AcDbLine
 10
8.274573729958639
 20
7.085732368620249
 30
0.0
 11
8.270268583979273
 21
7.087658117574406
 31
0.0
  0
LINE
  5
4EEB
330
1F
100
AcDbEntity
  8
0
100
AcDbLine
 10
8.270268583979273
 20
7.087658117574406
 30
0.0
 11
8.265535910480789
 21
7.088296163503372
 31
0.0
  0
LINE
  5
4EEC
330
1F
100
AcDbEntity
  8
0
100
AcDbLine
 10
8.265535910480789
 20
7.088296163503372
 30
0.0
 11
8.260698233340992
 21
7.087603024631508
 31
0.0
  0
LINE
  5
4EED
330
1F
100
AcDbEntity
  8
0
100
AcDbLine
 10
8.260698233340992
 20
7.087603024631508
 30
0.0
 11
8.256085232262332
 21
7.085625937227462
 31
0.0
  0
LINE
  5
4EEE
330
1F
100
AcDbEntity
  8
0
100
AcDbLine
 10
8.256085232262332
 20
7.085625937227462
 30
0.0
 11
8.252011275644964
 21
7.082499636530528
 31
0.0
  0
LINE
  5
4EEF
330
1F
100
AcDbEntity
  8
0
100
AcDbLine
 10
8.252011275644964
 20
7.082499636530528
 30
0.0
 11
8.248753996899836
 21
7.078437174766751
 31
0.0
  0
LINE
  5
4EF0
330
1F
100
AcDbEntity
  8
0
100
AcDbLine
 10
8.248753996899836
 20
7.078437174766751
 30
0.0
 11
8.246535374190518
 21
7.073715401991794
 31
0.0
  0
LINE
  5
4EF1
330
1F
100
AcDbEntity
  8
0
100
AcDbLine
 10
8.246535374190518
 20
7.073715401991794
 30
0.0
 11
8.2455066029882
 21
7.068656099217172
 31
0.0
  0
LINE
  5
4EF2
330
1F
100
AcDbEntity
  8
0
100
AcDbLine
 10
8.249681456078903
 20
7.053938960193892
 30
0.0
 11
8.253416471410378
 21
7.051792692599672
 31
0.0
  0
LINE
  5
4EF3
330
1F
100
AcDbEntity
  8
0
100
AcDbLine
 10
8.270838714627164
 20
7.087878636214469
 30
0.0
 11
8.274573729958639
 21
7.085732368620249
 31
0.0
  0
LINE
  5
4EF4
330
1F
100
AcDbEntity
  8
0
100
AcDbLine
 10
6.940076887599019
 20
7.901462571518433
 30
0.0
 11
6.937488007609317
 21
7.901798034096259
 31
0.0
  0
LINE
  5
4EF5
330
1F
100
AcDbEntity
  8
0
100
AcDbLine
 10
6.937488007609317
 20
7.901798034096259
 30
0.0
 11
6.934900517462043
 21
7.901452014617113
 31
0.0
  0
LINE
  5
4EF6
330
1F
100
AcDbEntity
  8
0
100
AcDbLine
 10
6.934900517462043
 20
7.901452014617113
 30
0.0
 11
6.932490750334704
 21
7.900448093736674
 31
0.0
  0
LINE
  5
4EF7
330
1F
100
AcDbEntity
  8
0
100
AcDbLine
 10
6.942490729538167
 20
7.900468488103946
 30
0.0
 11
6.940076887599019
 21
7.901462571518433
 31
0.0
  0
LINE
  5
4EF8
330
1F
100
AcDbEntity
  8
0
100
AcDbLine
 10
6.932490750334704
 20
7.900448093736674
 30
0.0
 11
6.930422927874694
 21
7.898854687003897
 31
0.0
  0
LINE
  5
4EF9
330
1F
100
AcDbEntity
  8
0
100
AcDbLine
 10
7.120789751577053
 20
7.798010878040877
 30
0.0
 11
7.083866350366552
 21
7.819229219541956
 31
0.0
  0
LINE
  5
4EFA
330
1F
100
AcDbEntity
  8
0
100
AcDbLine
 10
7.105199291875894
 20
8.203170996271023
 30
0.0
 11
7.103614332767893
 21
8.201096691723709
 31
0.0
  0
LINE
  5
4EFB
330
1F
100
AcDbEntity
  8
0
100
AcDbLine
 10
7.107267114334721
 20
8.204764403001753
 30
0.0
 11
7.105199291875894
 21
8.203170996271023
 31
0.0
  0
LINE
  5
4EFC
330
1F
100
AcDbEntity
  8
0
100
AcDbLine
 10
7.109676881461048
 20
8.20576832388043
 30
0.0
 11
7.107267114334721
 21
8.204764403001753
 31
0.0
  0
LINE
  5
4EFD
330
1F
100
AcDbEntity
  8
0
100
AcDbLine
 10
7.112264371607547
 20
8.206114343358226
 30
0.0
 11
7.109676881461048
 21
8.20576832388043
 31
0.0
  0
LINE
  5
4EFE
330
1F
100
AcDbEntity
  8
0
100
AcDbLine
 10
7.114853251596759
 20
8.205778880779551
 30
0.0
 11
7.112264371607547
 21
8.206114343358226
 31
0.0
  0
LINE
  5
4EFF
330
1F
100
AcDbEntity
  8
0
100
AcDbLine
 10
7.117267093535748
 20
8.204784797364769
 30
0.0
 11
7.114853251596759
 21
8.205778880779551
 31
0.0
  0
LINE
  5
4F00
330
1F
100
AcDbEntity
  8
0
100
AcDbLine
 10
7.119341398085431
 20
8.203199838255795
 30
0.0
 11
7.117267093535748
 21
8.204784797364769
 31
0.0
  0
LINE
  5
4F01
330
1F
100
AcDbEntity
  8
0
100
AcDbLine
 10
7.120934804818702
 20
8.201132015796638
 30
0.0
 11
7.119341398085431
 21
8.203199838255795
 31
0.0
  0
LINE
  5
4F02
330
1F
100
AcDbEntity
  8
0
100
AcDbLine
 10
7.121938725699912
 20
8.198722248670648
 30
0.0
 11
7.120934804818702
 21
8.201132015796638
 31
0.0
  0
LINE
  5
4F03
330
1F
100
AcDbEntity
  8
0
100
AcDbLine
 10
7.122284745180071
 20
8.196134758525136
 30
0.0
 11
7.121938725699912
 21
8.198722248670648
 31
0.0
  0
LINE
  5
4F04
330
1F
100
AcDbEntity
  8
0
100
AcDbLine
 10
7.121949282603427
 20
8.193545878537488
 30
0.0
 11
7.122284745180071
 21
8.196134758525136
 31
0.0
  0
LINE
  5
4F05
330
1F
100
AcDbEntity
  8
0
100
AcDbLine
 10
7.120955199190202
 20
8.191132036600532
 30
0.0
 11
7.121949282603427
 21
8.193545878537488
 31
0.0
  0
LINE
  5
4F06
330
1F
100
AcDbEntity
  8
0
100
AcDbLine
 10
6.929232868112379
 20
7.897631529333366
 30
0.0
 11
6.923842279744405
 21
7.888250625361163
 31
0.0
  0
LINE
  5
4F07
330
1F
100
AcDbEntity
  8
0
100
AcDbLine
 10
6.781376842369166
 20
7.625450731342841
 30
0.0
 11
6.783451146918839
 21
7.623865772233845
 31
0.0
  0
LINE
  5
4F08
330
1F
100
AcDbEntity
  8
0
100
AcDbLine
 10
6.779783435635938
 20
7.627518553802072
 30
0.0
 11
6.781376842369166
 21
7.625450731342841
 31
0.0
  0
LINE
  5
4F09
330
1F
100
AcDbEntity
  8
0
100
AcDbLine
 10
6.778779514754788
 20
7.629928320928172
 30
0.0
 11
6.779783435635938
 21
7.627518553802072
 31
0.0
  0
LINE
  5
4F0A
330
1F
100
AcDbEntity
  8
0
100
AcDbLine
 10
6.778433495274715
 20
7.632515811073833
 30
0.0
 11
6.778779514754788
 21
7.629928320928172
 31
0.0
  0
LINE
  5
4F0B
330
1F
100
AcDbEntity
  8
0
100
AcDbLine
 10
6.778768957851458
 20
7.635104691061652
 30
0.0
 11
6.778433495274715
 21
7.632515811073833
 31
0.0
  0
LINE
  5
4F0C
330
1F
100
AcDbEntity
  8
0
100
AcDbLine
 10
6.779763041264789
 20
7.63751853299879
 30
0.0
 11
6.778768957851458
 21
7.635104691061652
 31
0.0
  0
LINE
  5
4F0D
330
1F
100
AcDbEntity
  8
0
100
AcDbLine
 10
6.79551894857899
 20
7.625479573328117
 30
0.0
 11
6.797103907687098
 21
7.627553877875612
 31
0.0
  0
LINE
  5
4F0E
330
1F
100
AcDbEntity
  8
0
100
AcDbLine
 10
6.793451126120064
 20
7.623886166597213
 30
0.0
 11
6.79551894857899
 21
7.625479573328117
 31
0.0
  0
LINE
  5
4F0F
330
1F
100
AcDbEntity
  8
0
100
AcDbLine
 10
6.791041358993652
 20
7.622882245718393
 30
0.0
 11
6.793451126120064
 21
7.623886166597213
 31
0.0
  0
LINE
  5
4F10
330
1F
100
AcDbEntity
  8
0
100
AcDbLine
 10
6.788453868847092
 20
7.622536226240484
 30
0.0
 11
6.791041358993652
 21
7.622882245718393
 31
0.0
  0
LINE
  5
4F11
330
1F
100
AcDbEntity
  8
0
100
AcDbLine
 10
6.785864988857838
 20
7.622871688819085
 30
0.0
 11
6.788453868847092
 21
7.622536226240484
 31
0.0
  0
LINE
  5
4F12
330
1F
100
AcDbEntity
  8
0
100
AcDbLine
 10
6.783451146918839
 20
7.623865772233845
 30
0.0
 11
6.785864988857838
 21
7.622871688819085
 31
0.0
  0
LINE
  5
4F13
330
1F
100
AcDbEntity
  8
0
100
AcDbLine
 10
6.929232868112379
 20
7.897631529333366
 30
0.0
 11
6.929301263201718
 21
7.897386715924646
 31
0.0
  0
LINE
  5
4F14
330
1F
100
AcDbEntity
  8
0
100
AcDbLine
 10
6.929551940100711
 20
7.897714787626309
 30
0.0
 11
6.929232868112379
 21
7.897631529333366
 31
0.0
  0
LINE
  5
4F6C
330
1F
100
AcDbEntity
  8
0
100
AcDbLine
 10
10.133850692848
 20
8.528403132755983
 30
0.0
 11
10.13213978379131
 21
8.52741068106965
 31
0.0
  0
LINE
  5
4F6D
330
1F
100
AcDbEntity
  8
0
100
AcDbLine
 10
10.37174748823346
 20
8.118415653714599
 30
0.0
 11
10.37000819548509
 21
8.117406737422768
 31
0.0
  0
LINE
  5
4F6E
330
1F
100
AcDbEntity
  8
0
100
AcDbLine
 10
9.124049546950431
 20
7.988494737384201
 30
0.0
 11
10.11530365983626
 21
8.563494216208408
 31
0.0
  0
LINE
  5
4F6F
330
1F
100
AcDbEntity
  8
0
100
AcDbLine
 10
10.11530365983626
 20
8.563494216208408
 30
0.0
 11
10.37524951201402
 21
8.714281716186171
 31
0.0
  0
LINE
  5
4F70
330
1F
100
AcDbEntity
  8
0
100
AcDbLine
 10
9.403714928387099
 20
7.508630984731944
 30
0.0
 11
10.39375204189483
 21
8.082924515405181
 31
0.0
  0
LINE
  5
4F71
330
1F
100
AcDbEntity
  8
0
100
AcDbLine
 10
10.39375204189483
 20
8.082924515405181
 30
0.0
 11
10.65393508051214
 21
8.233849600768312
 31
0.0
  0
LINE
  5
4F72
330
1F
100
AcDbEntity
  8
0
100
AcDbLine
 10
10.39196850647323
 20
8.685459477851459
 30
0.0
 11
10.13202265429547
 21
8.534671977873696
 31
0.0
  0
LINE
  5
4F73
330
1F
100
AcDbEntity
  8
0
100
AcDbLine
 10
10.13202265429547
 20
8.534671977873696
 30
0.0
 11
9.140827322663291
 21
7.959706596451731
 31
0.0
  0
LINE
  5
4F74
330
1F
100
AcDbEntity
  8
0
100
AcDbLine
 10
9.384832401316007
 20
7.541030562589394
 30
0.0
 11
10.37494418318055
 21
8.115367406340162
 31
0.0
  0
LINE
  5
4F75
330
1F
100
AcDbEntity
  8
0
100
AcDbLine
 10
10.37494418318055
 20
8.115367406340162
 30
0.0
 11
10.63511870873078
 21
8.266287553505243
 31
0.0
  0
LINE
  5
4F76
330
1F
100
AcDbEntity
  8
0
100
AcDbLine
 10
8.404094435638661
 20
4.72405984007716
 30
0.0
 11
8.404090401794615
 21
4.726037756626993
 31
0.0
  0
LINE
  5
4F77
330
1F
100
AcDbEntity
  8
0
100
AcDbLine
 10
7.930086465862551
 20
4.72302891131514
 30
0.0
 11
7.930082365097721
 21
4.725039641165757
 31
0.0
  0
LINE
  5
4F88
330
1F
100
AcDbEntity
  8
0
100
AcDbLine
 10
7.885923397907919
 20
5.886794156941476
 30
0.0
 11
7.888347961646683
 21
4.721717978000167
 31
0.0
  0
LINE
  5
4F89
330
1F
100
AcDbEntity
  8
0
100
AcDbLine
 10
7.888347961646683
 20
4.721717978000167
 30
0.0
 11
7.889700971491333
 21
4.444546809399234
 31
0.0
  0
LINE
  5
4F8B
330
1F
100
AcDbEntity
  8
0
100
AcDbLine
 10
7.92342309880496
 20
5.886984272535798
 30
0.0
 11
7.925848258725729
 21
4.72178461597003
 31
0.0
  0
LINE
  5
4F8C
330
1F
100
AcDbEntity
  8
0
100
AcDbLine
 10
7.925848258725729
 20
4.72178461597003
 30
0.0
 11
7.926551786785147
 21
4.44198403849969
 31
0.0
  0
LINE
  5
4F8D
330
1F
100
AcDbEntity
  8
0
100
AcDbLine
 10
6.929301263201718
 20
7.897386715924646
 30
0.0
 11
6.928837968765432
 21
7.896780382454377
 31
0.0
  0
LINE
  5
4FC1
330
1F
100
AcDbEntity
  8
0
100
AcDbLine
 10
8.441347532667986
 20
5.889610040453998
 30
0.0
 11
8.443757721860649
 21
4.722576500103951
 31
0.0
  0
LINE
  5
4FC2
330
1F
100
AcDbEntity
  8
0
100
AcDbLine
 10
8.443757721860649
 20
4.722576500103951
 30
0.0
 11
8.445611691152858
 21
4.446222233062698
 31
0.0
  0
LINE
  5
4FC3
330
1F
100
AcDbEntity
  8
0
100
AcDbLine
 10
8.411149484080052
 20
4.443281470827301
 30
0.0
 11
8.410437434039256
 21
4.722508545343899
 31
0.0
  0
LINE
  5
4FC4
330
1F
100
AcDbEntity
  8
0
100
AcDbLine
 10
8.410437434039256
 20
4.722508545343899
 30
0.0
 11
8.408027756740686
 21
5.889441116199897
 31
0.0
  0
LINE
  5
4FC5
330
1F
100
AcDbEntity
  8
0
100
AcDbLine
 10
6.930422927874694
 20
7.898854687003897
 30
0.0
 11
6.929551940100711
 21
7.897714787626309
 31
0.0
  0
LINE
  5
4FC6
330
1F
100
AcDbEntity
  8
0
100
AcDbLine
 10
6.929551940100711
 20
7.897714787626309
 30
0.0
 11
6.929301263201718
 21
7.897386715924646
 31
0.0
  0
LINE
  5
4FE2
330
1F
100
AcDbEntity
  8
0
100
AcDbLine
 10
10.37674059063309
 20
8.669296938716087
 30
0.0
 11
10.39321378099668
 21
8.67885258721278
 31
0.0
  0
LINE
  5
4FE3
330
1F
100
AcDbEntity
  8
0
100
AcDbLine
 10
10.61484338709993
 20
8.259428955284242
 30
0.0
 11
10.63158986490345
 21
8.269143130372135
 31
0.0
  0
LINE
  5
4FE4
330
1F
100
AcDbEntity
  8
0
100
AcDbLine
 10
10.11076949529535
 20
8.568193311437859
 30
0.0
 11
10.37013258344403
 21
8.718642765894653
 31
0.0
  0
LINE
  5
4FE5
330
1F
100
AcDbEntity
  8
0
100
AcDbLine
 10
10.133850692848
 20
8.528403132755983
 30
0.0
 11
10.37674059063309
 21
8.669296938716087
 31
0.0
  0
LINE
  5
4FE6
330
1F
100
AcDbEntity
  8
0
100
AcDbLine
 10
10.37174748823346
 20
8.118415653714599
 30
0.0
 11
10.61484338709993
 21
8.259428955284242
 31
0.0
  0
LINE
  5
4FE7
330
1F
100
AcDbEntity
  8
0
100
AcDbLine
 10
10.39470847066556
 20
8.078576750715164
 30
0.0
 11
10.65359227029292
 21
8.228748182971216
 31
0.0
  0
LINE
  5
4FE8
330
1F
100
AcDbEntity
  8
0
100
AcDbLine
 10
9.14401960844345
 20
7.954229113946972
 30
0.0
 11
10.13213978379131
 21
8.52741068106965
 31
0.0
  0
LINE
  5
4FE9
330
1F
100
AcDbEntity
  8
0
100
AcDbLine
 10
9.120857261170264
 20
7.993972219888966
 30
0.0
 11
10.11076949529535
 21
8.568193311437859
 31
0.0
  0
LINE
  5
4FEA
330
1F
100
AcDbEntity
  8
0
100
AcDbLine
 10
9.382697066542842
 20
7.544694476056822
 30
0.0
 11
10.37000819548509
 21
8.117406737422768
 31
0.0
  0
LINE
  5
4FEB
330
1F
100
AcDbEntity
  8
0
100
AcDbLine
 10
9.405850263160264
 20
7.504967071264509
 30
0.0
 11
10.39470847066556
 21
8.078576750715164
 31
0.0
  0
LINE
  5
4FEC
330
1F
100
AcDbEntity
  8
0
100
AcDbLine
 10
8.404667101943442
 20
4.443264115292617
 30
0.0
 11
8.404705941109416
 21
4.424220089708022
 31
0.0
  0
LINE
  5
4FED
330
1F
100
AcDbEntity
  8
0
100
AcDbLine
 10
7.930659617860147
 20
4.441995036556146
 30
0.0
 11
7.930699101361309
 21
4.422635073810429
 31
0.0
  0
LINE
  5
4FEE
330
1F
100
AcDbEntity
  8
0
100
AcDbLine
 10
8.450094339974608
 20
4.724153654166588
 30
0.0
 11
8.450705845445366
 21
4.42431390379745
 31
0.0
  0
LINE
  5
4FEF
330
1F
100
AcDbEntity
  8
0
100
AcDbLine
 10
8.404094435638661
 20
4.72405984007716
 30
0.0
 11
8.404667101943442
 21
4.443264115292617
 31
0.0
  0
LINE
  5
4FF0
330
1F
100
AcDbEntity
  8
0
100
AcDbLine
 10
7.930086465862551
 20
4.72302891131514
 30
0.0
 11
7.930659617860147
 21
4.441995036556146
 31
0.0
  0
LINE
  5
4FF1
330
1F
100
AcDbEntity
  8
0
100
AcDbLine
 10
7.884104472590088
 20
4.723063568732811
 30
0.0
 11
7.884714848032839
 21
4.42377790549925
 31
0.0
  0
LINE
  5
4FF2
330
1F
100
AcDbEntity
  8
0
100
AcDbLine
 10
8.401704041672591
 20
5.889409056294891
 30
0.0
 11
8.404090401794615
 21
4.726037756626993
 31
0.0
  0
LINE
  5
4FF3
330
1F
100
AcDbEntity
  8
0
100
AcDbLine
 10
8.447703239319586
 20
5.889642262549603
 30
0.0
 11
8.450094339974608
 21
4.724153654166588
 31
0.0
  0
LINE
  5
4FF4
330
1F
100
AcDbEntity
  8
0
100
AcDbLine
 10
7.927702566350941
 20
5.887005968535937
 30
0.0
 11
7.930082365097721
 21
4.725039641165757
 31
0.0
  0
LINE
  5
4FF5
330
1F
100
AcDbEntity
  8
0
100
AcDbLine
 10
7.881721988963693
 20
5.886772856682025
 30
0.0
 11
7.884104472590088
 21
4.723063568732811
 31
0.0
  0
LINE
  5
4FF6
330
1F
100
AcDbEntity
  8
0
100
AcDbLine
 10
6.942490729538167
 20
7.900468488103946
 30
0.0
 11
6.951090347494044
 21
7.895526853410814
 31
0.0
  0
LINE
  5
4FF7
330
1F
100
AcDbEntity
  8
0
100
AcDbLine
 10
7.083866350366552
 20
7.819229219541956
 30
0.0
 11
6.951090347494044
 21
7.895526853410814
 31
0.0
  0
LINE
  5
4FF8
330
1F
100
AcDbEntity
  8
0
100
AcDbLine
 10
7.103614332767893
 20
8.201096691723709
 30
0.0
 11
7.053791057152032
 21
8.114392359612182
 31
0.0
  0
LINE
  5
4FF9
330
1F
100
AcDbEntity
  8
0
100
AcDbLine
 10
7.120955199190202
 20
8.191132036600532
 30
0.0
 11
7.071131923574338
 21
8.104427704489005
 31
0.0
  0
LINE
  5
4FFA
330
1F
100
AcDbEntity
  8
0
100
AcDbLine
 10
6.779763041264789
 20
7.63751853299879
 30
0.0
 11
6.923842279744405
 21
7.888250625361163
 31
0.0
  0
LINE
  5
4FFB
330
1F
100
AcDbEntity
  8
0
100
AcDbLine
 10
6.797103907687098
 20
7.627553877875612
 30
0.0
 11
6.941125692370871
 21
7.878185986988508
 31
0.0
  0
LINE
  5
4FFC
330
1F
100
AcDbEntity
  8
0
100
AcDbLine
 10
7.053791057152032
 20
8.114392359612182
 30
0.0
 11
6.929232868112379
 21
7.897631529333366
 31
0.0
  0
LINE
  5
4FFD
330
1F
100
AcDbEntity
  8
0
100
AcDbLine
 10
7.071131923574338
 20
8.104427704489005
 30
0.0
 11
6.951090347494044
 21
7.895526853410814
 31
0.0
  0
LINE
  5
503C
330
1F
100
AcDbEntity
  8
0
100
AcDbLine
 10
6.737238578619958
 20
7.129905935642327
 30
0.0
 11
7.465905852097908
 21
5.884664756347952
 31
0.0
  0
LINE
  5
503D
330
1F
100
AcDbEntity
  8
0
100
AcDbLine
 10
7.465905852097908
 20
5.884664756347952
 30
0.0
 11
8.897064695658247
 21
5.891920430596108
 31
0.0
  0
LINE
  5
503E
330
1F
100
AcDbEntity
  8
0
100
AcDbLine
 10
8.897064695658247
 20
5.891920430596108
 30
0.0
 11
9.621392015882218
 21
7.135129825828304
 31
0.0
  0
LINE
  5
503F
330
1F
100
AcDbEntity
  8
0
100
AcDbLine
 10
9.621392015882218
 20
7.135129825828304
 30
0.0
 11
8.89295180993869
 21
8.385023713341887
 31
0.0
  0
LINE
  5
5040
330
1F
100
AcDbEntity
  8
0
100
AcDbLine
 10
8.89295180993869
 20
8.385023713341887
 30
0.0
 11
7.456786414547813
 21
8.383280972327092
 31
0.0
  0
LINE
  5
5041
330
1F
100
AcDbEntity
  8
0
100
AcDbLine
 10
7.456786414547813
 20
8.383280972327092
 30
0.0
 11
6.737238578619958
 21
7.129905935642327
 31
0.0
  0
LINE
  5
5042
330
1F
100
AcDbEntity
  8
0
100
AcDbLine
 10
6.932526074414994
 20
7.883127621681637
 30
0.0
 11
7.110831558311037
 21
7.780667190332657
 31
0.0
  0
LINE
  5
5043
330
1F
100
AcDbEntity
  8
0
100
AcDbLine
 10
6.930451769865481
 20
7.8847125807909
 30
0.0
 11
6.9288583631327
 21
7.886780403250909
 31
0.0
  0
LINE
  5
5044
330
1F
100
AcDbEntity
  8
0
100
AcDbLine
 10
6.9288583631327
 20
7.886780403250909
 30
0.0
 11
6.927854442252261
 21
7.889190170378249
 31
0.0
  0
LINE
  5
5045
330
1F
100
AcDbEntity
  8
0
100
AcDbLine
 10
6.927854442252261
 20
7.889190170378249
 30
0.0
 11
6.927508422773115
 21
7.891777660525523
 31
0.0
  0
LINE
  5
5046
330
1F
100
AcDbEntity
  8
0
100
AcDbLine
 10
6.932526074414994
 20
7.883127621681637
 30
0.0
 11
6.930451769865481
 21
7.8847125807909
 31
0.0
  0
LINE
  5
5047
330
1F
100
AcDbEntity
  8
0
100
AcDbLine
 10
6.927508422773115
 20
7.891777660525523
 30
0.0
 11
6.927843885350942
 21
7.894366540515225
 31
0.0
  0
LINE
  5
5048
330
1F
100
AcDbEntity
  8
0
100
AcDbLine
 10
6.928301438907926
 20
7.89601062131231
 30
0.0
 11
6.928547391354037
 21
7.896074799872497
 31
0.0
  0
LINE
  5
5049
330
1F
100
AcDbEntity
  8
0
100
AcDbLine
 10
6.928390167267792
 20
7.895693026987359
 30
0.0
 11
6.928301438907926
 21
7.89601062131231
 31
0.0
  0
LINE
  5
504A
330
1F
100
AcDbEntity
  8
0
100
AcDbLine
 10
6.928547391354037
 20
7.896074799872497
 30
0.0
 11
6.928837968765432
 21
7.896780382454377
 31
0.0
  0
LINE
  5
504B
330
1F
100
AcDbEntity
  8
0
100
AcDbLine
 10
6.927843885350942
 20
7.894366540515225
 30
0.0
 11
6.928390167267792
 21
7.895693026987359
 31
0.0
  0
LINE
  5
504C
330
1F
100
AcDbEntity
  8
0
100
AcDbLine
 10
6.928390167267792
 20
7.895693026987359
 30
0.0
 11
6.928547391354037
 21
7.896074799872497
 31
0.0
  0
LINE
  5
50DA
330
1F
100
AcDbEntity
  8
STREFA BEZPIECZEŃSTWA
100
AcDbLine
 10
7.187421335990681
 20
9.882955210752651
 30
0.0
 11
8.921575358778483
 21
9.885059551486095
 31
0.0
  0
LINE
  5
50DB
330
1F
100
AcDbEntity
  8
STREFA BEZPIECZEŃSTWA
100
AcDbLine
 10
8.921575358778483
 20
9.885059551486097
 30
0.0
 11
11.54590334358925
 21
11.42236067552572
 31
0.0
  0
LINE
  5
50DC
330
1F
100
AcDbEntity
  8
STREFA BEZPIECZEŃSTWA
100
AcDbLine
 10
11.57503109057376
 20
11.42236067552572
 30
0.0
 11
13.48174868698976
 21
8.127039806329442
 31
0.0
  0
LINE
  5
50DD
330
1F
100
AcDbEntity
  8
STREFA BEZPIECZEŃSTWA
100
AcDbLine
 10
13.48174868698976
 20
8.127039806329442
 30
0.0
 11
11.98866790848422
 21
7.266800876545456
 31
0.0
  0
LINE
  5
50DF
330
1F
100
AcDbEntity
  8
STREFA BEZPIECZEŃSTWA
100
AcDbLine
 10
11.98866790848422
 20
7.266800876545456
 30
0.0
 11
9.952146528976445
 21
3.722770022322606
 31
0.0
  0
LINE
  5
50E1
330
1F
100
AcDbEntity
  8
STREFA BEZPIECZEŃSTWA
100
AcDbLine
 10
9.952146528976445
 20
3.722770022322611
 30
0.0
 11
9.954094083365443
 21
1.922359026152612
 31
0.0
  0
LINE
  5
50E2
330
1F
100
AcDbEntity
  8
STREFA BEZPIECZEŃSTWA
100
AcDbLine
 10
9.955835749963199
 20
1.922360675525723
 30
0.0
 11
6.389839190233157
 21
1.918983646392479
 31
0.0
  0
LINE
  5
50E3
330
1F
100
AcDbEntity
  8
STREFA BEZPIECZEŃSTWA
100
AcDbLine
 10
6.387619448461581
 20
1.922360675525723
 30
0.0
 11
6.384016692792528
 21
4.763521838769978
 31
0.0
  0
LINE
  5
50E4
330
1F
100
AcDbEntity
  8
STREFA BEZPIECZEŃSTWA
100
AcDbLine
 10
6.384016692792528
 20
4.763521838769978
 30
0.0
 11
5.174994281007283
 21
6.829656203030467
 31
0.0
  0
LINE
  5
50E5
330
1F
100
AcDbEntity
  8
STREFA BEZPIECZEŃSTWA
100
AcDbLine
 10
5.174994281007283
 20
6.829656203030467
 30
0.0
 11
4.493177429791892
 21
7.221321232846265
 31
0.0
  0
LINE
  5
50E6
330
1F
100
AcDbEntity
  8
STREFA BEZPIECZEŃSTWA
100
AcDbLine
 10
4.493177429791892
 20
7.221321232846265
 30
0.0
 11
6.310427485568652
 21
10.38677562183417
 31
0.0
  0
LINE
  5
50E7
330
1F
100
AcDbEntity
  8
STREFA BEZPIECZEŃSTWA
100
AcDbLine
 10
6.310483716151104
 20
10.38687356946853
 30
0.0
 11
7.187421335990681
 21
9.882955210752651
 31
0.0
  0
LINE
  5
50E8
330
1F
100
AcDbEntity
  8
STREFA BEZPIECZEŃSTWA
100
AcDbLine
 10
7.187421335990681
 20
9.882955210752651
 30
0.0
 11
8.921575358778483
 21
9.885059551486095
 31
0.0
  0
LINE
  5
50EB
330
1F
100
AcDbEntity
  8
STREFA BEZPIECZEŃSTWA
100
AcDbLine
 10
12.70453854924171
 20
7.679249956819187
 30
0.0
 11
11.98866790848422
 21
7.266800876545456
 31
0.0
  0
LINE
  5
50ED
330
1F
100
AcDbEntity
  8
STREFA BEZPIECZEŃSTWA
100
AcDbLine
 10
11.92492601694651
 20
7.155874847194965
 30
0.0
 11
9.952146528976452
 21
3.722770022322619
 31
0.0
  0
LINE
  5
50EF
330
1F
100
AcDbEntity
  8
STREFA BEZPIECZEŃSTWA
100
AcDbLine
 10
9.952146528976452
 20
3.722770022322619
 30
0.0
 11
9.95377973102089
 21
2.925736654958321
 31
0.0
  0
LINE
  5
50F1
330
1F
100
AcDbEntity
  8
STREFA BEZPIECZEŃSTWA
100
AcDbLine
 10
6.387783171290845
 20
2.92235962582508
 30
0.0
 11
6.384016692792528
 21
4.763521838769978
 31
0.0
  0
LINE
  5
50F2
330
1F
100
AcDbEntity
  8
STREFA BEZPIECZEŃSTWA
100
AcDbLine
 10
6.384016692792528
 20
4.763521838769978
 30
0.0
 11
5.174994281007283
 21
6.829656203030467
 31
0.0
  0
LINE
  5
50F3
330
1F
100
AcDbEntity
  8
STREFA BEZPIECZEŃSTWA
100
AcDbLine
 10
5.174994281007283
 20
6.829656203030467
 30
0.0
 11
4.731748686989757
 21
7.08436028595732
 31
0.0
  0
LINE
  5
50F5
330
1F
100
AcDbEntity
  8
STREFA BEZPIECZEŃSTWA
100
AcDbLine
 10
6.310483716151104
 20
10.38687356946853
 30
0.0
 11
7.187421335990681
 21
9.882955210752651
 31
0.0
  0
DIMENSION
  5
5106
330
1F
100
AcDbEntity
  8
WYMIAR
100
AcDbDimension
  2
*D1
 10
13.48174868698976
 20
12.05318021584251
 30
0.0
 11
8.987463058390826
 21
12.26557631973862
 31
0.0
 70
    32
 71
     5
 42
8.988571257197868
  3
AR SKALA 1-50
100
AcDbAlignedDimension
 13
4.493177429791892
 23
6.497758975027104
 33
0.0
 14
13.48174868698976
 24
7.403477548510281
 34
0.0
100
AcDbRotatedDimension
  0
DIMENSION
  5
511A
330
1F
100
AcDbEntity
  8
WYMIAR
100
AcDbDimension
  2
*D2
 10
3.745159561948838
 20
11.42236067552572
 30
0.0
 11
3.532763458052732
 21
6.67235985083917
 31
0.0
 70
    32
 71
     5
 42
9.500001649373112
  3
AR SKALA 1-50
100
AcDbAlignedDimension
 13
10.48080926224694
 23
1.922359026152612
 33
0.0
 14
12.07261852247076
 24
11.42236067552572
 34
0.0
 50
90.0
100
AcDbRotatedDimension
  0
CIRCLE
  5
51D5
330
1F
100
AcDbEntity
  8
0
100
AcDbCircle
 10
8.167528726900414
 20
7.131096013926324
 30
0.0
 40
0.0248304211084971
  0
ARC
  5
51D6
330
1F
100
AcDbEntity
  8
0
100
AcDbCircle
 10
7.850243033586118
 20
7.630426674628814
 30
0.0
 40
0.532935279234085
100
AcDbArc
 50
270.4937219122278
 51
286.3927529514444
  0
ARC
  5
51D7
330
1F
100
AcDbEntity
  8
0
100
AcDbCircle
 10
7.806577421285759
 20
8.521343058713096
 30
0.0
 40
1.415554200586691
100
AcDbArc
 50
277.8799962437081
 51
284.008619110853
  0
ARC
  5
51D8
330
1F
100
AcDbEntity
  8
0
100
AcDbCircle
 10
7.762401902098887
 20
8.047572512863526
 30
0.0
 40
0.9800103257468235
100
AcDbArc
 50
275.6319887749353
 51
284.3813669262229
  0
ARC
  5
51D9
330
1F
100
AcDbEntity
  8
0
100
AcDbCircle
 10
7.836793820669599
 20
8.345764331968629
 30
0.0
 40
1.258890265692462
100
AcDbArc
 50
277.7158050035387
 51
284.1013601835852
  0
LINE
  5
51DA
330
1F
100
AcDbEntity
  8
0
100
AcDbLine
 10
7.854835318935925
 20
7.097511181546112
 30
0.0
 11
7.858578674245046
 21
7.07229292881086
 31
0.0
  0
LINE
  5
51EC
330
1F
100
AcDbEntity
  8
0
100
AcDbLine
 10
9.494691195848691
 20
6.660951151583585
 30
0.0
 11
9.49095727340045
 21
6.654422841286493
 31
0.0
  0
ARC
  5
51ED
330
1F
100
AcDbEntity
  8
0
100
AcDbCircle
 10
9.290004315070294
 20
6.729636778684451
 30
0.0
 40
0.2159037622021181
100
AcDbArc
 50
341.4500814641272
 51
37.39453466559463
  0
ARC
  5
51EE
330
1F
100
AcDbEntity
  8
0
100
AcDbCircle
 10
9.293444378483155
 20
6.732671067762762
 30
0.0
 40
0.172945637548428
100
AcDbArc
 50
340.2684514791365
 51
31.93714124295341
  0
LINE
  5
51EF
330
1F
100
AcDbEntity
  8
0
100
AcDbLine
 10
9.456235476402579
 20
6.674282267593376
 30
0.0
 11
9.319659429366721
 21
6.435495622567934
 31
0.0
  0
LINE
  5
51F0
330
1F
100
AcDbEntity
  8
0
100
AcDbLine
 10
9.354381226364619
 20
6.415636196261033
 30
0.0
 11
9.494691195848691
 21
6.660951151583585
 31
0.0
  0
LINE
  5
51F1
330
1F
100
AcDbEntity
  8
0
100
AcDbLine
 10
9.214071256880492
 20
6.170321240938511
 30
0.0
 11
9.217805179328733
 21
6.176849551235605
 31
0.0
  0
ARC
  5
51F2
330
1F
100
AcDbEntity
  8
0
100
AcDbCircle
 10
9.051091048656552
 20
6.311925923983633
 30
0.0
 40
0.2159037622021181
100
AcDbArc
 50
262.1623473361733
 51
319.0143903721999
  0
ARC
  5
51F3
330
1F
100
AcDbEntity
  8
0
100
AcDbCircle
 10
9.050219788122088
 20
6.307422386310165
 30
0.0
 40
0.172945637548428
100
AcDbArc
 50
267.4702328076154
 51
320.1960203571905
  0
LINE
  5
51F4
330
1F
100
AcDbEntity
  8
0
100
AcDbLine
 10
9.18308338233086
 20
6.196708977542488
 30
0.0
 11
9.319659429366719
 21
6.43549562256793
 31
0.0
  0
LINE
  5
51F5
330
1F
100
AcDbEntity
  8
0
100
AcDbLine
 10
9.354381226364619
 20
6.415636196261033
 30
0.0
 11
9.214071256880492
 21
6.170321240938511
 31
0.0
  0
VIEWPORT
  5
7CA
330
1B
100
AcDbEntity
 67
     1
  8
0
100
AcDbViewport
 10
225.0817696515583
 20
169.6157414468184
 30
0.0
 40
621.8437134298884
 41
314.7938599118925
 68
     1
 69
     1
 12
225.0817696515583
 22
169.6157414468184
 13
0.0
 23
0.0
 14
10.0
 24
10.0
 15
10.0
 25
10.0
 16
0.0
 26
0.0
 36
1.0
 17
0.0
 27
0.0
 37
0.0
 42
50.0
 43
0.0
 44
0.0
 45
314.7938599118925
 50
0.0
 51
0.0
 72
   100
 90
   819232
  1

281
     0
 71
     1
 74
     0
110
0.0
120
0.0
130
0.0
111
1.0
121
0.0
131
0.0
112
0.0
122
1.0
132
0.0
 79
     0
146
0.0
170
     0
  0
VIEWPORT
  5
99A
330
1B
100
AcDbEntity
 67
     1
  8
Defpoints
100
AcDbViewport
 10
211.6374382675827
 20
146.9348621411756
 30
0.0
 40
410.1517866444555
 41
287.3053455326816
 68
     2
 69
     2
 12
8.881653463506816
 22
6.790923209683612
 13
0.0
 23
0.0
 14
0.5
 24
0.5
 15
0.5
 25
0.5
 16
0.0
 26
0.0
 36
1.0
 17
0.0
 27
0.0
 37
-1000.0
 42
50.0
 43
4.148984367261674
 44
9.217858496371269
 45
14.36526866548175
 50
0.0
 51
0.0
 72
   100
 90
   819296
  1

281
     0
 71
     1
 74
     0
110
0.0
120
0.0
130
0.0
111
1.0
121
0.0
131
0.0
112
0.0
122
1.0
132
0.0
 79
     0
146
0.0
170
     0
  0
ENDSEC
  0
SECTION
  2
OBJECTS
  0
DICTIONARY
  5
C
330
0
100
AcDbDictionary
281
     1
  3
ACAD_COLOR
350
4B9
  3
ACAD_GROUP
350
D
  3
ACAD_LAYOUT
350
1A
  3
ACAD_MATERIAL
350
3B
  3
ACAD_MLEADERSTYLE
350
489
  3
ACAD_MLINESTYLE
350
17
  3
ACAD_PLOTSETTINGS
350
19
  3
ACAD_PLOTSTYLENAME
350
E
  3
ACAD_SCALELIST
350
5171
  3
ACAD_TABLESTYLE
350
4BA
  3
ACAD_VISUALSTYLE
350
2A
  3
ACDB_RECOMPOSE_DATA
350
51AA
  3
AcDbVariableDictionary
350
487
  0
DICTIONARY
  5
84C
330
8
100
AcDbDictionary
280
     1
281
     1
  0
DICTIONARY
  5
7D1
330
2
100
AcDbDictionary
280
     1
281
     1
  3
ACAD_LAYERFILTERS
360
5238
  3
ACAD_LAYERSTATES
360
7D2
  3
ACLYDICTIONARY
360
5237
  0
DICTIONARY
  5
51A2
330
10
100
AcDbDictionary
280
     1
281
     1
  3
ADSK_XREC_LAYER_RECONCILED
360
51A3
  0
DICTIONARY
  5
51A4
330
87B
100
AcDbDictionary
280
     1
281
     1
  3
ADSK_XREC_LAYER_RECONCILED
360
51A5
  0
DICTIONARY
  5
51A6
330
87D
100
AcDbDictionary
280
     1
281
     1
  3
ADSK_XREC_LAYER_RECONCILED
360
51A7
  0
DICTIONARY
  5
5F8
330
1F
100
AcDbDictionary
280
     1
281
     1
  3
ACAD_SORTENTS
360
5F9
  0
DICTIONARY
  5
4B9
102
{ACAD_REACTORS
330
C
102
}
330
C
100
AcDbDictionary
281
     1
  0
DICTIONARY
  5
D
102
{ACAD_REACTORS
330
C
102
}
330
C
100
AcDbDictionary
281
     1
  0
DICTIONARY
  5
1A
102
{ACAD_REACTORS
330
C
102
}
330
C
100
AcDbDictionary
281
     1
  3
Layout1
350
1E
  3
Model
350
22
  0
DICTIONARY
  5
3B
102
{ACAD_REACTORS
330
C
102
}
330
C
100
AcDbDictionary
281
     1
  3
ByBlock
350
3D
  3
ByLayer
350
3C
  3
Global
350
3E
  0
DICTIONARY
  5
489
102
{ACAD_REACTORS
330
C
102
}
330
C
100
AcDbDictionary
281
     1
  3
Standard
350
5193
  0
DICTIONARY
  5
17
102
{ACAD_REACTORS
330
C
102
}
330
C
100
AcDbDictionary
281
     1
  3
Standard
350
18
  0
DICTIONARY
  5
19
102
{ACAD_REACTORS
330
C
102
}
330
C
100
AcDbDictionary
281
     1
  0
ACDBDICTIONARYWDFLT
  5
E
102
{ACAD_REACTORS
330
C
102
}
330
C
100
AcDbDictionary
281
     1
  3
Normal
350
F
100
AcDbDictionaryWithDefault
340
F
  0
DICTIONARY
  5
5171
102
{ACAD_REACTORS
330
C
102
}
330
C
100
AcDbDictionary
281
     1
  3
A0
350
5172
  3
A1
350
5173
  3
A2
350
5174
  3
A3
350
5175
  3
A4
350
5176
  3
A5
350
5177
  3
A6
350
5178
  3
A7
350
5179
  3
A8
350
517A
  3
A9
350
517B
  3
B0
350
517C
  3
B1
350
517D
  3
B2
350
517E
  3
B3
350
517F
  3
B4
350
5180
  3
B5
350
5181
  3
B6
350
5182
  3
B7
350
5183
  3
B8
350
5184
  3
B9
350
5185
  3
C0
350
5186
  3
C1
350
5187
  3
C2
350
5188
  3
C3
350
5189
  3
C4
350
518A
  3
C5
350
518B
  3
C6
350
518C
  3
C7
350
518D
  3
C8
350
518E
  3
C9
350
518F
  3
D0
350
5190
  3
D1
350
5191
  3
D2
350
5192
  0
DICTIONARY
  5
4BA
102
{ACAD_REACTORS
330
C
102
}
330
C
100
AcDbDictionary
281
     1
  3
Standard
350
4BB
  0
DICTIONARY
  5
2A
102
{ACAD_REACTORS
330
C
102
}
330
C
100
AcDbDictionary
281
     1
  3
2dWireframe
350
2F
  3
3D Hidden
350
A47
  3
3dWireframe
350
A48
  3
Basic
350
32
  3
Brighten
350
36
  3
ColorChange
350
3A
  3
Conceptual
350
A4B
  3
Dim
350
35
  3
Facepattern
350
39
  3
Flat
350
2B
  3
FlatWithEdges
350
2C
  3
Gouraud
350
2D
  3
GouraudWithEdges
350
2E
  3
Linepattern
350
38
  3
Realistic
350
A4C
  3
Thicken
350
37
  0
XRECORD
  5
51AA
102
{ACAD_REACTORS
330
C
102
}
330
C
100
AcDbXrecord
280
     1
 90
        1
330
4BB
  0
DICTIONARY
  5
487
102
{ACAD_REACTORS
330
C
102
}
330
C
100
AcDbDictionary
281
     1
  3
CANNOSCALE
350
51AD
  3
CMLEADERSTYLE
350
51AB
  3
CTABLESTYLE
350
5FE
  3
DIMASSOC
350
48A
  3
HIDETEXT
350
48B
  3
INDEXCTL
350
86B
  3
LIGHTINGUNITS
350
51AE
  3
MSLTSCALE
350
51AC
  3
SORTENTS
350
86A
  0
DICTIONARY
  5
5238
102
{ACAD_REACTORS
330
7D1
102
}
330
7D1
100
AcDbDictionary
281
     1
  0
DICTIONARY
  5
7D2
102
{ACAD_REACTORS
330
7D1
102
}
330
7D1
100
AcDbDictionary
281
     1
  0
DICTIONARY
  5
5237
102
{ACAD_REACTORS
330
7D1
102
}
330
7D1
100
AcDbDictionary
281
     1
1001
ACAD
1000
<All
  0
XRECORD
  5
51A3
102
{ACAD_REACTORS
330
51A2
102
}
330
51A2
100
AcDbXrecord
280
     1
290
     1
  0
XRECORD
  5
51A5
102
{ACAD_REACTORS
330
51A4
102
}
330
51A4
100
AcDbXrecord
280
     1
290
     1
  0
XRECORD
  5
51A7
102
{ACAD_REACTORS
330
51A6
102
}
330
51A6
100
AcDbXrecord
280
     1
290
     1
  0
SORTENTSTABLE
  5
5F9
102
{ACAD_REACTORS
330
5F8
102
}
330
5F8
100
AcDbSortentsTable
330
1F
331
4C60
  5
4C60
331
4C01
  5
4C01
331
4BC2
  5
4BC2
331
50DD
  5
5084
331
4FC6
  5
4FC6
331
4D1D
  5
4D1D
331
4CDE
  5
4CDE
331
4CA7
  5
4CA7
331
4C68
  5
4C68
331
4C09
  5
4C09
331
4BCA
  5
4BCA
331
4D25
  5
4D25
331
50E5
  5
508C
331
4CE6
  5
4CE6
331
4CAF
  5
4CAF
331
4C70
  5
4C70
331
4BD2
  5
4BD2
331
4FE6
  5
4FE6
331
50ED
  5
5078
331
4D2D
  5
4D2D
331
4CEE
  5
4CEE
331
4CB7
  5
4CB7
331
4C78
  5
4C78
331
4BDA
  5
4BDA
331
4FEE
  5
4FEE
331
4FF6
  5
4FF6
331
4CF6
  5
4CF6
331
4D50
  5
4D50
331
4EF9
  5
4EF9
331
4EBA
  5
4EBA
331
4E83
  5
4E83
331
4E44
  5
4E44
331
4E0D
  5
4E0D
331
4DCE
  5
4DCE
331
4D97
  5
4D97
331
4D58
  5
4D58
331
4F01
  5
4F01
331
4EC2
  5
4EC2
331
4E8B
  5
4E8B
331
4E4C
  5
4E4C
331
4E15
  5
4E15
331
4DD6
  5
4DD6
331
4D9F
  5
4D9F
331
4D60
  5
4D60
331
4F09
  5
4F09
331
4E93
  5
4E93
331
4ECA
  5
4ECA
331
4E1D
  5
4E1D
331
4E54
  5
4E54
331
4DA7
  5
4DA7
331
4D68
  5
4D68
331
4DDE
  5
4DDE
331
4ED2
  5
4ED2
331
4E5C
  5
4E5C
331
4DE6
  5
4DE6
331
4C80
  5
4C80
331
50F5
  5
5080
331
4CFE
  5
4CFE
331
4CBF
  5
4CBF
331
4C88
  5
4C88
331
4C49
  5
4C49
331
4BEA
  5
4BEA
331
4D06
  5
4D06
331
503E
  5
503E
331
4CC7
  5
4CC7
331
4C90
  5
4C90
331
4C51
  5
4C51
331
4BF2
  5
4BF2
331
4F6F
  5
4F6F
331
4D0E
  5
4D0E
331
5046
  5
5046
331
4CCF
  5
4CCF
331
4C98
  5
4C98
331
4C59
  5
4C59
331
4BFA
  5
4BFA
331
4BBB
  5
4BBB
331
4F77
  5
4F77
331
4D16
  5
4D16
331
4CD7
  5
4CD7
331
4D70
  5
4D70
331
4D31
  5
4D31
331
4EDA
  5
4EDA
331
4E9B
  5
4E9B
331
4E64
  5
4E64
331
4E25
  5
4E25
331
4DEE
  5
4DEE
331
4DAF
  5
4DAF
331
4D78
  5
4D78
331
4D39
  5
4D39
331
4EE2
  5
4EE2
331
4EA3
  5
4EA3
331
4E6C
  5
4E6C
331
4E2D
  5
4E2D
331
4DF6
  5
4DF6
331
4DB7
  5
4DB7
331
4D80
  5
4D80
331
4D41
  5
4D41
331
4EEA
  5
4EEA
331
4EAB
  5
4EAB
331
4E74
  5
4E74
331
4E35
  5
4E35
331
4DFE
  5
4DFE
331
4D88
  5
4D88
331
4D49
  5
4D49
331
4DBF
  5
4DBF
331
4EF2
  5
4EF2
331
4EB3
  5
4EB3
331
4E7C
  5
4E7C
331
4E3D
  5
4E3D
331
4E06
  5
4E06
331
4DC7
  5
4DC7
331
4CA0
  5
4CA0
331
4C61
  5
4C61
331
4C02
  5
4C02
331
4BC3
  5
4BC3
331
4D1E
  5
4D1E
331
4CDF
  5
4CDF
331
4CA8
  5
4CA8
331
4C69
  5
4C69
331
4C0A
  5
4C0A
331
4BCB
  5
4BCB
331
4D26
  5
4D26
331
50E6
  5
508D
331
4CE7
  5
4CE7
331
4C71
  5
4C71
331
4BD3
  5
4BD3
331
4CB0
  5
4CB0
331
4FE7
  5
4FE7
331
4D2E
  5
4D2E
331
4CEF
  5
4CEF
331
4C79
  5
4C79
331
4BDB
  5
4BDB
331
4FEF
  5
4FEF
331
4FF7
  5
4FF7
331
4CF7
  5
4CF7
331
4D90
  5
4D90
331
4D51
  5
4D51
331
4EFA
  5
4EFA
331
4EBB
  5
4EBB
331
4E84
  5
4E84
331
4E45
  5
4E45
331
4E0E
  5
4E0E
331
4DCF
  5
4DCF
331
4D98
  5
4D98
331
4D59
  5
4D59
331
4F02
  5
4F02
331
4EC3
  5
4EC3
331
4E8C
  5
4E8C
331
4E4D
  5
4E4D
331
4E16
  5
4E16
331
4DD7
  5
4DD7
331
4D61
  5
4D61
331
4DA0
  5
4DA0
331
4F0A
  5
4F0A
331
4E94
  5
4E94
331
4ECB
  5
4ECB
331
4E1E
  5
4E1E
331
4E55
  5
4E55
331
4D69
  5
4D69
331
4DDF
  5
4DDF
331
4ED3
  5
4ED3
331
4E5D
  5
4E5D
331
4DE7
  5
4DE7
331
4F10
  5
4F10
331
4CB8
  5
4CB8
331
4C81
  5
4C81
331
4CFF
  5
4CFF
331
4CC0
  5
4CC0
331
4C89
  5
4C89
331
4C4A
  5
4C4A
331
4BEB
  5
4BEB
331
4D07
  5
4D07
331
503F
  5
503F
331
4CC8
  5
4CC8
331
4C91
  5
4C91
331
4C52
  5
4C52
331
4BF3
  5
4BF3
331
4F70
  5
4F70
331
4D0F
  5
4D0F
331
4F88
  5
4F88
331
4CD0
  5
4CD0
331
4C99
  5
4C99
331
4C5A
  5
4C5A
331
4BFB
  5
4BFB
331
4BBC
  5
4BBC
331
5047
  5
5047
331
4D17
  5
4D17
331
4DA8
  5
4DA8
331
4D71
  5
4D71
331
4D32
  5
4D32
331
4EDB
  5
4EDB
331
4E9C
  5
4E9C
331
4E65
  5
4E65
331
4E26
  5
4E26
331
4DEF
  5
4DEF
331
4DB0
  5
4DB0
331
4D79
  5
4D79
331
4D3A
  5
4D3A
331
4EE3
  5
4EE3
331
4EA4
  5
4EA4
331
4E6D
  5
4E6D
331
4E2E
  5
4E2E
331
4DF7
  5
4DF7
331
4DB8
  5
4DB8
331
4D81
  5
4D81
331
4D42
  5
4D42
331
4EEB
  5
4EEB
331
4EAC
  5
4EAC
331
4E75
  5
4E75
331
4E36
  5
4E36
331
4DC0
  5
4DC0
331
4D89
  5
4D89
331
4D4A
  5
4D4A
331
4DFF
  5
4DFF
331
4EF3
  5
4EF3
331
4EB4
  5
4EB4
331
4E7D
  5
4E7D
331
4E3E
  5
4E3E
331
4E07
  5
4E07
331
4CD8
  5
4CD8
331
4CA1
  5
4CA1
331
4C62
  5
4C62
331
4C03
  5
4C03
331
4BC4
  5
4BC4
331
50DF
  5
5086
331
4D1F
  5
4D1F
331
4CE0
  5
4CE0
331
4CA9
  5
4CA9
331
4C6A
  5
4C6A
331
4BCC
  5
4BCC
331
4D27
  5
4D27
331
50E7
  5
508E
331
4CE8
  5
4CE8
331
4C72
  5
4C72
331
4BD4
  5
4BD4
331
4CB1
  5
4CB1
331
4FE8
  5
4FE8
331
50EF
  5
507A
331
4FF0
  5
4FF0
331
4D2F
  5
4D2F
331
4CF0
  5
4CF0
331
4C7A
  5
4C7A
331
4BDC
  5
4BDC
331
4DC8
  5
4DC8
331
4D91
  5
4D91
331
4D52
  5
4D52
331
4EFB
  5
4EFB
331
4EBC
  5
4EBC
331
4E85
  5
4E85
331
4E46
  5
4E46
331
4E0F
  5
4E0F
331
4DD0
  5
4DD0
331
4D99
  5
4D99
331
4D5A
  5
4D5A
331
4F03
  5
4F03
331
4EC4
  5
4EC4
331
4E8D
  5
4E8D
331
4E4E
  5
4E4E
331
4E17
  5
4E17
331
4DD8
  5
4DD8
331
4D62
  5
4D62
331
4DA1
  5
4DA1
331
4F0B
  5
4F0B
331
4E95
  5
4E95
331
4ECC
  5
4ECC
331
4E1F
  5
4E1F
331
4DE0
  5
4DE0
331
4D6A
  5
4D6A
331
4E56
  5
4E56
331
4ED4
  5
4ED4
331
4E5E
  5
4E5E
331
4FF8
  5
4FF8
331
4F11
  5
4F11
331
4CF8
  5
4CF8
331
4CB9
  5
4CB9
331
4C82
  5
4C82
331
4D00
  5
4D00
331
4CC1
  5
4CC1
331
4C8A
  5
4C8A
331
4C4B
  5
4C4B
331
4BEC
  5
4BEC
331
4D08
  5
4D08
331
5040
  5
5040
331
4CC9
  5
4CC9
331
4C92
  5
4C92
331
4C53
  5
4C53
331
4BF4
  5
4BF4
331
4F71
  5
4F71
331
5048
  5
5048
331
4F89
  5
4F89
331
4D10
  5
4D10
331
4CD1
  5
4CD1
331
4C9A
  5
4C9A
331
4C5B
  5
4C5B
331
4BFC
  5
4BFC
331
4BBD
  5
4BBD
331
4DE8
  5
4DE8
331
4DA9
  5
4DA9
331
4D72
  5
4D72
331
4D33
  5
4D33
331
4EDC
  5
4EDC
331
4E9D
  5
4E9D
331
4E66
  5
4E66
331
4E27
  5
4E27
331
4DF0
  5
4DF0
331
4DB1
  5
4DB1
331
4D7A
  5
4D7A
331
4D3B
  5
4D3B
331
4EE4
  5
4EE4
331
4EA5
  5
4EA5
331
4E6E
  5
4E6E
331
4E2F
  5
4E2F
331
4DF8
  5
4DF8
331
4DB9
  5
4DB9
331
4D82
  5
4D82
331
4D43
  5
4D43
331
4EEC
  5
4EEC
331
4EAD
  5
4EAD
331
4E76
  5
4E76
331
4E00
  5
4E00
331
4DC1
  5
4DC1
331
4D8A
  5
4D8A
331
4D4B
  5
4D4B
331
4E37
  5
4E37
331
4EF4
  5
4EF4
331
4EB5
  5
4EB5
331
4E7E
  5
4E7E
331
4E3F
  5
4E3F
331
4FC1
  5
4FC1
331
4D18
  5
4D18
331
4CD9
  5
4CD9
331
4CA2
  5
4CA2
331
4C63
  5
4C63
331
4C04
  5
4C04
331
4BC5
  5
4BC5
331
4D20
  5
4D20
331
4CE1
  5
4CE1
331
4CAA
  5
4CAA
331
4C6B
  5
4C6B
331
4BCD
  5
4BCD
331
50E8
  5
5073
331
4D28
  5
4D28
331
4CE9
  5
4CE9
331
4C73
  5
4C73
331
4CB2
  5
4CB2
331
4BD5
  5
4BD5
331
4C34
  5
4C34
331
4FE9
  5
4FE9
331
4FF1
  5
4FF1
331
4CF1
  5
4CF1
331
4C7B
  5
4C7B
331
4E08
  5
4E08
331
4DC9
  5
4DC9
331
4D92
  5
4D92
331
4D53
  5
4D53
331
4EFC
  5
4EFC
331
4EBD
  5
4EBD
331
4E86
  5
4E86
331
4E47
  5
4E47
331
4E10
  5
4E10
331
4DD1
  5
4DD1
331
4D9A
  5
4D9A
331
4D5B
  5
4D5B
331
4EC5
  5
4EC5
331
4E8E
  5
4E8E
331
4E4F
  5
4E4F
331
4DD9
  5
4DD9
331
4E18
  5
4E18
331
4D63
  5
4D63
331
4DA2
  5
4DA2
331
4F04
  5
4F04
331
4F0C
  5
4F0C
331
4E96
  5
4E96
331
4ECD
  5
4ECD
331
4DE1
  5
4DE1
331
4D6B
  5
4D6B
331
4E57
  5
4E57
331
4ED5
  5
4ED5
331
4E5F
  5
4E5F
331
4FF9
  5
4FF9
331
4F12
  5
4F12
331
4CF9
  5
4CF9
331
4CBA
  5
4CBA
331
4C83
  5
4C83
331
4C3C
  5
4C3C
331
4BE5
  5
4BE5
331
4D01
  5
4D01
331
4CC2
  5
4CC2
331
4C8B
  5
4C8B
331
4C4C
  5
4C4C
331
4BED
  5
4BED
331
4D09
  5
4D09
331
5041
  5
5041
331
4CCA
  5
4CCA
331
4C93
  5
4C93
331
4C54
  5
4C54
331
4BF5
  5
4BF5
331
4F72
  5
4F72
331
5049
  5
5049
331
4D11
  5
4D11
331
4CD2
  5
4CD2
331
4C9B
  5
4C9B
331
4C5C
  5
4C5C
331
4BFD
  5
4BFD
331
4BBE
  5
4BBE
331
4E20
  5
4E20
331
4DE9
  5
4DE9
331
4DAA
  5
4DAA
331
4D73
  5
4D73
331
4D34
  5
4D34
331
4EDD
  5
4EDD
331
4E9E
  5
4E9E
331
4E67
  5
4E67
331
4E28
  5
4E28
331
4DF1
  5
4DF1
331
4DB2
  5
4DB2
331
4D7B
  5
4D7B
331
4D3C
  5
4D3C
331
4EA6
  5
4EA6
331
4E6F
  5
4E6F
331
4E30
  5
4E30
331
4DF9
  5
4DF9
331
4DBA
  5
4DBA
331
4D83
  5
4D83
331
4D44
  5
4D44
331
4EE5
  5
4EE5
331
4EED
  5
4EED
331
4EAE
  5
4EAE
331
4E38
  5
4E38
331
4E01
  5
4E01
331
4DC2
  5
4DC2
331
4D8B
  5
4D8B
331
4D4C
  5
4D4C
331
4E77
  5
4E77
331
4EF5
  5
4EF5
331
4EB6
  5
4EB6
331
4E7F
  5
4E7F
331
4FC2
  5
4FC2
331
4D19
  5
4D19
331
4CDA
  5
4CDA
331
4CA3
  5
4CA3
331
4C64
  5
4C64
331
4C05
  5
4C05
331
4BC6
  5
4BC6
331
4D21
  5
4D21
331
50E1
  5
5088
331
4CE2
  5
4CE2
331
4CAB
  5
4CAB
331
4C6C
  5
4C6C
331
4BCE
  5
4BCE
331
4FE2
  5
4FE2
331
4D29
  5
4D29
331
4CEA
  5
4CEA
331
4C74
  5
4C74
331
4CB3
  5
4CB3
331
4BD6
  5
4BD6
331
4C35
  5
4C35
331
4FEA
  5
4FEA
331
4FF2
  5
4FF2
331
4CF2
  5
4CF2
331
4C7C
  5
4C7C
331
4E40
  5
4E40
331
4E09
  5
4E09
331
4DCA
  5
4DCA
331
4D93
  5
4D93
331
4D54
  5
4D54
331
4EFD
  5
4EFD
331
4EBE
  5
4EBE
331
4E87
  5
4E87
331
4E48
  5
4E48
331
4E11
  5
4E11
331
4DD2
  5
4DD2
331
4D9B
  5
4D9B
331
4D5C
  5
4D5C
331
4F05
  5
4F05
331
4E8F
  5
4E8F
331
4E50
  5
4E50
331
4DDA
  5
4DDA
331
4E19
  5
4E19
331
4D64
  5
4D64
331
4DA3
  5
4DA3
331
4EC6
  5
4EC6
331
4F0D
  5
4F0D
331
4E97
  5
4E97
331
4E58
  5
4E58
331
4DE2
  5
4DE2
331
4D6C
  5
4D6C
331
4ECE
  5
4ECE
331
4ED6
  5
4ED6
331
50F1
  5
507C
331
4FFA
  5
4FFA
331
4F13
  5
4F13
331
4CFA
  5
4CFA
331
4CBB
  5
4CBB
331
4C84
  5
4C84
331
4BE6
  5
4BE6
331
4D02
  5
4D02
331
4CC3
  5
4CC3
331
4C8C
  5
4C8C
331
4C4D
  5
4C4D
331
4BEE
  5
4BEE
331
4D0A
  5
4D0A
331
5042
  5
5042
331
4CCB
  5
4CCB
331
4C94
  5
4C94
331
4C55
  5
4C55
331
4BF6
  5
4BF6
331
4BB7
  5
4BB7
331
4F73
  5
4F73
331
504A
  5
504A
331
4F8B
  5
4F8B
331
4D12
  5
4D12
331
4CD3
  5
4CD3
331
4C9C
  5
4C9C
331
4C5D
  5
4C5D
331
4BFE
  5
4BFE
331
4BBF
  5
4BBF
331
4E60
  5
4E60
331
4E21
  5
4E21
331
4DEA
  5
4DEA
331
4DAB
  5
4DAB
331
4D74
  5
4D74
331
4D35
  5
4D35
331
4EDE
  5
4EDE
331
4E9F
  5
4E9F
331
4E68
  5
4E68
331
4E29
  5
4E29
331
4DF2
  5
4DF2
331
4DB3
  5
4DB3
331
4D7C
  5
4D7C
331
4D3D
  5
4D3D
331
4EE6
  5
4EE6
331
4E70
  5
4E70
331
4E31
  5
4E31
331
4DFA
  5
4DFA
331
4DBB
  5
4DBB
331
4D84
  5
4D84
331
4D45
  5
4D45
331
4EA7
  5
4EA7
331
4EEE
  5
4EEE
331
4E78
  5
4E78
331
4E39
  5
4E39
331
4E02
  5
4E02
331
4DC3
  5
4DC3
331
4D8C
  5
4D8C
331
4D4D
  5
4D4D
331
4EAF
  5
4EAF
331
4EF6
  5
4EF6
331
4EB7
  5
4EB7
331
50DA
  5
5081
331
4FC3
  5
4FC3
331
4D1A
  5
4D1A
331
4CDB
  5
4CDB
331
4CA4
  5
4CA4
331
4C65
  5
4C65
331
4C06
  5
4C06
331
4BC7
  5
4BC7
331
4D22
  5
4D22
331
50E2
  5
5089
331
4CE3
  5
4CE3
331
4CAC
  5
4CAC
331
4C6D
  5
4C6D
331
4BCF
  5
4BCF
331
4FE3
  5
4FE3
331
4D2A
  5
4D2A
331
4CEB
  5
4CEB
331
4C75
  5
4C75
331
4CB4
  5
4CB4
331
4BD7
  5
4BD7
331
4C36
  5
4C36
331
4FEB
  5
4FEB
331
4FF3
  5
4FF3
331
4CF3
  5
4CF3
331
4C7D
  5
4C7D
331
4E80
  5
4E80
331
4E41
  5
4E41
331
4E0A
  5
4E0A
331
4DCB
  5
4DCB
331
4D94
  5
4D94
331
4D55
  5
4D55
331
4EFE
  5
4EFE
331
4EBF
  5
4EBF
331
4E88
  5
4E88
331
4E49
  5
4E49
331
4E12
  5
4E12
331
4DD3
  5
4DD3
331
4D9C
  5
4D9C
331
4D5D
  5
4D5D
331
4F06
  5
4F06
331
4E51
  5
4E51
331
4E90
  5
4E90
331
4DDB
  5
4DDB
331
4E1A
  5
4E1A
331
4D65
  5
4D65
331
4DA4
  5
4DA4
331
4EC7
  5
4EC7
331
4F0E
  5
4F0E
331
4E59
  5
4E59
331
4DE3
  5
4DE3
331
4D6D
  5
4D6D
331
4ECF
  5
4ECF
331
4ED7
  5
4ED7
331
50F2
  5
507D
331
4FFB
  5
4FFB
331
4F14
  5
4F14
331
4CFB
  5
4CFB
331
4CBC
  5
4CBC
331
4C85
  5
4C85
331
4BE7
  5
4BE7
331
4D03
  5
4D03
331
4CC4
  5
4CC4
331
4C8D
  5
4C8D
331
4C4E
  5
4C4E
331
4BEF
  5
4BEF
331
4F6C
  5
4F6C
331
4D0B
  5
4D0B
331
5043
  5
5043
331
4CCC
  5
4CCC
331
4C95
  5
4C95
331
4C56
  5
4C56
331
4BF7
  5
4BF7
331
4BB8
  5
4BB8
331
4F74
  5
4F74
331
504B
  5
504B
331
4F8C
  5
4F8C
331
4D13
  5
4D13
331
4CD4
  5
4CD4
331
4C9D
  5
4C9D
331
4C5E
  5
4C5E
331
4BFF
  5
4BFF
331
4E98
  5
4E98
331
4E61
  5
4E61
331
4E22
  5
4E22
331
4DEB
  5
4DEB
331
4DAC
  5
4DAC
331
4D75
  5
4D75
331
4D36
  5
4D36
331
4EDF
  5
4EDF
331
4EA0
  5
4EA0
331
4E69
  5
4E69
331
4E2A
  5
4E2A
331
4DF3
  5
4DF3
331
4DB4
  5
4DB4
331
4D7D
  5
4D7D
331
4D3E
  5
4D3E
331
4EE7
  5
4EE7
331
4EA8
  5
4EA8
331
4E32
  5
4E32
331
4DFB
  5
4DFB
331
4DBC
  5
4DBC
331
4D85
  5
4D85
331
4D46
  5
4D46
331
4E71
  5
4E71
331
4EB0
  5
4EB0
331
4E79
  5
4E79
331
4E3A
  5
4E3A
331
4E03
  5
4E03
331
4DC4
  5
4DC4
331
4D8D
  5
4D8D
331
4D4E
  5
4D4E
331
4EEF
  5
4EEF
331
4EF7
  5
4EF7
331
4BC0
  5
4BC0
331
50DB
  5
5082
331
4FC4
  5
4FC4
331
4D1B
  5
4D1B
331
4CDC
  5
4CDC
331
4CA5
  5
4CA5
331
4C66
  5
4C66
331
4C07
  5
4C07
331
4BC8
  5
4BC8
331
4D23
  5
4D23
331
50E3
  5
508A
331
4CE4
  5
4CE4
331
4CAD
  5
4CAD
331
4C6E
  5
4C6E
331
4BD0
  5
4BD0
331
4FE4
  5
4FE4
331
50EB
  5
5076
331
4D2B
  5
4D2B
331
4CEC
  5
4CEC
331
4C76
  5
4C76
331
4CB5
  5
4CB5
331
4C37
  5
4C37
331
4BD8
  5
4BD8
331
4FEC
  5
4FEC
331
4FF4
  5
4FF4
331
4CF4
  5
4CF4
331
4C7E
  5
4C7E
331
4EB8
  5
4EB8
331
4E81
  5
4E81
331
4E42
  5
4E42
331
4E0B
  5
4E0B
331
4DCC
  5
4DCC
331
4D95
  5
4D95
331
4D56
  5
4D56
331
4EFF
  5
4EFF
331
4EC0
  5
4EC0
331
4E89
  5
4E89
331
4E4A
  5
4E4A
331
4E13
  5
4E13
331
4DD4
  5
4DD4
331
4D9D
  5
4D9D
331
4D5E
  5
4D5E
331
4F07
  5
4F07
331
4E91
  5
4E91
331
4EC8
  5
4EC8
331
4DDC
  5
4DDC
331
4E1B
  5
4E1B
331
4D66
  5
4D66
331
4DA5
  5
4DA5
331
4E52
  5
4E52
331
4F0F
  5
4F0F
331
4ED0
  5
4ED0
331
4E5A
  5
4E5A
331
4DE4
  5
4DE4
331
4D6E
  5
4D6E
331
50F3
  5
507E
331
4FFC
  5
4FFC
331
4CFC
  5
4CFC
331
4CBD
  5
4CBD
331
4C86
  5
4C86
331
4C3F
  5
4C3F
331
4BE8
  5
4BE8
331
4D04
  5
4D04
331
503C
  5
503C
331
4CC5
  5
4CC5
331
4C8E
  5
4C8E
331
4C4F
  5
4C4F
331
4BF0
  5
4BF0
331
4F6D
  5
4F6D
331
4D0C
  5
4D0C
331
5044
  5
5044
331
4CCD
  5
4CCD
331
4C96
  5
4C96
331
4C57
  5
4C57
331
4BF8
  5
4BF8
331
4BB9
  5
4BB9
331
4F75
  5
4F75
331
504C
  5
504C
331
4F8D
  5
4F8D
331
4D14
  5
4D14
331
4CD5
  5
4CD5
331
4C9E
  5
4C9E
331
4C5F
  5
4C5F
331
4ED8
  5
4ED8
331
4E99
  5
4E99
331
4E62
  5
4E62
331
4E23
  5
4E23
331
4DEC
  5
4DEC
331
4DAD
  5
4DAD
331
4D76
  5
4D76
331
4D37
  5
4D37
331
4EE0
  5
4EE0
331
4EA1
  5
4EA1
331
4E6A
  5
4E6A
331
4E2B
  5
4E2B
331
4DF4
  5
4DF4
331
4DB5
  5
4DB5
331
4D7E
  5
4D7E
331
4D3F
  5
4D3F
331
4EE8
  5
4EE8
331
4EA9
  5
4EA9
331
4E72
  5
4E72
331
4DFC
  5
4DFC
331
4DBD
  5
4DBD
331
4D86
  5
4D86
331
4D47
  5
4D47
331
4E33
  5
4E33
331
4EF0
  5
4EF0
331
4EB1
  5
4EB1
331
4E7A
  5
4E7A
331
4E3B
  5
4E3B
331
4E04
  5
4E04
331
4DC5
  5
4DC5
331
4D8E
  5
4D8E
331
4D4F
  5
4D4F
331
4C00
  5
4C00
331
4BC1
  5
4BC1
331
50DC
  5
5083
331
4FC5
  5
4FC5
331
4D1C
  5
4D1C
331
4CDD
  5
4CDD
331
4CA6
  5
4CA6
331
4C67
  5
4C67
331
4C08
  5
4C08
331
4BC9
  5
4BC9
331
4D24
  5
4D24
331
50E4
  5
508B
331
4CE5
  5
4CE5
331
4CAE
  5
4CAE
331
4C6F
  5
4C6F
331
4BD1
  5
4BD1
331
4FE5
  5
4FE5
331
4D2C
  5
4D2C
331
4CED
  5
4CED
331
4C77
  5
4C77
331
4CB6
  5
4CB6
331
4BD9
  5
4BD9
331
4FED
  5
4FED
331
4FF5
  5
4FF5
331
4CF5
  5
4CF5
331
4C7F
  5
4C7F
331
4EF8
  5
4EF8
331
4EB9
  5
4EB9
331
4E82
  5
4E82
331
4E43
  5
4E43
331
4E0C
  5
4E0C
331
4DCD
  5
4DCD
331
4D96
  5
4D96
331
4D57
  5
4D57
331
4F00
  5
4F00
331
4EC1
  5
4EC1
331
4E8A
  5
4E8A
331
4E4B
  5
4E4B
331
4E14
  5
4E14
331
4DD5
  5
4DD5
331
4D9E
  5
4D9E
331
4D5F
  5
4D5F
331
4F08
  5
4F08
331
4E92
  5
4E92
331
4EC9
  5
4EC9
331
4DDD
  5
4DDD
331
4E1C
  5
4E1C
331
4D67
  5
4D67
331
4DA6
  5
4DA6
331
4E53
  5
4E53
331
4ED1
  5
4ED1
331
4E5B
  5
4E5B
331
4DE5
  5
4DE5
331
4D6F
  5
4D6F
331
4FFD
  5
4FFD
331
4CFD
  5
4CFD
331
4CBE
  5
4CBE
331
4C87
  5
4C87
331
4C48
  5
4C48
331
4BE9
  5
4BE9
331
4D05
  5
4D05
331
503D
  5
503D
331
4CC6
  5
4CC6
331
4C8F
  5
4C8F
331
4C50
  5
4C50
331
4BF1
  5
4BF1
331
4F6E
  5
4F6E
331
4D0D
  5
4D0D
331
5045
  5
5045
331
4CCE
  5
4CCE
331
4C97
  5
4C97
331
4C58
  5
4C58
331
4BF9
  5
4BF9
331
4BBA
  5
4BBA
331
4F76
  5
4F76
331
4D15
  5
4D15
331
4CD6
  5
4CD6
331
4C9F
  5
4C9F
331
4D30
  5
4D30
331
4ED9
  5
4ED9
331
4E9A
  5
4E9A
331
4E63
  5
4E63
331
4E24
  5
4E24
331
4DED
  5
4DED
331
4DAE
  5
4DAE
331
4D77
  5
4D77
331
4D38
  5
4D38
331
4EE1
  5
4EE1
331
4EA2
  5
4EA2
331
4E6B
  5
4E6B
331
4E2C
  5
4E2C
331
4DF5
  5
4DF5
331
4DB6
  5
4DB6
331
4D7F
  5
4D7F
331
4D40
  5
4D40
331
4EE9
  5
4EE9
331
4EAA
  5
4EAA
331
4E73
  5
4E73
331
4E34
  5
4E34
331
4DBE
  5
4DBE
331
4D87
  5
4D87
331
4D48
  5
4D48
331
4DFD
  5
4DFD
331
4EF1
  5
4EF1
331
4EB2
  5
4EB2
331
4E7B
  5
4E7B
331
4E3C
  5
4E3C
331
4E05
  5
4E05
331
4DC6
  5
4DC6
331
4D8F
  5
4D8F
  0
LAYOUT
  5
1E
102
{ACAD_XDICTIONARY
360
7D4
102
}
102
{ACAD_REACTORS
330
1A
102
}
330
1A
100
AcDbPlotSettings
  1

  2
Bullzip PDF Printer
  4
A3
  6

 40
3.174999952316284
 41
3.174999952316284
 42
3.17498779296875
 43
3.17498779296875
 44
297.0530090332031
 45
420.1583251953125
 46
0.0
 47
0.0
 48
6.561544945354853
 49
3.282189374834842
140
296.6096419909582
141
206.4421558651099
142
1.0
143
1.0
 70
   672
 72
     1
 73
     1
 74
     4
  7
RINTAL 1.10.ctb
 75
    16
147
25.4
 76
     0
 77
     2
 78
   300
148
-6.561544945354853
149
-3.282189374834842
100
AcDbLayout
  1
Layout1
 70
     0
 71
     1
 10
3.386557152386103
 20
0.1071894225185588
 11
423.5448823476986
 21
297.1601984557217
 12
0.0
 22
0.0
 32
0.0
 14
6.561544945354853
 24
3.282189374834842
 34
0.0
 15
416.7133315898103
 25
290.5875349075164
 35
0.0
146
0.0
 13
0.0
 23
0.0
 33
0.0
 16
1.0
 26
0.0
 36
0.0
 17
0.0
 27
1.0
 37
0.0
 76
     0
330
1B
331
7CA
1001
ACAD_PSEXT
1000
Bullzip PDF Printer
1000
Bullzip PDF Printer
1000
BULLZIP
1000
Bullzip PDF Printer 7.1.0.1218
1070
     0
  0
LAYOUT
  5
22
102
{ACAD_REACTORS
330
1A
102
}
330
1A
100
AcDbPlotSettings
  1

  2
none_device
  4
Letter_(8.50_x_11.00_Inches)
  6

 40
6.349999904632568
 41
6.349999904632568
 42
6.350006103515625
 43
6.350006103515625
 44
215.8999938964844
 45
279.3999938964844
 46
0.0
 47
0.0
 48
0.0
 49
0.0
140
0.0
141
0.0
142
1.0
143
2.443833400351344
 70
 11952
 72
     0
 73
     1
 74
     0
  7

 75
     0
147
0.4091931961713234
 76
     0
 77
     2
 78
   300
148
153.8205144495803
149
-23.40226984108699
100
AcDbLayout
  1
Model
 70
     1
 71
     0
 10
0.0
 20
0.0
 11
12.0
 21
9.0
 12
0.0
 22
0.0
 32
0.0
 14
1.000000000000000E+20
 24
1.000000000000000E+20
 34
1.000000000000000E+20
 15
-1.000000000000000E+20
 25
-1.000000000000000E+20
 35
-1.000000000000000E+20
146
0.0
 13
0.0
 23
0.0
 33
0.0
 16
1.0
 26
0.0
 36
0.0
 17
0.0
 27
1.0
 37
0.0
 76
     0
330
1F
331
29
1001
ACAD_PSEXT
1000
Brak
1000
Brak
1000
Nie można zastosować.
1000
Arkusz nie zostanie wydrukowany dopóki nie wybrano konfiguracji plotera.
1070
     0
  0
MATERIAL
  5
3D
102
{ACAD_XDICTIONARY
360
524F
102
}
102
{ACAD_REACTORS
330
3B
102
}
330
3B
100
AcDbMaterial
  1
ByBlock
 73
     1
 78
     1
172
     1
176
     1
270
     1
274
     1
  0
MATERIAL
  5
3C
102
{ACAD_XDICTIONARY
360
524D
102
}
102
{ACAD_REACTORS
330
3B
102
}
330
3B
100
AcDbMaterial
  1
ByLayer
 73
     1
 78
     1
172
     1
176
     1
270
     1
274
     1
  0
MATERIAL
  5
3E
102
{ACAD_XDICTIONARY
360
5251
102
}
102
{ACAD_REACTORS
330
3B
102
}
330
3B
100
AcDbMaterial
  1
Global
 73
     1
 78
     1
172
     1
176
     1
270
     1
274
     1
  0
MLEADERSTYLE
  5
5193
102
{ACAD_REACTORS
330
489
102
}
330
489
100
AcDbMLeaderStyle
170
     2
171
     1
172
     0
 90
        2
 40
0.0
 41
0.0
173
     1
 91
-1056964608
340
14
 92
       -2
290
     1
 42
0.09
291
     1
 43
0.36
  3
Standard
 44
0.18
300

342
11
174
     1
178
     6
175
     1
176
     0
 93
-1056964608
 45
0.18
292
     0
297
     0
 46
0.18
 94
-1056964608
 47
1.0
 49
1.0
140
1.0
293
     1
141
0.0
294
     1
177
     0
142
1.0
295
     0
296
     0
143
0.125
1001
ACAD_MLEADERVER
1070
     2
  0
MLINESTYLE
  5
18
102
{ACAD_REACTORS
330
17
102
}
330
17
100
AcDbMlineStyle
  2
STANDARD
 70
     0
  3

 62
   256
 51
90.0
 52
90.0
 71
     2
 49
0.5
 62
   256
  6
BYLAYER
 49
-0.5
 62
   256
  6
BYLAYER
  0
ACDBPLACEHOLDER
  5
F
102
{ACAD_REACTORS
330
E
102
}
330
E
  0
SCALE
  5
5172
102
{ACAD_REACTORS
330
5171
102
}
330
5171
100
AcDbScale
 70
     0
300
1:1
140
1.0
141
1.0
290
     1
  0
SCALE
  5
5173
102
{ACAD_REACTORS
330
5171
102
}
330
5171
100
AcDbScale
 70
     0
300
1:2
140
1.0
141
2.0
290
     0
  0
SCALE
  5
5174
102
{ACAD_REACTORS
330
5171
102
}
330
5171
100
AcDbScale
 70
     0
300
1:4
140
1.0
141
4.0
290
     0
  0
SCALE
  5
5175
102
{ACAD_REACTORS
330
5171
102
}
330
5171
100
AcDbScale
 70
     0
300
1:5
140
1.0
141
5.0
290
     0
  0
SCALE
  5
5176
102
{ACAD_REACTORS
330
5171
102
}
330
5171
100
AcDbScale
 70
     0
300
1:8
140
1.0
141
8.0
290
     0
  0
SCALE
  5
5177
102
{ACAD_REACTORS
330
5171
102
}
330
5171
100
AcDbScale
 70
     0
300
1:10
140
1.0
141
10.0
290
     0
  0
SCALE
  5
5178
102
{ACAD_REACTORS
330
5171
102
}
330
5171
100
AcDbScale
 70
     0
300
1:16
140
1.0
141
16.0
290
     0
  0
SCALE
  5
5179
102
{ACAD_REACTORS
330
5171
102
}
330
5171
100
AcDbScale
 70
     0
300
1:20
140
1.0
141
20.0
290
     0
  0
SCALE
  5
517A
102
{ACAD_REACTORS
330
5171
102
}
330
5171
100
AcDbScale
 70
     0
300
1:30
140
1.0
141
30.0
290
     0
  0
SCALE
  5
517B
102
{ACAD_REACTORS
330
5171
102
}
330
5171
100
AcDbScale
 70
     0
300
1:40
140
1.0
141
40.0
290
     0
  0
SCALE
  5
517C
102
{ACAD_REACTORS
330
5171
102
}
330
5171
100
AcDbScale
 70
     0
300
1:50
140
1.0
141
50.0
290
     0
  0
SCALE
  5
517D
102
{ACAD_REACTORS
330
5171
102
}
330
5171
100
AcDbScale
 70
     0
300
1:100
140
1.0
141
100.0
290
     0
  0
SCALE
  5
517E
102
{ACAD_REACTORS
330
5171
102
}
330
5171
100
AcDbScale
 70
     0
300
2:1
140
2.0
141
1.0
290
     0
  0
SCALE
  5
517F
102
{ACAD_REACTORS
330
5171
102
}
330
5171
100
AcDbScale
 70
     0
300
4:1
140
4.0
141
1.0
290
     0
  0
SCALE
  5
5180
102
{ACAD_REACTORS
330
5171
102
}
330
5171
100
AcDbScale
 70
     0
300
8:1
140
8.0
141
1.0
290
     0
  0
SCALE
  5
5181
102
{ACAD_REACTORS
330
5171
102
}
330
5171
100
AcDbScale
 70
     0
300
10:1
140
10.0
141
1.0
290
     0
  0
SCALE
  5
5182
102
{ACAD_REACTORS
330
5171
102
}
330
5171
100
AcDbScale
 70
     0
300
100:1
140
100.0
141
1.0
290
     0
  0
SCALE
  5
5183
102
{ACAD_REACTORS
330
5171
102
}
330
5171
100
AcDbScale
 70
     0
300
1/128" = 1'-0"
140
0.0078125
141
12.0
290
     0
  0
SCALE
  5
5184
102
{ACAD_REACTORS
330
5171
102
}
330
5171
100
AcDbScale
 70
     0
300
1/64" = 1'-0"
140
0.015625
141
12.0
290
     0
  0
SCALE
  5
5185
102
{ACAD_REACTORS
330
5171
102
}
330
5171
100
AcDbScale
 70
     0
300
1/32" = 1'-0"
140
0.03125
141
12.0
290
     0
  0
SCALE
  5
5186
102
{ACAD_REACTORS
330
5171
102
}
330
5171
100
AcDbScale
 70
     0
300
1/16" = 1'-0"
140
0.0625
141
12.0
290
     0
  0
SCALE
  5
5187
102
{ACAD_REACTORS
330
5171
102
}
330
5171
100
AcDbScale
 70
     0
300
3/32" = 1'-0"
140
0.09375
141
12.0
290
     0
  0
SCALE
  5
5188
102
{ACAD_REACTORS
330
5171
102
}
330
5171
100
AcDbScale
 70
     0
300
1/8" = 1'-0"
140
0.125
141
12.0
290
     0
  0
SCALE
  5
5189
102
{ACAD_REACTORS
330
5171
102
}
330
5171
100
AcDbScale
 70
     0
300
3/16" = 1'-0"
140
0.1875
141
12.0
290
     0
  0
SCALE
  5
518A
102
{ACAD_REACTORS
330
5171
102
}
330
5171
100
AcDbScale
 70
     0
300
1/4" = 1'-0"
140
0.25
141
12.0
290
     0
  0
SCALE
  5
518B
102
{ACAD_REACTORS
330
5171
102
}
330
5171
100
AcDbScale
 70
     0
300
3/8" = 1'-0"
140
0.375
141
12.0
290
     0
  0
SCALE
  5
518C
102
{ACAD_REACTORS
330
5171
102
}
330
5171
100
AcDbScale
 70
     0
300
1/2" = 1'-0"
140
0.5
141
12.0
290
     0
  0
SCALE
  5
518D
102
{ACAD_REACTORS
330
5171
102
}
330
5171
100
AcDbScale
 70
     0
300
3/4" = 1'-0"
140
0.75
141
12.0
290
     0
  0
SCALE
  5
518E
102
{ACAD_REACTORS
330
5171
102
}
330
5171
100
AcDbScale
 70
     0
300
1" = 1'-0"
140
1.0
141
12.0
290
     0
  0
SCALE
  5
518F
102
{ACAD_REACTORS
330
5171
102
}
330
5171
100
AcDbScale
 70
     0
300
1-1/2" = 1'-0"
140
1.5
141
12.0
290
     0
  0
SCALE
  5
5190
102
{ACAD_REACTORS
330
5171
102
}
330
5171
100
AcDbScale
 70
     0
300
3" = 1'-0"
140
3.0
141
12.0
290
     0
  0
SCALE
  5
5191
102
{ACAD_REACTORS
330
5171
102
}
330
5171
100
AcDbScale
 70
     0
300
6" = 1'-0"
140
6.0
141
12.0
290
     0
  0
SCALE
  5
5192
102
{ACAD_REACTORS
330
5171
102
}
330
5171
100
AcDbScale
 70
     0
300
1'-0" = 1'-0"
140
12.0
141
12.0
290
     0
  0
TABLESTYLE
  5
4BB
102
{ACAD_XDICTIONARY
360
51A8
102
}
102
{ACAD_REACTORS
330
4BA
102
}
330
4BA
100
AcDbTableStyle
  3
Standard
 70
     0
 71
     0
 40
0.06
 41
0.06
280
     0
281
     0
  7
Standard
140
0.18
170
     2
 62
     0
 63
     7
283
     0
274
    -2
284
     1
 64
     0
275
    -2
285
     1
 65
     0
276
    -2
286
     1
 66
     0
277
    -2
287
     1
 67
     0
278
    -2
288
     1
 68
     0
279
    -2
289
     1
 69
     0
  7
Standard
140
0.25
170
     5
 62
     0
 63
     7
283
     0
274
    -2
284
     1
 64
     0
275
    -2
285
     1
 65
     0
276
    -2
286
     1
 66
     0
277
    -2
287
     1
 67
     0
278
    -2
288
     1
 68
     0
279
    -2
289
     1
 69
     0
  7
Standard
140
0.18
170
     5
 62
     0
 63
     7
283
     0
274
    -2
284
     1
 64
     0
275
    -2
285
     1
 65
     0
276
    -2
286
     1
 66
     0
277
    -2
287
     1
 67
     0
278
    -2
288
     1
 68
     0
279
    -2
289
     1
 69
     0
  0
VISUALSTYLE
  5
2F
102
{ACAD_XDICTIONARY
360
49A
102
}
102
{ACAD_REACTORS
330
2A
102
}
330
2A
100
AcDbVisualStyle
  2
2dWireframe
 70
     4
 71
     0
 72
     2
 73
     0
 90
        0
 40
-0.6
 41
-30.0
 62
     5
 63
     7
 74
     1
 91
        4
 64
     7
 65
   257
 75
     1
175
     1
 42
1.0
 92
        0
 66
   257
 43
1.0
 76
     1
 77
     6
 78
     2
 67
     7
 79
     5
170
     0
171
     0
290
     0
174
     0
 93
        1
 44
0.0
173
     0
291
     0
 45
0.0
1001
ACAD
1000
AcDbSavedByObjectVersion
1070
     0
  0
VISUALSTYLE
  5
A47
102
{ACAD_REACTORS
330
2A
102
}
330
2A
100
AcDbVisualStyle
  2
3D Hidden
 70
     6
 71
     1
 72
     2
 73
     2
 90
        0
 40
-0.6
 41
-30.0
 62
     5
 63
     7
 74
     2
 91
        2
 64
     7
 65
   257
 75
     2
175
     1
 42
40.0
 92
        0
 66
   257
 43
1.0
 76
     1
 77
     6
 78
     2
 67
     7
 79
     3
170
     0
171
     0
290
     0
174
     0
 93
        1
 44
0.0
173
     0
291
     0
 45
0.0
1001
ACAD
1000
AcDbSavedByObjectVersion
1070
     0
  0
VISUALSTYLE
  5
A48
102
{ACAD_XDICTIONARY
360
A49
102
}
102
{ACAD_REACTORS
330
2A
102
}
330
2A
100
AcDbVisualStyle
  2
3dWireframe
 70
     5
 71
     0
 72
     2
 73
     0
 90
        0
 40
-0.6
 41
-30.0
 62
     5
 63
     7
 74
     1
 91
        4
 64
     7
 65
   257
 75
     1
175
     1
 42
1.0
 92
        0
 66
   257
 43
1.0
 76
     1
 77
     6
 78
     2
 67
     7
 79
     5
170
     0
171
     0
290
     0
174
     0
 93
        1
 44
0.0
173
     0
291
     0
 45
0.0
1001
ACAD
1000
AcDbSavedByObjectVersion
1070
     0
  0
VISUALSTYLE
  5
32
102
{ACAD_XDICTIONARY
360
4A0
102
}
102
{ACAD_REACTORS
330
2A
102
}
330
2A
100
AcDbVisualStyle
  2
Basic
 70
     7
 71
     1
 72
     0
 73
     1
 90
        0
 40
-0.6
 41
-30.0
 62
     5
 63
     7
 74
     0
 91
        4
 64
     7
 65
   257
 75
     1
175
     1
 42
1.0
 92
        8
 66
     7
 43
1.0
 76
     1
 77
     6
 78
     2
 67
     7
 79
     5
170
     0
171
     0
290
     0
174
     0
 93
        1
 44
0.0
173
     0
291
     1
 45
0.0
1001
ACAD
1000
AcDbSavedByObjectVersion
1070
     0
  0
VISUALSTYLE
  5
36
102
{ACAD_XDICTIONARY
360
4A8
102
}
102
{ACAD_REACTORS
330
2A
102
}
330
2A
100
AcDbVisualStyle
  2
Brighten
 70
    12
 71
     2
 72
     2
 73
     0
 90
        0
 40
-0.6
 41
-30.0
 62
     5
 63
     7
 74
     1
 91
        4
 64
     7
 65
   257
 75
     1
175
     1
 42
1.0
 92
        8
 66
     7
 43
1.0
 76
     1
 77
     6
 78
     2
 67
     7
 79
     5
170
     0
171
     0
290
     0
174
     0
 93
        1
 44
50.0
173
     0
291
     1
 45
0.0
1001
ACAD
1000
AcDbSavedByObjectVersion
1070
     0
  0
VISUALSTYLE
  5
3A
102
{ACAD_XDICTIONARY
360
4B0
102
}
102
{ACAD_REACTORS
330
2A
102
}
330
2A
100
AcDbVisualStyle
  2
ColorChange
 70
    16
 71
     2
 72
     2
 73
     3
 90
        0
 40
-0.6
 41
-30.0
 62
     5
 63
     8
 74
     1
 91
        4
 64
     7
 65
   257
 75
     1
175
     1
 42
1.0
 92
        8
 66
     8
 43
1.0
 76
     1
 77
     6
 78
     2
 67
     7
 79
     5
170
     0
171
     0
290
     0
174
     0
 93
        1
 44
0.0
173
     0
291
     1
 45
0.0
1001
ACAD
1000
AcDbSavedByObjectVersion
1070
     0
  0
VISUALSTYLE
  5
A4B
102
{ACAD_REACTORS
330
2A
102
}
330
2A
100
AcDbVisualStyle
  2
Conceptual
 70
     9
 71
     3
 72
     2
 73
     0
 90
        0
 40
-0.6
 41
-30.0
 62
     5
 63
     7
 74
     2
 91
        2
 64
     7
 65
   257
 75
     1
175
     1
 42
40.0
 92
        8
 66
     7
 43
1.0
 76
     1
 77
     6
 78
     2
 67
     7
 79
     3
170
     0
171
     0
290
     0
174
     0
 93
        1
 44
0.0
173
     0
291
     0
 45
0.0
1001
ACAD
1000
AcDbSavedByObjectVersion
1070
     0
  0
VISUALSTYLE
  5
35
102
{ACAD_XDICTIONARY
360
4A6
102
}
102
{ACAD_REACTORS
330
2A
102
}
330
2A
100
AcDbVisualStyle
  2
Dim
 70
    11
 71
     2
 72
     2
 73
     0
 90
        0
 40
-0.6
 41
-30.0
 62
     5
 63
     7
 74
     1
 91
        4
 64
     7
 65
   257
 75
     1
175
     1
 42
1.0
 92
        8
 66
     7
 43
1.0
 76
     1
 77
     6
 78
     2
 67
     7
 79
     5
170
     0
171
     0
290
     0
174
     0
 93
        1
 44
-50.0
173
     0
291
     1
 45
0.0
1001
ACAD
1000
AcDbSavedByObjectVersion
1070
     0
  0
VISUALSTYLE
  5
39
102
{ACAD_XDICTIONARY
360
4AE
102
}
102
{ACAD_REACTORS
330
2A
102
}
330
2A
100
AcDbVisualStyle
  2
Facepattern
 70
    15
 71
     2
 72
     2
 73
     0
 90
        0
 40
-0.6
 41
-30.0
 62
     5
 63
     7
 74
     1
 91
        4
 64
     7
 65
   257
 75
     1
175
     1
 42
1.0
 92
        8
 66
     7
 43
1.0
 76
     1
 77
     6
 78
     2
 67
     7
 79
     5
170
     0
171
     0
290
     0
174
     0
 93
        1
 44
0.0
173
     0
291
     1
 45
0.0
1001
ACAD
1000
AcDbSavedByObjectVersion
1070
     0
  0
VISUALSTYLE
  5
2B
102
{ACAD_XDICTIONARY
360
492
102
}
102
{ACAD_REACTORS
330
2A
102
}
330
2A
100
AcDbVisualStyle
  2
Flat
 70
     0
 71
     2
 72
     1
 73
     1
 90
        2
 40
-0.6
 41
30.0
 62
     5
 63
     7
 74
     0
 91
        4
 64
     7
 65
   257
 75
     1
175
     1
 42
1.0
 92
        8
 66
     7
 43
1.0
 76
     1
 77
     6
 78
     2
 67
     7
 79
     5
170
     0
171
     0
290
     0
174
     0
 93
       13
 44
0.0
173
     0
291
     1
 45
0.0
1001
ACAD
1000
AcDbSavedByObjectVersion
1070
     0
  0
VISUALSTYLE
  5
2C
102
{ACAD_XDICTIONARY
360
494
102
}
102
{ACAD_REACTORS
330
2A
102
}
330
2A
100
AcDbVisualStyle
  2
FlatWithEdges
 70
     1
 71
     2
 72
     1
 73
     1
 90
        2
 40
-0.6
 41
30.0
 62
     5
 63
     7
 74
     1
 91
        4
 64
     7
 65
   257
 75
     1
175
     1
 42
1.0
 92
        0
 66
   257
 43
1.0
 76
     1
 77
     6
 78
     2
 67
     7
 79
     5
170
     0
171
     0
290
     0
174
     0
 93
       13
 44
0.0
173
     0
291
     1
 45
0.0
1001
ACAD
1000
AcDbSavedByObjectVersion
1070
     0
  0
VISUALSTYLE
  5
2D
102
{ACAD_XDICTIONARY
360
496
102
}
102
{ACAD_REACTORS
330
2A
102
}
330
2A
100
AcDbVisualStyle
  2
Gouraud
 70
     2
 71
     2
 72
     2
 73
     1
 90
        2
 40
-0.6
 41
30.0
 62
     5
 63
     7
 74
     0
 91
        4
 64
     7
 65
   257
 75
     1
175
     1
 42
1.0
 92
        0
 66
     7
 43
1.0
 76
     1
 77
     6
 78
     2
 67
     7
 79
     5
170
     0
171
     0
290
     0
174
     0
 93
       13
 44
0.0
173
     0
291
     1
 45
0.0
1001
ACAD
1000
AcDbSavedByObjectVersion
1070
     0
  0
VISUALSTYLE
  5
2E
102
{ACAD_XDICTIONARY
360
498
102
}
102
{ACAD_REACTORS
330
2A
102
}
330
2A
100
AcDbVisualStyle
  2
GouraudWithEdges
 70
     3
 71
     2
 72
     2
 73
     1
 90
        2
 40
-0.6
 41
30.0
 62
     5
 63
     7
 74
     1
 91
        4
 64
     7
 65
   257
 75
     1
175
     1
 42
1.0
 92
        0
 66
   257
 43
1.0
 76
     1
 77
     6
 78
     2
 67
     7
 79
     5
170
     0
171
     0
290
     0
174
     0
 93
       13
 44
0.0
173
     0
291
     1
 45
0.0
1001
ACAD
1000
AcDbSavedByObjectVersion
1070
     0
  0
VISUALSTYLE
  5
38
102
{ACAD_XDICTIONARY
360
4AC
102
}
102
{ACAD_REACTORS
330
2A
102
}
330
2A
100
AcDbVisualStyle
  2
Linepattern
 70
    14
 71
     2
 72
     2
 73
     0
 90
        0
 40
-0.6
 41
-30.0
 62
     5
 63
     7
 74
     1
 91
        4
 64
     7
 65
   257
 75
     7
175
     7
 42
1.0
 92
        8
 66
     7
 43
1.0
 76
     1
 77
     6
 78
     2
 67
     7
 79
     5
170
     0
171
     0
290
     0
174
     0
 93
        1
 44
0.0
173
     0
291
     1
 45
0.0
1001
ACAD
1000
AcDbSavedByObjectVersion
1070
     0
  0
VISUALSTYLE
  5
A4C
102
{ACAD_XDICTIONARY
360
A4D
102
}
102
{ACAD_REACTORS
330
2A
102
}
330
2A
100
AcDbVisualStyle
  2
Realistic
 70
     8
 71
     2
 72
     2
 73
     0
 90
        0
 40
-0.6
 41
-30.0
 62
     5
 63
     7
 74
     1
 91
        0
 64
     7
 65
   257
 75
     1
175
     1
 42
1.0
 92
        8
 66
     8
 43
1.0
 76
     1
 77
     6
 78
     2
 67
     7
 79
     5
170
     0
171
     0
290
     0
174
     0
 93
       13
 44
0.0
173
     0
291
     0
 45
0.0
1001
ACAD
1000
AcDbSavedByObjectVersion
1070
     0
  0
VISUALSTYLE
  5
37
102
{ACAD_XDICTIONARY
360
4AA
102
}
102
{ACAD_REACTORS
330
2A
102
}
330
2A
100
AcDbVisualStyle
  2
Thicken
 70
    13
 71
     2
 72
     2
 73
     0
 90
        0
 40
-0.6
 41
-30.0
 62
     5
 63
     7
 74
     1
 91
        4
 64
     7
 65
   257
 75
     1
175
     1
 42
1.0
 92
       12
 66
     7
 43
1.0
 76
     1
 77
     6
 78
     2
 67
     7
 79
     5
170
     0
171
     0
290
     0
174
     0
 93
        1
 44
0.0
173
     0
291
     1
 45
0.0
1001
ACAD
1000
AcDbSavedByObjectVersion
1070
     0
  0
DICTIONARYVAR
  5
51AD
102
{ACAD_REACTORS
330
487
102
}
330
487
100
DictionaryVariables
280
     0
  1
1:1
  0
DICTIONARYVAR
  5
51AB
102
{ACAD_REACTORS
330
487
102
}
330
487
100
DictionaryVariables
280
     0
  1
STANDARD
  0
DICTIONARYVAR
  5
5FE
102
{ACAD_REACTORS
330
487
102
}
330
487
100
DictionaryVariables
280
     0
  1
STANDARD
  0
DICTIONARYVAR
  5
48A
102
{ACAD_REACTORS
330
487
102
}
330
487
100
DictionaryVariables
280
     0
  1
2
  0
DICTIONARYVAR
  5
48B
102
{ACAD_REACTORS
330
487
102
}
330
487
100
DictionaryVariables
280
     0
  1
1
  0
DICTIONARYVAR
  5
86B
102
{ACAD_REACTORS
330
487
102
}
330
487
100
DictionaryVariables
280
     0
  1
0
  0
DICTIONARYVAR
  5
51AE
102
{ACAD_REACTORS
330
487
102
}
330
487
100
DictionaryVariables
280
     0
  1
0
  0
DICTIONARYVAR
  5
51AC
102
{ACAD_REACTORS
330
487
102
}
330
487
100
DictionaryVariables
280
     0
  1
0
  0
DICTIONARYVAR
  5
86A
102
{ACAD_REACTORS
330
487
102
}
330
487
100
DictionaryVariables
280
     0
  1
127
  0
DICTIONARY
  5
7D4
330
1E
100
AcDbDictionary
280
     1
281
     1
  3
ADSK_XREC_LAYOUTTHUMBNAIL
360
7D5
  0
DICTIONARY
  5
524F
330
3D
100
AcDbDictionary
280
     1
281
     1
  3
ACAD_XREC_ROUNDTRIP
360
5250
  0
DICTIONARY
  5
524D
330
3C
100
AcDbDictionary
280
     1
281
     1
  3
ACAD_XREC_ROUNDTRIP
360
524E
  0
DICTIONARY
  5
5251
330
3E
100
AcDbDictionary
280
     1
281
     1
  3
ACAD_XREC_ROUNDTRIP
360
5252
  0
DICTIONARY
  5
51A8
330
4BB
100
AcDbDictionary
280
     1
281
     1
  3
ACAD_ROUNDTRIP_2008_TABLESTYLE_CELLSTYLEMAP
360
524C
  3
ACAD_XREC_ROUNDTRIP
360
5253
  0
DICTIONARY
  5
49A
330
2F
100
AcDbDictionary
280
     1
281
     1
  3
ACAD_XREC_ROUNDTRIP
360
49B
  0
DICTIONARY
  5
A49
330
A48
100
AcDbDictionary
280
     1
281
     1
  3
ACAD_XREC_ROUNDTRIP
360
A4A
  0
DICTIONARY
  5
4A0
330
32
100
AcDbDictionary
280
     1
281
     1
  3
ACAD_XREC_ROUNDTRIP
360
4A1
  0
DICTIONARY
  5
4A8
330
36
100
AcDbDictionary
280
     1
281
     1
  3
ACAD_XREC_ROUNDTRIP
360
4A9
  0
DICTIONARY
  5
4B0
330
3A
100
AcDbDictionary
280
     1
281
     1
  3
ACAD_XREC_ROUNDTRIP
360
4B1
  0
DICTIONARY
  5
4A6
330
35
100
AcDbDictionary
280
     1
281
     1
  3
ACAD_XREC_ROUNDTRIP
360
4A7
  0
DICTIONARY
  5
4AE
330
39
100
AcDbDictionary
280
     1
281
     1
  3
ACAD_XREC_ROUNDTRIP
360
4AF
  0
DICTIONARY
  5
492
330
2B
100
AcDbDictionary
280
     1
281
     1
  3
ACAD_XREC_ROUNDTRIP
360
493
  0
DICTIONARY
  5
494
330
2C
100
AcDbDictionary
280
     1
281
     1
  3
ACAD_XREC_ROUNDTRIP
360
495
  0
DICTIONARY
  5
496
330
2D
100
AcDbDictionary
280
     1
281
     1
  3
ACAD_XREC_ROUNDTRIP
360
497
  0
DICTIONARY
  5
498
330
2E
100
AcDbDictionary
280
     1
281
     1
  3
ACAD_XREC_ROUNDTRIP
360
499
  0
DICTIONARY
  5
4AC
330
38
100
AcDbDictionary
280
     1
281
     1
  3
ACAD_XREC_ROUNDTRIP
360
4AD
  0
DICTIONARY
  5
A4D
330
A4C
100
AcDbDictionary
280
     1
281
     1
  3
ACAD_XREC_ROUNDTRIP
360
A4E
  0
DICTIONARY
  5
4AA
330
37
100
AcDbDictionary
280
     1
281
     1
  3
ACAD_XREC_ROUNDTRIP
360
4AB
  0
XRECORD
  5
7D5
102
{ACAD_REACTORS
330
7D4
102
}
330
7D4
100
AcDbXrecord
280
     1
310
28000000B40000007F00000001000800000000004C59000000000000000000000001000000000000FFFFFF0000000000FFFFFF000000000000000000000000000000000000000000000000000000000000000000330000006600000099000000CC000000FF00000000330000333300006633000099330000CC330000FF3300
310
0000660000336600006666000099660000CC660000FF66000000990000339900006699000099990000CC990000FF99000000CC000033CC000066CC000099CC0000CCCC0000FFCC000000FF000033FF000066FF000099FF0000CCFF0000FFFF000000003300330033006600330099003300CC003300FF003300003333003333
310
33006633330099333300CC333300FF33330000663300336633006666330099663300CC663300FF66330000993300339933006699330099993300CC993300FF99330000CC330033CC330066CC330099CC3300CCCC3300FFCC330000FF330033FF330066FF330099FF3300CCFF3300FFFF330000006600330066006600660099
310
006600CC006600FF00660000336600333366006633660099336600CC336600FF33660000666600336666006666660099666600CC666600FF66660000996600339966006699660099996600CC996600FF99660000CC660033CC660066CC660099CC6600CCCC6600FFCC660000FF660033FF660066FF660099FF6600CCFF6600
310
FFFF660000009900330099006600990099009900CC009900FF00990000339900333399006633990099339900CC339900FF33990000669900336699006666990099669900CC669900FF66990000999900339999006699990099999900CC999900FF99990000CC990033CC990066CC990099CC9900CCCC9900FFCC990000FF99
310
0033FF990066FF990099FF9900CCFF9900FFFF99000000CC003300CC006600CC009900CC00CC00CC00FF00CC000033CC003333CC006633CC009933CC00CC33CC00FF33CC000066CC003366CC006666CC009966CC00CC66CC00FF66CC000099CC003399CC006699CC009999CC00CC99CC00FF99CC0000CCCC0033CCCC0066CC
310
CC0099CCCC00CCCCCC00FFCCCC0000FFCC0033FFCC0066FFCC0099FFCC00CCFFCC00FFFFCC000000FF003300FF006600FF009900FF00CC00FF00FF00FF000033FF003333FF006633FF009933FF00CC33FF00FF33FF000066FF003366FF006666FF009966FF00CC66FF00FF66FF000099FF003399FF006699FF009999FF00CC
310
99FF00FF99FF0000CCFF0033CCFF0066CCFF0099CCFF00CCCCFF00FFCCFF0000FFFF0033FFFF0066FFFF0099FFFF00CCFFFF00FFFFFF00000000000D0D0D001A1A1A00282828003535350043434300505050005D5D5D006B6B6B00787878008686860093939300A1A1A100AEAEAE00BBBBBB00C9C9C900D6D6D600E4E4E400
310
F1F1F100FFFFFF0000000000000000000000000000000000000000000000000000000000000000000000000000000000E2E2E2E2E2E2E2E2E2E2E2E2E2E2E2E2E2E2E2E2E2E2E2E2E2E2E2E2E2E2E2E2E2E2E2E2E2E2E2E2E2E2E2E2E2E2E2E2E2E2E2E2E2E2E2E2E2E2E2E2E2E2E2E2E2E2E2E2E2E2E2E2E2E2E2E2E2E2E2
310
E2E2E2E2E2E2E2E2E2E2E2E2E2E2E2E2E2E2E2E2E2E2E2E2E2E2E2E2E2E2E2E2E2E2E2E2E2E2E2E2E2E2E2E2E2E2E2E2E2E2E2E2E2E2E2E2E2E2E2E2E2E2E2E2E2E2E2E2E2E2E2E2E2E2E2E2E2E2E2E2E2E2E2E2E2E2E2E2E2E2E2E2E2E2E2E2E2E2E2E2EFE2E2E2E2E2E2E2E2E2E2E2E2E2E2E2E2E2E2E2E2E2E2E2E2E2E2
310
E2E2E2E2E2E2E2E2E2E2E2E2E2E2E2E2E2E2E2E2E2E2E2E2E2E2E2E2E2E2E2E2E2E2E2E2E2E2E2E2E2E2E2E2E2E2E2E2E2E2E2E2E2E2E2E2E2E2E2E2E2E2E2E2E2E2E2E2E2E2E2E2E2E2E2E2E2E2E2E2E2E2E2E2E2E2E2E2E2E2E2E2E2E2E2E2E2E2E2E2E2E2E2E2E2E2E2E2E2E2E2E2E2E2E2E2E2E2E2E2E2E2E2E2E2E2E2
310
E2E2E2E2E2E2E2E2E2E2E2E2E2E2E2E2E2E2E2E2E2E2E2E2E2E2EFE2E2F5F5F5F5F5F5F5F5F5F5F5F5F5F5F5F5F5F5F5F5F5F5F5F5F5F5F5F5F5F5F5F5F5F5F5F5F5F5F5F5F5F5F5F5F5F5F5F5F5F5F5F5F5F5F5F5F5F5F5F5F5F5F5F5F5F5F5F5F5F5F5F5F5F5F5F5F5F5F5F5F5F5F5F5F5F5F5F5F5F5F5F5F5F5F5F5F5F5
310
F5F5F5F5F5F5F5F5F5F5F5F5F5F5F5F5F5F5F5F5F5F5F5F5F5F5F5F5F5F5F5F5F5F5F5F5F5F5F5F5F5F5F5F5F5F5F5F5F5F5F5F5F5F5F5F5F5F5F5F5F5F5F5F5F5F5F5F5F5F5F5F5F5F5F5E2E2E2E2EFE2E2F5F5F5F5F5F5F5F5F5F5F5F5F5F5F5F5F5F5F5F5F5F5F5F5F5F5F5F5F5F5F5F5F5F5F5F5F5F5F5F5F5F5F5F5F5
310
F5F5F5F5F5F5F5F5F5F5F5F5F5F5F5F5F5F5F5F5F5F5F5F5F5F5F5F5F5F5F5F5F5F5F5F5F5F5F5F5F5F5F5F5F5F5F5F5F5F5F5F5F5F5F5F5F5F5F5F5F5F5F5F5F5F5F5F5F5F5F5F5F5F5F5F5F5F5F5F5F5F5F5F5F5F5F5F5F5F5F5F5F5F5F5F5F5F5F5F5F5F5F5F5F5F5F5F5F5F5F5F5F5F5F5F5F5F5F5F5F5F5F5F5F5F5F5
310
F5E2E2E2E2EFE2E2F5F5F5F5F5F5F5F5F5F5F5F5F5F5F5F5F5F5F5F5F5F5F5F5F5F5F5F5F5F5F5F5F5F5F5F5F5F5F5F5F5F5F5F5F5F5F5F5F5F5F5F5F5F5F5F5F5F5F5F5F5F5F5F5F5F5F5F5F5F5F5F5F5F5F5F5F5F5F5F5F5F5F5F5F5F5F5F5F5F5F5F5F5F5F5F5F5F5F5F5F5F5F5F5F5F5F5F5F5F5F5F5F5F5F5F5F5F5F5
310
F5F5F5F5F5F5F5F5F5F5F5F5F5F5F5F5F5F5F5F5F5F5F5F5F5F5F5F5F5F5F5F5F5F5F5F5F5F5F5F5F5F5F5F5F5F5F5F5F5F5F5F5F5F5E2E2E2E2EFE2E2F5F5F5F5F5F5F5F5F5F5F5F5F5F5F5F5F5F5F5F5F5F5F5F5F5F5F5F5F5F5F5F5F5F5F5F5F5F5F5F5F5F5F5F5F5F5F5F5F5F5F5F5F5F5F5F5F5F5F5F5F5F5F5F5F5F5
310
F5F5F5F5F5F5F5F5F5F5F5F5F5F5F5F5F5F5F5F5F5F5F5F5F5F5F5F5F5F5F5F5F5F5F5F5F5F5F5F5F5F5F5F5F5F5F5F5F5F5F5F5F5F5F5F5F5F5F5F5F5F5F5F5F5F5F5F5F5F5F5F5F5F5F5F5F5F5F5F5F5F5F5F5F5F5F5F5F5F5F5F5F5F5F5F5F5F5F5F5F5F5F5F5F5F5F5E2E2E2E2EFE2E2F5F5F5F5F5F5F5F5F5F5F5F5F5
310
F5F5F5F5F5F5F5F5F5F5F5F5F5F5F5F5F5F5F5F5F5F5F5F5F5F5F5F5F5F5F5F5F5F5F5F5F5F5F5F5F5F5F5F5F5F5F5F5F5F5F5F5F5F5F5F5F5F5F5F5F5F5F5F5F5F5F5F5F5F5F5F5F5F5F5F5F5F5F5F5F5F5F5F5F5F5F5F5F5F5F5F5F5F5F5F5F5F5F5F5F5F5F5F5F5F5F5F5F5F5F5F5F5F5F5F5F5F5F5F5F5F5F5F5F5F5F5
310
F5F5F5F5F5F5F5F5F5F5F5F5F5F5F5F5F5F5F5F5F5F5F5F5F5F5F5F5F5F5F5F5F5E2E2E2E2EFE2E2F5F5F5F5F5F5F5F5F5F5F5F5F5F5F5F5F5F5F5F5F5F5F5F5F5F5F5F5F5F5F5F5F5F5F5F5F5F5F5F5F5F5F5F5F5F5F5F5F5F5F5F5F5F5F5F5F5F5F5F5F5F5F5F5F5F5F5F5F5F5F5F5F5F5F5F5F5F5F5F5F5F5F5F5F5F5F5
310
F5F5F5F5F5F5F5F5F5F5F5F5F5F5F5F5F5F5F5F5F5F5F5F5F5F5F5F5F5F5F5F5F5F5F5F5F5F5F5F5F5F5F5F5F5F5F5F5F5F5F5F5F5F5F5F5F5F5F5F5F5F5F5F5F5F5F5F5F5F5F5F5F5F5F5F5F5F5F5F5F5F5F5F5F5F5E2E2E2E2EFE2E2F5F5F5F5F5F5F5F5F5F5F5F5F5F5F5F5F5F5F5F5F5F5F5F5F5F5F5F5F5F5F5F5F5F5
310
F5F5F5F5F5F5F5F5F5F5F5F5F5F5F5F5F5F5F5F5F5F5F5F5F5F5F5F5F5F5F5F5F5F5F5F5F5F5F5F5F5F5F5F5F5F5F5F5F5F5F5F5F5F5F5F5F5F5F5F5F5F5F5F5F5F5F5F5F5F5F5F5F5F5F5F5F5F5F5F5F5F5F5F5F5F5F5F5F5F5F5F5F5F5F5F5F5F5F5F5F5F5F5F5F5F5F5F5F5F5F5F5F5F5F5F5F5F5F5F5F5F5F5F5F5F5F5
310
F5F5F5F5F5F5F5F5F5F5F5F5E2E2E2E2EFE2E2F5F5F5F5F5F5F5F5F5F5F5F5F5F5F5F5F5F5F5F5F5F5F5F5F5F5F5F5F5F5F5F5F5F5F5F5F5F5F5F5F5F5F5F5F5F5F5F5F5F5F5F5F5F5F5F5F5F5F5F5F5F5F5F5F5F5F5F5F5F5F5F5F5F5F5F5F5F5F5F5F5F5F5F5F5F5F5F5F5F5F5F5F5F5F5F5F5F5F5F5F5F5F5F5F5F5F5F5
310
F5F5F5F5F5F5F5F5F5F5F5F5F5F5F5F5F5F5F5F5F5F5F5F5F5F5F5F5F5F5F5F5F5F5F5F5F5F5F5F5F5F5F5F5F5F5F5F5F5F5F5F5F5F5F5F5F5F5F5F5F5F5F5F5F5E2F5E2E2EFE2E2F5F5F5F5F5F5F5F5F5F5F5F5F5F5F5F5F5F5F5F5F5F5F5F5F5F5F5F5F5F5F5F5F5F5F5F5F5F5F5F5F5F5F5F5F5F5F5F5F5F5F5F5F5F5F5
310
F5F5F5F5F5F5F5F5F5F5F5F5F5F5F5F5F5F5F5F5F5F5F5F5F5F5F5F5F5F5F5F5F5F5F5F5F5F5F5F5F5F5F5F5F5F5F5F5F5F5F5F5F5F5F5F5F5F5F5F5F5F5F5F5F5F5F5F5F5F5F5F5F5F5F5F5F5F5F5F5F5F5F5F5F5F5F5F5F5F5F5F5F5F5F5F5F5F5F5F5F5F5F5F5F5F5F5F5F5F5F5F5F5F5F5F5F5F5E2F5E2E2EFE2E2F5F5
310
F5F5F5F5F5F5F5F5F5F5F5F5F5F5F5F5F5F5F5F5F5F5F5F5F5F5F5F5F5F5F5F5F5F5F5F5F5F5F5F5F5F5F5F5F5F5F5F5F5F5F5F5F5F5F5F5F5F5F5F5F5F5F5F5F5F5F5F5F5F5F5F5F5F5F5F5F5F5F5F5F5F5F5F5F5F5F5F5F5F5F5F5F5F5F5F5F5F5F5F5F5F5F5F5F5F5F5F5F5F5F5F5F5F5F5F5F5F5F5F5F5F5F5F5F5F5F5
310
F5F5F5F5F5F5F5F5F5F5F5F5F5F5F5F5F5F5F5F5F5F5F5F5F5F5F5F5F5F5F5F5F5F5F5F5F5F5F5F5F5F5F5F5E2F5E2E2EFE2E2F5F5F5F5F5F5F5F5F5F5F5F5F5F5F5F5F5F5F5F5F5F5F5F5F5F5F5F5F5F5F5F5F5F5F5F5F5F5F5F5F5F5F5F5F5F5F5F5F5F5F5F5F5F5F5F5F5F5F5F5F5F5F5F5F5F5F5F5F5F5F5F5F5F5F5F5
310
F5F5F5F5F5F5F5F5F5F5F5F5F5F5F5F5F5F5F5F5F5F5F5F5F5F5F5F5F5F5F5F5F5F5F5F5F5F5F5F5F5F5F5F5F5F5F5F5F5F5F5F5F5F5F5F5F5F5F5F5F5F5F5F5F5F5F5F5F5F5F5F5F5F5F5F5F5F5F5F5F5F5F5F5F5F5F5F5F5F5F5F5F5F5F5F5F5E2F5E2E2EFE2E2F5F5F5F5F5F5F5F5F5F5F5F5F5F5F5F5F5F5F5F5F5F5F5
310
F5F5F5F5F5F5F5F5F5F5F5F5F5F5F5F5F5F5F5F5F5F5F5F5F5F5F5F5F5F5F5F5F5F5F5F5F5F5F5F5F5F5F5F5F5F5F5F5F5F5F5F5F5F5F5F5F5F5F5F5F5F5F5F5F5F5F5F5F5F5F5F5F5F5F5F5F5F5F5F5F5F5F5F5F5F5F5F5F5F5F5F5F5F5F5F5F5F5F5F5F5F5F5F5F5F5F5F5F5F5F5F5F5F5F5F5F5F5F5F5F5F5F5F5F5F5F5
310
F5F5F5F5F5F5F5F5F5F5F5F5F5F5F5F5F5F5F5F5F5F5F5E2F5E2E2EFE2E2F5F5F5F5F5F5F5F5F5F5F5F5F5F5F5F5F5F5F5F5F5F5F5F5F5F5F5F5F5F5F5F5F5F5F5F5F5F5F5F5F5F5F5F5F5F5F5F5F5F5F5F5F5F5F5F5F5F5F5F5F5F5F5F5F5F5F5F5F5F5F5F5F5F5F5F5F5F5F5F5F5F5F5F5F5F5F5F5F5E2E2E2E2E2E2E2E2
310
E2E2E2E2E2E2E2E2E2E2E2E2E2E2E2E2E2E2E2E2E2E2E2E2F5F5F5F5F5F5F5F5F5F5F5F5F5F5F5F5F5F5F5F5F5F5F5F5F5F5F5F5F5F5F5F5F5F5F5F5F5F5F5F5F5F5F5F5F5F5F5F5F5F5F5F5E2F5E2E2EFE2E2F5F5F5F5F5F5F5F5F5F5F5F5F5F5F5F5F5F5F5F5F5F5F5F5F5F5F5F5F5F5F5F5F5F5F5F5F5F5F5F5F5F5F5F5
310
F5F5F5F5F5F5F5F5F5F5F5F5F5F5F5F5F5F5F5F5F5F5F5F5F5F5F5F5F5F5F5F5F5F5F5F5F5F5F5F5F5F5F5F5F5E2E2E2E2E2E2E2E2E2E2E2E2E2E2E2E2E2E2E2E2E2E2E2E2E2E2E2E2E2E2E2E2F5F5F5F5F5F5F5F5F5F5F5F5F5F5F5F5F5F5F5F5F5F5F5F5F5F5F5F5F5F5F5F5F5F5F5F5F5F5F5F5F5F5F5F5F5F5F5F5F5F5
310
F5F5E2F5E2E2EFE2E2F5F5F5F5F5F5F5F5F5F5F5F5F5F5F5F5F5F5F5F5F5F5F5F5F5F5F5F5F5F5F5F5F5F5F5F5F5F5F5F5F5F5F5F5F5F5F5F5F5F5F5F5F5F5F5F5F5F5F5F5F5F5F5F5F5F5F5F5F5F5F5F5F5F5F5F5F5F5F5F5F5F5F5F5F5F5F5F5F5F5F5F5F5F5F5F5F5F5F5F5F5F5F5F5F5F5F5F5F5F5F5F5F5F5F5F5F5F5
310
F5F5F5F5F5F5F5F5F5F5F5F5F5F5F5F5F5F5F5F5F5F5F5F5F5F5F5F5F5F5F5F5F5F5F5F5F5F5F5F5F5F5F5F5F5F5F5F5F5F5F5F5F5F5F5E2F5E2E2EFE2E2F5F5F5F5F5F5F5F5F5F5F5F5F5F5F5F5F5F5F5F5F5F5F5F5F5F5F5F5F5F5F5F5F5F5F5F5F5F5F5F5F5F5F5F5F5F5F5F5F5F5F5F5F5F5F5F5F5F5F5F5F5F5F5F5F5
310
F5F5F5F5F5F5F5F5F5F5F5F5F5F5F5F5F5F5F5F5F5F5F5F5F5F5F5F5F5F5F5F5F5F5F5F5F5F5F5F5F5F5F5F5F5F5F5F5F5F5F5F5F5F5F5F5F5F5F5F5F5F5F5F5F5F5F5F5F5F5F5F5F5F5F5F5F5F5F5F5F5F5F5F5F5F5F5F5F5F5F5F5F5F5F5F5F5F5F5F5F5F5F5F5F5F5F5F5E2F5E2E2EFE2E2F5F5F5F5F5F5F5F5F5F5F5F5
310
F5F5F5F5F5F5F5F5F5F5F5F5F5F5F5F5F5F5F5F5F5F5F5F5F5F5F5F5F5F5F5F5F5F5F5F5F5F5F5F5F5F5F5F5F5F5F5F5F5F5F5F5F5F5F5F5F5F5F5F5F5F5F5F5F5F5F5F5F5F5F5F5F5F5F5F5F5F5F5F5F5F5F5F5F5F5F5F5F5F5F5F5F5F5F5F5F5F5F5F5F5F5F5F5F5F5F5F5F5F5F5F5F5F5F5F5F5F5F5F5F5F5F5F5F5F5F5
310
F5F5F5F5F5F5F5F5F5F5F5F5F5F5F5F5F5F5F5F5F5F5F5F5F5F5F5F5F5F5F5F5F5F5E2E2E2E2EFE2E2F5F5F5F5F5F5F5F5F5F5F5F5F5F5F5F5F5F5F5F5F5F5F5F5F5F5F5F5F5F5F5F5F5F5F5F5F5F5F5F5F5F5F5F5F5F5F5F5F5F5F5F5F5F5F5F5F5F5F5F5F5F5F5F5F5F5F5F5F5F5F5F5F5F5F5F5F5F5F5F5F5F5F5F5F5F5
310
F5F5F5F5F5F5F5F5F5F5F5F5F5F5F5F5F5F5F5F5F5F5F5F5F5F5F5F5F5F5F5F5F5F5F5F5F5F5F5F5F5F5F5F5F5F5F5F5F5F5F5F5F5F5F5F5F5F5F5F5F5F5F5F5F5F5F5F5F5F5F5F5F5F5F5F5F5F5F5F5F5F5F5F5F5F5F5E2E2E2E2EFE2E2F5F5F5F5F5F5F5F5F5F5F5F5F5F5F5F5F5F5F5F5F5F5F5F5F5F5F5F5F5F5F5F5F5
310
F5F5F5F5F5F5F5F5F5F5F5F5F5F5F5F5F5F5F5F5F5F5F5F5F5F5F5F5F5F5F5F5F5F5F5F5F5F5F5F5F5F5F5F5F5F5F5F5F5F5F5F5F5F5F5F5F5F5F5F5F5F5F5F5F5F5F5F5F5F5F5F5F5F5F5F5F5F5F5F5F5F5F5F5F5F5F5F5F5F5F5F5F5F5F5F5F5F5F5F5F5F5F5F5F5F5F5F5F5F5F5F5F5F5F5F5F5F5F5F5F5F5F5F5F5F5F5
310
F5F5F5F5F5F5F5F5F5F5F5F5F5E2E2E2E2EFE2E2F5F5F5F5F5F5F5F5F5F5F5F5F5F5F5F5F5F5F5F5F5F5F5F5F5F5F5F5F5F5F5F5F5F5F5F5E2E2E2E2F5F5F5F5F5F5F5F5F5F5F5F5F5F5F5F5F5F5F5F5F5F5F5F5E2E2E2E2E2E2F5E2E2E2E2E2F5E2E2E2E2E2E2F5E2E2E2E2E2F5E2E2E2E2E2E2F5F5F5F5F5F5F5F5F5F5F5
310
F5F5F5F5F5F5F5F5F5F5F5F5F5F5F5F5F5F5F5F5F5F5F5F5F5F5F5F5F5F5F5F5F5F5F5F5F5F5F5F5F5F5F5F5F5F5F5F5F5F5F5F5F5F5F5F5F5F5F5F5F5F5F5F5F5F5E2E2E2E2EFE2E2F5F5F5F5F5F5F5F5F5F5F5F5F5F5F5F5F5F5F5F5F5F5F5F5F5F5F5F5F5F5F5F5F5F5F5F5F5BEE2F5F5F5F5F5F5F5F5F5F5F5F5F5F5F5
310
F5F5F5F5F5F5F5F5F5F5E2F5F5F5F5F5F5F5F5F5F5F5F5F5F5F5F5F5F5F5F5F5F5F5F5F5F5F5F5F5F5E2F5F5F5F5F5F5F5F5F5F5F5F5F5F5F5F5F5F5F5F5F5F5F5F5F5F5F5F5F5F5F5F5F5F5F5F5F5F5F5F5F5F5F5F5F5F5F5F5F5F5F5F5F5F5F5F5F5F5F5F5F5F5F5F5F5F5F5F5F5F5F5F5F5F5F5F5F5E2E2E2E2EFE2E2F5
310
F5F5F5F5F5F5F5F5F5F5F5F5F5F5F5F5F5F5F5F5F5F5F5F5F5F5F5F5F5F5F5F5F5F5F5F5F5E2F5F5F5F5F5F5F5F5F5F5F5F5F5F5F5F5F5F5F5F5F5F5F5F5F5E2F5F5F5F5F5F5F5F5F5F5F5F5F5F5F5F5F5F5F5F5F5F5F5F5F5F5F5F5F5F5E2F5F5F5F5F5F5F5F5F5F5F5F5F5F5F5F5F5F5F5F5F5F5F5F5F5F5F5F5F5F5F5F5
310
F5F5F5F5F5F5F5F5F5F5F5F5F5F5F5F5F5F5F5F5F5F5F5F5F5F5F5F5F5F5F5F5F5F5F5F5F5F5F5F5F5F5F5F5F5E2E2E2E2EFE2E2F5F5F5F5F5F5F5F5F5F5F5F5F5F5F5F5F5F5F5F5F5F5F5F5F5F5F5F5F5F5F5F5F5F5F5F5F5F5E2F5F5F5F5F5F5F5F5F5F5F5F5F5F5F5F5F5F5F5F5F5F5F5F5F5E2F5F5F5F5F5F5F5F5F5F5
310
F5F5F5F5F5F5F5F5F5F5F5F5F5F5F5F5F5F5F5F5E2F5F5F5F5F5F5F5F5F5F5F5F5F5F5F5F5F5F5F5F5F5F5F5F5F5F5F5F5F5F5F5F5F5F5F5F5F5F5F5F5F5F5F5F5F5F5F5F5F5F5F5F5F5F5F5F5F5F5F5F5F5F5F5F5F5F5F5F5F5F5F5F5F5F5F5F5F5E2E2E2E2EFE2E2F5F5F5F5F5F5F5F5F5F5F5F5F5F5F5F5F5F5F5F5F5F5
310
F5F5F5F5F5F5F5F5F5F5F5F5F5F5F5F5E2F5F5F5F5F5F5F5F5F5F5F5F5F5F5F5F5F5F5F5F5F5F5F5F5F5E2F5F5F5F5F5F5F5F5F5F5F5F5F5F5F5F5F5F5F5F5F5F5F5F5F5F5F5F5F5F5E2F5F5F5F5F5F5F5F5F5F5F5F5F5F5F5F5F5F5F5F5F5F5F5F5F5F5F5F5F5F5F5F5F5F5F5F5F5F5F5F5F5F5F5F5F5F5F5F5F5F5F5F5F5
310
F5F5F5F5F5F5F5F5F5F5F5F5F5F5F5F5F5F5F5F5F5F5F5F5E2E2E2E2EFE2E2F5F5F5F5F5F5F5F5F5F5F5F5F5F5F5F5F5F5F5F5F5F5F5F5F5F5F5F5F5F5F5F5F5F5F5F5F5F5E2F5F5F5F5F5F5F5F5F5F5F5F5F5F5F5F5F5F5F5F5F5F5F5F5F5E2F5F5F5F5F5F5F5F5F5F5F5F5F5F5F5F5F5F5F5F5F5F5F5F5F5F5F5F5F5F5F5
310
F5F5F5F5F5F5F5F5F5F5F5F5F5F5F5F5F5F5F5F5F5F5F5F5F5F5F5F5F5F5F5F5F5F5F5F5F5F5F5F5F5F5F5F5F5F5F5F5F5F5F5F5F5F5F5F5F5F5F5F5F5F5F5F5F5F5F5F5F5F5F5F5F5F5F5F5F5E2E2E2E2EFE2E2F5F5F5F5F5F5F5F5F5F5F5F5F5F5F5F5F5F5F5F5F5F5F5F5F5F5F5F5F5F5F5F5F5F5F5F5F5F5E2F5F5F5F5
310
F5F5F5F5F5F5F5F5F5F5F5F5F5F5F5F5F5F5F5F5F5F5F5F5F5F5F5F5F5F5F5F5F5F5F5F5F5F5F5F5F5F5F5F5F5F5F5F5F5F5F5F5E2F5F5F5F5F5F5F5F5F5F5F5F5F5F5F5F5F5F5F5F5F5F5F5F5F5F5F5F5F5F5F5F5F5F5F5F5F5F5F5F5F5F5F5F5F5F5F5F5F5F5F5F5F5F5F5F5F5F5F5F5F5F5F5F5F5F5F5F5F5F5F5F5F5F5
310
F5F5F5E2E2E2E2EFE2E2F5F5F5F5F5F5F5F5F5F5F5F5F5F5F5F5F5F5F5F5F5F5F5F5F5F5F5F5F5F5F5F5F5F5F5F5F5F5E2F5F5F5F5F5F5F5F5F5F5F5F5F5F5F5F5F5F5F5F5F5F5F5F5F5E2F5F5F5F5F5F5F5F5F5F5F5F5F5F5F5F5F5F5F5F5F5F5F5F5F5F5F5F5F5F5E2F5F5F5F5F5F5F5F5F5F5F5F5F5F5F5F5F5F5F5F5F5
310
F5F5F5F5F5F5F5F5F5F5F5F5F5F5F5F5F5F5F5F5F5F5F5F5F5F5F5F5F5F5F5F5F5F5F5F5F5F5F5F5F5F5F5F5F5F5F5F5F5F5F5F5F5F5F5F5E2E2E2E2EFE2E2F5F5F5F5F5F5F5F5F5F5F5F5F5F5F5F5F5F5F5F5F5F5F5F5F5F5F5F5F5F5F5F5F5F5F5F5F5F5E2F5F5F5F5F5F5F5F5F5F5F5F5F5F5F5F5F5F5F5F5F5F5F5F5F5
310
E2F5F5F5F5F5F5F5F5F5F5F5F5F5F5F5F5F5F5F5F5F5F5F5F5F5F5F5F5F5F5E2F5F5F5F5F5F5F5F5F5F5F5F5F5F5F5F5F5F5F5F5F5F5F5F5F5F5F5F5F5F5F5F5F5F5F5F5F5F5F5F5F5F5F5F5F5F5F5F5F5F5F5F5F5F5F5F5F5F5F5F5F5F5F5F5F5F5F5F5F5F5F5F5F5F5F5F5F5E2E2E2E2EFE2E2F5F5F5F5F5F5F5F5F5F5F5
310
F5F5F5F5F5F5F5F5F5F5F5F5F5F5F5F5F5F5F5F5F5F5F5F5F5F5F5E2F5F5F5F5F5F5F5F5F5F5F5F5F5F5F5F5F5F5F5F5F5F5F5F5F5E2F5F5F5F5F5F5F5F5F5F5F5F5F5F5F5F5F5F5F5F5F5F5F5F5F5F5F5F5F5F5E2F5F5F5F5F5F5F5F5F5F5F5F5F5F5F5F5F5F5F5F5F5F5F5F5F5F5F5F5F5F5F5F5F5F5F5F5F5F5F5F5F5F5
310
F5F5F5F5F5F5F5F5F5F5F5F5F5F5F5F5F5F5F5F5F5F5F5F5F5F5F5F5F5F5F5F5F5F5F5E2E2E2E2EFE2E2F5F5F5F5F5F5F5F5F5F5F5F5F5F5F5F5F5F5F5F5F5F5F5F5F5F5F5F5F5F5F5F5F5F5F5F5F5F5E2F5F5F5F5F5F5F5F5F5F5F5F5F5F5F5F5F5F5F5F5F5F5F5F5F5E2F5F5F5F5F5F5F5F5F5F5F5F5F5F5F5F5F5F5F5F5
310
F5F5F5F5F5F5F5F5F5F5E2F5F5F5F5F5F5F5F5F5F5F5F5F5F5F5F5F5F5F5F5F5F5F5F5F5F5F5F5F5F5F5F5F5F5F5F5F5F5F5F5F5F5F5F5F5F5F5F5F5F5F5F5F5F5F5F5F5F5F5F5F5F5F5F5F5F5F5F5F5F5F5F5F5F5F5F5F5E2E2E2E2EFE2E2F5F5F5F5F5F5F5F5F5F5F5F5F5F5F5F5F5F5F5F5F5F5F5F5F5F5F5F5F5F5F5F5
310
F5F5F5F5F5F5E2F5F5F5F5F5F5F5F5F5F5F5F5F5F5F5F5F5F5F5F5F5F5F5F5F5E2F5F5F5F5F5F5F5F5F5F5F5F5F5F5F5F5F5F5F5F5F5F5F5F5F5F5F5F5F5F5E2F5F5F5F5F5F5F5F5F5F5F5F5F5F5F5F5F5F5F5F5F5F5F5F5F5F5F5F5F5F5F5F5F5F5F5F5F5F5F5F5F5F5F5F5F5F5F5F5F5F5F5F5F5F5F5F5F5F5F5F5F5F5F5
310
F5F5F5F5F5F5F5F5F5F5F5F5F5F5E2E2E2E2EFE2E2F5F5F5F5F5F5F5F5F5F5F5F5F5F5F5F5F5F5F5F5F5F5F5F5F5F5F5F5F5F5F5F5F5F5F5F5F5F5E2F5F5F5F5F5F5F5F5F5F5F5F5F5F5F5F5F5F5F5F5F5F5F5F5F5E2F5F5F5F5F5F5F5F5F5F5F5F5F5F5F5F5F5F5F5F5F5F5F5F5F5F5F5F5F5F5E2F5F5F5F5F5F5F5F5F5F5
310
F5F5F5F5F5F5F5F5F5F5F5F5F5F5F5F5F5F5F5F5F5F5F5F5F5F5F5F5F5F5F5F5F5F5F5F5F5F5F5F5F5F5F5F5F5F5F5F5F5F5F5F5F5F5F5F5F5F5F5F5F5F5F5F5F5F5F5E2E2E2E2EFE2E2F5F5F5F5F5F5F5F5F5F5F5F5F5F5F5F5F5F5F5F5F5F5F5F5F5F5F5F5F5F5F5F5F5F5F5F5F5F5E2F5F5F5F5F5F5F5F5F5F5F5F5F5F5
310
F5F5F5F5F5F5F5F5F5F5F5E2F5F5F5F5F5F5F5F5F5F5F5F5F5F5F5F5F5F5F5F5F5F5F5F5F5F5F5F5F5F5E2F5F5F5F5F5F5F5F5F5F5F5F5F5F5F5F5F5F5F5F5F5F5F5F5F5F5F5F5F5F5F5F5F5F5F5F5F5F5F5F5F5F5F5F5F5F5F5F5F5F5F5F5F5F5F5F5F5F5F5F5F5F5F5F5F5F5F5F5F5F5F5F5F5F5F5F5F5E2F5E2E2EFE2E2
310
F5F5F5F5F5F5F5F5F5F5F5F5F5F5F5F5F5F5F5F5F5F5F5F5F5F5F5F5F5F5F5F5F5F5F5F5F5F5E2F5F5F5F5F5F5F5F5F5F5F5F5F5F5F5F5F5F5F5F5F5F5F5F5F5E2F5F5F5F5F5F5F5F5F5F5F5F5F5F5F5F5F5F5F5F5F5F5F5F5F5F5F5F5F5F5E2F5F5F5F5F5F5F5F5F5F5F5F5F5F5F5F5F5F5F5F5F5F5F5F5F5F5F5F5F5F5F5
310
F5F5F5F5F5F5F5F5F5F5F5F5F5F5F5F5F5F5F5F5F5F5F5F5F5F5F5F5F5F5F5F5F5F5F5F5F5F5F5F5F5F5F5F5F5F5E2F5E2E2EFE2E2F5F5F5F5F5F5F5F5F5F5F5F5F5F5F5F5F5F5F5F5F5F5F5F5F5F5F5F5F5F5F5F5F5F5F5F5F5F5E2F5F5F5F5F5F5F5F5F5F5F5F5F5F5F5F5F5F5F5F5F5F5F5F5F5E2F5F5F5F5F5F5F5F5F5
310
F5F5F5F5F5F5F5F5F5F5F5F5F5F5F5F5F5F5F5F5F5E2F5F5F5F5F5F5F5F5F5F5F5F5F5F5F5F5F5F5F5F5F5F5F5F5F5F5F5F5F5F5F5F5F5F5F5F5F5F5F5F5F5F5F5F5F5F5F5F5F5F5F5F5F5F5F5F5F5F5F5F5F5F5F5F5F5F5F5F5F5F5F5F5F5F5F5F5F5E2F5E2E2EFE2E2F5F5F5F5F5F5F5F5F5F5F5F5F5F5F5F5F5F5F5F5F5
310
F5F5F5F5F5F5F5F5F5F5F5F5F5F5F5F5F5E2F5F5F5F5F5F5F5F5F5F5F5F5F5F5F5F5F5F5F5F5F5F5F5F5F5E2F5F5F5F5F5F5F5F5F5F5F5F5F5F5F5F5F5F5F5F5F5F5F5F5F5F5F5F5F5F5E2F5F5F5F5F5F5F5F5F5F5F5F5F5F5F5F5F5F5F5F5F5F5F5F5F5F5F5F5F5F5F5F5F5F5F5F5F5F5F5F5F5F5F5F5F5F5F5F5F5F5F5F5
310
F5F5F5F5F5F5F5F5F5F5F5F5F5F5F5F5F5F5F5F5F5F5F5F5F5E2F5E2E2EFE2E2F5F5F5F5F5F5F5F5F5F5F5F5F5F5F5F5F5F5F5F5F5F5F5F5F5F5F5F5F5F5F5F5F5F5F5F5F5F5E2F5F5F5F5F5F5F5F5F5F5F5F5F5F5F5F5F5F5F5F5F5F5F5F5F5E2F5F5F5F5F5F5F5F5F5F5F5F5F5F5F5F5F5F5F5F5F5F5F5F5F5F5F5F5F5F5
310
E2E2F5F5F5F5F5F5F5F5F5F5F5F5F5F5F5F5F5F5F5F5F5F5F5F5F5F5F5F5F5F5F5F5F5F5F5F5F5F5F5F5F5F5F5F5F5F5F5F5F5F5F5F5F5F5F5F5F5F5F5F5F5F5F5F5F5F5F5F5F5F5F5F5F5F5F5F5E2F5E2E2EFE2E2F5F5F5F5F5F5F5F5F5F5F5F5F5F5F5F5F5F5F5F5F5F5F5F5F5F5F5F5F5F5F5F5F5F5F5F5F5F5E2F5F5F5
310
F5F5F5F5F5F5F5F5F5F5F5F5F5F5F5F5F5F5F5F5F5F5E2F5F5F5F5F5F5F5F5F5F5F5F5F5F5F5F5F5F5F5F5F5F5F5F5F5F5F5F5F5F5F5E2F5F5F5F5F5F5F5F5F5F5F5F5F5F5F5F5F5F5F5F5F5F5F5F5F5F5F5F5F5F5F5F5F5F5F5F5F5F5F5F5F5F5F5F5F5F5F5F5F5F5F5F5F5F5F5F5F5F5F5F5F5F5F5F5F5F5F5F5F5F5F5F5
310
F5F5F5F5E2F5E2E2EFE2E2F5F5F5F5F5F5F5F5F5F5F5F5F5F5F5F5F5F5F5F5F5F5F5F5F5F5F5F5F5F5F5F5F5F5F5F5F5F5E2F5F5F5F5F5F5F5F5F5F5F5F5F5F5F5F5F5F5F5F5F5F5F5F5F5E2F5F5F5F5F5F5F5F5F5F5F5F5F5F5F5F5F5F5F5F5F5F5F5F5F5F5F5F5F5F5F5E2F5F5F5F5F5F5F5F5F5F5F5F5F5F5F5F5F5F5F5
310
F5F5F5F5F5F5F5F5F5F5F5F5F5F5F5F5F5F5F5F5F5F5F5F5F5F5F5F5F5F5F5F5F5F5F5F5F5F5F5F5F5F5F5F5F5F5F5F5F5F5F5F5F5F5F5F5F5E2F5E2E2EFE2E2F5F5F5F5F5F5F5F5F5F5F5F5F5F5F5F5F5F5F5F5F5F5F5F5F5F5F5F5F5F5F5F5F5F5F5F5F5F5E2F5F5F5F5F5F5F5F5F5F5F5F5F5F5F5F5F5F5F5F5F5F5F5F5
310
F5E2F5F5F5F5F5F5F5F5F5F5F5F5F5F5F5F5F5F5F5F5F5F5F5F5F5F5F5F5F5F5F5F5E2F5F5F5F5F5F5F5F5F5F5F5F5F5F5F5F5F5F5F5F5F5F5F5F5F5F5F5F5F5F5F5F5F5F5F5F5F5F5F5F5F5F5F5F5F5F5F5F5F5F5F5F5F5F5F5F5F5F5F5F5F5F5F5F5F5F5F5F5F5F5F5F5F5F5F5E2F5E2E2EFE2E2F5F5F5F5F5F5F5F5F5F5
310
F5F5F5F5F5F5F5F5F5F5F5F5F5F5F5F5F5F5F5F5F5F5F5F5F5F5F5F5E2F5F5F5F5F5F5F5F5F5F5F5F5F5F5F5F5F5F5F5F5F5F5F5F5F5E2F5F5F5F5F5F5F5F5F5F5F5F5E2F5F5F5E2E2F5F5F5F5F5F5F5F5F5F5F5F5F5F5F5E2F5F5F5F5F5F5F5F5F5F5F5F5F5F5F5F5F5F5F5F5F5F5F5F5F5F5F5F5F5F5F5F5F5F5F5F5F5F5
310
F5F5F5F5F5F5F5F5F5F5F5F5F5F5F5F5F5F5F5F5F5F5F5F5F5F5F5F5F5F5F5F5F5F5F5F5E2F5E2E2EFE2E2F5F5F5F5F5F5F5F5F5F5F5F5F5F5F5F5F5F5F5F5F5F5F5F5F5F5F5F5F5F5F5F5F5F5F5F5F5F5E2F5F5F5F5F5F5F5F5F5F5F5F5F5F5F5F5F5F5F5F5F5F5F5F5F5E2F5F5F5F5F5F5F5F5F5F5F5F5E2E2E2E2E2E2F5
310
F5F5F5F5F5F5F5F5F5F5F5F5F5F5E2F5F5F5F5F5F5F5F5F5F5F5F5F5F5F5F5F5F5F5F5F5F5F5F5F5F5F5F5F5F5F5F5F5F5F5F5F5F5F5F5F5F5F5F5F5F5F5F5F5F5F5F5F5F5F5F5F5F5F5F5F5F5F5F5F5F5F5F5F5F5F5F5F5F5E2E2E2E2EFE2E2F5F5F5F5F5F5F5F5F5F5F5F5F5F5F5F5F5F5F5F5F5F5F5F5F5F5F5F5F5F5F5
310
F5F5F5F5F5F5F5E2F5F5F5F5F5F5F5F5F5F5F5F5F5F5F5F5F5F5F5F5F5F5F5F5F5E2F5F5F5F5F5F5F5F5F5F5F5F5E2F5F5F5E2E2F5F5F5F5F5F5F5F5F5F5F5F5F5F5F5F5E2F5F5F5F5F5F5F5F5F5F5F5F5F5F5F5F5F5F5F5F5F5F5F5F5F5F5F5F5F5F5F5F5F5F5F5F5F5F5F5F5F5F5F5F5F5F5F5F5F5F5F5F5F5F5F5F5F5F5
310
F5F5F5F5F5F5F5F5F5F5F5F5F5F5F5E2E2E2E2EFE2E2F5F5F5F5F5F5F5F5F5F5F5F5F5F5F5F5F5F5F5F5F5F5F5F5F5F5F5F5F5F5F5F5F5F5F5F5F5F5E2F5F5F5F5F5F5F5F5F5F5F5F5F5F5F5F5F5F5F5F5F5F5F5F5F5E2F5F5F5F5F5F5F5F5F5F5F5F5E2E2E2E2E2E2F5F5F5F5F5F5F5F5F5F5F5F5F5F5F5F5E2F5F5F5F5F5
310
F5F5F5F5F5F5F5F5F5F5F5F5F5F5F5F5F5F5F5F5F5F5F5F5F5F5F5F5F5F5F5F5F5F5F5F5F5F5F5F5F5F5F5F5F5F5F5F5F5F5F5F5F5F5F5F5F5F5F5F5F5F5F5F5F5F5F5F5E2E2E2E2EFE2E2F5F5F5F5F5F5F5F5F5F5F5F5F5F5F5F5F5F5F5F5F5F5F5F5F5F5F5F5F5F5F5F5F5F5F5F5F5F5E2F5F5F5F5F5F5F5F5F5F5F5F5F5
310
F5F5F5F5F5F5F5F5F5F5F5F5E2F5F5F5F5F5F5F5F5F5F5F5F5E2F5F5F5E2E2F5F5F5F5F5F5F5F5F5F5F5F5F5F5F5F5F5F5F5F5F5F5F5F5F5F5F5F5F5F5F5F5F5F5F5F5F5F5F5F5F5F5F5F5F5F5F5F5F5F5F5F5F5F5F5F5F5F5F5F5F5F5F5F5F5F5F5F5F5F5F5F5F5F5F5F5F5F5F5F5F5F5F5F5F5F5F5F5F5F5E2E2E2E2EFE2
310
E2F5F5F5F5F5F5F5F5F5F5F5F5F5F5F5F5F5F5F5F5F5F5F5F5F5F5F5F5F5F5F5F5F5F5F5F5F5F5E2F5F5F5F5F5F5F5F5F5F5F5F5F5F5F5F5F5F5F5F5F5F5F5F5E2F5F5F5F5F5F5F5F5F5F5F5F5F5E2F5F5F5E2E2F5F5F5F5F5F5F5F5F5F5F5F5F5F5F5F5F5E2E2F5F5F5F5F5F5F5F5F5F5F5F5F5F5F5F5F5F5F5F5F5F5F5F5
310
F5F5F5F5F5F5F5F5F5F5F5F5F5F5F5F5F5F5F5F5F5F5F5F5F5F5F5F5F5F5F5F5F5F5F5F5F5F5F5F5F5F5F5F5F5F5F5E2E2E2E2EFE2E2F5F5F5F5F5F5F5F5F5F5F5F5F5F5F5F5F5F5F5F5F5F5F5F5F5F5F5F5F5F5F5F5F5F5F5F5F5F5E2F5F5F5F5F5F5F5F5F5F5F5F5F5F5F5F5F5F5F5F5F5F5F5F5E2F5F5F5F5F5F5F5F5F5
310
F5F5F5F5E2F5F5F5E2E2F5F5F5F5F5F5F5F5F5F5F5F5F5F5F5F5F5F5E2E2F5F5F5F5F5F5F5F5F5F5F5F5F5F5F5F5F5F5F5F5F5F5F5F5F5F5F5F5F5F5F5F5F5F5F5F5F5F5F5F5F5F5F5F5F5F5F5F5F5F5F5F5F5F5F5F5F5F5F5F5F5F5F5F5F5F5F5F5F5F5E2E2E2E2EFE2E2F5F5F5F5F5F5F5F5F5F5F5F5F5F5F5F5F5F5F5F5
310
F5F5F5F5F5F5F5F5F5F5F5F5F5F5F5F5F5F5E2F5F5F5F5F5F5F5F5F5F5F5F5F5F5F5F5F5F5F5F5F5F5F5F5F5F5F5F5F5F5F5F5F5F5F5F5F5F5E2F5F5F5E2E2F5F5F5F5F5F5F5F5F5F5F5F5F5F5F5F5F5F5E2E2F5F5F5F5F5F5F5F5F5F5F5F5F5F5F5F5F5F5F5F5F5F5F5F5F5F5F5F5F5F5F5F5F5F5F5F5F5F5F5F5F5F5F5F5
310
F5F5F5F5F5F5F5F5F5F5F5F5F5F5F5F5F5F5F5F5F5F5F5F5F5F5E2E2E2E2EFE2E2F5F5F5F5F5F5F5F5F5F5F5F5F5F5F5F5F5F5F5F5F5F5F5F5F5F5F5F5F5F5F5F5F5F5F5F5F5F5E2F5F5F5F5F5F5F5F5F5F5F5F5F5F5F5F5F5F5F5F5F5F5F5E2F5F5F5F5F5F5F5F5F5F5F5F5F5F5E2F5F5F5E2E2F5F5F5F5F5F5F5F5F5F5F5
310
F5F5F5F5F5F5F5F5E2E2F5F5F5F5F5F5F5F5F5F5F5F5F5F5F5F5F5F5F5F5F5F5F5F5F5F5F5F5F5F5F5F5F5F5F5F5F5F5F5F5F5F5F5F5F5F5F5F5F5F5F5F5F5F5F5F5F5F5F5F5F5F5F5F5F5F5F5F5F5E2E2E2E2EFE2E2F5F5F5F5F5F5F5F5F5F5F5F5F5F5F5F5F5F5F5F5F5F5F5F5F5F5F5F5F5F5F5F5F5F5F5F5F5F5E2F5F5
310
F5F5F5F5F5F5F5F5F5F5F5F5F5F5F5F5F5F5F5F5E2F5F5F5F5F5F5F5F5F5F5F5F5F5F5F5E2F5F5F5E2E2F5F5F5F5F5F5F5F5F5F5F5F5F5F5F5F5F5F5F5F5E2F5F5F5F5F5F5F5F5F5F5F5F5F5F5F5F5F5F5F5F5F5F5F5F5F5F5F5F5F5F5F5F5F5F5F5F5F5F5F5F5F5F5F5F5F5F5F5F5F5F5F5F5F5F5F5F5F5F5F5F5F5F5F5F5
310
F5F5F5F5F5E2E2E2E2EFE2E2F5F5F5F5F5F5F5F5F5F5F5F5F5F5F5F5F5F5F5F5F5F5F5F5F5F5F5F5F5F5F5F5F5F5F5F5F5F5E2F5F5F5F5F5F5F5F5F5F5F5F5F5F5F5F5F5F5F5F5F5F5E2F5F5F5F5F5F5F5F5F5F5F5F5F5F5F5E2F5F5F5E2E2F5F5F5F5F5F5F5F5F5F5F5F5F5F5F5F5F5F5F5F5E2E2F5F5F5F5F5F5F5F5F5F5
310
F5F5F5F5F5F5F5F5F5F5F5F5F5F5F5F5F5F5F5F5F5F5F5F5F5F5F5F5F5F5F5F5F5F5F5F5F5F5F5F5F5F5F5F5F5F5F5F5F5F5F5F5F5F5F5F5F5F5E2E2E2E2EFE2E2F5F5F5F5F5F5F5F5F5F5F5F5F5F5F5F5F5F5F5F5F5F5F5F5F5F5F5F5F5F5F5F5F5F5F5F5F5F5E2F5F5F5F5F5F5F5F5F5F5F5F5F5F5F5F5F5F5F5F5F5E2F5
310
F5F5F5F5F5F5F5F5F5F5F5F5F5F5F5E2F5F5F5E2E2F5F5F5F5F5F5F5F5F5F5F5F5F5F5F5F5F5F5F5F5F5E2E2F5F5F5F5F5F5F5F5F5F5F5F5F5F5F5F5F5F5F5F5F5F5F5F5F5F5F5F5F5F5F5F5F5F5F5F5F5F5F5F5F5F5F5F5F5F5F5F5F5F5F5F5F5F5F5F5F5F5F5F5F5F5F5F5F5F5F5E2E2E2E2EFE2E2F5F5F5F5F5F5F5F5F5
310
F5F5F5F5F5F5F5F5F5F5F5F5F5F5F5F5F5F5F5F5F5F5F5F5F5F5F5F5F5E2F5F5F5F5F5F5F5F5F5F5F5F5F5F5F5F5F5F5F5F5F5F5F5F5F5F5F5F5F5F5F5F5F5F5F5F5F5F5E2F5F5F5E2E2F5F5F5F5F5F5F5F5F5F5F5F5F5F5F5F5F5F5F5F5F5F5E2F5F5F5F5F5F5F5F5F5F5F5F5F5F5F5F5F5F5F5F5F5F5F5F5F5F5F5F5F5F5
310
F5F5F5F5F5F5F5F5F5F5F5F5F5F5F5F5F5F5F5F5F5F5F5F5F5F5F5F5F5F5F5F5F5F5F5F5F5E2E2E2E2EFE2E2F5F5F5F5F5F5F5F5F5F5F5F5F5F5F5F5F5F5F5F5F5F5F5F5F5F5F5F5F5F5F5F5F5F5F5F5F5F5E2F5F5F5F5F5F5F5F5F5F5F5F5F5F5F5F5F5F5F5F5E2F5F5F5F5F5F5F5F5F5F5F5F5F5F5E2E2E2E2E2E2E2E2E2
310
E2E2E2E2F5F5F5E2E2F5F5F5F5F5F5F5F5F5F5F5F5F5E2E2F5F5F5F5F5F5F5F5F5F5F5F5F5F5F5F5F5F5F5F5F5F5F5F5F5F5F5F5F5F5F5F5F5F5F5F5F5F5F5F5F5F5F5F5F5F5F5F5F5F5F5F5F5F5F5F5F5F5F5F5F5F5F5F5F5F5E2E2E2E2EFE2E2F5F5F5F5F5F5F5F5F5F5F5F5F5F5F5F5F5F5F5F5F5F5F5F5F5F5F5F5F5F5
310
F5F5F5F5F5F5F5F5E2F5F5F5F5F5F5F5F5F5F5F5F5F5F5F5F5F5F5F5F5E2F5F5F5F5F5F5F5F5F5F5F5F5F5E2E2E2F5F5F5F5F5F5F5F5E2E2E2E2F5E2E2E2F5F5F5F5F5F5F5F5F5F5F5F5F5F5E2F5F5F5F5F5F5F5F5F5F5F5F5F5F5F5F5F5F5F5F5F5F5F5F5F5F5F5F5F5F5F5F5F5F5F5F5F5F5F5F5F5F5F5F5F5F5F5F5F5F5
310
F5F5F5F5F5F5F5F5F5F5F5F5F5F5F5F5E2E2E2E2EFE2E2F5F5F5F5F5F5F5F5F5F5F5F5F5F5F5F5F5F5F5F5F5F5F5F5F5F5F5F5F5F5F5F5F5F5F5F5F5F5E2F5F5F5F5F5F5F5F5F5F5F5F5F5F5F5F5F5F5F5E2F5F5F5F5F5F5F5F5F5F5F5F5F5F5E2F5E2F5F5F5F5F5F5F5F5F5E2F5E2E2E2E2F5F5F5F5F5F5F5F5F5F5F5F5F5
310
F5F5F5E2F5F5F5F5F5F5F5F5F5F5F5F5F5F5F5F5F5F5F5F5F5F5F5F5F5F5F5F5F5F5F5F5F5F5F5F5F5F5F5F5F5F5F5F5F5F5F5F5F5F5F5F5F5F5F5F5F5F5F5F5F5F5F5F5F5E2E2E2E2EFE2E2F5F5F5F5F5F5F5F5F5F5F5F5F5F5F5F5F5F5F5F5F5F5F5F5F5F5F5F5F5F5F5F5F5F5F5F5F5F5E2F5F5F5F5F5F5F5F5F5F5F5F5
310
F5F5F5F5F5F5F5E2F5F5F5F5F5F5F5F5F5F5F5F5F5E2F5F5F5E2F5F5F5F5F5F5F5E2F5F5E2E2E2E2E2F5F5F5F5F5F5F5F5F5F5F5F5F5F5F5E2E2F5F5F5F5F5F5F5F5F5F5F5F5F5F5F5F5F5F5F5F5F5F5F5F5F5F5F5F5F5F5F5F5F5F5F5F5F5F5F5F5F5F5F5F5F5F5F5F5F5F5F5F5F5F5F5F5F5F5F5F5F5F5F5F5E2E2E2E2EF
310
E2E2F5F5F5F5F5F5F5F5F5F5F5F5F5F5F5F5F5F5F5F5F5F5F5F5F5F5F5F5F5F5F5F5F5F5F5F5F5F5E2F5F5F5F5F5F5F5F5F5F5F5F5F5F5F5F5F5F5E2F5F5F5F5F5F5F5F5F5F5F5F5F5E2F5F5F5F5E2F5F5F5F5F5F5E2F5F5F5F5E2E2E2E2F5F5F5F5F5F5F5F5F5F5F5F5F5F5F5F5E2F5F5F5F5F5F5F5F5F5F5F5F5F5F5F5F5
310
F5F5F5F5F5F5F5F5F5F5F5F5F5F5F5F5F5F5F5F5F5F5F5F5F5F5F5F5F5F5F5F5F5F5F5F5F5F5F5F5F5F5F5F5F5F5F5F5E2F5E2E2EFE2E2F5F5F5F5F5F5F5F5F5F5F5F5F5F5F5F5F5F5F5F5F5F5F5F5F5F5F5F5F5F5F5F5F5F5F5E2E2F5E2F5F5F5F5F5F5F5F5F5F5F5F5F5F5F5F5F5E2F5F5F5F5F5F5F5F5F5F5F5F5F5E2F5
310
F5F5F5F5F5E2F5F5F5F5F5E2F5F5F5F5F5E2E2E2E2E2F5F5F5F5F5F5F5F5F5F5F5F5F5F5E2E2F5F5F5F5F5F5F5F5F5F5F5F5F5F5F5F5F5F5F5F5F5F5F5F5F5F5F5F5F5F5F5F5F5F5F5F5F5F5F5F5F5F5F5F5F5F5F5F5F5F5F5F5F5F5F5F5F5F5F5F5F5F5F5E2F5E2E2EFE2E2F5F5F5F5F5F5F5F5F5F5F5F5F5F5F5F5F5F5F5
310
F5F5F5F5F5F5F5F5F5F5F5F5F5F5F5F5E2E2F5E2F5F5F5F5F5F5F5F5F5F5F5F5F5F5F5F5E2F5F5F5F5F5F5F5F5F5F5F5F5F5F5E2F5F5F5F5F5F5E2F5F5F5F5E2F5F5F5F5F5F5F5E2E2E2E2E2F5F5F5F5F5F5F5F5F5F5F5F5F5F5E2F5F5F5F5F5F5F5F5F5F5F5F5F5F5F5F5F5F5F5F5F5F5F5F5F5F5F5F5F5F5F5F5F5F5F5F5
310
F5F5F5F5F5F5F5F5F5F5F5F5F5F5F5F5F5F5F5F5F5F5F5F5F5F5F5E2F5E2E2EFE2E2F5F5F5F5F5F5F5F5F5F5F5F5F5F5F5F5F5F5F5F5F5F5F5F5F5F5F5F5F5F5F5F5F5F5F5E2E2F5E2F5F5F5F5F5F5F5F5F5F5F5F5F5F5F5F5E2F5F5F5F5F5F5F5F5F5F5F5F5F5E2F5F5F5F5F5F5F5F5E2F5F5E2F5F5F5F5F5F5F5F5E2E2E2
310
E2F5F5F5F5F5F5F5F5F5F5F5F5F5F5F5E2F5F5F5F5F5F5F5F5F5F5F5F5F5F5F5F5F5F5F5F5F5F5F5F5F5F5F5F5F5F5F5F5F5F5F5F5F5F5F5F5F5F5F5F5F5F5F5F5F5F5F5F5F5F5F5F5F5F5F5F5F5F5F5E2F5E2E2EFE2E2F5F5F5F5F5F5F5F5F5F5F5F5F5F5F5F5F5F5F5F5F5F5F5F5F5F5F5F5F5F5F5F5F5F5F5F5F5F5E2F5
310
F5F5F5F5F5F5F5F5F5F5F5F5F5F5E2F5F5F5F5F5F5F5F5F5F5F5F5F5E2F5F5F5F5F5F5F5F5F5E2F5E2F5F5F5F5F5F5F5F5F5E2E2F5F5F5F5F5F5F5F5F5F5F5F5F5F5F5F5F5F5E2F5F5F5F5F5F5F5F5F5F5F5F5F5F5F5F5F5F5F5F5F5F5F5F5F5F5F5F5F5F5F5F5F5F5F5F5F5F5F5F5F5F5F5F5F5F5F5F5F5F5F5F5F5F5F5F5
310
F5F5F5F5F5F5E2F5E2E2EFE2E2F5F5F5F5F5F5F5F5F5F5F5F5F5F5F5F5F5F5F5F5F5F5F5F5F5F5F5F5F5F5F5F5F5F5F5F5F5F5E2F5F5F5F5F5F5F5F5F5F5F5F5F5E2E2F5F5F5F5F5F5F5F5F5F5F5F5F5F5E2F5F5F5F5F5F5F5F5F5F5E2E2F5F5F5F5F5F5F5F5F5F5E2F5F5F5F5F5F5F5F5F5F5F5F5F5F5F5F5F5F5E2E2F5F5
310
F5F5F5F5F5F5F5F5F5F5F5F5F5F5F5F5F5F5F5F5F5F5F5F5F5F5F5F5F5F5F5F5F5F5F5F5F5F5F5F5F5F5F5F5F5F5F5F5F5F5F5F5F5F5F5F5F5F5F5E2F5E2E2EFE2E2F5F5F5F5F5F5F5F5F5F5F5F5F5F5F5F5F5F5F5F5F5F5F5F5F5F5F5F5F5F5F5F5F5F5F5F5F5F5E2F5F5F5F5F5F5F5F5F5F5F5E2E2F5F5F5F5F5F5F5F5F5
310
F5F5F5F5F5F5E2E2E2E2E2E2E2E2E2E2E2E2E2E2E2E2E2E2E2E2E2E2E2E2E2E2F5F5F5F5F5F5F5F5F5F5F5F5F5F5F5F5F5F5E2F5F5F5F5F5F5F5F5F5F5F5F5F5F5F5F5F5F5F5F5F5F5F5F5F5F5F5F5F5F5F5F5F5F5F5F5F5F5F5F5F5F5F5F5F5F5F5F5F5F5F5F5F5F5F5F5F5F5F5F5F5E2F5E2E2EFE2E2F5F5F5F5F5F5F5F5
310
F5F5F5F5F5F5F5F5F5F5F5F5F5F5F5F5F5F5F5F5F5F5F5F5F5F5F5F5F5F5E2F5F5F5F5F5F5F5F5F5E2E2F5F5F5F5F5F5F5F5F5F5F5F5F5F5F5F5F5F5E2E2F5F5F5F5F5F5F5F5E2E2E2F5F5F5F5F5F5F5F5F5E2E2F5F5F5F5F5F5F5F5F5F5F5F5F5F5F5F5F5F5F5E2E2F5F5F5F5F5F5F5F5F5F5F5F5F5F5F5F5F5F5F5F5F5F5
310
F5F5F5F5F5F5F5F5F5F5F5F5F5F5F5F5F5F5F5F5F5F5F5F5F5F5F5F5F5F5F5F5F5F5F5F5F5F5E2F5E2E2EFE2E2F5F5F5F5F5F5F5F5F5F5F5F5F5F5F5F5F5F5F5F5F5F5F5F5F5F5F5F5F5F5F5F5F5F5F5F5F5F5E2F5F5F5F5F5F5F5F5F5F5E2F5F5F5F5F5F5F5F5F5F5F5F5F5F5F5F5F5F5E2F5F5F5F5F5F5F5F5F5E2F5E2F5
310
F5F5F5F5F5F5F5F5F5E2F5F5F5F5F5F5F5F5F5F5F5F5F5F5F5F5F5F5F5F5E2F5F5F5F5F5F5F5F5F5F5F5F5F5F5F5F5F5F5F5F5F5F5F5F5F5F5F5F5F5F5F5F5F5F5F5F5F5F5F5F5F5F5F5F5F5F5F5F5F5F5F5F5F5F5F5F5F5F5F5F5E2F5E2E2EFE2E2F5F5F5F5F5F5F5F5F5F5F5F5F5F5F5F5F5F5F5F5F5F5F5F5F5F5F5F5F5
310
F5F5F5F5F5F5F5F5F5E2F5F5F5F5F5F5F5F5F5F5F5E2F5F5F5F5F5F5F5F5F5F5F5F5F5F5F5F5F5F5E2F5F5F5F5F5F5F5E2F5F5F5E2F5F5F5F5F5F5F5F5E2F5F5F5F5F5F5F5F5F5F5F5F5F5F5F5F5F5F5F5F5F5F5E2E2F5F5F5F5F5F5F5F5F5F5F5F5F5F5F5F5F5F5F5F5F5F5F5F5F5F5F5F5F5F5F5F5F5F5F5F5F5F5F5F5F5
310
F5F5F5F5F5F5F5F5F5F5F5F5F5F5F5F5F5E2E2E2E2EFE2E2F5F5F5F5F5F5F5F5F5F5F5F5F5F5F5F5F5F5F5F5F5F5F5F5F5F5F5F5F5F5F5F5F5F5F5F5F5F5E2F5F5F5F5F5F5F5F5F5F5F5E2F5F5F5F5F5F5F5F5F5F5F5F5F5F5F5F5F5F5E2F5F5F5F5F5F5F5E2F5F5F5F5E2F5F5F5F5F5F5F5E2F5F5F5F5F5F5F5F5F5F5F5F5
310
F5F5F5F5F5F5F5F5F5F5F5F5F5E2F5F5F5F5F5F5F5F5F5F5F5F5F5F5F5F5F5F5F5F5F5F5F5F5F5F5F5F5F5F5F5F5F5F5F5F5F5F5F5F5F5F5F5F5F5F5F5F5F5F5F5F5F5F5F5F5E2E2E2E2EFE2E2F5F5F5F5F5F5F5F5F5F5F5F5F5F5F5F5F5F5F5F5F5F5F5F5F5F5F5F5F5F5F5F5F5F5F5F5F5F5E2F5F5F5F5F5F5F5F5F5F5F5
310
F5E2F5F5F5F5F5F5F5F5F5F5F5F5F5F5F5F5E2F5E2F5F5F5F5F5E2F5F5F5F5F5E2F5F5F5F5F5F5E2F5E2E2F5F5F5F5F5F5F5F5F5F5F5F5F5F5F5F5F5F5F5F5F5F5F5F5E2E2F5F5F5F5F5F5F5F5F5F5F5F5F5F5F5F5F5F5F5F5F5F5F5F5F5F5F5F5F5F5F5F5F5F5F5F5F5F5F5F5F5F5F5F5F5F5F5F5F5F5F5F5F5F5E2E2E2E2
310
EFE2E2F5F5F5F5F5F5F5F5F5F5F5F5F5F5F5F5F5F5F5F5F5F5F5F5F5F5F5F5F5F5F5F5F5F5F5F5F5F5E2F5F5F5F5F5F5F5F5F5F5F5F5F5F5F5F5F5F5F5F5F5F5F5F5F5F5F5F5F5F5E2E2E2F5F5F5F5E2F5F5F5F5F5F5E2F5F5F5F5F5E2F5F5F5E2E2F5F5F5F5F5F5F5F5F5F5F5F5F5F5F5F5F5F5F5F5F5F5F5F5E2E2F5F5F5
310
F5F5F5F5F5F5F5F5F5F5F5F5F5F5F5F5F5F5F5F5F5F5F5F5F5F5F5F5F5F5F5F5F5F5F5F5F5F5F5F5F5F5F5F5F5F5F5F5F5E2E2E2E2EFE2E2F5F5F5F5F5F5F5F5F5F5F5F5F5F5F5F5F5F5F5F5F5F5F5F5F5F5F5F5F5F5F5F5F5F5F5F5F5F5E2F5F5F5F5F5F5F5F5F5F5F5F5F5E2F5F5F5F5F5F5F5F5F5F5F5F5F5F5F5F5E2E2
310
E2F5F5F5E2F5F5F5F5F5F5F5E2F5F5F5F5E2F5F5F5F5F5E2E2E2F5F5F5F5F5F5F5F5F5F5F5F5F5F5F5F5F5F5F5F5F5F5F5F5F5E2F5F5F5F5F5F5F5F5F5F5F5F5F5F5F5F5F5F5F5F5F5F5F5F5F5F5F5F5F5F5F5F5F5F5F5F5F5F5F5F5F5F5F5F5F5F5F5F5F5F5E2E2E2E2EFE2E2F5F5F5F5F5F5F5F5F5F5F5F5F5F5F5F5F5F5
310
F5F5F5F5F5F5F5F5F5F5F5F5F5F5F5F5F5F5F5F5E2F5F5F5F5F5F5F5F5F5F5F5F5F5F5E2F5F5F5F5F5F5F5F5F5F5F5F5F5F5F5F5E2E2F5F5F5E2F5F5F5F5F5F5F5F5E2F5F5F5E2E2E2F5F5F5F5F5E2E2E2F5F5F5F5F5F5F5F5F5F5F5F5F5F5F5F5F5F5F5F5F5F5F5F5E2F5F5F5F5F5F5F5F5F5F5F5F5F5F5F5F5F5F5F5F5F5
310
F5F5F5F5F5F5F5F5F5F5F5F5F5F5F5F5F5F5F5F5F5F5F5F5F5F5F5F5E2E2E2E2EFE2E2F5F5F5F5F5F5F5F5F5F5F5F5F5F5F5F5F5F5F5F5F5F5F5F5F5F5F5F5F5F5F5F5F5F5F5F5F5F5E2F5F5F5F5F5F5F5F5F5F5F5F5F5F5E2F5F5F5F5F5F5F5F5F5F5F5F5F5F5F5F5E2E2E2F5E2F5F5F5F5F5F5F5F5F5F5E2F5E2F5E2E2E2
310
E2F5F5F5F5F5E2E2F5F5F5F5F5F5F5F5F5F5F5F5F5F5F5F5F5F5F5F5F5F5F5F5E2F5F5F5F5F5F5F5F5F5F5F5F5F5F5F5F5F5F5F5F5F5F5F5F5F5F5F5F5F5F5F5F5F5F5F5F5F5F5F5F5F5F5F5F5F5F5F5F5E2E2E2E2EFE2E2F5F5F5F5F5F5F5F5F5F5F5F5F5F5F5F5F5F5F5F5F5F5F5F5F5F5F5F5F5F5F5F5F5F5F5F5F5F5E2
310
F5F5F5F5F5F5F5F5F5F5F5F5F5F5F5E2F5F5F5F5F5F5F5F5F5F5F5F5F5F5F5F5F5E2E2E2E2F5F5F5F5F5F5F5F5E2E2E2E2F5F5F5E2E2E2F5F5F5E2F5E2E2E2F5F5F5F5F5F5F5F5F5F5F5F5F5F5F5F5F5F5F5F5F5F5E2F5F5F5F5F5F5F5F5F5F5F5F5F5F5F5F5F5F5F5F5F5F5F5F5F5F5F5F5F5F5F5F5F5F5F5F5F5F5F5F5F5
310
F5F5F5F5F5F5F5E2E2E2E2EFE2E2F5F5F5F5F5F5F5F5F5F5F5F5F5F5F5F5F5F5F5F5F5F5F5F5F5F5F5F5F5F5F5F5F5F5F5F5F5F5E2F5F5F5F5F5F5F5F5F5F5F5F5F5F5F5E2F5F5F5F5F5F5F5F5F5F5F5F5F5F5F5F5F5F5E2E2E2E2E2E2E2E2E2E2E2E2E2E2F5F5F5F5F5E2E2E2E2F5E2F5E2F5F5F5F5F5F5F5F5F5F5F5F5F5
310
F5F5F5F5F5F5F5F5F5F5E2F5F5F5F5F5F5F5F5F5F5F5F5F5F5F5F5F5F5F5F5F5F5F5F5F5F5F5F5F5F5F5F5F5F5F5F5F5F5F5F5F5F5F5F5F5F5F5F5F5E2E2E2E2EFE2E2F5F5F5F5F5F5F5F5F5F5F5F5F5F5F5F5F5F5F5F5F5F5F5F5F5F5F5F5F5F5F5F5F5F5F5F5F5F5E2F5F5F5F5F5F5F5F5F5F5F5F5F5F5F5F5F5F5F5F5F5
310
F5F5F5F5F5F5F5F5F5F5F5F5F5F5F5F5F5F5F5F5F5F5F5F5F5F5F5F5F5F5F5F5F5F5E2E2E2F5F5E2F5F5F5F5F5F5F5F5F5F5F5F5F5F5F5F5F5F5F5F5F5F5F5F5F5F5F5F5F5F5F5F5F5F5F5F5F5F5F5F5F5F5F5F5F5F5F5F5F5F5F5F5F5F5F5F5F5F5F5F5F5F5F5F5F5F5F5F5F5F5F5F5F5E2E2E2E2EFE2E2F5F5F5F5F5F5F5
310
F5F5F5F5F5F5F5F5F5F5F5F5F5F5F5F5F5F5F5F5F5F5F5F5F5F5F5F5F5F5F5E2F5F5F5F5F5F5F5F5F5F5F5F5F5F5F5F5E2F5F5F5F5F5F5F5F5F5F5F5F5F5F5F5F5F5F5F5F5F5F5F5F5F5F5F5F5F5F5F5F5F5F5F5F5F5F5F5F5E2E2E2F5F5F5F5F5F5F5F5F5F5F5F5F5F5F5F5F5F5F5F5F5F5F5E2F5F5F5F5F5F5F5F5F5F5F5
310
F5F5F5F5F5F5F5F5F5F5F5F5F5F5F5F5F5F5F5F5F5F5F5F5F5F5F5F5F5F5F5F5F5F5F5F5F5F5F5E2E2E2E2EFE2E2F5F5F5F5F5F5F5F5F5F5F5F5F5F5F5F5F5F5F5F5F5F5F5F5F5F5F5F5F5F5F5F5F5F5F5F5F5F5E2F5F5F5F5F5F5F5F5F5F5F5F5F5F5F5F5F5E2F5F5F5F5F5F5F5F5F5F5F5F5F5F5F5F5F5F5F5F5F5F5F5F5
310
F5F5F5F5F5F5F5F5F5F5F5F5F5F5F5F5E2E2F5F5F5F5F5F5F5F5F5F5F5F5F5F5F5F5F5F5F5F5F5F5E2F5F5F5F5F5F5F5F5F5F5F5F5F5F5F5F5F5F5F5F5F5F5F5F5F5F5F5F5F5F5F5F5F5F5F5F5F5F5F5F5F5F5F5F5F5F5F5F5F5F5F5E2E2E2E2EFE2E2F5F5F5F5F5F5F5F5F5F5F5F5F5F5F5F5F5F5F5F5F5F5F5F5F5F5F5F5
310
F5F5F5F5F5F5F5F5F5F5E2F5F5F5F5F5F5F5F5F5F5F5F5F5F5F5F5F5E2F5F5F5F5F5F5F5F5F5F5F5F5F5F5F5F5F5F5F5F5F5F5F5F5F5F5F5F5F5F5F5F5F5F5F5F5F5F5F5F5F5F5F5F5F5F5F5F5F5F5F5F5F5F5F5F5F5F5F5F5F5F5F5F5E2F5F5F5F5F5F5F5F5F5F5F5F5F5F5F5F5F5F5F5F5F5F5F5F5F5F5F5F5F5F5F5F5F5
310
F5F5F5F5F5F5F5F5F5F5F5F5F5F5F5F5F5F5E2E2E2E2EFE2E2F5F5F5F5F5F5F5F5F5F5F5F5F5F5F5F5F5F5F5F5F5F5F5F5F5F5F5F5F5F5F5F5F5F5F5F5F5F5E2F5F5F5F5F5F5F5F5F5F5F5F5F5F5F5F5F5F5E2F5F5F5F5F5F5F5F5F5F5F5F5F5F5F5F5F5F5F5F5F5F5F5F5F5F5F5F5F5F5F5F5F5F5F5F5F5F5F5F5F5F5F5F5
310
F5F5F5F5F5F5F5F5F5F5F5F5F5F5F5F5F5F5E2F5F5F5F5F5F5F5F5F5F5F5F5F5F5F5F5F5F5F5F5F5F5F5F5F5F5F5F5F5F5F5F5F5F5F5F5F5F5F5F5F5F5F5F5F5F5F5F5F5F5F5F5E2E2E2E2EFE2E2F5F5F5F5F5F5F5F5F5F5F5F5F5F5F5F5F5F5F5F5F5F5F5F5F5F5F5F5F5F5F5F5F5F5F5F5F5F5E2F5F5F5F5F5F5F5F5F5F5
310
F5F5F5F5F5F5F5F5F5F5F5F5F5F5F5F5F5F5F5F5F5F5F5F5F5F5F5F5F5F5F5F5F5F5F5F5F5F5F5F5F5F5F5F5F5F5F5F5F5F5F5F5F5F5F5F5F5F5F5F5F5F5F5F5F5F5F5F5F5F5F5F5F5F5F5F5F5F5F5F5F5F5F5F5F5F5F5F5F5F5F5F5F5F5F5F5F5F5F5F5F5F5F5F5F5F5F5F5F5F5F5F5F5F5F5F5F5F5F5F5F5F5F5F5E2E2E2
310
E2EFE2E2F5F5F5F5F5F5F5F5F5F5F5F5F5F5F5F5F5F5F5F5F5F5F5F5F5F5F5F5F5F5F5F5F5F5F5F5F5F5E2F5F5F5F5F5F5F5F5F5F5F5F5F5F5F5F5F5F5F5E2F5F5F5F5F5F5F5F5F5F5F5F5F5F5F5F5F5F5F5F5F5F5F5F5F5F5F5F5F5F5F5F5F5F5F5F5F5F5F5F5F5F5F5F5F5F5F5F5F5F5F5F5F5F5F5F5F5F5F5F5E2F5F5F5
310
F5F5F5F5F5F5F5F5F5F5F5F5F5F5F5F5F5F5F5F5F5F5F5F5F5F5F5F5F5F5F5F5F5F5F5F5F5F5F5F5F5F5F5F5F5F5F5F5F5F5E2E2E2E2EFE2E2F5F5F5F5F5F5F5F5F5F5F5F5F5F5F5F5F5F5F5F5F5F5F5F5F5F5F5F5F5F5F5F5F5F5F5F5F5F5E2F5F5F5F5F5F5F5F5F5F5F5F5F5F5F5F5F5F5F5F5E2F5F5F5F5F5F5F5F5F5F5
310
F5F5F5F5F5F5F5F5F5F5F5F5F5F5F5F5F5F5F5F5F5F5F5F5F5F5F5F5F5F5F5F5F5F5F5F5F5F5F5F5F5F5F5F5F5F5F5F5F5E2F5F5F5F5F5F5F5F5F5F5F5F5F5F5F5F5F5F5F5F5F5F5F5F5F5F5F5F5F5F5F5F5F5F5F5F5F5F5F5F5F5F5F5F5F5F5F5F5F5F5F5F5F5E2F5E2E2EFE2E2F5F5F5F5F5F5F5F5F5F5F5F5F5F5F5F5F5
310
F5F5F5F5F5F5F5F5F5F5F5F5F5F5F5F5F5F5F5F5F5E2F5F5F5F5F5F5F5F5F5F5F5F5F5F5F5F5F5F5F5F5E2F5F5F5F5F5F5F5F5F5F5F5F5F5F5F5F5F5F5F5F5F5F5F5F5F5F5F5F5F5F5F5F5F5F5F5F5F5F5F5F5F5F5F5F5F5F5F5F5F5F5F5F5F5F5F5F5F5F5E2F5F5F5F5F5F5F5F5F5F5F5F5F5F5F5F5F5F5F5F5F5F5F5F5F5
310
F5F5F5F5F5F5F5F5F5F5F5F5F5F5F5F5F5F5F5F5F5F5F5F5F5F5F5F5F5E2F5E2E2EFE2E2F5F5F5F5F5F5F5F5F5F5F5F5F5F5F5F5F5F5F5F5F5F5F5F5F5F5F5F5F5F5F5F5F5F5F5F5F5F5E2F5F5F5F5F5F5F5F5F5F5F5F5F5F5F5F5F5F5F5F5F5E2F5F5F5F5F5F5F5F5F5F5F5F5F5F5F5F5F5F5F5F5F5F5F5F5F5F5F5F5F5F5
310
F5F5F5F5F5F5F5F5F5F5F5F5F5F5F5F5F5F5F5F5F5F5F5F5F5F5F5E2F5F5F5F5F5F5F5F5F5F5F5F5F5F5F5F5F5F5F5F5F5F5F5F5F5F5F5F5F5F5F5F5F5F5F5F5F5F5F5F5F5F5F5F5F5F5F5F5F5F5F5F5F5F5E2F5E2E2EFE2E2F5F5F5F5F5F5F5F5F5F5F5F5F5F5F5F5F5F5F5F5F5F5F5F5F5F5F5F5F5F5F5F5F5F5F5F5F5F5
310
E2F5F5F5F5F5F5F5F5F5F5F5F5F5F5F5F5F5F5F5F5F5E2F5F5F5F5F5F5F5F5F5F5F5F5F5F5F5F5F5F5F5F5F5F5F5F5F5F5F5F5F5F5F5F5F5F5F5F5F5F5F5F5F5F5F5F5F5F5F5F5F5F5F5F5F5F5F5F5E2F5F5F5F5F5F5F5F5F5F5F5F5F5F5F5F5F5F5F5F5F5F5F5F5F5F5F5F5F5F5F5F5F5F5F5F5F5F5F5F5F5F5F5F5F5F5F5
310
F5F5F5F5F5F5F5F5E2F5E2E2EFE2E2F5F5F5F5F5F5F5F5F5F5F5F5F5F5F5F5F5F5F5F5F5F5F5F5F5F5F5F5F5F5F5F5F5F5F5F5F5F5E2F5F5F5F5F5F5F5F5F5F5F5F5F5F5F5F5F5F5F5F5F5F5F5F5F5F5F5F5F5F5F5F5F5F5F5F5F5F5F5F5F5F5F5F5F5F5F5F5F5F5F5F5F5F5F5F5F5F5F5F5F5F5F5F5F5F5F5F5F5F5F5F5F5
310
F5F5F5F5F5F5F5F5F5F5F5F5F5F5F5F5F5F5F5F5F5F5F5F5F5F5F5F5F5F5F5F5F5F5F5F5F5F5F5F5F5F5F5F5F5F5F5F5F5F5F5F5F5F5F5F5F5F5F5F5F5E2F5E2E2EFE2E2F5F5F5F5F5F5F5F5F5F5F5F5F5F5F5F5F5F5F5F5F5F5F5F5F5F5F5F5F5F5F5F5F5F5F5F5F5F5E2F5F5F5F5F5F5F5F5F5F5F5F5F5F5F5F5F5F5F5F5
310
F5F5E2F5F5F5F5F5F5F5F5E2E2E2E2E2F5E2E2E2E2E2E2F5E2E2E2E2F5F5F5F5F5F5F5F5F5F5F5F5F5F5F5F5F5F5F5F5F5F5F5F5F5F5F5F5F5E2F5F5F5F5F5F5F5F5F5F5F5F5F5F5F5F5F5F5F5F5F5F5F5F5F5F5F5F5F5F5F5F5F5F5F5F5F5F5F5F5F5F5F5F5F5F5F5F5F5F5F5F5F5F5F5F5E2F5E2E2EFE2E2F5F5F5F5F5F5
310
F5F5F5F5F5F5F5F5F5F5F5F5F5F5F5F5F5F5F5F5F5F5F5F5F5F5F5F5F5F5F5F5E2F5F5F5F5F5F5F5F5F5F5F5F5F5F5F5F5F5F5F5F5F5F5F5E2F5F5F5F5F5E2E2F5F5F5F5F5F5F5F5F5F5F5F5F5F5F5F5F5E2E2F5F5F5F5F5F5F5F5F5F5F5F5F5F5F5F5F5F5F5F5F5F5F5F5F5F5E2F5F5F5F5F5F5F5F5F5F5F5F5F5F5F5F5F5
310
F5F5F5F5F5F5F5F5F5F5F5F5F5F5F5F5F5F5F5F5F5F5F5F5F5F5F5F5F5F5F5F5F5F5F5F5F5F5F5F5E2F5E2E2EFE2E2F5F5F5F5F5F5F5F5F5F5F5F5F5F5F5F5F5F5F5F5F5F5F5F5F5F5F5F5F5F5F5F5F5F5F5F5F5F5E2F5F5F5F5F5F5F5F5F5F5F5F5F5F5F5F5F5F5F5F5F5F5F5F5E2F5F5F5E2F5F5F5F5F5F5F5F5F5F5F5F5
310
F5F5F5F5F5F5F5F5F5F5E2F5F5F5F5F5F5F5F5F5F5F5F5F5F5F5F5F5F5F5F5F5F5F5F5E2F5F5F5F5F5F5F5F5F5F5F5F5F5F5F5F5F5F5F5F5F5F5F5F5F5F5F5F5F5F5F5F5F5F5F5F5F5F5F5F5F5F5F5F5F5F5F5F5F5F5F5F5F5F5F5F5F5E2F5E2E2EFE2E2F5F5F5F5F5F5F5F5F5F5F5F5F5F5F5F5F5F5F5F5F5F5F5F5F5F5F5
310
F5F5F5F5F5F5F5F5F5F5F5E2F5F5F5F5F5F5F5F5F5F5F5F5F5F5F5F5F5F5F5F5F5F5F5F5E2F5E2E2F5F5F5F5F5F5F5F5F5F5F5F5F5F5F5F5F5F5F5F5F5F5F5F5E2E2F5F5F5F5F5F5F5F5F5F5F5F5F5F5F5F5F5F5F5F5F5E2F5F5F5F5F5F5F5F5F5F5F5F5F5F5F5F5F5F5F5F5F5F5F5F5F5F5F5F5F5F5F5F5F5F5F5F5F5F5F5
310
F5F5F5F5F5F5F5F5F5F5F5F5F5F5F5F5F5F5F5E2F5E2E2EFE2E2F5F5F5F5F5F5F5F5F5F5F5F5F5F5F5F5F5F5F5F5F5F5F5F5F5F5F5F5F5F5F5F5F5F5F5F5F5F5E2F5F5F5F5F5F5F5F5F5F5F5F5F5F5F5F5F5F5F5F5F5F5F5F5F5E2F5F5F5F5F5F5F5F5F5F5F5F5F5F5F5F5F5F5F5F5F5F5F5F5F5F5F5F5E2F5F5F5F5F5F5F5
310
F5F5F5F5F5F5F5F5F5F5F5F5F5F5F5F5F5F5F5F5F5F5F5F5F5F5F5F5F5F5F5F5F5F5F5F5F5F5F5F5F5F5F5F5F5F5F5F5F5F5F5F5F5F5F5F5F5F5F5F5F5F5F5F5F5F5F5F5F5F5F5F5E2E2E2E2EFE2E2F5F5F5F5F5F5F5F5F5F5F5F5F5F5F5F5F5F5F5F5F5F5F5F5F5F5F5F5F5F5F5F5F5F5F5F5F5F5E2F5F5F5F5F5F5F5F5F5
310
F5F5F5F5F5F5F5F5F5F5F5F5F5F5F5F5F5F5F5F5F5F5F5F5F5F5F5F5F5F5F5F5F5F5F5F5F5F5F5F5F5F5F5F5F5F5F5E2F5F5F5F5F5F5F5F5F5F5F5F5F5F5F5F5F5E2F5F5F5F5F5F5F5F5F5F5F5F5F5F5F5F5F5F5F5F5F5F5F5F5F5F5F5F5F5F5F5F5F5F5F5F5F5F5F5F5F5F5F5F5F5F5F5F5F5F5F5F5F5F5F5F5F5F5F5E2E2
310
E2E2EFE2E2F5F5F5F5F5F5F5F5F5F5F5F5F5F5F5F5F5F5F5F5F5F5F5F5F5F5F5F5F5F5F5F5F5F5F5F5F5F5E2F5F5F5F5F5F5F5F5F5F5F5F5F5F5F5F5F5F5F5F5F5F5F5F5F5F5F5F5F5F5F5F5F5F5F5F5F5F5F5F5F5F5F5F5F5F5F5F5F5F5F5F5F5F5F5F5F5E2E2F5F5F5F5F5F5F5F5F5F5F5F5F5F5F5E2F5F5F5F5F5F5F5F5
310
F5F5F5F5F5F5F5F5F5F5F5F5F5F5F5F5F5F5F5F5F5F5F5F5F5F5F5F5F5F5F5F5F5F5F5F5F5F5F5F5F5F5F5F5F5F5F5F5F5F5F5E2E2E2E2EFE2E2F5F5F5F5F5F5F5F5F5F5F5F5F5F5F5F5F5F5F5F5F5F5F5F5F5F5F5F5F5F5F5F5F5F5F5F5F5F5E2F5F5F5F5F5F5F5F5F5F5F5F5F5F5F5F5F5F5F5F5F5F5F5F5F5F5F5F5F5F5
310
F5F5F5F5F5F5F5F5F5F5F5F5F5F5F5F5F5F5F5F5F5F5F5F5F5F5F5F5F5E2E2F5F5F5F5F5F5F5F5F5F5F5F5E2F5F5F5F5F5F5F5F5F5F5F5F5F5F5F5F5F5F5F5F5F5F5F5F5F5F5F5F5F5F5F5F5F5F5F5F5F5F5F5F5F5F5F5F5F5F5F5F5F5F5F5F5F5F5F5F5F5F5F5F5E2E2E2E2EFE2E2F5F5F5F5F5F5F5F5F5F5F5F5F5F5F5F5
310
F5F5F5F5F5F5F5F5F5F5F5F5F5F5F5F5F5F5F5F5F5F5E2F5F5F5F5F5F5F5F5F5F5F5F5F5F5F5F5F5F5F5F5F5F5F5F5F5F5F5F5F5F5F5F5F5F5F5F5F5F5F5F5F5F5F5F5F5F5F5F5F5F5F5F5F5F5F5F5F5F5F5F5F5F5E2F5F5F5F5F5F5F5F5F5F5E2F5F5F5F5F5F5F5F5F5F5F5F5F5F5F5F5F5F5F5F5F5F5F5F5F5F5F5F5F5F5
310
F5F5F5F5F5F5F5F5F5F5F5F5F5F5F5F5F5F5F5F5F5F5F5F5F5F5F5F5F5F5E2E2E2E2EFE2E2F5F5F5F5F5F5F5F5F5F5F5F5F5F5F5F5F5F5F5F5F5F5F5F5F5F5F5F5F5F5F5F5F5F5F5F5F5F5E2F5F5F5F5F5F5F5F5F5F5F5F5F5F5F5F5F5F5F5F5F5F5F5F5F5F5F5F5F5F5F5F5F5F5F5F5F5F5F5F5F5F5F5F5F5F5F5F5F5F5F5
310
F5F5F5F5F5F5F5F5F5F5F5F5E2E2F5F5F5F5F5F5F5E2F5F5F5F5F5F5F5F5F5F5F5F5F5F5F5F5F5F5F5F5F5F5F5F5F5F5F5F5F5F5F5F5F5F5F5F5F5F5F5F5F5F5F5F5F5F5F5F5F5F5F5F5F5F5F5F5F5F5F5F5F5E2E2E2E2EFE2E2F5F5F5F5F5F5F5F5F5F5F5F5F5F5F5F5F5F5F5F5F5F5F5F5F5F5F5F5F5F5F5F5F5F5F5F5F5
310
F5E2F5F5F5F5F5F5F5F5F5F5F5F5F5F5F5F5F5F5F5F5F5F5F5F5F5F5F5F5F5F5F5F5F5F5F5F5F5F5F5F5F5F5F5F5F5F5F5F5F5F5F5F5F5F5F5F5F5F5F5F5F5F5F5F5F5E2F5F5F5F5F5F5F5F5F5F5F5F5F5F5F5F5F5F5F5F5F5F5F5F5F5F5F5F5F5F5F5F5F5F5F5F5F5F5F5F5F5F5F5F5F5F5F5F5F5F5F5F5F5F5F5F5F5F5F5
310
F5F5F5F5F5F5F5F5F5E2E2E2E2EFE2E2F5F5F5F5F5F5F5F5F5F5F5F5F5F5F5F5F5F5F5F5F5F5F5F5F5F5F5F5F5F5F5F5F5F5F5F5F5F5E2F5F5F5F5F5F5F5F5F5F5F5F5F5F5F5F5F5F5F5F5F5F5F5F5F5F5F5F5F5F5F5F5F5F5F5F5F5F5F5F5F5F5F5F5F5F5F5F5F5F5F5F5F5F5F5F5F5F5F5F5F5F5F5F5F5F5F5E2F5F5E2F5
310
F5F5F5F5F5F5F5F5F5F5F5F5F5F5F5F5F5F5F5F5F5F5F5F5F5F5F5F5F5F5F5F5F5F5F5F5F5F5F5F5F5F5F5F5F5F5F5F5F5F5F5F5F5F5F5F5F5F5F5F5F5F5E2E2E2E2EFE2E2F5F5F5F5F5F5F5F5F5F5F5F5F5F5F5F5F5F5F5F5F5F5F5F5F5F5F5F5F5F5F5F5F5F5F5F5F5F5E2F5F5F5F5F5F5F5F5F5F5F5F5F5F5F5F5F5F5F5
310
F5F5F5F5F5F5F5F5F5F5F5F5F5F5F5F5F5F5F5F5F5F5F5F5F5F5F5F5F5F5F5F5F5F5F5F5F5F5F5F5F5F5F5F5F5F5F5F5F5E2F5E2F5F5F5F5F5F5F5F5F5F5F5F5F5F5F5F5F5F5F5F5F5F5F5F5F5F5F5F5F5F5F5F5F5F5F5F5F5F5F5F5F5F5F5F5F5F5F5F5F5F5F5F5F5F5F5F5F5F5F5F5F5F5F5E2E2E2E2EFE2E2F5F5F5F5F5
310
F5F5F5F5F5F5F5F5F5F5F5F5F5F5F5F5F5F5F5F5F5F5F5F5F5F5F5F5F5F5F5E2BEE2E2F5F5F5F5F5F5F5F5F5F5F5F5F5F5F5F5F5F5F5F5F5F5F5F5F5F5F5F5F5F5F5F5F5F5F5F5F5F5F5F5F5F5F5F5F5F5F5F5F5F5F5F5F5F5F5F5F5F5F5F5F5F5F5F5F5F5F5F5E2F5F5F5F5F5F5F5F5F5F5F5F5F5F5F5F5F5F5F5F5F5F5F5
310
F5F5F5F5F5F5F5F5F5F5F5F5F5F5F5F5F5F5F5F5F5F5F5F5F5F5F5F5F5F5F5F5F5F5F5F5F5F5F5F5F5E2E2E2E2EFE2E2F5F5F5F5F5F5F5F5F5F5F5F5F5F5F5F5F5F5F5F5F5F5F5F5F5F5F5F5F5F5F5F5F5F5F5F5F5F5F5F5F5F5F5F5F5F5F5F5F5F5F5F5F5F5F5F5F5F5F5F5F5F5F5F5F5F5F5F5F5F5F5F5F5F5F5F5F5F5F5
310
F5F5F5F5F5F5F5F5F5F5F5F5F5F5F5F5F5F5F5F5F5F5F5F5F5F5F5F5F5F5F5F5F5F5F5F5F5F5F5F5F5F5F5F5F5F5F5F5F5F5F5F5F5F5F5F5F5F5F5F5F5F5F5F5F5F5F5F5F5F5F5F5F5F5F5F5F5F5F5F5F5F5F5F5F5F5F5F5F5F5F5F5F5F5E2E2E2E2EFE2E2F5F5F5F5F5F5F5F5F5F5F5F5F5F5F5F5F5F5F5F5F5F5F5F5F5F5
310
F5F5F5F5F5F5F5F5F5F5F5F5F5F5F5F5F5F5F5F5F5F5F5F5F5F5F5F5F5F5F5F5F5F5F5F5F5F5F5F5F5F5F5F5F5F5F5F5F5F5F5F5F5F5F5F5F5F5F5F5F5F5F5F5F5F5F5F5F5F5F5F5F5F5F5F5F5F5F5F5F5F5F5F5F5F5F5F5F5F5F5F5F5F5F5F5F5F5F5F5F5F5F5F5F5F5F5F5F5F5F5F5F5F5F5F5F5F5F5F5F5F5F5F5F5F5F5
310
F5F5F5F5F5F5F5F5F5F5F5F5F5F5F5F5F5F5F5F5E2E2E2E2EFE2E2F5F5F5F5F5F5F5F5F5F5F5F5F5F5F5F5F5F5F5F5F5F5F5F5F5F5F5F5F5F5F5F5F5F5F5F5F5F5F5F5F5F5F5F5F5F5F5F5F5F5F5F5F5F5F5F5F5F5F5F5F5F5F5F5F5F5F5F5F5F5F5F5F5F5F5F5F5F5F5F5F5F5F5F5F5F5F5F5F5F5F5F5F5F5F5F5F5F5F5F5
310
F5F5F5F5F5F5F5F5F5F5F5F5F5F5F5F5F5F5F5F5F5F5F5F5F5F5F5F5F5F5F5F5F5F5F5F5F5F5F5F5F5F5F5F5F5F5F5F5F5F5F5F5F5F5F5F5F5F5F5F5F5F5F5F5F5F5F5F5F5F5F5F5F5E2E2E2E2EFE2E2F5F5F5F5F5F5F5F5F5F5F5F5F5F5F5F5F5F5F5F5F5F5F5F5F5F5F5F5F5F5F5F5F5F5F5F5F5F5F5F5F5F5F5F5F5F5F5
310
F5F5F5F5F5F5F5F5F5F5F5F5F5F5F5F5F5F5F5F5F5F5F5F5F5F5F5F5F5F5F5F5F5F5F5F5F5F5F5F5F5F5F5F5F5F5F5F5F5F5F5F5F5F5F5F5F5F5F5F5F5F5F5F5F5F5F5F5F5F5F5F5F5F5F5F5F5F5F5F5F5F5F5F5F5F5F5F5F5F5F5F5F5F5F5F5F5F5F5F5F5F5F5F5F5F5F5F5F5F5F5F5F5F5F5F5F5F5F5F5F5F5F5F5F5F5E2
310
E2E2E2EFE2E2F5F5F5F5F5F5F5F5F5F5F5F5F5F5F5F5F5F5F5F5F5F5F5F5F5F5F5F5F5F5F5F5F5F5F5F5F5F5F5F5F5F5F5F5F5F5F5F5F5F5F5F5F5F5F5F5F5F5F5F5F5F5F5F5F5F5F5F5F5F5F5F5F5F5F5F5F5F5F5F5F5F5F5F5F5F5F5F5F5F5F5F5F5F5F5F5F5F5F5F5F5F5F5F5F5F5F5F5F5F5F5F5F5F5F5F5F5F5F5F5F5
310
F5F5F5F5F5F5F5F5F5F5F5F5F5F5F5F5F5F5F5F5F5F5F5F5F5F5F5F5F5F5F5F5F5F5F5F5F5F5F5F5F5F5F5F5F5F5F5F5F5F5F5F5E2E2E2E2EFE2E2F5F5F5F5F5F5F5F5F5F5F5F5F5F5F5F5F5F5F5F5F5F5F5F5F5F5F5F5F5F5F5F5F5F5F5F5F5F5F5F5F5F5F5F5F5F5F5F5F5F5F5F5F5F5F5F5F5F5F5F5F5F5F5F5F5F5F5F5
310
F5F5F5F5F5F5F5F5F5F5F5F5F5F5F5F5F5F5F5F5F5F5F5F5F5F5F5F5F5F5F5F5F5F5F5F5F5F5F5F5F5F5F5F5F5F5F5F5F5F5F5F5F5F5F5F5F5F5F5F5F5F5F5F5F5F5F5F5F5F5F5F5F5F5F5F5F5F5F5F5F5F5F5F5F5F5F5F5F5F5F5F5F5F5F5F5F5F5F5F5F5F5F5F5F5E2E2E2E2EFE2E2F5F5F5F5F5F5F5F5F5F5F5F5F5F5F5
310
F5F5F5F5F5F5F5F5F5F5F5F5F5F5F5F5F5F5F5F5F5F5F5F5F5F5F5F5F5F5F5F5F5F5F5F5F5F5F5F5F5F5F5F5F5F5F5F5F5F5F5F5F5F5F5F5F5F5F5F5F5F5F5F5F5F5F5F5F5F5F5F5F5F5F5F5F5F5F5F5F5F5F5F5F5F5F5F5F5F5F5F5F5F5F5F5F5F5F5F5F5F5F5F5F5F5F5F5F5F5F5F5F5F5F5F5F5F5F5F5F5F5F5F5F5F5F5
310
F5F5F5F5F5F5F5F5F5F5F5F5F5F5F5F5F5F5F5F5F5F5F5F5F5F5F5F5F5F5F5E2F5E2E2EFE2E2F5F5F5F5F5F5F5F5F5F5F5F5F5F5F5F5F5F5F5F5F5F5F5F5F5F5F5F5F5F5F5F5F5F5F5F5F5F5F5F5F5F5F5F5F5F5F5F5F5F5F5F5F5F5F5F5F5F5F5F5F5F5F5F5F5F5F5F5F5F5F5F5F5F5F5F5F5F5F5F5F5F5F5F5F5F5F5F5F5
310
F5F5F5F5F5F5F5F5F5F5F5F5F5F5F5F5F5F5F5F5F5F5F5F5F5F5F5F5F5F5F5F5F5F5F5F5F5F5F5F5F5F5F5F5F5F5F5F5F5F5F5F5F5F5F5F5F5F5F5F5F5F5F5F5F5F5F5F5F5F5F5F5F5F5F5F5F5F5F5F5F5F5F5F5E2F5E2E2EFE2E2F5F5F5F5F5F5F5F5F5F5F5F5F5F5F5F5F5F5F5F5F5F5F5F5F5F5F5F5F5F5F5F5F5F5F5F5
310
F5F5F5F5F5F5F5F5F5F5F5F5F5F5F5F5F5F5F5F5F5F5F5F5F5F5F5F5F5F5F5F5F5F5F5F5F5F5F5F5F5F5F5F5F5F5F5F5F5F5F5F5F5F5F5F5F5F5F5F5F5F5F5F5F5F5F5F5F5F5F5F5F5F5F5F5F5F5F5F5F5F5F5F5F5F5F5F5F5F5F5F5F5F5F5F5F5F5F5F5F5F5F5F5F5F5F5F5F5F5F5F5F5F5F5F5F5F5F5F5F5F5F5F5F5F5F5
310
F5F5F5F5F5F5F5F5F5F5E2F5E2E2EFE2E2F5F5F5F5F5F5F5F5F5F5F5F5F5F5F5F5F5F5F5F5F5F5F5F5F5F5F5F5F5F5F5F5F5F5F5F5F5F5F5F5F5F5F5F5F5F5F5F5BEF5F5F5F5F5F5F5F5F5F5F5F5F5F5F5F5F5F5F5F5F5F5F5F5F5F5F5F5F5F5F5F5F5F5F5F5F5F5F5F5F5F5F5F5F5F5F5F5F5F5F5F5F5F5F5F5F5F5F5F5F5
310
F5F5F5F5F5F5F5F5F5F5F5F5F5F5BEF5F5F5F5F5F5F5F5F5F5F5F5F5F5F5F5F5F5F5F5F5F5F5F5F5F5F5F5F5F5F5F5F5F5F5F5F5F5F5F5F5F5F5F5F5F5F5F5E2F5E2E2EFE2E2F5F5F5F5F5F5F5F5F5F5F5F5F5F5F5F5F5F5F5F5F5F5F5F5F5F5F5F5F5F5F5F5F5F5F5F5F5F5F5F5F5F5F5F5F5F5F5F5E2E2E2E2E2E2E2E2E2
310
E2E2E2E2E2E2E2E2E2E2E2E2E2E2E2E2E2E2E2E2E2E2E2E2E2E2E2E2E2E2E2E2E2E2E2E2E2E2E2E2E2E2E2E2E2E2E2E2E2E2E2E2E2E2E2E2E2E2E2E2E2E2E2E2E2E2E2E2E2F5F5F5F5F5F5F5F5F5F5F5F5F5F5F5F5F5F5F5F5F5F5F5F5F5F5F5F5F5F5F5F5F5F5F5F5F5F5F5F5F5F5F5F5F5F5F5E2F5E2E2EFE2E2F5F5F5F5
310
F5F5F5F5F5F5F5F5F5F5F5F5F5F5F5F5F5F5F5F5F5F5F5F5F5F5F5F5F5F5F5F5F5F5F5F5F5F5F5F5F5F5F5F5E2BEF5F5F5F5F5F5F5F5F5F5F5F5F5F5F5F5F5F5F5F5F5F5F5F5F5F5F5F5F5F5F5F5F5F5F5E2E2E2F5F5F5F5F5F5F5F5F5F5F5F5F5F5F5F5F5F5F5F5F5F5F5F5F5F5F5F5F5F5F5F5F5F5F5F5E2BEF5F5F5F5F5
310
F5F5F5F5F5F5F5F5F5F5F5F5F5F5F5F5F5F5F5F5F5F5F5F5F5F5F5F5F5F5F5F5F5F5F5F5F5F5F5F5F5F5E2F5E2E2EFE2E2F5F5F5F5F5F5F5F5F5F5F5F5F5F5F5F5F5F5F5F5F5F5F5F5F5F5F5F5F5F5F5F5F5F5F5F5F5F5F5F5F5F5F5F5F5F5F5F5F5F5F5F5F5F5F5F5F5F5F5F5F5F5F5F5F5F5F5F5F5F5F5F5F5F5F5F5F5F5
310
F5F5F5F5F5F5F5E2E2E2F5F5F5F5F5F5F5F5F5F5F5F5F5F5F5F5F5F5F5F5F5F5F5F5F5F5F5F5F5F5F5F5F5F5F5F5F5F5F5F5F5F5F5F5F5F5F5F5F5F5F5F5F5F5F5F5F5F5F5F5F5F5F5F5F5F5F5F5F5F5F5F5F5F5F5F5F5F5F5F5F5F5F5F5F5E2F5E2E2EFE2E2F5F5F5F5F5F5F5F5F5F5F5F5F5F5F5F5F5F5F5F5F5F5F5F5F5
310
F5F5F5F5F5F5F5F5F5F5F5F5F5F5F5F5F5F5F5F5F5F5F5F5F5F5F5F5F5F5F5F5F5F5F5F5F5F5F5F5F5F5F5F5F5F5F5F5F5F5F5F5F5F5F5F5F5F5F5F5F5F5F5F5F5F5F5F5F5F5F5F5F5F5F5F5F5F5F5F5F5F5F5F5F5F5F5F5F5F5F5F5F5F5F5F5F5F5F5F5F5F5F5F5F5F5F5F5F5F5F5F5F5F5F5F5F5F5F5F5F5F5F5F5F5F5F5
310
F5F5F5F5F5F5F5F5F5F5F5F5F5F5F5F5F5F5F5F5F5E2F5E2E2EFE2E2F5F5F5F5F5F5F5F5F5F5F5F5F5F5F5F5F5F5F5F5F5F5F5F5F5F5F5F5F5F5F5F5F5F5F5F5F5F5F5F5F5F5F5F5F5F5F5F5F5F5F5F5F5F5F5F5F5F5F5F5F5F5F5F5F5F5F5F5F5F5F5F5F5F5F5F5F5F5F5F5F5F5F5F5F5F5F5F5F5F5F5F5F5F5F5F5F5F5F5
310
F5F5F5F5F5F5F5F5F5F5F5F5F5F5F5F5F5F5F5F5F5F5F5F5F5F5F5F5F5F5F5F5F5F5F5F5F5F5F5F5F5F5F5F5F5F5F5F5F5F5F5F5F5F5F5F5F5F5F5F5F5F5F5F5F5F5F5F5F5F5F5F5F5F5E2F5E2E2EFE2E2F5F5F5F5F5F5F5F5F5F5F5F5F5F5F5F5F5F5F5F5F5F5F5F5F5F5F5F5F5F5F5F5F5F5F5F5F5F5F5F5F5F5F5F5F5F5
310
F5F5F5F5F5F5F5F5F5F5F5F5F5F5F5F5F5F5F5F5F5F5F5F5F5F5F5F5F5F5F5F5F5F5F5F5F5F5F5F5F5F5F5F5F5F5F5F5F5F5F5F5F5F5F5F5F5F5F5F5F5F5F5F5F5F5F5F5F5F5F5F5F5F5F5F5F5F5F5F5F5F5F5F5F5F5F5F5F5F5F5F5F5F5F5F5F5F5F5F5F5F5F5F5F5F5F5F5F5F5F5F5F5F5F5F5F5F5F5F5F5F5F5F5F5F5F5
310
E2E2E2E2EFE2E2F5F5F5F5F5F5F5F5F5F5F5F5F5F5F5F5F5F5F5F5F5F5F5F5F5F5F5F5F5F5F5F5F5F5F5F5F5F5F5F5F5F5F5F5F5F5F5F5F5F5F5F5F5F5F5F5F5F5F5F5F5F5F5F5F5F5F5F5F5F5F5F5F5F5F5F5F5F5F5F5F5F5F5F5F5F5F5F5F5F5F5F5F5F5F5F5F5F5F5F5F5F5F5F5F5F5F5F5F5F5F5F5F5F5F5F5F5F5F5F5
310
F5F5F5F5F5F5F5F5F5F5F5F5F5F5F5F5F5F5F5F5F5F5F5F5F5F5F5F5F5F5F5F5F5F5F5F5F5F5F5F5F5F5F5F5F5F5F5F5F5F5F5F5F5E2E2E2E2EFE2E2F5F5F5F5F5F5F5F5F5F5F5F5F5F5F5F5F5F5F5F5F5F5F5F5F5F5F5F5F5F5F5F5F5F5F5F5F5F5F5F5F5F5F5F5F5F5F5F5F5F5F5F5F5F5F5F5F5F5F5F5F5F5F5F5F5F5F5
310
F5F5F5F5F5F5F5F5F5F5F5F5F5F5F5F5F5F5F5F5F5F5F5F5F5F5F5F5F5F5F5F5F5F5F5F5F5F5F5F5F5F5F5F5F5F5F5F5F5F5F5F5F5F5F5F5F5F5F5F5F5F5F5F5F5F5F5F5F5F5F5F5F5F5F5F5F5F5F5F5F5F5F5F5F5F5F5F5F5F5F5F5F5F5F5F5F5F5F5F5F5F5F5F5F5F5E2E2E2E2EFE2E2F5F5F5F5F5F5F5F5F5F5F5F5F5F5
310
F5F5F5F5F5F5F5F5F5F5F5F5F5F5F5F5F5F5F5F5F5F5F5F5F5F5F5F5F5F5F5F5F5F5F5F5F5F5F5F5F5F5F5F5F5F5F5F5F5F5F5F5F5F5F5F5F5F5F5F5F5F5F5F5F5F5F5F5F5F5F5F5F5F5F5F5F5F5F5F5F5F5F5F5F5F5F5F5F5F5F5F5F5F5F5F5F5F5F5F5F5F5F5F5F5F5F5F5F5F5F5F5F5F5F5F5F5F5F5F5F5F5F5F5F5F5F5
310
F5F5F5F5F5F5F5F5F5F5F5F5F5F5F5F5F5F5F5F5F5F5F5F5F5F5F5F5F5F5F5F5E2E2E2E2EFE2E2F5F5F5F5F5F5F5F5F5F5F5F5F5F5F5F5F5F5F5F5F5F5F5F5F5F5F5F5F5F5F5F5F5F5F5F5F5F5F5F5F5F5F5F5F5F5F5F5F5F5F5F5F5F5F5F5F5F5F5F5F5F5F5F5F5F5F5F5F5F5F5F5F5F5F5F5F5F5F5F5F5F5F5F5F5F5F5F5
310
F5F5F5F5F5F5F5F5F5F5F5F5F5F5F5F5F5F5F5F5F5F5F5F5F5F5F5F5F5F5F5F5F5F5F5F5F5F5F5F5F5F5F5F5F5F5F5F5F5F5F5F5F5F5F5F5F5F5F5F5F5F5F5F5F5F5F5F5F5F5F5F5F5F5F5F5F5F5F5F5F5F5F5F5F5E2E2E2E2EFE2E2E2E2E2E2E2E2E2E2E2E2E2E2E2E2E2E2E2E2E2E2E2E2E2E2E2E2E2E2E2E2E2E2E2E2E2
310
E2E2E2E2E2E2E2E2E2E2E2E2E2E2E2E2E2E2E2E2E2E2E2E2E2E2E2E2E2E2E2E2E2E2E2E2E2E2E2E2E2E2E2E2E2E2E2E2E2E2E2E2E2E2E2E2E2E2E2E2E2E2E2E2E2E2E2E2E2E2E2E2E2E2E2E2E2E2E2E2E2E2E2E2E2E2E2E2E2E2E2E2E2E2E2E2E2E2E2E2E2E2E2E2E2E2E2E2E2E2E2E2E2E2E2E2E2E2E2E2E2E2E2E2E2E2E2
310
E2E2E2E2E2E2E2E2E2E2E2E2E2E2E2EFE2E2F5F5F5F5F5F5F5F5F5F5F5F5F5F5F5F5F5F5F5F5F5F5F5F5F5F5F5F5F5F5F5F5F5F5F5F5F5F5F5F5F5F5F5F5F5F5F5F5F5F5F5F5F5F5F5F5F5F5F5F5F5F5F5F5F5F5F5F5F5F5F5F5F5F5F5F5F5F5F5F5F5F5F5F5F5F5F5F5F5F5F5F5F5F5F5F5F5F5F5F5F5F5F5F5F5F5F5F5F5
310
F5F5F5F5F5F5F5F5F5F5F5F5F5F5F5F5F5F5F5F5F5F5F5F5F5F5F5F5F5F5F5F5F5F5F5F5F5F5F5F5F5F5F5F5F5F5F5F5F5F5F5F5F5F5F5F5F5F5F5F5F5F5F5F5F5E2E2E2EFE2E2E2E2E2E2E2E2E2E2F5F5F5F5F5F5F5F5F5E2E2E2E2E2E2E2E2E2E2E2E2E2E2E2E2F5F5F5F5F5F5F5F5F5E2E2E2E2E2E2E2E2E2E2E2E2E2E2
310
E2E2F5F5F5F5F5F5F5F5F5E2E2E2E2E2E2E2E2E2E2E2E2E2E2E2E2F5F5F5F5F5F5F5F5F5E2E2E2E2E2E2E2E2E2E2E2E2E2E2E2E2F5F5F5F5F5F5F5F5F5E2E2E2E2E2E2E2E2E2E2E2E2E2E2E2E2F5F5F5F5F5F5F5F5F5E2E2E2E2E2E2E2E2E2E2E2E2E2E2E2E2F5F5F5F5F5F5F5F5F5E2E2E2E2E2E2E2E2E2EFEFE2E2E2E2E2
310
E2E2E2E2E2E2E2E2E2E2E2E2E2E2E2E2E2E2E2E2E2E2E2E2E2E2E2E2E2E2E2E2E2E2E2E2E2E2E2E2E2E2E2E2E2E2E2E2E2E2E2E2E2E2E2E2E2E2E2E2E2E2E2E2E2E2E2E2E2E2E2E2E2E2E2E2E2E2E2E2E2E2E2E2E2E2E2E2E2E2E2E2E2E2E2E2E2E2E2E2E2E2E2E2E2E2E2E2E2E2E2E2E2E2E2E2E2E2E2E2E2E2E2E2E2E2E2
310
E2E2E2E2E2E2E2E2E2E2E2E2E2E2E2E2E2E2E2E2E2E2E2E2E2E2E2E2E2E2E2E2E2E2E2E2E2E2E2E2E2E2E2E2E2E2EFEF
  0
XRECORD
  5
5250
102
{ACAD_REACTORS
330
524F
102
}
330
524F
100
AcDbXrecord
280
     1
102
MATERIAL
148
0.0
149
0.0
149
0.0
 93
        0
 94
      127
282
     0
 72
     1
 77
     1
171
     1
175
     1
179
     1
273
     0
  0
XRECORD
  5
524E
102
{ACAD_REACTORS
330
524D
102
}
330
524D
100
AcDbXrecord
280
     1
102
MATERIAL
148
0.0
149
0.0
149
0.0
 93
        0
 94
      127
282
     0
 72
     1
 77
     1
171
     1
175
     1
179
     1
273
     0
  0
XRECORD
  5
5252
102
{ACAD_REACTORS
330
5251
102
}
330
5251
100
AcDbXrecord
280
     1
102
MATERIAL
148
0.0
149
0.0
149
0.0
 93
        0
 94
      127
282
     0
 72
     1
 77
     1
171
     1
175
     1
179
     1
273
     0
  0
CELLSTYLEMAP
  5
524C
102
{ACAD_REACTORS
330
51A8
102
}
330
51A8
100
AcDbCellStyleMap
 90
        3
300
CELLSTYLE
  1
TABLEFORMAT_BEGIN
 90
        5
170
     1
 91
        0
 92
    32768
 62
   257
 93
        1
300
CONTENTFORMAT
  1
CONTENTFORMAT_BEGIN
 90
        0
 91
        0
 92
      512
 93
        0
300

 40
0.0
140
1.0
 94
        5
 62
     0
340
11
144
0.25
309
CONTENTFORMAT_END
171
     0
 94
        6
 95
        1
302
GRIDFORMAT
  1
GRIDFORMAT_BEGIN
 90
        0
 91
        1
 62
     0
 92
       -2
340
0
 93
        0
 40
0.045
309
GRIDFORMAT_END
 95
        2
302
GRIDFORMAT
  1
GRIDFORMAT_BEGIN
 90
        0
 91
        1
 62
     0
 92
       -2
340
0
 93
        0
 40
0.045
309
GRIDFORMAT_END
 95
        4
302
GRIDFORMAT
  1
GRIDFORMAT_BEGIN
 90
        0
 91
        1
 62
     0
 92
       -2
340
0
 93
        0
 40
0.045
309
GRIDFORMAT_END
 95
        8
302
GRIDFORMAT
  1
GRIDFORMAT_BEGIN
 90
        0
 91
        1
 62
     0
 92
       -2
340
0
 93
        0
 40
0.045
309
GRIDFORMAT_END
 95
       16
302
GRIDFORMAT
  1
GRIDFORMAT_BEGIN
 90
        0
 91
        1
 62
     0
 92
       -2
340
0
 93
        0
 40
0.045
309
GRIDFORMAT_END
 95
       32
302
GRIDFORMAT
  1
GRIDFORMAT_BEGIN
 90
        0
 91
        1
 62
     0
 92
       -2
340
0
 93
        0
 40
0.045
309
GRIDFORMAT_END
309
TABLEFORMAT_END
  1
CELLSTYLE_BEGIN
 90
        1
 91
        1
300
_TITLE
309
CELLSTYLE_END
300
CELLSTYLE
  1
TABLEFORMAT_BEGIN
 90
        5
170
     1
 91
        0
 92
        0
 62
   257
 93
        1
300
CONTENTFORMAT
  1
CONTENTFORMAT_BEGIN
 90
        0
 91
        0
 92
      512
 93
        0
300

 40
0.0
140
1.0
 94
        5
 62
     0
340
11
144
0.18
309
CONTENTFORMAT_END
171
     0
 94
        6
 95
        1
302
GRIDFORMAT
  1
GRIDFORMAT_BEGIN
 90
        0
 91
        1
 62
     0
 92
       -2
340
0
 93
        0
 40
0.045
309
GRIDFORMAT_END
 95
        2
302
GRIDFORMAT
  1
GRIDFORMAT_BEGIN
 90
        0
 91
        1
 62
     0
 92
       -2
340
0
 93
        0
 40
0.045
309
GRIDFORMAT_END
 95
        4
302
GRIDFORMAT
  1
GRIDFORMAT_BEGIN
 90
        0
 91
        1
 62
     0
 92
       -2
340
0
 93
        0
 40
0.045
309
GRIDFORMAT_END
 95
        8
302
GRIDFORMAT
  1
GRIDFORMAT_BEGIN
 90
        0
 91
        1
 62
     0
 92
       -2
340
0
 93
        0
 40
0.045
309
GRIDFORMAT_END
 95
       16
302
GRIDFORMAT
  1
GRIDFORMAT_BEGIN
 90
        0
 91
        1
 62
     0
 92
       -2
340
0
 93
        0
 40
0.045
309
GRIDFORMAT_END
 95
       32
302
GRIDFORMAT
  1
GRIDFORMAT_BEGIN
 90
        0
 91
        1
 62
     0
 92
       -2
340
0
 93
        0
 40
0.045
309
GRIDFORMAT_END
309
TABLEFORMAT_END
  1
CELLSTYLE_BEGIN
 90
        2
 91
        1
300
_HEADER
309
CELLSTYLE_END
300
CELLSTYLE
  1
TABLEFORMAT_BEGIN
 90
        5
170
     1
 91
        0
 92
        0
 62
   257
 93
        1
300
CONTENTFORMAT
  1
CONTENTFORMAT_BEGIN
 90
        0
 91
        0
 92
      512
 93
        0
300

 40
0.0
140
1.0
 94
        2
 62
     0
340
11
144
0.18
309
CONTENTFORMAT_END
171
     0
 94
        6
 95
        1
302
GRIDFORMAT
  1
GRIDFORMAT_BEGIN
 90
        0
 91
        1
 62
     0
 92
       -2
340
0
 93
        0
 40
0.045
309
GRIDFORMAT_END
 95
        2
302
GRIDFORMAT
  1
GRIDFORMAT_BEGIN
 90
        0
 91
        1
 62
     0
 92
       -2
340
0
 93
        0
 40
0.045
309
GRIDFORMAT_END
 95
        4
302
GRIDFORMAT
  1
GRIDFORMAT_BEGIN
 90
        0
 91
        1
 62
     0
 92
       -2
340
0
 93
        0
 40
0.045
309
GRIDFORMAT_END
 95
        8
302
GRIDFORMAT
  1
GRIDFORMAT_BEGIN
 90
        0
 91
        1
 62
     0
 92
       -2
340
0
 93
        0
 40
0.045
309
GRIDFORMAT_END
 95
       16
302
GRIDFORMAT
  1
GRIDFORMAT_BEGIN
 90
        0
 91
        1
 62
     0
 92
       -2
340
0
 93
        0
 40
0.045
309
GRIDFORMAT_END
 95
       32
302
GRIDFORMAT
  1
GRIDFORMAT_BEGIN
 90
        0
 91
        1
 62
     0
 92
       -2
340
0
 93
        0
 40
0.045
309
GRIDFORMAT_END
309
TABLEFORMAT_END
  1
CELLSTYLE_BEGIN
 90
        3
 91
        2
300
_DATA
309
CELLSTYLE_END
  0
XRECORD
  5
5253
102
{ACAD_REACTORS
330
51A8
102
}
330
51A8
100
AcDbXrecord
280
     1
102
ACAD_ROUNDTRIP_PRE2007_TABLESTYLE
 90
      512
 91
        0
  1

 92
      512
 93
        0
  2

 94
      512
 95
        0
  3

  0
XRECORD
  5
49B
102
{ACAD_REACTORS
330
49A
102
}
330
49A
100
AcDbXrecord
280
     1
102
RTVSPropertyOp0
 70
     1
102
RTVSPropertyOp1
 70
     1
102
RTVSPropertyOp2
 70
     1
102
RTVSPropertyOp3
 70
     1
102
RTVSPropertyOp4
 70
     1
102
RTVSPropertyOp5
 70
     1
102
RTVSPropertyOp6
 70
     1
102
RTVSPropertyOp7
 70
     1
102
RTVSPropertyOp8
 70
     1
102
RTVSPropertyOp9
 70
     1
102
RTVSPropertyOp10
 70
     1
102
RTVSPropertyOp11
 70
     1
102
RTVSPropertyOp12
 70
     1
102
RTVSPropertyOp13
 70
     1
102
RTVSPropertyOp14
 70
     1
102
RTVSPropertyOp15
 70
     1
102
RTVSPropertyOp16
 70
     1
102
RTVSPropertyOp17
 70
     1
102
RTVSPropertyOp18
 70
     1
102
RTVSPropertyOp19
 70
     1
102
RTVSPropertyOp20
 70
     1
102
RTVSPropertyOp21
 70
     1
102
RTVSPropertyOp22
 70
     1
102
RTVSPropertyOp23
 70
     1
102
RTVSPropertyOp24
 70
     1
102
RTVSPropertyOp25
 70
     1
102
RTVSPropertyOp26
 70
     1
102
RTVSPropertyOp27
 70
     1
  0
XRECORD
  5
A4A
102
{ACAD_REACTORS
330
A49
102
}
330
A49
100
AcDbXrecord
280
     1
102
RTVSPropertyOp0
 70
     1
102
RTVSPropertyOp1
 70
     1
102
RTVSPropertyOp2
 70
     1
102
RTVSPropertyOp3
 70
     1
102
RTVSPropertyOp4
 70
     1
102
RTVSPropertyOp5
 70
     1
102
RTVSPropertyOp6
 70
     1
102
RTVSPropertyOp7
 70
     1
102
RTVSPropertyOp8
 70
     1
102
RTVSPropertyOp9
 70
     1
102
RTVSPropertyOp10
 70
     1
102
RTVSPropertyOp11
 70
     1
102
RTVSPropertyOp12
 70
     1
102
RTVSPropertyOp13
 70
     1
102
RTVSPropertyOp14
 70
     1
102
RTVSPropertyOp15
 70
     1
102
RTVSPropertyOp16
 70
     1
102
RTVSPropertyOp17
 70
     1
102
RTVSPropertyOp18
 70
     1
102
RTVSPropertyOp19
 70
     1
102
RTVSPropertyOp20
 70
     1
102
RTVSPropertyOp21
 70
     1
102
RTVSPropertyOp22
 70
     1
102
RTVSPropertyOp23
 70
     1
102
RTVSPropertyOp24
 70
     1
102
RTVSPropertyOp25
 70
     1
102
RTVSPropertyOp26
 70
     1
102
RTVSPropertyOp27
 70
     1
  0
XRECORD
  5
4A1
102
{ACAD_REACTORS
330
4A0
102
}
330
4A0
100
AcDbXrecord
280
     1
102
RTVSPropertyOp0
 70
     1
102
RTVSPropertyOp1
 70
     1
102
RTVSPropertyOp2
 70
     1
102
RTVSPropertyOp3
 70
     1
102
RTVSPropertyOp4
 70
     1
102
RTVSPropertyOp5
 70
     1
102
RTVSPropertyOp6
 70
     1
102
RTVSPropertyOp7
 70
     1
102
RTVSPropertyOp8
 70
     1
102
RTVSPropertyOp9
 70
     1
102
RTVSPropertyOp10
 70
     1
102
RTVSPropertyOp11
 70
     1
102
RTVSPropertyOp12
 70
     1
102
RTVSPropertyOp13
 70
     1
102
RTVSPropertyOp14
 70
     1
102
RTVSPropertyOp15
 70
     1
102
RTVSPropertyOp16
 70
     1
102
RTVSPropertyOp17
 70
     1
102
RTVSPropertyOp18
 70
     1
102
RTVSPropertyOp19
 70
     1
102
RTVSPropertyOp20
 70
     1
102
RTVSPropertyOp21
 70
     1
102
RTVSPropertyOp22
 70
     1
102
RTVSPropertyOp23
 70
     1
102
RTVSPropertyOp24
 70
     1
102
RTVSPropertyOp25
 70
     1
102
RTVSPropertyOp26
 70
     1
102
RTVSPropertyOp27
 70
     1
  0
XRECORD
  5
4A9
102
{ACAD_REACTORS
330
4A8
102
}
330
4A8
100
AcDbXrecord
280
     1
102
RTVSPropertyOp0
 70
     1
102
RTVSPropertyOp1
 70
     1
102
RTVSPropertyOp2
 70
     1
102
RTVSPropertyOp3
 70
     1
102
RTVSPropertyOp4
 70
     1
102
RTVSPropertyOp5
 70
     1
102
RTVSPropertyOp6
 70
     1
102
RTVSPropertyOp7
 70
     1
102
RTVSPropertyOp8
 70
     1
102
RTVSPropertyOp9
 70
     1
102
RTVSPropertyOp10
 70
     1
102
RTVSPropertyOp11
 70
     1
102
RTVSPropertyOp12
 70
     1
102
RTVSPropertyOp13
 70
     1
102
RTVSPropertyOp14
 70
     1
102
RTVSPropertyOp15
 70
     1
102
RTVSPropertyOp16
 70
     1
102
RTVSPropertyOp17
 70
     1
102
RTVSPropertyOp18
 70
     1
102
RTVSPropertyOp19
 70
     1
102
RTVSPropertyOp20
 70
     1
102
RTVSPropertyOp21
 70
     1
102
RTVSPropertyOp22
 70
     1
102
RTVSPropertyOp23
 70
     1
102
RTVSPropertyOp24
 70
     1
102
RTVSPropertyOp25
 70
     1
102
RTVSPropertyOp26
 70
     1
102
RTVSPropertyOp27
 70
     1
  0
XRECORD
  5
4B1
102
{ACAD_REACTORS
330
4B0
102
}
330
4B0
100
AcDbXrecord
280
     1
102
RTVSPropertyOp0
 70
     1
102
RTVSPropertyOp1
 70
     1
102
RTVSPropertyOp2
 70
     1
102
RTVSPropertyOp3
 70
     1
102
RTVSPropertyOp4
 70
     1
102
RTVSPropertyOp5
 70
     1
102
RTVSPropertyOp6
 70
     1
102
RTVSPropertyOp7
 70
     1
102
RTVSPropertyOp8
 70
     1
102
RTVSPropertyOp9
 70
     1
102
RTVSPropertyOp10
 70
     1
102
RTVSPropertyOp11
 70
     1
102
RTVSPropertyOp12
 70
     1
102
RTVSPropertyOp13
 70
     1
102
RTVSPropertyOp14
 70
     1
102
RTVSPropertyOp15
 70
     1
102
RTVSPropertyOp16
 70
     1
102
RTVSPropertyOp17
 70
     1
102
RTVSPropertyOp18
 70
     1
102
RTVSPropertyOp19
 70
     1
102
RTVSPropertyOp20
 70
     1
102
RTVSPropertyOp21
 70
     1
102
RTVSPropertyOp22
 70
     1
102
RTVSPropertyOp23
 70
     1
102
RTVSPropertyOp24
 70
     1
102
RTVSPropertyOp25
 70
     1
102
RTVSPropertyOp26
 70
     1
102
RTVSPropertyOp27
 70
     1
  0
XRECORD
  5
4A7
102
{ACAD_REACTORS
330
4A6
102
}
330
4A6
100
AcDbXrecord
280
     1
102
RTVSPropertyOp0
 70
     1
102
RTVSPropertyOp1
 70
     1
102
RTVSPropertyOp2
 70
     1
102
RTVSPropertyOp3
 70
     1
102
RTVSPropertyOp4
 70
     1
102
RTVSPropertyOp5
 70
     1
102
RTVSPropertyOp6
 70
     1
102
RTVSPropertyOp7
 70
     1
102
RTVSPropertyOp8
 70
     1
102
RTVSPropertyOp9
 70
     1
102
RTVSPropertyOp10
 70
     1
102
RTVSPropertyOp11
 70
     1
102
RTVSPropertyOp12
 70
     1
102
RTVSPropertyOp13
 70
     1
102
RTVSPropertyOp14
 70
     1
102
RTVSPropertyOp15
 70
     1
102
RTVSPropertyOp16
 70
     1
102
RTVSPropertyOp17
 70
     1
102
RTVSPropertyOp18
 70
     1
102
RTVSPropertyOp19
 70
     1
102
RTVSPropertyOp20
 70
     1
102
RTVSPropertyOp21
 70
     1
102
RTVSPropertyOp22
 70
     1
102
RTVSPropertyOp23
 70
     1
102
RTVSPropertyOp24
 70
     1
102
RTVSPropertyOp25
 70
     1
102
RTVSPropertyOp26
 70
     1
102
RTVSPropertyOp27
 70
     1
  0
XRECORD
  5
4AF
102
{ACAD_REACTORS
330
4AE
102
}
330
4AE
100
AcDbXrecord
280
     1
102
RTVSPropertyOp0
 70
     1
102
RTVSPropertyOp1
 70
     1
102
RTVSPropertyOp2
 70
     1
102
RTVSPropertyOp3
 70
     1
102
RTVSPropertyOp4
 70
     1
102
RTVSPropertyOp5
 70
     1
102
RTVSPropertyOp6
 70
     1
102
RTVSPropertyOp7
 70
     1
102
RTVSPropertyOp8
 70
     1
102
RTVSPropertyOp9
 70
     1
102
RTVSPropertyOp10
 70
     1
102
RTVSPropertyOp11
 70
     1
102
RTVSPropertyOp12
 70
     1
102
RTVSPropertyOp13
 70
     1
102
RTVSPropertyOp14
 70
     1
102
RTVSPropertyOp15
 70
     1
102
RTVSPropertyOp16
 70
     1
102
RTVSPropertyOp17
 70
     1
102
RTVSPropertyOp18
 70
     1
102
RTVSPropertyOp19
 70
     1
102
RTVSPropertyOp20
 70
     1
102
RTVSPropertyOp21
 70
     1
102
RTVSPropertyOp22
 70
     1
102
RTVSPropertyOp23
 70
     1
102
RTVSPropertyOp24
 70
     1
102
RTVSPropertyOp25
 70
     1
102
RTVSPropertyOp26
 70
     1
102
RTVSPropertyOp27
 70
     1
  0
XRECORD
  5
493
102
{ACAD_REACTORS
330
492
102
}
330
492
100
AcDbXrecord
280
     1
102
RTVSPropertyOp0
 70
     1
102
RTVSPropertyOp1
 70
     1
102
RTVSPropertyOp2
 70
     1
102
RTVSPropertyOp3
 70
     1
102
RTVSPropertyOp4
 70
     1
102
RTVSPropertyOp5
 70
     1
102
RTVSPropertyOp6
 70
     1
102
RTVSPropertyOp7
 70
     1
102
RTVSPropertyOp8
 70
     1
102
RTVSPropertyOp9
 70
     1
102
RTVSPropertyOp10
 70
     1
102
RTVSPropertyOp11
 70
     1
102
RTVSPropertyOp12
 70
     1
102
RTVSPropertyOp13
 70
     1
102
RTVSPropertyOp14
 70
     1
102
RTVSPropertyOp15
 70
     1
102
RTVSPropertyOp16
 70
     1
102
RTVSPropertyOp17
 70
     1
102
RTVSPropertyOp18
 70
     1
102
RTVSPropertyOp19
 70
     1
102
RTVSPropertyOp20
 70
     1
102
RTVSPropertyOp21
 70
     1
102
RTVSPropertyOp22
 70
     1
102
RTVSPropertyOp23
 70
     1
102
RTVSPropertyOp24
 70
     1
102
RTVSPropertyOp25
 70
     1
102
RTVSPropertyOp26
 70
     1
102
RTVSPropertyOp27
 70
     1
  0
XRECORD
  5
495
102
{ACAD_REACTORS
330
494
102
}
330
494
100
AcDbXrecord
280
     1
102
RTVSPropertyOp0
 70
     1
102
RTVSPropertyOp1
 70
     1
102
RTVSPropertyOp2
 70
     1
102
RTVSPropertyOp3
 70
     1
102
RTVSPropertyOp4
 70
     1
102
RTVSPropertyOp5
 70
     1
102
RTVSPropertyOp6
 70
     1
102
RTVSPropertyOp7
 70
     1
102
RTVSPropertyOp8
 70
     1
102
RTVSPropertyOp9
 70
     1
102
RTVSPropertyOp10
 70
     1
102
RTVSPropertyOp11
 70
     1
102
RTVSPropertyOp12
 70
     1
102
RTVSPropertyOp13
 70
     1
102
RTVSPropertyOp14
 70
     1
102
RTVSPropertyOp15
 70
     1
102
RTVSPropertyOp16
 70
     1
102
RTVSPropertyOp17
 70
     1
102
RTVSPropertyOp18
 70
     1
102
RTVSPropertyOp19
 70
     1
102
RTVSPropertyOp20
 70
     1
102
RTVSPropertyOp21
 70
     1
102
RTVSPropertyOp22
 70
     1
102
RTVSPropertyOp23
 70
     1
102
RTVSPropertyOp24
 70
     1
102
RTVSPropertyOp25
 70
     1
102
RTVSPropertyOp26
 70
     1
102
RTVSPropertyOp27
 70
     1
  0
XRECORD
  5
497
102
{ACAD_REACTORS
330
496
102
}
330
496
100
AcDbXrecord
280
     1
102
RTVSPropertyOp0
 70
     1
102
RTVSPropertyOp1
 70
     1
102
RTVSPropertyOp2
 70
     1
102
RTVSPropertyOp3
 70
     1
102
RTVSPropertyOp4
 70
     1
102
RTVSPropertyOp5
 70
     1
102
RTVSPropertyOp6
 70
     1
102
RTVSPropertyOp7
 70
     1
102
RTVSPropertyOp8
 70
     1
102
RTVSPropertyOp9
 70
     1
102
RTVSPropertyOp10
 70
     1
102
RTVSPropertyOp11
 70
     1
102
RTVSPropertyOp12
 70
     1
102
RTVSPropertyOp13
 70
     1
102
RTVSPropertyOp14
 70
     1
102
RTVSPropertyOp15
 70
     1
102
RTVSPropertyOp16
 70
     1
102
RTVSPropertyOp17
 70
     1
102
RTVSPropertyOp18
 70
     1
102
RTVSPropertyOp19
 70
     1
102
RTVSPropertyOp20
 70
     1
102
RTVSPropertyOp21
 70
     1
102
RTVSPropertyOp22
 70
     1
102
RTVSPropertyOp23
 70
     1
102
RTVSPropertyOp24
 70
     1
102
RTVSPropertyOp25
 70
     1
102
RTVSPropertyOp26
 70
     1
102
RTVSPropertyOp27
 70
     1
  0
XRECORD
  5
499
102
{ACAD_REACTORS
330
498
102
}
330
498
100
AcDbXrecord
280
     1
102
RTVSPropertyOp0
 70
     1
102
RTVSPropertyOp1
 70
     1
102
RTVSPropertyOp2
 70
     1
102
RTVSPropertyOp3
 70
     1
102
RTVSPropertyOp4
 70
     1
102
RTVSPropertyOp5
 70
     1
102
RTVSPropertyOp6
 70
     1
102
RTVSPropertyOp7
 70
     1
102
RTVSPropertyOp8
 70
     1
102
RTVSPropertyOp9
 70
     1
102
RTVSPropertyOp10
 70
     1
102
RTVSPropertyOp11
 70
     1
102
RTVSPropertyOp12
 70
     1
102
RTVSPropertyOp13
 70
     1
102
RTVSPropertyOp14
 70
     1
102
RTVSPropertyOp15
 70
     1
102
RTVSPropertyOp16
 70
     1
102
RTVSPropertyOp17
 70
     1
102
RTVSPropertyOp18
 70
     1
102
RTVSPropertyOp19
 70
     1
102
RTVSPropertyOp20
 70
     1
102
RTVSPropertyOp21
 70
     1
102
RTVSPropertyOp22
 70
     1
102
RTVSPropertyOp23
 70
     1
102
RTVSPropertyOp24
 70
     1
102
RTVSPropertyOp25
 70
     1
102
RTVSPropertyOp26
 70
     1
102
RTVSPropertyOp27
 70
     1
  0
XRECORD
  5
4AD
102
{ACAD_REACTORS
330
4AC
102
}
330
4AC
100
AcDbXrecord
280
     1
102
RTVSPropertyOp0
 70
     1
102
RTVSPropertyOp1
 70
     1
102
RTVSPropertyOp2
 70
     1
102
RTVSPropertyOp3
 70
     1
102
RTVSPropertyOp4
 70
     1
102
RTVSPropertyOp5
 70
     1
102
RTVSPropertyOp6
 70
     1
102
RTVSPropertyOp7
 70
     1
102
RTVSPropertyOp8
 70
     1
102
RTVSPropertyOp9
 70
     1
102
RTVSPropertyOp10
 70
     1
102
RTVSPropertyOp11
 70
     1
102
RTVSPropertyOp12
 70
     1
102
RTVSPropertyOp13
 70
     1
102
RTVSPropertyOp14
 70
     1
102
RTVSPropertyOp15
 70
     1
102
RTVSPropertyOp16
 70
     1
102
RTVSPropertyOp17
 70
     1
102
RTVSPropertyOp18
 70
     1
102
RTVSPropertyOp19
 70
     1
102
RTVSPropertyOp20
 70
     1
102
RTVSPropertyOp21
 70
     1
102
RTVSPropertyOp22
 70
     1
102
RTVSPropertyOp23
 70
     1
102
RTVSPropertyOp24
 70
     1
102
RTVSPropertyOp25
 70
     1
102
RTVSPropertyOp26
 70
     1
102
RTVSPropertyOp27
 70
     1
  0
XRECORD
  5
A4E
102
{ACAD_REACTORS
330
A4D
102
}
330
A4D
100
AcDbXrecord
280
     1
102
RTVSPropertyOp0
 70
     1
102
RTVSPropertyOp1
 70
     1
102
RTVSPropertyOp2
 70
     1
102
RTVSPropertyOp3
 70
     1
102
RTVSPropertyOp4
 70
     1
102
RTVSPropertyOp5
 70
     1
102
RTVSPropertyOp6
 70
     1
102
RTVSPropertyOp7
 70
     1
102
RTVSPropertyOp8
 70
     1
102
RTVSPropertyOp9
 70
     1
102
RTVSPropertyOp10
 70
     1
102
RTVSPropertyOp11
 70
     1
102
RTVSPropertyOp12
 70
     1
102
RTVSPropertyOp13
 70
     1
102
RTVSPropertyOp14
 70
     1
102
RTVSPropertyOp15
 70
     1
102
RTVSPropertyOp16
 70
     1
102
RTVSPropertyOp17
 70
     1
102
RTVSPropertyOp18
 70
     1
102
RTVSPropertyOp19
 70
     1
102
RTVSPropertyOp20
 70
     1
102
RTVSPropertyOp21
 70
     1
102
RTVSPropertyOp22
 70
     1
102
RTVSPropertyOp23
 70
     1
102
RTVSPropertyOp24
 70
     1
102
RTVSPropertyOp25
 70
     1
102
RTVSPropertyOp26
 70
     1
102
RTVSPropertyOp27
 70
     1
  0
XRECORD
  5
4AB
102
{ACAD_REACTORS
330
4AA
102
}
330
4AA
100
AcDbXrecord
280
     1
102
RTVSPropertyOp0
 70
     1
102
RTVSPropertyOp1
 70
     1
102
RTVSPropertyOp2
 70
     1
102
RTVSPropertyOp3
 70
     1
102
RTVSPropertyOp4
 70
     1
102
RTVSPropertyOp5
 70
     1
102
RTVSPropertyOp6
 70
     1
102
RTVSPropertyOp7
 70
     1
102
RTVSPropertyOp8
 70
     1
102
RTVSPropertyOp9
 70
     1
102
RTVSPropertyOp10
 70
     1
102
RTVSPropertyOp11
 70
     1
102
RTVSPropertyOp12
 70
     1
102
RTVSPropertyOp13
 70
     1
102
RTVSPropertyOp14
 70
     1
102
RTVSPropertyOp15
 70
     1
102
RTVSPropertyOp16
 70
     1
102
RTVSPropertyOp17
 70
     1
102
RTVSPropertyOp18
 70
     1
102
RTVSPropertyOp19
 70
     1
102
RTVSPropertyOp20
 70
     1
102
RTVSPropertyOp21
 70
     1
102
RTVSPropertyOp22
 70
     1
102
RTVSPropertyOp23
 70
     1
102
RTVSPropertyOp24
 70
     1
102
RTVSPropertyOp25
 70
     1
102
RTVSPropertyOp26
 70
     1
102
RTVSPropertyOp27
 70
     1
  0
ENDSEC
  0
EOF
