  0
SECTION
  2
HEADER
  9
$ACADVER
  1
AC1018
  9
$ACADMAINTVER
 70
   104
  9
$DWGCODEPAGE
  3
ANSI_1250
  9
$LASTSAVEDBY
  1
bonzo
  9
$INSBASE
 10
0.0
 20
0.0
 30
0.0
  9
$EXTMIN
 10
7.510831028854121
 20
3.899580651671041
 30
0.0
  9
$EXTMAX
 10
12.60137050671899
 20
10.5853178087511
 30
0.0
  9
$LIMMIN
 10
0.0
 20
0.0
  9
$LIMMAX
 10
12.0
 20
9.0
  9
$ORTHOMODE
 70
     1
  9
$REGENMODE
 70
     1
  9
$FILLMODE
 70
     1
  9
$QTEXTMODE
 70
     0
  9
$MIRRTEXT
 70
     1
  9
$LTSCALE
 40
1.0
  9
$ATTMODE
 70
     1
  9
$TEXTSIZE
 40
0.2
  9
$TRACEWID
 40
0.05
  9
$TEXTSTYLE
  7
Standard
  9
$CLAYER
  8
WYMIAR
  9
$CELTYPE
  6
ByLayer
  9
$CECOLOR
 62
   256
  9
$CELTSCALE
 40
1.0
  9
$DISPSILH
 70
     0
  9
$DIMSCALE
 40
0.02
  9
$DIMASZ
 40
3.0
  9
$DIMEXO
 40
20.0
  9
$DIMDLI
 40
0.0
  9
$DIMRND
 40
0.1
  9
$DIMDLE
 40
0.0
  9
$DIMEXE
 40
5.0
  9
$DIMTP
 40
0.0
  9
$DIMTM
 40
0.0
  9
$DIMTXT
 40
9.0
  9
$DIMCEN
 40
12.0
  9
$DIMTSZ
 40
0.0
  9
$DIMTOL
 70
     0
  9
$DIMLIM
 70
     0
  9
$DIMTIH
 70
     0
  9
$DIMTOH
 70
     0
  9
$DIMSE1
 70
     1
  9
$DIMSE2
 70
     1
  9
$DIMTAD
 70
     1
  9
$DIMZIN
 70
     1
  9
$DIMBLK
  1

  9
$DIMASO
 70
     1
  9
$DIMSHO
 70
     1
  9
$DIMPOST
  1

  9
$DIMAPOST
  1

  9
$DIMALT
 70
     0
  9
$DIMALTD
 70
     4
  9
$DIMALTF
 40
1.0
  9
$DIMLFAC
 40
1.0
  9
$DIMTOFL
 70
     1
  9
$DIMTVP
 40
0.0
  9
$DIMTIX
 70
     1
  9
$DIMSOXD
 70
     0
  9
$DIMSAH
 70
     1
  9
$DIMBLK1
  1
MAR-STRZ
  9
$DIMBLK2
  1
MAR-STRZ
  9
$DIMSTYLE
  2
AR SKALA 1-50
  9
$DIMCLRD
 70
   256
  9
$DIMCLRE
 70
   256
  9
$DIMCLRT
 70
   256
  9
$DIMTFAC
 40
0.01
  9
$DIMGAP
 40
6.0
  9
$DIMJUST
 70
     0
  9
$DIMSD1
 70
     0
  9
$DIMSD2
 70
     0
  9
$DIMTOLJ
 70
     1
  9
$DIMTZIN
 70
     0
  9
$DIMALTZ
 70
     0
  9
$DIMALTTZ
 70
     0
  9
$DIMUPT
 70
     0
  9
$DIMDEC
 70
     2
  9
$DIMTDEC
 70
     2
  9
$DIMALTU
 70
     2
  9
$DIMALTTD
 70
     4
  9
$DIMTXSTY
  7
AR 01 SWIS
  9
$DIMAUNIT
 70
     0
  9
$DIMADEC
 70
     1
  9
$DIMALTRND
 40
0.0
  9
$DIMAZIN
 70
     0
  9
$DIMDSEP
 70
    46
  9
$DIMATFIT
 70
     3
  9
$DIMFRAC
 70
     0
  9
$DIMLDRBLK
  1
MAR-STRZ
  9
$DIMLUNIT
 70
     2
  9
$DIMLWD
 70
    -2
  9
$DIMLWE
 70
    -2
  9
$DIMTMOVE
 70
     2
  9
$LUNITS
 70
     2
  9
$LUPREC
 70
     4
  9
$SKETCHINC
 40
0.1
  9
$FILLETRAD
 40
0.0
  9
$AUNITS
 70
     0
  9
$AUPREC
 70
     0
  9
$MENU
  1
.
  9
$ELEVATION
 40
0.0
  9
$PELEVATION
 40
0.0
  9
$THICKNESS
 40
0.0
  9
$LIMCHECK
 70
     0
  9
$CHAMFERA
 40
0.5
  9
$CHAMFERB
 40
0.5
  9
$CHAMFERC
 40
1.0
  9
$CHAMFERD
 40
0.0
  9
$SKPOLY
 70
     0
  9
$TDCREATE
 40
2455956.499359827
  9
$TDUCREATE
 40
2455956.416026493
  9
$TDUPDATE
 40
2459311.313095544
  9
$TDUUPDATE
 40
2459311.229762211
  9
$TDINDWG
 40
0.0991926620
  9
$TDUSRTIMER
 40
0.0991926620
  9
$USRTIMER
 70
     1
  9
$ANGBASE
 50
0.0
  9
$ANGDIR
 70
     0
  9
$PDMODE
 70
     0
  9
$PDSIZE
 40
0.0
  9
$PLINEWID
 40
0.0
  9
$SPLFRAME
 70
     0
  9
$SPLINETYPE
 70
     6
  9
$SPLINESEGS
 70
     8
  9
$HANDSEED
  5
41F8
  9
$SURFTAB1
 70
     6
  9
$SURFTAB2
 70
     6
  9
$SURFTYPE
 70
     6
  9
$SURFU
 70
     6
  9
$SURFV
 70
     6
  9
$UCSBASE
  2

  9
$UCSNAME
  2

  9
$UCSORG
 10
0.0
 20
0.0
 30
0.0
  9
$UCSXDIR
 10
1.0
 20
0.0
 30
0.0
  9
$UCSYDIR
 10
0.0
 20
1.0
 30
0.0
  9
$UCSORTHOREF
  2

  9
$UCSORTHOVIEW
 70
     0
  9
$UCSORGTOP
 10
0.0
 20
0.0
 30
0.0
  9
$UCSORGBOTTOM
 10
0.0
 20
0.0
 30
0.0
  9
$UCSORGLEFT
 10
0.0
 20
0.0
 30
0.0
  9
$UCSORGRIGHT
 10
0.0
 20
0.0
 30
0.0
  9
$UCSORGFRONT
 10
0.0
 20
0.0
 30
0.0
  9
$UCSORGBACK
 10
0.0
 20
0.0
 30
0.0
  9
$PUCSBASE
  2

  9
$PUCSNAME
  2

  9
$PUCSORG
 10
0.0
 20
0.0
 30
0.0
  9
$PUCSXDIR
 10
1.0
 20
0.0
 30
0.0
  9
$PUCSYDIR
 10
0.0
 20
1.0
 30
0.0
  9
$PUCSORTHOREF
  2

  9
$PUCSORTHOVIEW
 70
     0
  9
$PUCSORGTOP
 10
0.0
 20
0.0
 30
0.0
  9
$PUCSORGBOTTOM
 10
0.0
 20
0.0
 30
0.0
  9
$PUCSORGLEFT
 10
0.0
 20
0.0
 30
0.0
  9
$PUCSORGRIGHT
 10
0.0
 20
0.0
 30
0.0
  9
$PUCSORGFRONT
 10
0.0
 20
0.0
 30
0.0
  9
$PUCSORGBACK
 10
0.0
 20
0.0
 30
0.0
  9
$USERI1
 70
     0
  9
$USERI2
 70
     0
  9
$USERI3
 70
     0
  9
$USERI4
 70
     0
  9
$USERI5
 70
     0
  9
$USERR1
 40
0.0
  9
$USERR2
 40
0.0
  9
$USERR3
 40
0.0
  9
$USERR4
 40
0.0
  9
$USERR5
 40
0.0
  9
$WORLDVIEW
 70
     1
  9
$SHADEDGE
 70
     3
  9
$SHADEDIF
 70
    70
  9
$TILEMODE
 70
     1
  9
$MAXACTVP
 70
    64
  9
$PINSBASE
 10
0.0
 20
0.0
 30
0.0
  9
$PLIMCHECK
 70
     0
  9
$PEXTMIN
 10
6.561544945354853
 20
3.282189374834842
 30
0.0
  9
$PEXTMAX
 10
296.6096419909582
 20
206.4421558651099
 30
0.0
  9
$PLIMMIN
 10
3.386557152386103
 20
0.1071894225185588
  9
$PLIMMAX
 10
300.4395661855892
 20
209.9958460387295
  9
$UNITMODE
 70
     0
  9
$VISRETAIN
 70
     1
  9
$PLINEGEN
 70
     0
  9
$PSLTSCALE
 70
     0
  9
$TREEDEPTH
 70
  3020
  9
$CMLSTYLE
  2
Standard
  9
$CMLJUST
 70
     0
  9
$CMLSCALE
 40
1.0
  9
$PROXYGRAPHICS
 70
     1
  9
$MEASUREMENT
 70
     0
  9
$CELWEIGHT
370
    -1
  9
$ENDCAPS
280
     0
  9
$JOINSTYLE
280
     0
  9
$LWDISPLAY
290
     0
  9
$INSUNITS
 70
     1
  9
$HYPERLINKBASE
  1

  9
$STYLESHEET
  1

  9
$XEDIT
290
     1
  9
$CEPSNTYPE
380
     0
  9
$PSTYLEMODE
290
     1
  9
$FINGERPRINTGUID
  2
{1B330B5B-CE04-4EC8-B886-8C8BFC3A02BF}
  9
$VERSIONGUID
  2
{9BFD4C0B-C0E5-4242-B16A-0126CC9FB713}
  9
$EXTNAMES
290
     1
  9
$PSVPSCALE
 40
0.0
  9
$OLESTARTUP
290
     0
  9
$SORTENTS
280
   127
  9
$INDEXCTL
280
     0
  9
$HIDETEXT
280
     1
  9
$XCLIPFRAME
290
     0
  9
$HALOGAP
280
     0
  9
$OBSCOLOR
 70
   257
  9
$OBSLTYPE
280
     0
  9
$INTERSECTIONDISPLAY
280
     0
  9
$INTERSECTIONCOLOR
 70
   257
  9
$DIMASSOC
280
     2
  9
$PROJECTNAME
  1

  0
ENDSEC
  0
SECTION
  2
CLASSES
  0
CLASS
  1
ACDBDICTIONARYWDFLT
  2
AcDbDictionaryWithDefault
  3
ObjectDBX Classes
 90
        0
 91
        1
280
     0
281
     0
  0
CLASS
  1
VISUALSTYLE
  2
AcDbVisualStyle
  3
ObjectDBX Classes
 90
     4095
 91
       16
280
     0
281
     0
  0
CLASS
  1
MATERIAL
  2
AcDbMaterial
  3
ObjectDBX Classes
 90
     1153
 91
        3
280
     0
281
     0
  0
CLASS
  1
DICTIONARYVAR
  2
AcDbDictionaryVar
  3
ObjectDBX Classes
 90
        0
 91
        9
280
     0
281
     0
  0
CLASS
  1
TABLESTYLE
  2
AcDbTableStyle
  3
ObjectDBX Classes
 90
     4095
 91
        1
280
     0
281
     0
  0
CLASS
  1
SORTENTSTABLE
  2
AcDbSortentsTable
  3
ObjectDBX Classes
 90
        0
 91
        1
280
     0
281
     0
  0
CLASS
  1
DIMASSOC
  2
AcDbDimAssoc
  3
"AcDbDimAssoc|Product Desc:     AcDim ARX App For Dimension|Company:          Autodesk, Inc.|WEB Address:      www.autodesk.com"
 90
        0
 91
        2
280
     0
281
     0
  0
CLASS
  1
SCALE
  2
AcDbScale
  3
ObjectDBX Classes
 90
     1153
 91
       33
280
     0
281
     0
  0
CLASS
  1
MLEADERSTYLE
  2
AcDbMLeaderStyle
  3
ACDB_MLEADERSTYLE_CLASS
 90
     4095
 91
        1
280
     0
281
     0
  0
CLASS
  1
CELLSTYLEMAP
  2
AcDbCellStyleMap
  3
ObjectDBX Classes
 90
     1152
 91
        2
280
     0
281
     0
  0
ENDSEC
  0
SECTION
  2
TABLES
  0
TABLE
  2
VPORT
  5
8
102
{ACAD_XDICTIONARY
360
84C
102
}
330
0
100
AcDbSymbolTable
 70
     1
  0
VPORT
  5
29
330
8
100
AcDbSymbolTableRecord
100
AcDbViewportTableRecord
  2
*Active
 70
     0
 10
0.0
 20
0.0
 11
1.0
 21
1.0
 12
9.485194769003831
 22
7.465182656747565
 13
0.0
 23
0.0
 14
0.5
 24
0.5
 15
0.5
 25
0.5
 16
0.0
 26
0.0
 36
1.0
 17
0.0
 27
0.0
 37
-1000.0
 40
7.938428333019277
 41
2.060556464811783
 42
50.0
 43
4.148984367261674
 44
9.217858496371269
 50
0.0
 51
0.0
 71
     0
 72
   100
 73
     1
 74
     3
 75
     0
 76
     0
 77
     0
 78
     0
281
     0
 65
     1
110
0.0
120
0.0
130
0.0
111
1.0
121
0.0
131
0.0
112
0.0
122
1.0
132
0.0
 79
     0
146
0.0
  0
ENDTAB
  0
TABLE
  2
LTYPE
  5
5
330
0
100
AcDbSymbolTable
 70
     2
  0
LTYPE
  5
14
330
5
100
AcDbSymbolTableRecord
100
AcDbLinetypeTableRecord
  2
ByBlock
 70
     0
  3

 72
    65
 73
     0
 40
0.0
  0
LTYPE
  5
15
330
5
100
AcDbSymbolTableRecord
100
AcDbLinetypeTableRecord
  2
ByLayer
 70
     0
  3

 72
    65
 73
     0
 40
0.0
  0
LTYPE
  5
16
330
5
100
AcDbSymbolTableRecord
100
AcDbLinetypeTableRecord
  2
Continuous
 70
     0
  3
Solid line
 72
    65
 73
     0
 40
0.0
  0
LTYPE
  5
886
330
5
100
AcDbSymbolTableRecord
100
AcDbLinetypeTableRecord
  2
DASHED
 70
     0
  3
Dashed __ __ __ __ __ __ __ __ __ __ __ __ __ _
 72
    65
 73
     2
 40
0.75
 49
0.5
 74
     0
 49
-0.25
 74
     0
  0
ENDTAB
  0
TABLE
  2
LAYER
  5
2
102
{ACAD_XDICTIONARY
360
7D1
102
}
330
0
100
AcDbSymbolTable
 70
     4
  0
LAYER
  5
10
102
{ACAD_XDICTIONARY
360
39A4
102
}
330
2
100
AcDbSymbolTableRecord
100
AcDbLayerTableRecord
  2
0
 70
     0
 62
     7
  6
Continuous
370
    80
390
F
  0
LAYER
  5
87B
102
{ACAD_XDICTIONARY
360
39A6
102
}
330
2
100
AcDbSymbolTableRecord
100
AcDbLayerTableRecord
  2
STREFA BEZPIECZEŃSTWA
 70
     0
 62
     7
  6
DASHED
370
    80
390
F
1001
AcAecLayerStandard
1000

1000

  0
LAYER
  5
87D
102
{ACAD_XDICTIONARY
360
39A8
102
}
330
2
100
AcDbSymbolTableRecord
100
AcDbLayerTableRecord
  2
WYMIAR
 70
     0
 62
     7
  6
Continuous
370
    80
390
F
1001
AcAecLayerStandard
1000

1000

  0
LAYER
  5
8CC
330
2
100
AcDbSymbolTableRecord
100
AcDbLayerTableRecord
  2
Defpoints
 70
     0
 62
     7
  6
Continuous
290
     0
370
    80
390
F
1001
RAK
1000
{ACET-LAYISO
1070
     0
1070
     7
1000
Continuous
1071
        5
1071
        0
1005
F
1000
ACET-LAYISO}
  0
ENDTAB
  0
TABLE
  2
STYLE
  5
3
330
0
100
AcDbSymbolTable
 70
     2
  0
STYLE
  5
11
330
3
100
AcDbSymbolTableRecord
100
AcDbTextStyleTableRecord
  2
Standard
 70
     0
 40
0.0
 41
1.0
 50
0.0
 71
     0
 42
0.2
  3
txt
  4

  0
STYLE
  5
8CE
330
3
100
AcDbSymbolTableRecord
100
AcDbTextStyleTableRecord
  2
AR 01 SWIS
 70
     0
 40
0.0
 41
1.0
 50
0.0
 71
     0
 42
55.0
  3

  4

1001
ACAD
1000
Swis721 Cn BT
1071
       34
  0
ENDTAB
  0
TABLE
  2
VIEW
  5
6
330
0
100
AcDbSymbolTable
 70
     0
  0
ENDTAB
  0
TABLE
  2
UCS
  5
7
330
0
100
AcDbSymbolTable
 70
     0
  0
ENDTAB
  0
TABLE
  2
APPID
  5
9
330
0
100
AcDbSymbolTable
 70
     9
  0
APPID
  5
12
330
9
100
AcDbSymbolTableRecord
100
AcDbRegAppTableRecord
  2
ACAD
 70
     0
  0
APPID
  5
7CB
330
9
100
AcDbSymbolTableRecord
100
AcDbRegAppTableRecord
  2
ACAD_PSEXT
 70
     0
  0
APPID
  5
875
330
9
100
AcDbSymbolTableRecord
100
AcDbRegAppTableRecord
  2
ACAD_EXEMPT_FROM_CAD_STANDARDS
 70
     0
  0
APPID
  5
87C
330
9
100
AcDbSymbolTableRecord
100
AcDbRegAppTableRecord
  2
AcAecLayerStandard
 70
     0
  0
APPID
  5
8D4
330
9
100
AcDbSymbolTableRecord
100
AcDbRegAppTableRecord
  2
RAK
 70
     0
  0
APPID
  5
8D5
330
9
100
AcDbSymbolTableRecord
100
AcDbRegAppTableRecord
  2
ACAD_DSTYLE_DIMJOGGED_JOGANGLE_SYMBOL
 70
     0
  0
APPID
  5
8D6
330
9
100
AcDbSymbolTableRecord
100
AcDbRegAppTableRecord
  2
ACAD_DSTYLE_DIMJAG
 70
     0
  0
APPID
  5
8D7
330
9
100
AcDbSymbolTableRecord
100
AcDbRegAppTableRecord
  2
ACAD_DSTYLE_DIMTALN
 70
     0
  0
APPID
  5
3996
330
9
100
AcDbSymbolTableRecord
100
AcDbRegAppTableRecord
  2
ACAD_MLEADERVER
 70
     0
  0
ENDTAB
  0
TABLE
  2
DIMSTYLE
  5
A
330
0
100
AcDbSymbolTable
 70
     2
100
AcDbDimStyleTable
 71
     1
340
8CF
  0
DIMSTYLE
105
8CF
102
{ACAD_REACTORS
330
41AD
330
41C1
102
}
330
A
100
AcDbSymbolTableRecord
100
AcDbDimStyleTableRecord
  2
AR SKALA 1-50
 70
     0
 40
0.02
 41
3.0
 42
20.0
 43
0.0
 44
5.0
 45
0.1
 73
     0
 74
     0
 75
     1
 76
     1
 77
     1
 78
     1
140
9.0
141
12.0
143
1.0
146
0.01
147
6.0
171
     4
172
     1
173
     1
174
     1
176
   256
177
   256
178
   256
179
     1
271
     2
272
     2
274
     4
279
     2
340
8CE
341
8BC
343
8BC
344
8BC
  0
DIMSTYLE
105
A46
330
A
100
AcDbSymbolTableRecord
100
AcDbDimStyleTableRecord
  2
Standard
 70
     0
340
11
  0
ENDTAB
  0
TABLE
  2
BLOCK_RECORD
  5
1
330
0
100
AcDbSymbolTable
 70
     5
  0
BLOCK_RECORD
  5
1F
102
{ACAD_XDICTIONARY
360
5F8
102
}
330
1
100
AcDbSymbolTableRecord
100
AcDbBlockTableRecord
  2
*Model_Space
340
22
  0
BLOCK_RECORD
  5
1B
330
1
100
AcDbSymbolTableRecord
100
AcDbBlockTableRecord
  2
*Paper_Space
340
1E
  0
BLOCK_RECORD
  5
8BC
330
1
100
AcDbSymbolTableRecord
100
AcDbBlockTableRecord
  2
MAR-STRZ
340
0
310
2800000020000000200000000100080000000000000400000000000000000000000000000000000000000000000080000080000000808000800000008000800080800000C0C0C000C0DCC000F0CAA6000020400000206000002080000020A0000020C0000020E00000400000004020000040400000406000004080000040A0
310
000040C0000040E00000600000006020000060400000606000006080000060A0000060C0000060E00000800000008020000080400000806000008080000080A0000080C0000080E00000A0000000A0200000A0400000A0600000A0800000A0A00000A0C00000A0E00000C0000000C0200000C0400000C0600000C0800000C0
310
A00000C0C00000C0E00000E0000000E0200000E0400000E0600000E0800000E0A00000E0C00000E0E00040000000400020004000400040006000400080004000A0004000C0004000E00040200000402020004020400040206000402080004020A0004020C0004020E000404000004040200040404000404060004040800040
310
40A0004040C0004040E00040600000406020004060400040606000406080004060A0004060C0004060E00040800000408020004080400040806000408080004080A0004080C0004080E00040A0000040A0200040A0400040A0600040A0800040A0A00040A0C00040A0E00040C0000040C0200040C0400040C0600040C08000
310
40C0A00040C0C00040C0E00040E0000040E0200040E0400040E0600040E0800040E0A00040E0C00040E0E00080000000800020008000400080006000800080008000A0008000C0008000E00080200000802020008020400080206000802080008020A0008020C0008020E00080400000804020008040400080406000804080
310
008040A0008040C0008040E00080600000806020008060400080606000806080008060A0008060C0008060E00080800000808020008080400080806000808080008080A0008080C0008080E00080A0000080A0200080A0400080A0600080A0800080A0A00080A0C00080A0E00080C0000080C0200080C0400080C0600080C0
310
800080C0A00080C0C00080C0E00080E0000080E0200080E0400080E0600080E0800080E0A00080E0C00080E0E000C0000000C0002000C0004000C0006000C0008000C000A000C000C000C000E000C0200000C0202000C0204000C0206000C0208000C020A000C020C000C020E000C0400000C0402000C0404000C0406000C0
310
408000C040A000C040C000C040E000C0600000C0602000C0604000C0606000C0608000C060A000C060C000C060E000C0800000C0802000C0804000C0806000C0808000C080A000C080C000C080E000C0A00000C0A02000C0A04000C0A06000C0A08000C0A0A000C0A0C000C0A0E000C0C00000C0C02000C0C04000C0C06000
310
C0C08000C0C0A000F0FBFF00A4A0A000808080000000FF0000FF000000FFFF00FF000000FF00FF00FFFF0000FFFFFF00000000000000000000000000000000000000000000000000000000000000000000000000000000000000000000000000FF000000000000000000000000000000000000000000000000000000000000
310
00FF00000000000000000000000000000000000000000000000000000000000000FF00000000000000000000000000000000000000000000000000000000000000FF00000000000000000000000000000000000000000000000000000000000000FF000000000000000000000000000000000000000000F900000000000000
310
0000FF00000000000000000000000000000000000000000000F90000000000000000FF0000000000000000000000000000000000000000000000F900000000000000FF000000000000000000000000000000000000000000000000F9000000000000FF00000000000000000000000000000000000000000000000000F90000
310
000000FF0000000000000000000000000000000000000000000000000000F900000000FF000000000000000000000000000000000000000000000000000000F9000000FF00000000000000000000000000000000000000000000000000000000F90000FF000000000000000000000000000000000000000000000000000000
310
0000F900FF000000000000000000000000000000000000000000000000000000000000F9FF00000000000000000000000000000000000000000000FFFFFFFFFFFFFFFFFFFFFFFFFFFFFFFFFFFF0000000000000000000000000000000000000000000000FFF900000000000000000000000000000000000000000000000000
310
0000000000FF00F90000000000000000000000000000000000000000000000000000000000FF0000F900000000000000000000000000000000000000000000000000000000FF000000F9000000000000000000000000000000000000000000000000000000FF00000000F90000000000000000000000000000000000000000
310
000000000000FF0000000000F900000000000000000000000000000000000000000000000000FF000000000000F9000000000000000000000000000000000000000000000000FF00000000000000F90000000000000000000000000000000000000000000000FF0000000000000000F9000000000000000000000000000000
310
00000000000000FF00000000000000000000000000000000000000000000000000000000000000FF00000000000000000000000000000000000000000000000000000000000000FF00000000000000000000000000000000000000000000000000000000000000FF0000000000000000000000000000000000000000000000
310
0000000000000000FF0000000000000000000000000000000000000000000000000000000000000000000000000000000000000000000000
102
{BLKREFS
331
3908
331
3909
331
3921
331
3922
331
41BA
331
41BB
331
41CE
331
41CF
102
}
  0
BLOCK_RECORD
  5
41AE
330
1
100
AcDbSymbolTableRecord
100
AcDbBlockTableRecord
  2
*D3
340
0
  0
BLOCK_RECORD
  5
41C2
330
1
100
AcDbSymbolTableRecord
100
AcDbBlockTableRecord
  2
*D4
340
0
  0
ENDTAB
  0
ENDSEC
  0
SECTION
  2
BLOCKS
  0
BLOCK
  5
20
330
1F
100
AcDbEntity
  8
0
100
AcDbBlockBegin
  2
*Model_Space
 70
     0
 10
0.0
 20
0.0
 30
0.0
  3
*Model_Space
  1

  0
ENDBLK
  5
21
330
1F
100
AcDbEntity
  8
0
100
AcDbBlockEnd
  0
BLOCK
  5
1C
330
1B
100
AcDbEntity
 67
     1
  8
0
100
AcDbBlockBegin
  2
*Paper_Space
 70
     0
 10
0.0
 20
0.0
 30
0.0
  3
*Paper_Space
  1

  0
ENDBLK
  5
1D
330
1B
100
AcDbEntity
 67
     1
  8
0
100
AcDbBlockEnd
  0
BLOCK
  5
8BD
330
8BC
100
AcDbEntity
  8
0
100
AcDbBlockBegin
  2
MAR-STRZ
 70
     0
 10
0.0
 20
0.0
 30
0.0
  3
MAR-STRZ
  1

  0
LINE
  5
8BE
330
8BC
100
AcDbEntity
  8
0
100
AcDbLine
 10
0.0
 20
2.299999999999272
 30
0.0
 11
0.0
 21
-2.299999999999272
 31
0.0
  0
LINE
  5
8BF
330
8BC
100
AcDbEntity
  8
0
 62
    10
100
AcDbLine
 10
1.5
 20
1.5
 30
0.0
 11
-1.5
 21
-1.5
 31
0.0
  0
LINE
  5
8C0
330
8BC
100
AcDbEntity
  8
0
100
AcDbLine
 10
1.399999999999636
 20
0.0
 30
0.0
 11
-1.399999999999636
 21
0.0
 31
0.0
  0
ENDBLK
  5
8C1
330
8BC
100
AcDbEntity
  8
0
100
AcDbBlockEnd
  0
BLOCK
  5
41AF
330
41AE
100
AcDbEntity
  8
0
100
AcDbBlockBegin
  2
*D3
 70
     1
 10
0.0
 20
0.0
 30
0.0
  3
*D3
  1

  0
LINE
  5
41B9
330
41AE
100
AcDbEntity
  8
WYMIAR
370
    -2
100
AcDbLine
 10
12.45137050671899
 20
10.23301261394591
 30
0.0
 11
8.471370506718988
 21
10.23301261394591
 31
0.0
  0
INSERT
  5
41BA
330
41AE
100
AcDbEntity
  8
WYMIAR
370
    -2
100
AcDbBlockReference
  2
MAR-STRZ
 10
12.51137050671899
 20
10.23301261394591
 30
0.0
 41
0.06
 42
0.06
 43
0.06
  0
INSERT
  5
41BB
330
41AE
100
AcDbEntity
  8
WYMIAR
370
    -2
100
AcDbBlockReference
  2
MAR-STRZ
 10
8.411370506718988
 20
10.23301261394591
 30
0.0
 41
0.06
 42
0.06
 43
0.06
 50
180.0
  0
MTEXT
  5
41BC
330
41AE
100
AcDbEntity
  8
WYMIAR
100
AcDbMText
 10
10.46137050671899
 20
10.44301261394591
 30
0.0
 40
0.18
 41
0.0
 71
     5
 72
     1
  1
\A1;4.10
  7
AR 01 SWIS
 73
     1
 44
1.0
  0
POINT
  5
41BD
330
41AE
100
AcDbEntity
  8
Defpoints
 62
     0
100
AcDbPoint
 10
12.51137050671899
 20
9.827971923590817
 30
0.0
  0
POINT
  5
41BE
330
41AE
100
AcDbEntity
  8
Defpoints
 62
     0
100
AcDbPoint
 10
8.411370506718988
 20
9.827971923590819
 30
0.0
  0
POINT
  5
41BF
330
41AE
100
AcDbEntity
  8
Defpoints
 62
     0
100
AcDbPoint
 10
8.411370506718988
 20
10.23301261394591
 30
0.0
  0
ENDBLK
  5
41B0
330
41AE
100
AcDbEntity
  8
0
100
AcDbBlockEnd
  0
BLOCK
  5
41C3
330
41C2
100
AcDbEntity
  8
0
100
AcDbBlockBegin
  2
*D4
 70
     1
 10
0.0
 20
0.0
 30
0.0
  3
*D4
  1

  0
LINE
  5
41CD
330
41C2
100
AcDbEntity
  8
WYMIAR
370
    -2
100
AcDbLine
 10
7.863136223659318
 20
9.767971923590819
 30
0.0
 11
7.863136223659317
 21
4.587971923590818
 31
0.0
  0
INSERT
  5
41CE
330
41C2
100
AcDbEntity
  8
WYMIAR
370
    -2
100
AcDbBlockReference
  2
MAR-STRZ
 10
7.863136223659318
 20
9.827971923590819
 30
0.0
 41
0.06
 42
0.06
 43
0.06
 50
90.0
  0
INSERT
  5
41CF
330
41C2
100
AcDbEntity
  8
WYMIAR
370
    -2
100
AcDbBlockReference
  2
MAR-STRZ
 10
7.863136223659317
 20
4.527971923590818
 30
0.0
 41
0.06
 42
0.06
 43
0.06
 50
270.0
  0
MTEXT
  5
41D0
330
41C2
100
AcDbEntity
  8
WYMIAR
100
AcDbMText
 10
7.653136223659316
 20
7.17797192359082
 30
0.0
 40
0.18
 41
0.0
 71
     5
 72
     1
  1
\A1;5.30
  7
AR 01 SWIS
 11
0.0000000000000001
 21
1.0
 31
0.0
 73
     1
 44
1.0
  0
POINT
  5
41D1
330
41C2
100
AcDbEntity
  8
Defpoints
 62
     0
100
AcDbPoint
 10
8.411370506718988
 20
9.827971923590819
 30
0.0
  0
POINT
  5
41D2
330
41C2
100
AcDbEntity
  8
Defpoints
 62
     0
100
AcDbPoint
 10
8.411370506718988
 20
4.527971923590818
 30
0.0
  0
POINT
  5
41D3
330
41C2
100
AcDbEntity
  8
Defpoints
 62
     0
100
AcDbPoint
 10
7.863136223659317
 20
4.527971923590818
 30
0.0
  0
ENDBLK
  5
41C4
330
41C2
100
AcDbEntity
  8
0
100
AcDbBlockEnd
  0
ENDSEC
  0
SECTION
  2
ENTITIES
  0
LINE
  5
4038
330
1F
100
AcDbEntity
  8
STREFA BEZPIECZEŃSTWA
100
AcDbLine
 10
8.411370506718988
 20
4.527971923590818
 30
0.0
 11
12.51137050671899
 21
4.527971923590818
 31
0.0
  0
LINE
  5
4039
330
1F
100
AcDbEntity
  8
STREFA BEZPIECZEŃSTWA
100
AcDbLine
 10
12.51137050671899
 20
4.527971923590818
 30
0.0
 11
12.51137050671899
 21
9.827971923590817
 31
0.0
  0
LINE
  5
403A
102
{ACAD_REACTORS
330
41C0
102
}
330
1F
100
AcDbEntity
  8
STREFA BEZPIECZEŃSTWA
100
AcDbLine
 10
12.51137050671899
 20
9.827971923590817
 30
0.0
 11
8.411370506718988
 21
9.827971923590819
 31
0.0
  0
LINE
  5
403B
102
{ACAD_REACTORS
330
41C0
330
41D4
102
}
330
1F
100
AcDbEntity
  8
STREFA BEZPIECZEŃSTWA
100
AcDbLine
 10
8.411370506718988
 20
9.827971923590819
 30
0.0
 11
8.411370506718988
 21
4.527971923590818
 31
0.0
  0
LINE
  5
403C
330
1F
100
AcDbEntity
  8
0
100
AcDbLine
 10
10.81710938113281
 20
8.311178986819061
 30
0.0
 11
10.81710938113281
 21
8.19978152840232
 31
0.0
  0
LINE
  5
403D
330
1F
100
AcDbEntity
  8
0
100
AcDbLine
 10
10.81710938113281
 20
8.090032079680428
 30
0.0
 11
10.81710938113281
 21
7.981971017773842
 31
0.0
  0
LINE
  5
403E
330
1F
100
AcDbEntity
  8
0
100
AcDbLine
 10
10.81710938113281
 20
7.863823867872769
 30
0.0
 11
10.81710938113281
 21
7.752166971134892
 31
0.0
  0
LINE
  5
403F
330
1F
100
AcDbEntity
  8
0
100
AcDbLine
 10
10.81710938113281
 20
7.638201417190794
 30
0.0
 11
10.81710938113281
 21
7.522697903206518
 31
0.0
  0
LINE
  5
4040
330
1F
100
AcDbEntity
  8
0
100
AcDbLine
 10
10.81710938113281
 20
7.416733741048073
 30
0.0
 11
10.81710938113281
 21
7.403677680838862
 31
0.0
  0
LINE
  5
4041
330
1F
100
AcDbEntity
  8
0
100
AcDbLine
 10
10.99516245723739
 20
8.312882695504608
 30
0.0
 11
10.99516245723739
 21
8.311178986819061
 31
0.0
  0
LINE
  5
4042
330
1F
100
AcDbEntity
  8
0
100
AcDbLine
 10
10.99142098865631
 20
5.960721169945522
 30
0.0
 11
11.01142098865631
 21
5.960721169945522
 31
0.0
  0
LINE
  5
4043
330
1F
100
AcDbEntity
  8
0
100
AcDbLine
 10
9.998869458948234
 20
7.481915630072512
 30
0.0
 11
9.978869458948235
 21
7.481915630072512
 31
0.0
  0
LINE
  5
4044
330
1F
100
AcDbEntity
  8
0
100
AcDbLine
 10
10.67177974352247
 20
8.311178986819061
 30
0.0
 11
10.67177974352247
 21
7.403677680838862
 31
0.0
  0
LINE
  5
4045
330
1F
100
AcDbEntity
  8
0
100
AcDbLine
 10
10.73523730734833
 20
8.311178986819061
 30
0.0
 11
10.73523730734833
 21
7.403677680838862
 31
0.0
  0
LINE
  5
4046
330
1F
100
AcDbEntity
  8
0
100
AcDbLine
 10
9.986717279970765
 20
5.960721169945522
 30
0.0
 11
9.966717279970765
 21
5.960721169945522
 31
0.0
  0
LINE
  5
4047
330
1F
100
AcDbEntity
  8
0
100
AcDbLine
 10
9.999669458948236
 20
8.225844972060157
 30
0.0
 11
9.982469458948237
 21
8.225844972060157
 31
0.0
  0
LINE
  5
4048
330
1F
100
AcDbEntity
  8
0
100
AcDbLine
 10
9.999669458948236
 20
8.49986226630045
 30
0.0
 11
9.982469458948237
 21
8.49986226630045
 31
0.0
  0
LINE
  5
4049
330
1F
100
AcDbEntity
  8
0
100
AcDbLine
 10
9.982469458948237
 20
8.371416659625314
 30
0.0
 11
9.973869458948236
 21
8.371416659625314
 31
0.0
  0
LINE
  5
404A
330
1F
100
AcDbEntity
  8
0
100
AcDbLine
 10
9.982469458948237
 20
8.354290578735295
 30
0.0
 11
9.973869458948236
 21
8.354290578735295
 31
0.0
  0
LINE
  5
404B
330
1F
100
AcDbEntity
  8
0
100
AcDbLine
 10
10.22178837944138
 20
8.311178986819061
 30
0.0
 11
10.22178837944138
 21
7.403677680838864
 31
0.0
  0
LINE
  5
404C
330
1F
100
AcDbEntity
  8
0
100
AcDbLine
 10
9.934486824630234
 20
7.383080127006197
 30
0.0
 11
9.940974032133294
 21
7.384443093954635
 31
0.0
  0
LINE
  5
404D
330
1F
100
AcDbEntity
  8
0
100
AcDbLine
 10
9.928441709597887
 20
7.379084110106012
 30
0.0
 11
9.934486824630234
 21
7.383080127006197
 31
0.0
  0
LINE
  5
404E
330
1F
100
AcDbEntity
  8
0
100
AcDbLine
 10
9.92325065163569
 20
7.372727365202097
 30
0.0
 11
9.928441709597887
 21
7.379084110106012
 31
0.0
  0
LINE
  5
404F
330
1F
100
AcDbEntity
  8
0
100
AcDbLine
 10
9.919573710656283
 20
7.365080127006198
 30
0.0
 11
9.92325065163569
 21
7.372727365202097
 31
0.0
  0
LINE
  5
4050
330
1F
100
AcDbEntity
  8
0
100
AcDbLine
 10
10.81065853860815
 20
8.311178986819061
 30
0.0
 11
10.81065853860815
 21
7.403677680838862
 31
0.0
  0
LINE
  5
4051
330
1F
100
AcDbEntity
  8
0
100
AcDbLine
 10
11.00168860132499
 20
7.481915630072512
 30
0.0
 11
11.02016575026269
 21
7.481915630072512
 31
0.0
  0
LINE
  5
4052
330
1F
100
AcDbEntity
  8
0
100
AcDbLine
 10
10.59695197868486
 20
8.311178986819061
 30
0.0
 11
10.59695197868486
 21
7.403677680838862
 31
0.0
  0
LINE
  5
4053
330
1F
100
AcDbEntity
  8
0
100
AcDbLine
 10
10.09662955358012
 20
8.312882695504608
 30
0.0
 11
10.09662955358012
 21
8.411964503795374
 31
0.0
  0
LINE
  5
4054
330
1F
100
AcDbEntity
  8
0
100
AcDbLine
 10
10.00782955358012
 20
7.44988269550461
 30
0.0
 11
10.00782955358012
 21
8.212882695504609
 31
0.0
  0
LINE
  5
4055
330
1F
100
AcDbEntity
  8
0
100
AcDbLine
 10
11.00168860132499
 20
7.942044972060159
 30
0.0
 11
11.01736575026269
 21
7.942044972060159
 31
0.0
  0
LINE
  5
4056
330
1F
100
AcDbEntity
  8
0
100
AcDbLine
 10
11.00168860132499
 20
8.216062266300452
 30
0.0
 11
11.01736575026269
 21
8.216062266300452
 31
0.0
  0
LINE
  5
4057
330
1F
100
AcDbEntity
  8
0
100
AcDbLine
 10
11.01736575026269
 20
8.087616659625313
 30
0.0
 11
11.02596575026269
 21
8.087616659625313
 31
0.0
  0
LINE
  5
4058
330
1F
100
AcDbEntity
  8
0
100
AcDbLine
 10
11.01736575026269
 20
8.070490578735297
 30
0.0
 11
11.02596575026269
 21
8.070490578735297
 31
0.0
  0
LINE
  5
4059
330
1F
100
AcDbEntity
  8
0
100
AcDbLine
 10
9.999669458948236
 20
7.942044972060159
 30
0.0
 11
9.982469458948237
 21
7.942044972060159
 31
0.0
  0
LINE
  5
405A
330
1F
100
AcDbEntity
  8
0
100
AcDbLine
 10
9.999669458948236
 20
8.216062266300452
 30
0.0
 11
9.982469458948237
 21
8.216062266300452
 31
0.0
  0
LINE
  5
405B
330
1F
100
AcDbEntity
  8
0
100
AcDbLine
 10
9.982469458948237
 20
8.087616659625313
 30
0.0
 11
9.973869458948236
 21
8.087616659625313
 31
0.0
  0
LINE
  5
405C
330
1F
100
AcDbEntity
  8
0
100
AcDbLine
 10
9.982469458948237
 20
8.070490578735297
 30
0.0
 11
9.973869458948236
 21
8.070490578735297
 31
0.0
  0
LINE
  5
405D
330
1F
100
AcDbEntity
  8
0
100
AcDbLine
 10
10.78268631524965
 20
8.311178986819061
 30
0.0
 11
10.78268631524965
 21
7.403677680838862
 31
0.0
  0
LINE
  5
405E
330
1F
100
AcDbEntity
  8
0
100
AcDbLine
 10
10.51622345902477
 20
8.311178986819061
 30
0.0
 11
10.51622345902477
 21
7.403677680838864
 31
0.0
  0
LINE
  5
405F
330
1F
100
AcDbEntity
  8
0
100
AcDbLine
 10
10.24976060279989
 20
8.311178986819061
 30
0.0
 11
10.24976060279989
 21
7.403677680838864
 31
0.0
  0
LINE
  5
4060
330
1F
100
AcDbEntity
  8
0
100
AcDbLine
 10
10.29720961070121
 20
8.311178986819061
 30
0.0
 11
10.29720961070121
 21
7.403677680838864
 31
0.0
  0
LINE
  5
4061
330
1F
100
AcDbEntity
  8
0
100
AcDbLine
 10
10.36066717452707
 20
8.311178986819061
 30
0.0
 11
10.36066717452707
 21
7.403677680838864
 31
0.0
  0
LINE
  5
4062
330
1F
100
AcDbEntity
  8
0
100
AcDbLine
 10
11.04833648437861
 20
7.383080127006197
 30
0.0
 11
11.0413023799657
 21
7.384443093954635
 31
0.0
  0
LINE
  5
4063
330
1F
100
AcDbEntity
  8
0
100
AcDbLine
 10
11.05489122620017
 20
7.379084110106012
 30
0.0
 11
11.04833648437861
 21
7.383080127006197
 31
0.0
  0
LINE
  5
4064
330
1F
100
AcDbEntity
  8
0
100
AcDbLine
 10
11.06051991060749
 20
7.372727365202097
 30
0.0
 11
11.05489122620017
 21
7.379084110106012
 31
0.0
  0
LINE
  5
4065
330
1F
100
AcDbEntity
  8
0
100
AcDbLine
 10
11.0645068320613
 20
7.365080127006196
 30
0.0
 11
11.06051991060749
 21
7.372727365202097
 31
0.0
  0
LINE
  5
4066
330
1F
100
AcDbEntity
  8
0
100
AcDbLine
 10
10.43549493936468
 20
8.311178986819061
 30
0.0
 11
10.43549493936468
 21
7.403677680838864
 31
0.0
  0
LINE
  5
4067
330
1F
100
AcDbEntity
  8
0
100
AcDbLine
 10
10.04318489263944
 20
7.44988269550461
 30
0.0
 11
10.04318489263944
 21
7.46634700552614
 31
0.0
  0
LINE
  5
4068
330
1F
100
AcDbEntity
  8
0
100
AcDbLine
 10
10.04318489263944
 20
7.46634700552614
 30
0.0
 11
10.06318489263944
 21
7.46634700552614
 31
0.0
  0
LINE
  5
4069
330
1F
100
AcDbEntity
  8
0
100
AcDbLine
 10
10.91288860132499
 20
8.312882695504608
 30
0.0
 11
10.91288860132499
 21
8.408429285019195
 31
0.0
  0
LINE
  5
406A
330
1F
100
AcDbEntity
  8
0
100
AcDbLine
 10
10.14101288868403
 20
7.384443093954635
 30
0.0
 11
10.14101288868403
 21
7.403677680838864
 31
0.0
  0
LINE
  5
406B
330
1F
100
AcDbEntity
  8
0
100
AcDbLine
 10
10.84424457692946
 20
7.403677680838862
 30
0.0
 11
10.84424457692946
 21
7.384443093954635
 31
0.0
  0
LINE
  5
406C
330
1F
100
AcDbEntity
  8
0
100
AcDbLine
 10
11.00168860132499
 20
8.225844972060157
 30
0.0
 11
11.01736575026269
 21
8.225844972060157
 31
0.0
  0
LINE
  5
406D
330
1F
100
AcDbEntity
  8
0
100
AcDbLine
 10
11.00016575026269
 20
8.49986226630045
 30
0.0
 11
11.01736575026269
 21
8.49986226630045
 31
0.0
  0
LINE
  5
406E
330
1F
100
AcDbEntity
  8
0
100
AcDbLine
 10
11.01736575026269
 20
8.371416659625314
 30
0.0
 11
11.02596575026269
 21
8.371416659625314
 31
0.0
  0
LINE
  5
406F
330
1F
100
AcDbEntity
  8
0
100
AcDbLine
 10
11.01736575026269
 20
8.354290578735295
 30
0.0
 11
11.02596575026269
 21
8.354290578735295
 31
0.0
  0
LINE
  5
4070
330
1F
100
AcDbEntity
  8
0
100
AcDbLine
 10
10.06318489263944
 20
8.19978152840232
 30
0.0
 11
10.06318489263944
 21
8.090032079680428
 31
0.0
  0
LINE
  5
4071
330
1F
100
AcDbEntity
  8
0
100
AcDbLine
 10
10.99516245723739
 20
8.19978152840232
 30
0.0
 11
10.81710938113281
 21
8.19978152840232
 31
0.0
  0
LINE
  5
4072
330
1F
100
AcDbEntity
  8
0
100
AcDbLine
 10
10.21533753691673
 20
8.19978152840232
 30
0.0
 11
10.06318489263944
 21
8.19978152840232
 31
0.0
  0
LINE
  5
4073
330
1F
100
AcDbEntity
  8
0
100
AcDbLine
 10
10.99516245723739
 20
8.090032079680428
 30
0.0
 11
10.99516245723739
 21
8.19978152840232
 31
0.0
  0
LINE
  5
4074
330
1F
100
AcDbEntity
  8
0
100
AcDbLine
 10
10.06318489263944
 20
8.090032079680428
 30
0.0
 11
10.21533753691673
 21
8.090032079680428
 31
0.0
  0
LINE
  5
4075
330
1F
100
AcDbEntity
  8
0
100
AcDbLine
 10
10.81710938113281
 20
8.090032079680428
 30
0.0
 11
10.99516245723739
 21
8.090032079680428
 31
0.0
  0
LINE
  5
4076
330
1F
100
AcDbEntity
  8
0
100
AcDbLine
 10
10.06318489263944
 20
7.981971017773842
 30
0.0
 11
10.06318489263944
 21
7.863823867872769
 31
0.0
  0
LINE
  5
4077
330
1F
100
AcDbEntity
  8
0
100
AcDbLine
 10
10.99516245723739
 20
7.981971017773842
 30
0.0
 11
10.81710938113281
 21
7.981971017773842
 31
0.0
  0
LINE
  5
4078
330
1F
100
AcDbEntity
  8
0
100
AcDbLine
 10
10.21533753691673
 20
7.981971017773842
 30
0.0
 11
10.06318489263944
 21
7.981971017773842
 31
0.0
  0
LINE
  5
4079
330
1F
100
AcDbEntity
  8
0
100
AcDbLine
 10
10.99516245723739
 20
7.863823867872769
 30
0.0
 11
10.99516245723739
 21
7.981971017773842
 31
0.0
  0
LINE
  5
407A
330
1F
100
AcDbEntity
  8
0
100
AcDbLine
 10
10.06318489263944
 20
7.863823867872769
 30
0.0
 11
10.21533753691673
 21
7.863823867872769
 31
0.0
  0
LINE
  5
407B
330
1F
100
AcDbEntity
  8
0
100
AcDbLine
 10
10.81710938113281
 20
7.863823867872769
 30
0.0
 11
10.99516245723739
 21
7.863823867872769
 31
0.0
  0
LINE
  5
407C
330
1F
100
AcDbEntity
  8
0
100
AcDbLine
 10
10.06318489263944
 20
7.752166971134892
 30
0.0
 11
10.06318489263944
 21
7.638201417190794
 31
0.0
  0
LINE
  5
407D
330
1F
100
AcDbEntity
  8
0
100
AcDbLine
 10
10.99516245723739
 20
7.752166971134892
 30
0.0
 11
10.81710938113281
 21
7.752166971134892
 31
0.0
  0
LINE
  5
407E
330
1F
100
AcDbEntity
  8
0
100
AcDbLine
 10
10.21533753691673
 20
7.752166971134892
 30
0.0
 11
10.06318489263944
 21
7.752166971134892
 31
0.0
  0
LINE
  5
407F
330
1F
100
AcDbEntity
  8
0
100
AcDbLine
 10
10.06318489263944
 20
7.638201417190794
 30
0.0
 11
10.21533753691673
 21
7.638201417190794
 31
0.0
  0
LINE
  5
4080
330
1F
100
AcDbEntity
  8
0
100
AcDbLine
 10
10.81710938113281
 20
7.638201417190794
 30
0.0
 11
10.99516245723739
 21
7.638201417190794
 31
0.0
  0
LINE
  5
4081
330
1F
100
AcDbEntity
  8
0
100
AcDbLine
 10
10.99516245723739
 20
7.638201417190794
 30
0.0
 11
10.99516245723739
 21
7.752166971134892
 31
0.0
  0
LINE
  5
4082
330
1F
100
AcDbEntity
  8
0
100
AcDbLine
 10
10.99516245723739
 20
7.522697903206518
 30
0.0
 11
10.81710938113281
 21
7.522697903206518
 31
0.0
  0
LINE
  5
4083
330
1F
100
AcDbEntity
  8
0
100
AcDbLine
 10
10.21533753691673
 20
7.52269790320652
 30
0.0
 11
10.06318489263944
 21
7.52269790320652
 31
0.0
  0
LINE
  5
4084
330
1F
100
AcDbEntity
  8
0
100
AcDbLine
 10
10.06318489263944
 20
7.416733741048075
 30
0.0
 11
10.21533753691673
 21
7.416733741048075
 31
0.0
  0
LINE
  5
4085
330
1F
100
AcDbEntity
  8
0
100
AcDbLine
 10
10.81710938113281
 20
7.416733741048073
 30
0.0
 11
10.99516245723739
 21
7.416733741048073
 31
0.0
  0
LINE
  5
4086
330
1F
100
AcDbEntity
  8
0
100
AcDbLine
 10
10.99516245723739
 20
8.311178986819061
 30
0.0
 11
10.81710938113281
 21
8.311178986819061
 31
0.0
  0
LINE
  5
4087
330
1F
100
AcDbEntity
  8
0
100
AcDbLine
 10
10.21533753691673
 20
8.311178986819061
 30
0.0
 11
10.06318489263944
 21
8.311178986819061
 31
0.0
  0
LINE
  5
4088
330
1F
100
AcDbEntity
  8
0
100
AcDbLine
 10
10.06318489263944
 20
8.090032079680428
 30
0.0
 11
10.06318489263944
 21
7.981971017773842
 31
0.0
  0
LINE
  5
4089
330
1F
100
AcDbEntity
  8
0
100
AcDbLine
 10
10.99516245723739
 20
7.981971017773842
 30
0.0
 11
10.99516245723739
 21
8.090032079680428
 31
0.0
  0
LINE
  5
408A
330
1F
100
AcDbEntity
  8
0
100
AcDbLine
 10
10.06318489263944
 20
7.863823867872769
 30
0.0
 11
10.06318489263944
 21
7.752166971134892
 31
0.0
  0
LINE
  5
408B
330
1F
100
AcDbEntity
  8
0
100
AcDbLine
 10
10.99516245723739
 20
7.752166971134892
 30
0.0
 11
10.99516245723739
 21
7.863823867872769
 31
0.0
  0
LINE
  5
408C
330
1F
100
AcDbEntity
  8
0
100
AcDbLine
 10
10.06318489263944
 20
7.638201417190794
 30
0.0
 11
10.06318489263944
 21
7.52269790320652
 31
0.0
  0
LINE
  5
408D
330
1F
100
AcDbEntity
  8
0
100
AcDbLine
 10
10.99516245723739
 20
7.522697903206518
 30
0.0
 11
10.99516245723739
 21
7.638201417190794
 31
0.0
  0
LINE
  5
408E
330
1F
100
AcDbEntity
  8
0
100
AcDbLine
 10
10.06318489263944
 20
7.416733741048075
 30
0.0
 11
10.06318489263944
 21
7.384443093954635
 31
0.0
  0
LINE
  5
408F
330
1F
100
AcDbEntity
  8
0
100
AcDbLine
 10
10.81611252035208
 20
8.311178986819061
 30
0.0
 11
10.81611252035208
 21
7.403677680838862
 31
0.0
  0
LINE
  5
4090
330
1F
100
AcDbEntity
  8
0
100
AcDbLine
 10
10.81710938113281
 20
8.311178986819061
 30
0.0
 11
10.81611252035208
 21
8.311178986819061
 31
0.0
  0
LINE
  5
4091
330
1F
100
AcDbEntity
  8
0
100
AcDbLine
 10
10.78187338796277
 20
8.311178986819061
 30
0.0
 11
10.73523730734833
 21
8.311178986819061
 31
0.0
  0
LINE
  5
4092
330
1F
100
AcDbEntity
  8
0
100
AcDbLine
 10
10.78187338796277
 20
8.311178986819061
 30
0.0
 11
10.78187338796277
 21
7.403677680838862
 31
0.0
  0
LINE
  5
4093
330
1F
100
AcDbEntity
  8
0
100
AcDbLine
 10
10.78268631524965
 20
8.311178986819061
 30
0.0
 11
10.78187338796277
 21
8.311178986819061
 31
0.0
  0
LINE
  5
4094
330
1F
100
AcDbEntity
  8
0
100
AcDbLine
 10
10.67138408629943
 20
8.311178986819061
 30
0.0
 11
10.67138408629942
 21
7.403677680838862
 31
0.0
  0
LINE
  5
4095
330
1F
100
AcDbEntity
  8
0
100
AcDbLine
 10
10.67177974352247
 20
8.311178986819061
 30
0.0
 11
10.67138408629943
 21
8.311178986819061
 31
0.0
  0
LINE
  5
4096
330
1F
100
AcDbEntity
  8
0
100
AcDbLine
 10
10.43563011869635
 20
8.311178986819061
 30
0.0
 11
10.43563011869635
 21
7.403677680838864
 31
0.0
  0
LINE
  5
4097
330
1F
100
AcDbEntity
  8
0
100
AcDbLine
 10
10.43549493936468
 20
8.311178986819061
 30
0.0
 11
10.43563011869635
 21
8.311178986819061
 31
0.0
  0
LINE
  5
4098
330
1F
100
AcDbEntity
  8
0
100
AcDbLine
 10
10.29783682572299
 20
8.311178986819061
 30
0.0
 11
10.29783682572299
 21
7.403677680838864
 31
0.0
  0
LINE
  5
4099
330
1F
100
AcDbEntity
  8
0
100
AcDbLine
 10
10.29720961070121
 20
8.311178986819061
 30
0.0
 11
10.29783682572299
 21
8.311178986819061
 31
0.0
  0
LINE
  5
409A
330
1F
100
AcDbEntity
  8
0
100
AcDbLine
 10
10.22272759904327
 20
8.311178986819061
 30
0.0
 11
10.22272759904327
 21
7.403677680838864
 31
0.0
  0
LINE
  5
409B
330
1F
100
AcDbEntity
  8
0
100
AcDbLine
 10
10.22178837944138
 20
8.311178986819061
 30
0.0
 11
10.22272759904327
 21
8.311178986819061
 31
0.0
  0
LINE
  5
409C
330
1F
100
AcDbEntity
  8
0
100
AcDbLine
 10
10.06318489263944
 20
8.212882695504609
 30
0.0
 11
10.00782955358012
 21
8.212882695504609
 31
0.0
  0
LINE
  5
409D
330
1F
100
AcDbEntity
  8
0
100
AcDbLine
 10
10.00782955358012
 20
8.212882695504609
 30
0.0
 11
10.00130340949252
 21
8.212882695504609
 31
0.0
  0
LINE
  5
409E
330
1F
100
AcDbEntity
  8
0
100
AcDbLine
 10
11.00016575026269
 20
8.411964503795378
 30
0.0
 11
10.09662955358012
 21
8.411964503795374
 31
0.0
  0
LINE
  5
409F
330
1F
100
AcDbEntity
  8
0
100
AcDbLine
 10
9.919573710656283
 20
7.365080127006198
 30
0.0
 11
9.893004938652907
 21
7.365080127006198
 31
0.0
  0
LINE
  5
40A0
330
1F
100
AcDbEntity
  8
0
100
AcDbLine
 10
10.51232087742124
 20
7.365080127006198
 30
0.0
 11
10.49483353815642
 21
7.3650801270062
 31
0.0
  0
LINE
  5
40A1
330
1F
100
AcDbEntity
  8
0
100
AcDbLine
 10
10.21533753691673
 20
7.416733741048075
 30
0.0
 11
10.21533753691673
 21
7.403677680838864
 31
0.0
  0
LINE
  5
40A2
330
1F
100
AcDbEntity
  8
0
100
AcDbLine
 10
9.978869458948235
 20
7.384443093954635
 30
0.0
 11
9.940974032133294
 21
7.384443093954635
 31
0.0
  0
LINE
  5
40A3
330
1F
100
AcDbEntity
  8
0
100
AcDbLine
 10
11.00016575026269
 20
7.950011626266039
 30
0.0
 11
11.00017570801223
 21
7.9476589790178
 31
0.0
  0
LINE
  5
40A4
330
1F
100
AcDbEntity
  8
0
100
AcDbLine
 10
11.00017570801223
 20
7.9476589790178
 30
0.0
 11
11.00016575026269
 21
7.942044972060159
 31
0.0
  0
LINE
  5
40A5
330
1F
100
AcDbEntity
  8
0
100
AcDbLine
 10
10.51232087742124
 20
7.365080127006198
 30
0.0
 11
10.51495072969398
 21
7.3650801270062
 31
0.0
  0
LINE
  5
40A6
330
1F
100
AcDbEntity
  8
0
100
AcDbLine
 10
10.51495072969398
 20
7.3650801270062
 30
0.0
 11
11.0645068320613
 21
7.365080127006196
 31
0.0
  0
LINE
  5
40A7
330
1F
100
AcDbEntity
  8
0
100
AcDbLine
 10
10.00782955358012
 20
7.44988269550461
 30
0.0
 11
10.00130340949252
 21
7.44988269550461
 31
0.0
  0
LINE
  5
40A8
330
1F
100
AcDbEntity
  8
0
100
AcDbLine
 10
10.47162809397208
 20
7.384443093954635
 30
0.0
 11
10.84424457692946
 21
7.384443093954635
 31
0.0
  0
LINE
  5
40A9
330
1F
100
AcDbEntity
  8
0
100
AcDbLine
 10
11.00168860132499
 20
7.942044972060159
 30
0.0
 11
11.00168860132499
 21
7.945045242792549
 31
0.0
  0
LINE
  5
40AA
330
1F
100
AcDbEntity
  8
0
100
AcDbLine
 10
11.00168860132499
 20
8.213831305325216
 30
0.0
 11
11.00168860132499
 21
8.216062266300452
 31
0.0
  0
LINE
  5
40AB
330
1F
100
AcDbEntity
  8
0
100
AcDbLine
 10
10.14101288868403
 20
7.403677680838864
 30
0.0
 11
10.21533753691673
 21
7.403677680838864
 31
0.0
  0
LINE
  5
40AC
330
1F
100
AcDbEntity
  8
0
100
AcDbLine
 10
11.00016575026269
 20
8.233811626266037
 30
0.0
 11
11.00017570801223
 21
8.2314589790178
 31
0.0
  0
LINE
  5
40AD
330
1F
100
AcDbEntity
  8
0
100
AcDbLine
 10
11.00017570801223
 20
8.2314589790178
 30
0.0
 11
11.00016575026269
 21
8.225844972060157
 31
0.0
  0
LINE
  5
40AE
330
1F
100
AcDbEntity
  8
0
100
AcDbLine
 10
10.06318489263944
 20
7.44988269550461
 30
0.0
 11
10.06318489263944
 21
7.416733741048075
 31
0.0
  0
LINE
  5
40AF
330
1F
100
AcDbEntity
  8
0
100
AcDbLine
 10
10.06318489263944
 20
8.212882695504609
 30
0.0
 11
10.06318489263944
 21
8.19978152840232
 31
0.0
  0
LINE
  5
40B0
330
1F
100
AcDbEntity
  8
0
100
AcDbLine
 10
10.67138408629943
 20
8.311178986819061
 30
0.0
 11
10.59695197868486
 21
8.311178986819061
 31
0.0
  0
LINE
  5
40B1
330
1F
100
AcDbEntity
  8
0
100
AcDbLine
 10
10.51622345902477
 20
8.311178986819061
 30
0.0
 11
10.43563011869635
 21
8.311178986819061
 31
0.0
  0
LINE
  5
40B2
330
1F
100
AcDbEntity
  8
0
100
AcDbLine
 10
9.986717279970765
 20
6.05864768024804
 30
0.0
 11
9.966717279970762
 21
6.05864768024804
 31
0.0
  0
LINE
  5
40B3
330
1F
100
AcDbEntity
  8
0
100
AcDbLine
 10
10.99516245723739
 20
8.312882695504608
 30
0.0
 11
10.91288860132499
 21
8.312882695504608
 31
0.0
  0
LINE
  5
40B4
330
1F
100
AcDbEntity
  8
0
100
AcDbLine
 10
10.91288860132499
 20
8.312882695504608
 30
0.0
 11
10.09662955358012
 21
8.312882695504608
 31
0.0
  0
LINE
  5
40B5
330
1F
100
AcDbEntity
  8
0
100
AcDbLine
 10
10.09662955358012
 20
8.312882695504608
 30
0.0
 11
10.00782955358012
 21
8.312882695504612
 31
0.0
  0
LINE
  5
40B6
330
1F
100
AcDbEntity
  8
0
100
AcDbLine
 10
10.00782955358012
 20
8.312882695504612
 30
0.0
 11
10.00130340949252
 21
8.312882695504612
 31
0.0
  0
LINE
  5
40B7
330
1F
100
AcDbEntity
  8
0
100
AcDbLine
 10
10.49483353815642
 20
7.3650801270062
 30
0.0
 11
9.919573710656283
 21
7.365080127006198
 31
0.0
  0
LINE
  5
40B8
330
1F
100
AcDbEntity
  8
0
100
AcDbLine
 10
9.998869458948234
 20
7.384443093954635
 30
0.0
 11
9.978869458948235
 21
7.384443093954635
 31
0.0
  0
LINE
  5
40B9
330
1F
100
AcDbEntity
  8
0
100
AcDbLine
 10
10.06318489263944
 20
7.44988269550461
 30
0.0
 11
10.04318489263944
 21
7.44988269550461
 31
0.0
  0
LINE
  5
40BA
330
1F
100
AcDbEntity
  8
0
100
AcDbLine
 10
10.04318489263944
 20
7.44988269550461
 30
0.0
 11
10.00782955358012
 21
7.44988269550461
 31
0.0
  0
LINE
  5
40BB
330
1F
100
AcDbEntity
  8
0
100
AcDbLine
 10
10.84424457692946
 20
7.384443093954635
 30
0.0
 11
10.99516245723739
 21
7.384443093954635
 31
0.0
  0
LINE
  5
40BC
330
1F
100
AcDbEntity
  8
0
100
AcDbLine
 10
10.99142098865631
 20
6.058647680248046
 30
0.0
 11
11.01142098865631
 21
6.058647680248046
 31
0.0
  0
LINE
  5
40BD
330
1F
100
AcDbEntity
  8
0
100
AcDbLine
 10
11.00168860132499
 20
7.480987051656585
 30
0.0
 11
11.00168860132499
 21
7.481915630072512
 31
0.0
  0
LINE
  5
40BE
330
1F
100
AcDbEntity
  8
0
100
AcDbLine
 10
11.00168860132499
 20
7.481915630072512
 30
0.0
 11
11.00168860132499
 21
7.942044972060159
 31
0.0
  0
LINE
  5
40BF
330
1F
100
AcDbEntity
  8
0
100
AcDbLine
 10
11.00168860132499
 20
8.216062266300452
 30
0.0
 11
11.00168860132499
 21
8.225844972060157
 31
0.0
  0
LINE
  5
40C0
330
1F
100
AcDbEntity
  8
0
100
AcDbLine
 10
11.00168860132499
 20
8.225844972060157
 30
0.0
 11
11.00168860132499
 21
8.22884524279255
 31
0.0
  0
LINE
  5
40C1
330
1F
100
AcDbEntity
  8
0
100
AcDbLine
 10
10.21533753691673
 20
7.403677680838864
 30
0.0
 11
10.22178837944138
 21
7.403677680838864
 31
0.0
  0
LINE
  5
40C2
330
1F
100
AcDbEntity
  8
0
100
AcDbLine
 10
10.06318489263944
 20
7.52269790320652
 30
0.0
 11
10.06318489263944
 21
7.46634700552614
 31
0.0
  0
LINE
  5
40C3
330
1F
100
AcDbEntity
  8
0
100
AcDbLine
 10
10.06318489263944
 20
7.46634700552614
 30
0.0
 11
10.06318489263944
 21
7.44988269550461
 31
0.0
  0
LINE
  5
40C4
330
1F
100
AcDbEntity
  8
0
100
AcDbLine
 10
10.21533753691673
 20
7.863823867872769
 30
0.0
 11
10.21533753691673
 21
7.752166971134892
 31
0.0
  0
LINE
  5
40C5
330
1F
100
AcDbEntity
  8
0
100
AcDbLine
 10
10.21533753691673
 20
7.752166971134892
 30
0.0
 11
10.21533753691673
 21
7.638201417190794
 31
0.0
  0
LINE
  5
40C6
330
1F
100
AcDbEntity
  8
0
100
AcDbLine
 10
10.47162809397208
 20
7.384443093954635
 30
0.0
 11
10.14101288868403
 21
7.384443093954635
 31
0.0
  0
LINE
  5
40C7
330
1F
100
AcDbEntity
  8
0
100
AcDbLine
 10
10.99516245723739
 20
7.384443093954635
 30
0.0
 11
11.00016575026269
 21
7.384443093954635
 31
0.0
  0
LINE
  5
40C8
330
1F
100
AcDbEntity
  8
0
100
AcDbLine
 10
10.21533753691673
 20
7.981971017773842
 30
0.0
 11
10.21533753691673
 21
7.863823867872769
 31
0.0
  0
LINE
  5
40C9
330
1F
100
AcDbEntity
  8
0
100
AcDbLine
 10
10.21533753691673
 20
7.638201417190794
 30
0.0
 11
10.21533753691673
 21
7.52269790320652
 31
0.0
  0
LINE
  5
40CA
330
1F
100
AcDbEntity
  8
0
100
AcDbLine
 10
10.21533753691673
 20
7.52269790320652
 30
0.0
 11
10.21533753691673
 21
7.416733741048075
 31
0.0
  0
LINE
  5
40CB
330
1F
100
AcDbEntity
  8
0
100
AcDbLine
 10
10.14101288868403
 20
7.384443093954635
 30
0.0
 11
10.06318489263944
 21
7.384443093954635
 31
0.0
  0
LINE
  5
40CC
330
1F
100
AcDbEntity
  8
0
100
AcDbLine
 10
10.81710938113281
 20
8.19978152840232
 30
0.0
 11
10.81710938113281
 21
8.090032079680428
 31
0.0
  0
LINE
  5
40CD
330
1F
100
AcDbEntity
  8
0
100
AcDbLine
 10
10.81710938113281
 20
7.752166971134892
 30
0.0
 11
10.81710938113281
 21
7.638201417190794
 31
0.0
  0
LINE
  5
40CE
330
1F
100
AcDbEntity
  8
0
100
AcDbLine
 10
11.00016575026269
 20
7.384443093954635
 30
0.0
 11
11.02016575026269
 21
7.384443093954635
 31
0.0
  0
LINE
  5
40CF
330
1F
100
AcDbEntity
  8
0
100
AcDbLine
 10
11.02016575026269
 20
7.384443093954635
 30
0.0
 11
11.0413023799657
 21
7.384443093954635
 31
0.0
  0
LINE
  5
40D0
330
1F
100
AcDbEntity
  8
0
100
AcDbLine
 10
10.22178837944138
 20
7.403677680838864
 30
0.0
 11
10.22272759904327
 21
7.403677680838864
 31
0.0
  0
LINE
  5
40D1
330
1F
100
AcDbEntity
  8
0
100
AcDbLine
 10
10.22272759904327
 20
7.403677680838864
 30
0.0
 11
10.24976060279989
 21
7.403677680838864
 31
0.0
  0
LINE
  5
40D2
330
1F
100
AcDbEntity
  8
0
100
AcDbLine
 10
10.24976060279989
 20
7.403677680838864
 30
0.0
 11
10.29720961070121
 21
7.403677680838864
 31
0.0
  0
LINE
  5
40D3
330
1F
100
AcDbEntity
  8
0
100
AcDbLine
 10
10.21533753691673
 20
8.090032079680428
 30
0.0
 11
10.21533753691673
 21
7.981971017773842
 31
0.0
  0
LINE
  5
40D4
330
1F
100
AcDbEntity
  8
0
100
AcDbLine
 10
10.06318489263944
 20
7.384443093954635
 30
0.0
 11
10.00130340949252
 21
7.384443093954635
 31
0.0
  0
LINE
  5
40D5
330
1F
100
AcDbEntity
  8
0
100
AcDbLine
 10
10.00130340949252
 20
7.384443093954635
 30
0.0
 11
9.998869458948234
 21
7.384443093954635
 31
0.0
  0
LINE
  5
40D6
330
1F
100
AcDbEntity
  8
0
100
AcDbLine
 10
10.81710938113281
 20
7.981971017773842
 30
0.0
 11
10.81710938113281
 21
7.863823867872769
 31
0.0
  0
LINE
  5
40D7
330
1F
100
AcDbEntity
  8
0
100
AcDbLine
 10
10.81710938113281
 20
7.522697903206518
 30
0.0
 11
10.81710938113281
 21
7.416733741048073
 31
0.0
  0
LINE
  5
40D8
330
1F
100
AcDbEntity
  8
0
100
AcDbLine
 10
10.21533753691673
 20
8.311178986819061
 30
0.0
 11
10.21533753691673
 21
8.19978152840232
 31
0.0
  0
LINE
  5
40D9
330
1F
100
AcDbEntity
  8
0
100
AcDbLine
 10
10.21533753691673
 20
8.19978152840232
 30
0.0
 11
10.21533753691673
 21
8.090032079680428
 31
0.0
  0
LINE
  5
40DA
330
1F
100
AcDbEntity
  8
0
100
AcDbLine
 10
10.29720961070121
 20
7.403677680838864
 30
0.0
 11
10.29783682572299
 21
7.403677680838864
 31
0.0
  0
LINE
  5
40DB
330
1F
100
AcDbEntity
  8
0
100
AcDbLine
 10
10.29783682572299
 20
7.403677680838864
 30
0.0
 11
10.36066717452707
 21
7.403677680838864
 31
0.0
  0
LINE
  5
40DC
330
1F
100
AcDbEntity
  8
0
100
AcDbLine
 10
10.36066717452707
 20
7.403677680838864
 30
0.0
 11
10.43549493936468
 21
7.403677680838864
 31
0.0
  0
LINE
  5
40DD
330
1F
100
AcDbEntity
  8
0
100
AcDbLine
 10
10.43549493936468
 20
7.403677680838864
 30
0.0
 11
10.43563011869635
 21
7.403677680838864
 31
0.0
  0
LINE
  5
40DE
330
1F
100
AcDbEntity
  8
0
100
AcDbLine
 10
10.67177974352247
 20
7.403677680838862
 30
0.0
 11
10.73523730734833
 21
7.403677680838862
 31
0.0
  0
LINE
  5
40DF
330
1F
100
AcDbEntity
  8
0
100
AcDbLine
 10
10.43563011869635
 20
7.403677680838864
 30
0.0
 11
10.51622345902477
 21
7.403677680838864
 31
0.0
  0
LINE
  5
40E0
330
1F
100
AcDbEntity
  8
0
100
AcDbLine
 10
10.51622345902477
 20
7.403677680838864
 30
0.0
 11
10.59695197868486
 21
7.403677680838862
 31
0.0
  0
LINE
  5
40E1
330
1F
100
AcDbEntity
  8
0
100
AcDbLine
 10
10.59695197868486
 20
7.403677680838862
 30
0.0
 11
10.67138408629942
 21
7.403677680838862
 31
0.0
  0
LINE
  5
40E2
330
1F
100
AcDbEntity
  8
0
100
AcDbLine
 10
10.67138408629942
 20
7.403677680838862
 30
0.0
 11
10.67177974352247
 21
7.403677680838862
 31
0.0
  0
LINE
  5
40E3
330
1F
100
AcDbEntity
  8
0
100
AcDbLine
 10
10.78268631524965
 20
7.403677680838862
 30
0.0
 11
10.81065853860815
 21
7.403677680838862
 31
0.0
  0
LINE
  5
40E4
330
1F
100
AcDbEntity
  8
0
100
AcDbLine
 10
10.81065853860815
 20
7.403677680838862
 30
0.0
 11
10.81611252035208
 21
7.403677680838862
 31
0.0
  0
LINE
  5
40E5
330
1F
100
AcDbEntity
  8
0
100
AcDbLine
 10
10.73523730734833
 20
7.403677680838862
 30
0.0
 11
10.78187338796277
 21
7.403677680838862
 31
0.0
  0
LINE
  5
40E6
330
1F
100
AcDbEntity
  8
0
100
AcDbLine
 10
10.78187338796277
 20
7.403677680838862
 30
0.0
 11
10.78268631524965
 21
7.403677680838862
 31
0.0
  0
LINE
  5
40E7
330
1F
100
AcDbEntity
  8
0
100
AcDbLine
 10
10.81611252035208
 20
7.403677680838862
 30
0.0
 11
10.81710938113281
 21
7.403677680838862
 31
0.0
  0
LINE
  5
40E8
330
1F
100
AcDbEntity
  8
0
100
AcDbLine
 10
10.81710938113281
 20
7.403677680838862
 30
0.0
 11
10.84424457692946
 21
7.403677680838862
 31
0.0
  0
LINE
  5
40E9
330
1F
100
AcDbEntity
  8
0
100
AcDbLine
 10
11.0645068320613
 20
7.365080127006196
 30
0.0
 11
11.0952300035138
 21
7.365080127006196
 31
0.0
  0
LINE
  5
40EA
330
1F
100
AcDbEntity
  8
0
100
AcDbLine
 10
10.99516245723739
 20
8.19978152840232
 30
0.0
 11
10.99516245723739
 21
8.311178986819061
 31
0.0
  0
LINE
  5
40EB
330
1F
100
AcDbEntity
  8
0
100
AcDbLine
 10
10.00130340949252
 20
8.212882695504609
 30
0.0
 11
10.00130340949252
 21
8.312882695504612
 31
0.0
  0
LINE
  5
40EC
330
1F
100
AcDbEntity
  8
0
100
AcDbLine
 10
10.99142098865631
 20
6.058647680248046
 30
0.0
 11
10.99142098865631
 21
5.960721169945522
 31
0.0
  0
LINE
  5
40ED
330
1F
100
AcDbEntity
  8
0
100
AcDbLine
 10
11.01142098865631
 20
6.058647680248046
 30
0.0
 11
11.01142098865631
 21
5.960721169945522
 31
0.0
  0
LINE
  5
40EE
330
1F
100
AcDbEntity
  8
0
100
AcDbLine
 10
10.00782955358012
 20
8.312882695504612
 30
0.0
 11
10.00782955358012
 21
8.411964503795378
 31
0.0
  0
LINE
  5
40EF
330
1F
100
AcDbEntity
  8
0
100
AcDbLine
 10
9.998869458948234
 20
7.481915630072512
 30
0.0
 11
9.998869458948234
 21
7.384443093954635
 31
0.0
  0
LINE
  5
40F0
330
1F
100
AcDbEntity
  8
0
100
AcDbLine
 10
9.978869458948235
 20
7.384443093954635
 30
0.0
 11
9.978869458948235
 21
7.481915630072512
 31
0.0
  0
LINE
  5
40F1
330
1F
100
AcDbEntity
  8
0
100
AcDbLine
 10
9.986717279970765
 20
6.05864768024804
 30
0.0
 11
9.986717279970765
 21
5.960721169945522
 31
0.0
  0
LINE
  5
40F2
330
1F
100
AcDbEntity
  8
0
100
AcDbLine
 10
9.966717279970762
 20
6.05864768024804
 30
0.0
 11
9.966717279970765
 21
5.960721169945522
 31
0.0
  0
LINE
  5
40F3
330
1F
100
AcDbEntity
  8
0
100
AcDbLine
 10
9.999669458948236
 20
8.49986226630045
 30
0.0
 11
9.999669458948236
 21
8.225844972060157
 31
0.0
  0
LINE
  5
40F4
330
1F
100
AcDbEntity
  8
0
100
AcDbLine
 10
9.982469458948237
 20
8.371416659625314
 30
0.0
 11
9.982469458948237
 21
8.354290578735295
 31
0.0
  0
LINE
  5
40F5
330
1F
100
AcDbEntity
  8
0
100
AcDbLine
 10
9.982469458948237
 20
8.49986226630045
 30
0.0
 11
9.982469458948237
 21
8.371416659625314
 31
0.0
  0
LINE
  5
40F6
330
1F
100
AcDbEntity
  8
0
100
AcDbLine
 10
9.982469458948237
 20
8.225844972060157
 30
0.0
 11
9.982469458948237
 21
8.354290578735295
 31
0.0
  0
LINE
  5
40F7
330
1F
100
AcDbEntity
  8
0
100
AcDbLine
 10
9.973869458948236
 20
8.354290578735295
 30
0.0
 11
9.973869458948236
 21
8.371416659625314
 31
0.0
  0
LINE
  5
40F8
330
1F
100
AcDbEntity
  8
0
100
AcDbLine
 10
10.22178837944138
 20
8.311178986819061
 30
0.0
 11
10.21533753691673
 21
8.311178986819061
 31
0.0
  0
LINE
  5
40F9
330
1F
100
AcDbEntity
  8
0
100
AcDbLine
 10
11.00016575026269
 20
7.481915630072512
 30
0.0
 11
11.00016575026269
 21
7.384443093954635
 31
0.0
  0
LINE
  5
40FA
330
1F
100
AcDbEntity
  8
0
100
AcDbLine
 10
11.02016575026269
 20
7.384443093954635
 30
0.0
 11
11.02016575026269
 21
7.481915630072512
 31
0.0
  0
LINE
  5
40FB
330
1F
100
AcDbEntity
  8
0
100
AcDbLine
 10
10.00782955358012
 20
8.411964503795378
 30
0.0
 11
10.09662955358012
 21
8.411964503795374
 31
0.0
  0
LINE
  5
40FC
330
1F
100
AcDbEntity
  8
0
100
AcDbLine
 10
11.00016575026269
 20
7.950011626266039
 30
0.0
 11
11.00016575026269
 21
8.216062266300452
 31
0.0
  0
LINE
  5
40FD
330
1F
100
AcDbEntity
  8
0
100
AcDbLine
 10
11.01736575026269
 20
8.087616659625313
 30
0.0
 11
11.01736575026269
 21
8.070490578735297
 31
0.0
  0
LINE
  5
40FE
330
1F
100
AcDbEntity
  8
0
100
AcDbLine
 10
11.01736575026269
 20
8.216062266300452
 30
0.0
 11
11.01736575026269
 21
8.087616659625313
 31
0.0
  0
LINE
  5
40FF
330
1F
100
AcDbEntity
  8
0
100
AcDbLine
 10
11.01736575026269
 20
7.942044972060159
 30
0.0
 11
11.01736575026269
 21
8.070490578735297
 31
0.0
  0
LINE
  5
4100
330
1F
100
AcDbEntity
  8
0
100
AcDbLine
 10
11.02596575026269
 20
8.070490578735297
 30
0.0
 11
11.02596575026269
 21
8.087616659625313
 31
0.0
  0
LINE
  5
4101
330
1F
100
AcDbEntity
  8
0
100
AcDbLine
 10
9.999669458948236
 20
8.216062266300452
 30
0.0
 11
9.999669458948236
 21
7.942044972060159
 31
0.0
  0
LINE
  5
4102
330
1F
100
AcDbEntity
  8
0
100
AcDbLine
 10
9.982469458948237
 20
8.087616659625313
 30
0.0
 11
9.982469458948237
 21
8.070490578735297
 31
0.0
  0
LINE
  5
4103
330
1F
100
AcDbEntity
  8
0
100
AcDbLine
 10
9.982469458948237
 20
8.216062266300452
 30
0.0
 11
9.982469458948237
 21
8.087616659625313
 31
0.0
  0
LINE
  5
4104
330
1F
100
AcDbEntity
  8
0
100
AcDbLine
 10
9.982469458948237
 20
7.942044972060159
 30
0.0
 11
9.982469458948237
 21
8.070490578735297
 31
0.0
  0
LINE
  5
4105
330
1F
100
AcDbEntity
  8
0
100
AcDbLine
 10
9.973869458948236
 20
8.070490578735297
 30
0.0
 11
9.973869458948236
 21
8.087616659625313
 31
0.0
  0
LINE
  5
4106
330
1F
100
AcDbEntity
  8
0
100
AcDbLine
 10
10.99516245723739
 20
7.416733741048073
 30
0.0
 11
10.99516245723739
 21
7.384443093954635
 31
0.0
  0
LINE
  5
4107
330
1F
100
AcDbEntity
  8
0
100
AcDbLine
 10
10.99516245723739
 20
7.416733741048073
 30
0.0
 11
10.99516245723739
 21
7.522697903206518
 31
0.0
  0
LINE
  5
4108
330
1F
100
AcDbEntity
  8
0
100
AcDbLine
 10
10.00130340949252
 20
7.44988269550461
 30
0.0
 11
10.00130340949252
 21
7.384443093954635
 31
0.0
  0
LINE
  5
4109
330
1F
100
AcDbEntity
  8
0
100
AcDbLine
 10
10.91288860132499
 20
8.408429285019195
 30
0.0
 11
11.00016575026269
 21
8.408429285019192
 31
0.0
  0
LINE
  5
410A
330
1F
100
AcDbEntity
  8
0
100
AcDbLine
 10
11.00016575026269
 20
8.408429285019192
 30
0.0
 11
11.00016575026269
 21
8.411964503795378
 31
0.0
  0
LINE
  5
410B
330
1F
100
AcDbEntity
  8
0
100
AcDbLine
 10
11.00016575026269
 20
8.233811626266037
 30
0.0
 11
11.00016575026269
 21
8.408429285019192
 31
0.0
  0
LINE
  5
410C
330
1F
100
AcDbEntity
  8
0
100
AcDbLine
 10
11.00016575026269
 20
8.411964503795378
 30
0.0
 11
11.00016575026269
 21
8.49986226630045
 31
0.0
  0
LINE
  5
410D
330
1F
100
AcDbEntity
  8
0
100
AcDbLine
 10
11.01736575026269
 20
8.371416659625314
 30
0.0
 11
11.01736575026269
 21
8.354290578735295
 31
0.0
  0
LINE
  5
410E
330
1F
100
AcDbEntity
  8
0
100
AcDbLine
 10
11.01736575026269
 20
8.49986226630045
 30
0.0
 11
11.01736575026269
 21
8.371416659625314
 31
0.0
  0
LINE
  5
410F
330
1F
100
AcDbEntity
  8
0
100
AcDbLine
 10
11.01736575026269
 20
8.225844972060157
 30
0.0
 11
11.01736575026269
 21
8.354290578735295
 31
0.0
  0
LINE
  5
4110
330
1F
100
AcDbEntity
  8
0
100
AcDbLine
 10
11.02596575026269
 20
8.354290578735295
 30
0.0
 11
11.02596575026269
 21
8.371416659625314
 31
0.0
  0
LINE
  5
4111
330
1F
100
AcDbEntity
  8
0
100
AcDbLine
 10
10.06318489263944
 20
8.212882695504609
 30
0.0
 11
10.06318489263944
 21
8.311178986819061
 31
0.0
  0
LINE
  5
4112
330
1F
100
AcDbEntity
  8
0
100
AcDbLine
 10
10.81611252035208
 20
8.311178986819061
 30
0.0
 11
10.81065853860815
 21
8.311178986819061
 31
0.0
  0
LINE
  5
4113
330
1F
100
AcDbEntity
  8
0
100
AcDbLine
 10
10.81065853860815
 20
8.311178986819061
 30
0.0
 11
10.78268631524965
 21
8.311178986819061
 31
0.0
  0
LINE
  5
4114
330
1F
100
AcDbEntity
  8
0
100
AcDbLine
 10
10.73523730734833
 20
8.311178986819061
 30
0.0
 11
10.67177974352247
 21
8.311178986819061
 31
0.0
  0
LINE
  5
4115
330
1F
100
AcDbEntity
  8
0
100
AcDbLine
 10
10.51622345902477
 20
8.311178986819061
 30
0.0
 11
10.59695197868486
 21
8.311178986819061
 31
0.0
  0
LINE
  5
4116
330
1F
100
AcDbEntity
  8
0
100
AcDbLine
 10
10.36066717452707
 20
8.311178986819061
 30
0.0
 11
10.43549493936468
 21
8.311178986819061
 31
0.0
  0
LINE
  5
4117
330
1F
100
AcDbEntity
  8
0
100
AcDbLine
 10
10.29783682572299
 20
8.311178986819061
 30
0.0
 11
10.36066717452707
 21
8.311178986819061
 31
0.0
  0
LINE
  5
4118
330
1F
100
AcDbEntity
  8
0
100
AcDbLine
 10
10.24976060279989
 20
8.311178986819061
 30
0.0
 11
10.22272759904327
 21
8.311178986819061
 31
0.0
  0
LINE
  5
4119
330
1F
100
AcDbEntity
  8
0
100
AcDbLine
 10
10.24976060279989
 20
8.311178986819061
 30
0.0
 11
10.29720961070121
 21
8.311178986819061
 31
0.0
  0
LINE
  5
411A
330
1F
100
AcDbEntity
  8
0
100
AcDbLine
 10
10.34271398512973
 20
8.311178986819061
 30
0.0
 11
10.34334120015151
 21
8.311178986819061
 31
0.0
  0
LINE
  5
411B
330
1F
100
AcDbEntity
  8
0
100
AcDbLine
 10
10.23760420432421
 20
8.311178986819061
 30
0.0
 11
10.23854342392609
 21
8.311178986819061
 31
0.0
  0
LINE
  5
411C
330
1F
100
AcDbEntity
  8
0
100
AcDbLine
 10
10.51209480582185
 20
6.158844143224762
 30
0.0
 11
10.49080377974402
 21
6.158844143224766
 31
0.0
  0
LINE
  5
411D
330
1F
100
AcDbEntity
  8
0
100
AcDbLine
 10
9.895355736222875
 20
6.158844143224766
 30
0.0
 11
10.4650300222165
 21
6.158844143224766
 31
0.0
  0
LINE
  5
411E
330
1F
100
AcDbEntity
  8
0
100
AcDbLine
 10
10.4650300222165
 20
6.158844143224766
 30
0.0
 11
10.46959057630843
 21
6.158844143224766
 31
0.0
  0
LINE
  5
411F
330
1F
100
AcDbEntity
  8
0
100
AcDbLine
 10
10.46959057630891
 20
7.258844143224822
 30
0.0
 11
10.46503002221697
 21
7.258844143224822
 31
0.0
  0
LINE
  5
4120
330
1F
100
AcDbEntity
  8
0
100
AcDbLine
 10
10.46503002221697
 20
7.258844143224822
 30
0.0
 11
9.895355736223356
 21
7.258844143224822
 31
0.0
  0
LINE
  5
4121
330
1F
100
AcDbEntity
  8
0
100
AcDbLine
 10
10.52254393002757
 20
7.258844143224822
 30
0.0
 11
11.0479264215955
 21
7.258844143224822
 31
0.0
  0
LINE
  5
4122
330
1F
100
AcDbEntity
  8
0
100
AcDbLine
 10
10.51938540715438
 20
6.158844143224762
 30
0.0
 11
10.51209480582185
 21
6.158844143224762
 31
0.0
  0
LINE
  5
4123
330
1F
100
AcDbEntity
  8
0
100
AcDbLine
 10
10.4908037797445
 20
7.258844143224822
 30
0.0
 11
10.51079149152285
 21
7.258844143224822
 31
0.0
  0
LINE
  5
4124
330
1F
100
AcDbEntity
  8
0
100
AcDbLine
 10
10.52254393002709
 20
6.158844143224762
 30
0.0
 11
10.51938540715438
 21
6.158844143224762
 31
0.0
  0
LINE
  5
4125
330
1F
100
AcDbEntity
  8
0
100
AcDbLine
 10
10.51079149152285
 20
7.258844143224822
 30
0.0
 11
10.51938540715485
 21
7.258844143224822
 31
0.0
  0
LINE
  5
4126
330
1F
100
AcDbEntity
  8
0
100
AcDbLine
 10
10.51938540715485
 20
7.258844143224822
 30
0.0
 11
10.52254393002757
 21
7.258844143224822
 31
0.0
  0
LINE
  5
4127
330
1F
100
AcDbEntity
  8
0
100
AcDbLine
 10
11.04792642159504
 20
6.158844143224766
 30
0.0
 11
10.52254393002709
 21
6.158844143224762
 31
0.0
  0
LINE
  5
4128
330
1F
100
AcDbEntity
  8
0
100
AcDbLine
 10
9.871487840975696
 20
6.158844143224766
 30
0.0
 11
9.895355736222875
 21
6.158844143224766
 31
0.0
  0
LINE
  5
4129
330
1F
100
AcDbEntity
  8
0
100
AcDbLine
 10
9.871487840976174
 20
7.258844143224822
 30
0.0
 11
9.895355736223356
 21
7.258844143224822
 31
0.0
  0
LINE
  5
412A
330
1F
100
AcDbEntity
  8
0
100
AcDbLine
 10
11.07108305356432
 20
7.258844143224822
 30
0.0
 11
11.0479264215955
 21
7.258844143224822
 31
0.0
  0
LINE
  5
412B
330
1F
100
AcDbEntity
  8
0
100
AcDbLine
 10
11.07108305356385
 20
6.158844143224766
 30
0.0
 11
11.04792642159504
 21
6.158844143224766
 31
0.0
  0
LINE
  5
412C
330
1F
100
AcDbEntity
  8
0
100
AcDbLine
 10
10.4908037797445
 20
7.258844143224822
 30
0.0
 11
10.4908037797445
 21
7.158844143224822
 31
0.0
  0
LINE
  5
412D
330
1F
100
AcDbEntity
  8
0
100
AcDbLine
 10
10.4908037797445
 20
7.158844143224822
 30
0.0
 11
11.07108305356432
 21
7.158844143224813
 31
0.0
  0
LINE
  5
412E
330
1F
100
AcDbEntity
  8
0
100
AcDbLine
 10
11.07108305356432
 20
7.058844143224813
 30
0.0
 11
10.4908037797445
 21
7.058844143224813
 31
0.0
  0
LINE
  5
412F
330
1F
100
AcDbEntity
  8
0
100
AcDbLine
 10
10.4908037797445
 20
7.058844143224813
 30
0.0
 11
10.4908037797445
 21
6.958844143224814
 31
0.0
  0
LINE
  5
4130
330
1F
100
AcDbEntity
  8
0
100
AcDbLine
 10
10.4908037797445
 20
6.958844143224814
 30
0.0
 11
11.07108305356432
 21
6.958844143224811
 31
0.0
  0
ARC
  5
4131
330
1F
100
AcDbEntity
  8
0
100
AcDbCircle
 10
11.07195788948576
 20
7.208844143224817
 30
0.0
 40
0.0500076527932462
100
AcDbArc
 50
268.9976141588702
 51
91.00238584113085
  0
ARC
  5
4132
330
1F
100
AcDbEntity
  8
0
100
AcDbCircle
 10
11.07195788948579
 20
7.108844143224808
 30
0.0
 40
0.0500076527932462
100
AcDbArc
 50
268.9976141588702
 51
91.00238584113096
  0
ARC
  5
4133
330
1F
100
AcDbEntity
  8
0
100
AcDbCircle
 10
11.07195788948579
 20
7.008844143224799
 30
0.0
 40
0.0500076527932462
100
AcDbArc
 50
268.9976141588702
 51
91.00238584113096
  0
LINE
  5
4134
330
1F
100
AcDbEntity
  8
0
100
AcDbLine
 10
10.4908037797445
 20
6.858844143224811
 30
0.0
 11
11.07108305356432
 21
6.858844143224803
 31
0.0
  0
LINE
  5
4135
330
1F
100
AcDbEntity
  8
0
100
AcDbLine
 10
11.07108305356432
 20
6.758844143224803
 30
0.0
 11
10.4908037797445
 21
6.758844143224803
 31
0.0
  0
LINE
  5
4136
330
1F
100
AcDbEntity
  8
0
100
AcDbLine
 10
10.4908037797445
 20
6.658844143224803
 30
0.0
 11
11.07108305356432
 21
6.658844143224801
 31
0.0
  0
ARC
  5
4137
330
1F
100
AcDbEntity
  8
0
100
AcDbCircle
 10
11.07195788948576
 20
6.908844143224807
 30
0.0
 40
0.0500076527932462
100
AcDbArc
 50
268.9976141588702
 51
91.00238584113096
  0
ARC
  5
4138
330
1F
100
AcDbEntity
  8
0
100
AcDbCircle
 10
11.07195788948579
 20
6.808844143224797
 30
0.0
 40
0.0500076527932462
100
AcDbArc
 50
268.9976141588702
 51
91.00238584113096
  0
ARC
  5
4139
330
1F
100
AcDbEntity
  8
0
100
AcDbCircle
 10
11.07195788948579
 20
6.708844143224789
 30
0.0
 40
0.0500076527932462
100
AcDbArc
 50
268.9976141588702
 51
91.00238584113096
  0
LINE
  5
413A
330
1F
100
AcDbEntity
  8
0
100
AcDbLine
 10
10.49080377974454
 20
6.558844143224785
 30
0.0
 11
11.07108305356435
 21
6.558844143224776
 31
0.0
  0
LINE
  5
413B
330
1F
100
AcDbEntity
  8
0
100
AcDbLine
 10
11.07108305356435
 20
6.458844143224776
 30
0.0
 11
10.49080377974454
 21
6.458844143224776
 31
0.0
  0
LINE
  5
413C
330
1F
100
AcDbEntity
  8
0
100
AcDbLine
 10
10.49080377974454
 20
6.358844143224777
 30
0.0
 11
11.07108305356435
 21
6.358844143224774
 31
0.0
  0
ARC
  5
413D
330
1F
100
AcDbEntity
  8
0
100
AcDbCircle
 10
11.07195788948579
 20
6.60884414322478
 30
0.0
 40
0.0500076527932462
100
AcDbArc
 50
268.9976141588702
 51
91.00238584113096
  0
ARC
  5
413E
330
1F
100
AcDbEntity
  8
0
100
AcDbCircle
 10
11.07195788948582
 20
6.508844143224771
 30
0.0
 40
0.0500076527932462
100
AcDbArc
 50
268.9976141588702
 51
91.00238584113096
  0
ARC
  5
413F
330
1F
100
AcDbEntity
  8
0
100
AcDbCircle
 10
11.07195788948582
 20
6.408844143224762
 30
0.0
 40
0.0500076527932462
100
AcDbArc
 50
268.9976141588702
 51
91.00238584113096
  0
LINE
  5
4140
330
1F
100
AcDbEntity
  8
0
100
AcDbLine
 10
10.49080377974454
 20
6.258844143224775
 30
0.0
 11
11.07108305356435
 21
6.258844143224766
 31
0.0
  0
LINE
  5
4141
330
1F
100
AcDbEntity
  8
0
100
AcDbLine
 10
11.07108305356435
 20
6.158844143224766
 30
0.0
 11
10.49080377974454
 21
6.158844143224766
 31
0.0
  0
ARC
  5
4142
330
1F
100
AcDbEntity
  8
0
100
AcDbCircle
 10
11.07195788948579
 20
6.30884414322477
 30
0.0
 40
0.0500076527932462
100
AcDbArc
 50
268.9976141588702
 51
91.00238584113096
  0
ARC
  5
4143
330
1F
100
AcDbEntity
  8
0
100
AcDbCircle
 10
11.07195788948582
 20
6.20884414322476
 30
0.0
 40
0.0500076527932462
100
AcDbArc
 50
268.9976141588702
 51
91.00238584113096
  0
LINE
  5
4144
330
1F
100
AcDbEntity
  8
0
100
AcDbLine
 10
10.4908037797445
 20
7.258844143224822
 30
0.0
 11
10.49080377974454
 21
6.158844143224766
 31
0.0
  0
LINE
  5
4145
330
1F
100
AcDbEntity
  8
0
100
AcDbLine
 10
10.46959057630891
 20
6.157257395754212
 30
0.0
 11
10.46959057630891
 21
7.258844143224822
 31
0.0
  0
LINE
  5
4146
330
1F
100
AcDbEntity
  8
0
100
AcDbLine
 10
10.45176711479605
 20
6.258844143224756
 30
0.0
 11
9.871487840976239
 21
6.258844143224765
 31
0.0
  0
LINE
  5
4147
330
1F
100
AcDbEntity
  8
0
100
AcDbLine
 10
9.871487840976239
 20
6.358844143224764
 30
0.0
 11
10.45176711479605
 21
6.358844143224764
 31
0.0
  0
LINE
  5
4148
330
1F
100
AcDbEntity
  8
0
100
AcDbLine
 10
10.45176711479605
 20
6.458844143224764
 30
0.0
 11
9.871487840976239
 21
6.458844143224767
 31
0.0
  0
ARC
  5
4149
330
1F
100
AcDbEntity
  8
0
100
AcDbCircle
 10
9.870613005054803
 20
6.20884414322476
 30
0.0
 40
0.0500076527932462
100
AcDbArc
 50
88.99761415887006
 51
271.0023858411306
  0
ARC
  5
414A
330
1F
100
AcDbEntity
  8
0
100
AcDbCircle
 10
9.870613005054771
 20
6.30884414322477
 30
0.0
 40
0.0500076527932462
100
AcDbArc
 50
88.99761415887006
 51
271.0023858411306
  0
ARC
  5
414B
330
1F
100
AcDbEntity
  8
0
100
AcDbCircle
 10
9.870613005054771
 20
6.408844143224778
 30
0.0
 40
0.0500076527932462
100
AcDbArc
 50
88.99761415887006
 51
271.0023858411306
  0
LINE
  5
414C
330
1F
100
AcDbEntity
  8
0
100
AcDbLine
 10
10.45176711479605
 20
6.558844143224766
 30
0.0
 11
9.871487840976239
 21
6.558844143224775
 31
0.0
  0
LINE
  5
414D
330
1F
100
AcDbEntity
  8
0
100
AcDbLine
 10
9.871487840976239
 20
6.658844143224775
 30
0.0
 11
10.45176711479605
 21
6.658844143224775
 31
0.0
  0
LINE
  5
414E
330
1F
100
AcDbEntity
  8
0
100
AcDbLine
 10
10.45176711479605
 20
6.758844143224775
 30
0.0
 11
9.871487840976239
 21
6.758844143224777
 31
0.0
  0
ARC
  5
414F
330
1F
100
AcDbEntity
  8
0
100
AcDbCircle
 10
9.870613005054801
 20
6.508844143224771
 30
0.0
 40
0.0500076527932462
100
AcDbArc
 50
88.99761415887006
 51
271.0023858411306
  0
ARC
  5
4150
330
1F
100
AcDbEntity
  8
0
100
AcDbCircle
 10
9.870613005054771
 20
6.60884414322478
 30
0.0
 40
0.0500076527932462
100
AcDbArc
 50
88.99761415887006
 51
271.0023858411306
  0
ARC
  5
4151
330
1F
100
AcDbEntity
  8
0
100
AcDbCircle
 10
9.870613005054769
 20
6.708844143224789
 30
0.0
 40
0.0500076527932462
100
AcDbArc
 50
88.99761415887006
 51
271.0023858411306
  0
LINE
  5
4152
330
1F
100
AcDbEntity
  8
0
100
AcDbLine
 10
10.45176711479602
 20
6.858844143224793
 30
0.0
 11
9.871487840976206
 21
6.858844143224802
 31
0.0
  0
LINE
  5
4153
330
1F
100
AcDbEntity
  8
0
100
AcDbLine
 10
9.871487840976206
 20
6.958844143224801
 30
0.0
 11
10.45176711479602
 21
6.958844143224801
 31
0.0
  0
LINE
  5
4154
330
1F
100
AcDbEntity
  8
0
100
AcDbLine
 10
10.45176711479602
 20
7.058844143224801
 30
0.0
 11
9.871487840976206
 21
7.058844143224804
 31
0.0
  0
ARC
  5
4155
330
1F
100
AcDbEntity
  8
0
100
AcDbCircle
 10
9.870613005054767
 20
6.808844143224797
 30
0.0
 40
0.0500076527932462
100
AcDbArc
 50
88.99761415887006
 51
271.0023858411306
  0
ARC
  5
4156
330
1F
100
AcDbEntity
  8
0
100
AcDbCircle
 10
9.870613005054737
 20
6.908844143224807
 30
0.0
 40
0.0500076527932462
100
AcDbArc
 50
88.99761415887006
 51
271.0023858411306
  0
ARC
  5
4157
330
1F
100
AcDbEntity
  8
0
100
AcDbCircle
 10
9.870613005054735
 20
7.008844143224815
 30
0.0
 40
0.0500076527932462
100
AcDbArc
 50
88.99761415887006
 51
271.0023858411306
  0
LINE
  5
4158
330
1F
100
AcDbEntity
  8
0
100
AcDbLine
 10
10.45176711479602
 20
7.158844143224803
 30
0.0
 11
9.871487840976204
 21
7.158844143224812
 31
0.0
  0
ARC
  5
4159
330
1F
100
AcDbEntity
  8
0
100
AcDbCircle
 10
9.870613005054767
 20
7.108844143224808
 30
0.0
 40
0.0500076527932462
100
AcDbArc
 50
88.99761415887006
 51
271.0023858411306
  0
ARC
  5
415A
330
1F
100
AcDbEntity
  8
0
100
AcDbCircle
 10
9.870613005054735
 20
7.208844143224817
 30
0.0
 40
0.0500076527932462
100
AcDbArc
 50
88.99761415887006
 51
271.0023858411306
  0
LINE
  5
415B
330
1F
100
AcDbEntity
  8
0
100
AcDbLine
 10
10.46503002221696
 20
7.35884414322483
 30
0.0
 11
9.895355736223347
 21
7.35884414322483
 31
0.0
  0
LINE
  5
415C
330
1F
100
AcDbEntity
  8
0
100
AcDbLine
 10
10.52254393002756
 20
7.35884414322483
 30
0.0
 11
11.04792642159549
 21
7.35884414322483
 31
0.0
  0
LINE
  5
415D
330
1F
100
AcDbEntity
  8
0
100
AcDbLine
 10
10.49080377974449
 20
7.35884414322483
 30
0.0
 11
10.51079149152285
 21
7.35884414322483
 31
0.0
  0
LINE
  5
415E
330
1F
100
AcDbEntity
  8
0
100
AcDbLine
 10
10.51079149152285
 20
7.35884414322483
 30
0.0
 11
10.51938540715484
 21
7.35884414322483
 31
0.0
  0
LINE
  5
415F
330
1F
100
AcDbEntity
  8
0
100
AcDbLine
 10
10.51938540715484
 20
7.35884414322483
 30
0.0
 11
10.52254393002756
 21
7.35884414322483
 31
0.0
  0
LINE
  5
4160
330
1F
100
AcDbEntity
  8
0
100
AcDbLine
 10
9.871487840976165
 20
7.35884414322483
 30
0.0
 11
9.895355736223347
 21
7.35884414322483
 31
0.0
  0
LINE
  5
4161
330
1F
100
AcDbEntity
  8
0
100
AcDbLine
 10
11.07108305356431
 20
7.35884414322483
 30
0.0
 11
11.04792642159549
 21
7.35884414322483
 31
0.0
  0
ARC
  5
4162
330
1F
100
AcDbEntity
  8
0
100
AcDbCircle
 10
11.07195788948575
 20
7.308844143224826
 30
0.0
 40
0.0500076527932462
100
AcDbArc
 50
268.9976141588702
 51
91.00238584113085
  0
ARC
  5
4163
330
1F
100
AcDbEntity
  8
0
100
AcDbCircle
 10
9.870613005054726
 20
7.308844143224826
 30
0.0
 40
0.0500076527932462
100
AcDbArc
 50
88.99761415887006
 51
271.0023858411306
  0
LINE
  5
4164
330
1F
100
AcDbEntity
  8
0
100
AcDbLine
 10
10.46503002221696
 20
7.35884414322483
 30
0.0
 11
10.49080377974449
 21
7.35884414322483
 31
0.0
  0
LINE
  5
4165
330
1F
100
AcDbEntity
  8
0
100
AcDbLine
 10
10.49080377974449
 20
7.35884414322483
 30
0.0
 11
10.4908037797445
 21
7.258844143224822
 31
0.0
  0
LINE
  5
4166
330
1F
100
AcDbEntity
  8
0
100
AcDbLine
 10
10.46959057630891
 20
7.258844143224822
 30
0.0
 11
10.4695905763089
 21
7.35884414322483
 31
0.0
  0
LINE
  5
4167
330
1F
100
AcDbEntity
  8
0
100
AcDbLine
 10
10.23264985234276
 20
6.057257395754214
 30
0.0
 11
10.70665893886064
 21
6.057257395754214
 31
0.0
  0
LINE
  5
4168
330
1F
100
AcDbEntity
  8
0
100
AcDbLine
 10
9.895355736222331
 20
6.058844143224767
 30
0.0
 11
10.46503002221595
 21
6.058844143224767
 31
0.0
  0
LINE
  5
4169
330
1F
100
AcDbEntity
  8
0
100
AcDbLine
 10
11.04792642159449
 20
6.058844143224767
 30
0.0
 11
10.52254393002654
 21
6.058844143224764
 31
0.0
  0
LINE
  5
416A
330
1F
100
AcDbEntity
  8
0
100
AcDbLine
 10
9.871487840975152
 20
6.058844143224767
 30
0.0
 11
9.895355736222331
 21
6.058844143224767
 31
0.0
  0
LINE
  5
416B
330
1F
100
AcDbEntity
  8
0
100
AcDbLine
 10
11.0710830535633
 20
6.058844143224767
 30
0.0
 11
11.04792642159449
 21
6.058844143224767
 31
0.0
  0
LINE
  5
416C
330
1F
100
AcDbEntity
  8
0
100
AcDbLine
 10
11.07108305356381
 20
6.058844143224767
 30
0.0
 11
10.49080377974399
 21
6.058844143224767
 31
0.0
  0
ARC
  5
416D
330
1F
100
AcDbEntity
  8
0
100
AcDbCircle
 10
11.07195788948528
 20
6.108844143224762
 30
0.0
 40
0.0500076527932462
100
AcDbArc
 50
268.9976141588702
 51
91.00238584113096
  0
ARC
  5
416E
330
1F
100
AcDbEntity
  8
0
100
AcDbCircle
 10
9.870613005054259
 20
6.108844143224762
 30
0.0
 40
0.0500076527932462
100
AcDbArc
 50
88.99761415887006
 51
271.0023858411306
  0
LINE
  5
416F
330
1F
100
AcDbEntity
  8
0
100
AcDbLine
 10
10.46959057630891
 20
6.157257395754212
 30
0.0
 11
10.4695905763089
 21
6.058844143224766
 31
0.0
  0
LINE
  5
4170
330
1F
100
AcDbEntity
  8
0
100
AcDbLine
 10
10.49080377974402
 20
6.158844143224766
 30
0.0
 11
10.49080377974399
 21
6.058844143224767
 31
0.0
  0
CIRCLE
  5
4171
330
1F
100
AcDbEntity
  8
0
100
AcDbCircle
 10
10.60474602797908
 20
7.300582114035453
 30
0.0
 40
0.01089627287962
  0
CIRCLE
  5
4172
330
1F
100
AcDbEntity
  8
0
100
AcDbCircle
 10
10.60474602797908
 20
7.202606397996301
 30
0.0
 40
0.01089627287962
  0
CIRCLE
  5
4173
330
1F
100
AcDbEntity
  8
0
100
AcDbCircle
 10
10.60474602797908
 20
7.104630681957154
 30
0.0
 40
0.01089627287962
  0
CIRCLE
  5
4174
330
1F
100
AcDbEntity
  8
0
100
AcDbCircle
 10
10.60474602797908
 20
7.003933440110557
 30
0.0
 40
0.01089627287962
  0
CIRCLE
  5
4175
330
1F
100
AcDbEntity
  8
0
100
AcDbCircle
 10
10.60474602797908
 20
6.905957724071406
 30
0.0
 40
0.01089627287962
  0
CIRCLE
  5
4176
330
1F
100
AcDbEntity
  8
0
100
AcDbCircle
 10
10.60474602797908
 20
6.807982008032254
 30
0.0
 40
0.01089627287962
  0
CIRCLE
  5
4177
330
1F
100
AcDbEntity
  8
0
100
AcDbCircle
 10
10.60474602797908
 20
6.707284766185658
 30
0.0
 40
0.01089627287962
  0
CIRCLE
  5
4178
330
1F
100
AcDbEntity
  8
0
100
AcDbCircle
 10
10.60474602797908
 20
6.606587501854175
 30
0.0
 40
0.01089627287962
  0
CIRCLE
  5
4179
330
1F
100
AcDbEntity
  8
0
100
AcDbCircle
 10
10.60474602797908
 20
6.505890237522692
 30
0.0
 40
0.01089627287962
  0
CIRCLE
  5
417A
330
1F
100
AcDbEntity
  8
0
100
AcDbCircle
 10
10.60474602797908
 20
6.407914543968427
 30
0.0
 40
0.01089627287962
  0
CIRCLE
  5
417B
330
1F
100
AcDbEntity
  8
0
100
AcDbCircle
 10
10.60492450305752
 20
6.30789025231839
 30
0.0
 40
0.01089627287962
  0
CIRCLE
  5
417C
330
1F
100
AcDbEntity
  8
0
100
AcDbCircle
 10
10.60063848004566
 20
6.209403095029252
 30
0.0
 40
0.01089627287962
  0
CIRCLE
  5
417D
330
1F
100
AcDbEntity
  8
0
100
AcDbCircle
 10
10.59849549236819
 20
6.108774926756908
 30
0.0
 40
0.01089627287962
  0
CIRCLE
  5
417E
330
1F
100
AcDbEntity
  8
0
100
AcDbCircle
 10
10.96555162780557
 20
7.302392866991759
 30
0.0
 40
0.01089627287962
  0
CIRCLE
  5
417F
330
1F
100
AcDbEntity
  8
0
100
AcDbCircle
 10
10.96555162780557
 20
7.204417150952608
 30
0.0
 40
0.01089627287962
  0
CIRCLE
  5
4180
330
1F
100
AcDbEntity
  8
0
100
AcDbCircle
 10
10.96555162780557
 20
7.10644143491346
 30
0.0
 40
0.01089627287962
  0
CIRCLE
  5
4181
330
1F
100
AcDbEntity
  8
0
100
AcDbCircle
 10
10.96555162780557
 20
7.005744193066863
 30
0.0
 40
0.01089627287962
  0
CIRCLE
  5
4182
330
1F
100
AcDbEntity
  8
0
100
AcDbCircle
 10
10.96555162780557
 20
6.907768477027712
 30
0.0
 40
0.01089627287962
  0
CIRCLE
  5
4183
330
1F
100
AcDbEntity
  8
0
100
AcDbCircle
 10
10.96555162780557
 20
6.80979276098856
 30
0.0
 40
0.01089627287962
  0
CIRCLE
  5
4184
330
1F
100
AcDbEntity
  8
0
100
AcDbCircle
 10
10.96555162780557
 20
6.709095519141964
 30
0.0
 40
0.01089627287962
  0
CIRCLE
  5
4185
330
1F
100
AcDbEntity
  8
0
100
AcDbCircle
 10
10.96555162780557
 20
6.608398254810481
 30
0.0
 40
0.01089627287962
  0
CIRCLE
  5
4186
330
1F
100
AcDbEntity
  8
0
100
AcDbCircle
 10
10.96555162780557
 20
6.507700990478998
 30
0.0
 40
0.01089627287962
  0
CIRCLE
  5
4187
330
1F
100
AcDbEntity
  8
0
100
AcDbCircle
 10
10.96555162780557
 20
6.409725296924733
 30
0.0
 40
0.01089627287962
  0
CIRCLE
  5
4188
330
1F
100
AcDbEntity
  8
0
100
AcDbCircle
 10
10.96573010288401
 20
6.309701005274696
 30
0.0
 40
0.01089627287962
  0
CIRCLE
  5
4189
330
1F
100
AcDbEntity
  8
0
100
AcDbCircle
 10
10.96144407987216
 20
6.211213847985558
 30
0.0
 40
0.01089627287962
  0
CIRCLE
  5
418A
330
1F
100
AcDbEntity
  8
0
100
AcDbCircle
 10
10.95930109219468
 20
6.110585679713214
 30
0.0
 40
0.01089627287962
  0
CIRCLE
  5
418B
330
1F
100
AcDbEntity
  8
0
100
AcDbCircle
 10
10.36371169348146
 20
7.302786082703523
 30
0.0
 40
0.01089627287962
  0
CIRCLE
  5
418C
330
1F
100
AcDbEntity
  8
0
100
AcDbCircle
 10
10.36371169348146
 20
7.204810366664371
 30
0.0
 40
0.01089627287962
  0
CIRCLE
  5
418D
330
1F
100
AcDbEntity
  8
0
100
AcDbCircle
 10
10.36371169348146
 20
7.106834650625224
 30
0.0
 40
0.01089627287962
  0
CIRCLE
  5
418E
330
1F
100
AcDbEntity
  8
0
100
AcDbCircle
 10
10.36371169348146
 20
7.006137408778627
 30
0.0
 40
0.01089627287962
  0
CIRCLE
  5
418F
330
1F
100
AcDbEntity
  8
0
100
AcDbCircle
 10
10.36371169348146
 20
6.908161692739476
 30
0.0
 40
0.01089627287962
  0
CIRCLE
  5
4190
330
1F
100
AcDbEntity
  8
0
100
AcDbCircle
 10
10.36371169348146
 20
6.810185976700324
 30
0.0
 40
0.01089627287962
  0
CIRCLE
  5
4191
330
1F
100
AcDbEntity
  8
0
100
AcDbCircle
 10
10.36371169348146
 20
6.709488734853728
 30
0.0
 40
0.01089627287962
  0
CIRCLE
  5
4192
330
1F
100
AcDbEntity
  8
0
100
AcDbCircle
 10
10.36371169348146
 20
6.608791470522245
 30
0.0
 40
0.01089627287962
  0
CIRCLE
  5
4193
330
1F
100
AcDbEntity
  8
0
100
AcDbCircle
 10
10.36371169348146
 20
6.508094206190762
 30
0.0
 40
0.01089627287962
  0
CIRCLE
  5
4194
330
1F
100
AcDbEntity
  8
0
100
AcDbCircle
 10
10.36371169348146
 20
6.410118512636497
 30
0.0
 40
0.01089627287962
  0
CIRCLE
  5
4195
330
1F
100
AcDbEntity
  8
0
100
AcDbCircle
 10
10.3638901685599
 20
6.31009422098646
 30
0.0
 40
0.01089627287962
  0
CIRCLE
  5
4196
330
1F
100
AcDbEntity
  8
0
100
AcDbCircle
 10
10.35960414554804
 20
6.211607063697321
 30
0.0
 40
0.01089627287962
  0
CIRCLE
  5
4197
330
1F
100
AcDbEntity
  8
0
100
AcDbCircle
 10
10.35746115787057
 20
6.110978895424977
 30
0.0
 40
0.01089627287962
  0
CIRCLE
  5
4198
330
1F
100
AcDbEntity
  8
0
100
AcDbCircle
 10
9.989804116621712
 20
7.302786082703523
 30
0.0
 40
0.01089627287962
  0
CIRCLE
  5
4199
330
1F
100
AcDbEntity
  8
0
100
AcDbCircle
 10
9.989804116621712
 20
7.204810366664371
 30
0.0
 40
0.01089627287962
  0
CIRCLE
  5
419A
330
1F
100
AcDbEntity
  8
0
100
AcDbCircle
 10
9.989804116621712
 20
7.106834650625224
 30
0.0
 40
0.01089627287962
  0
CIRCLE
  5
419B
330
1F
100
AcDbEntity
  8
0
100
AcDbCircle
 10
9.989804116621712
 20
7.006137408778627
 30
0.0
 40
0.01089627287962
  0
CIRCLE
  5
419C
330
1F
100
AcDbEntity
  8
0
100
AcDbCircle
 10
9.989804116621712
 20
6.908161692739476
 30
0.0
 40
0.01089627287962
  0
CIRCLE
  5
419D
330
1F
100
AcDbEntity
  8
0
100
AcDbCircle
 10
9.989804116621712
 20
6.810185976700324
 30
0.0
 40
0.01089627287962
  0
CIRCLE
  5
419E
330
1F
100
AcDbEntity
  8
0
100
AcDbCircle
 10
9.989804116621712
 20
6.709488734853728
 30
0.0
 40
0.01089627287962
  0
CIRCLE
  5
419F
330
1F
100
AcDbEntity
  8
0
100
AcDbCircle
 10
9.989804116621712
 20
6.608791470522245
 30
0.0
 40
0.01089627287962
  0
CIRCLE
  5
41A0
330
1F
100
AcDbEntity
  8
0
100
AcDbCircle
 10
9.989804116621712
 20
6.508094206190762
 30
0.0
 40
0.01089627287962
  0
CIRCLE
  5
41A1
330
1F
100
AcDbEntity
  8
0
100
AcDbCircle
 10
9.989804116621712
 20
6.410118512636497
 30
0.0
 40
0.01089627287962
  0
CIRCLE
  5
41A2
330
1F
100
AcDbEntity
  8
0
100
AcDbCircle
 10
9.989982591700147
 20
6.31009422098646
 30
0.0
 40
0.01089627287962
  0
CIRCLE
  5
41A3
330
1F
100
AcDbEntity
  8
0
100
AcDbCircle
 10
9.985696568688297
 20
6.211607063697321
 30
0.0
 40
0.01089627287962
  0
CIRCLE
  5
41A4
330
1F
100
AcDbEntity
  8
0
100
AcDbCircle
 10
9.983553581010824
 20
6.110978895424977
 30
0.0
 40
0.01089627287962
  0
DIMENSION
  5
41AD
102
{ACAD_XDICTIONARY
360
41B8
102
}
102
{ACAD_REACTORS
330
41C0
102
}
330
1F
100
AcDbEntity
  8
WYMIAR
100
AcDbDimension
  2
*D3
 10
8.411370506718988
 20
10.23301261394591
 30
0.0
 11
10.46137050671899
 21
10.44301261394591
 31
0.0
 70
    32
 71
     5
 42
4.099999999999999
  3
AR SKALA 1-50
100
AcDbAlignedDimension
 13
12.51137050671899
 23
9.827971923590817
 33
0.0
 14
8.411370506718988
 24
9.827971923590819
 34
0.0
100
AcDbRotatedDimension
  0
DIMENSION
  5
41C1
102
{ACAD_XDICTIONARY
360
41CC
102
}
102
{ACAD_REACTORS
330
41D4
102
}
330
1F
100
AcDbEntity
  8
WYMIAR
100
AcDbDimension
  2
*D4
 10
7.863136223659317
 20
4.527971923590818
 30
0.0
 11
7.653136223659316
 21
7.17797192359082
 31
0.0
 70
    32
 71
     5
 42
5.3
  3
AR SKALA 1-50
100
AcDbAlignedDimension
 13
8.411370506718988
 23
9.827971923590819
 33
0.0
 14
8.411370506718988
 24
4.527971923590818
 34
0.0
 50
90.0
100
AcDbRotatedDimension
  0
VIEWPORT
  5
7CA
330
1B
100
AcDbEntity
 67
     1
  8
0
100
AcDbViewport
 10
243.901373445621
 20
123.0363382941305
 30
0.0
 40
680.1887038129457
 41
344.3296489414227
 68
     1
 69
     1
 12
243.901373445621
 22
123.0363382941305
 13
0.0
 23
0.0
 14
10.0
 24
10.0
 15
10.0
 25
10.0
 16
0.0
 26
0.0
 36
1.0
 17
0.0
 27
0.0
 37
0.0
 42
50.0
 43
0.0
 44
0.0
 45
344.3296489414227
 50
0.0
 51
0.0
 72
   100
 90
   819232
  1

281
     0
 71
     1
 74
     0
110
0.0
120
0.0
130
0.0
111
1.0
121
0.0
131
0.0
112
0.0
122
1.0
132
0.0
 79
     0
146
0.0
170
     0
  0
VIEWPORT
  5
99A
330
1B
100
AcDbEntity
 67
     1
  8
Defpoints
100
AcDbViewport
 10
151.5855934681565
 20
104.8621726199724
 30
0.0
 40
290.0480970456033
 41
203.1599664902751
 68
     2
 69
     2
 12
10.52628202427198
 22
7.055332186530126
 13
0.0
 23
0.0
 14
0.5
 24
0.5
 15
0.5
 25
0.5
 16
0.0
 26
0.0
 36
1.0
 17
0.0
 27
0.0
 37
-1000.0
 42
50.0
 43
4.148984367261674
 44
9.217858496371269
 45
10.15799927015914
 50
0.0
 51
0.0
 72
   100
 90
   819296
  1

281
     0
 71
     1
 74
     0
110
0.0
120
0.0
130
0.0
111
1.0
121
0.0
131
0.0
112
0.0
122
1.0
132
0.0
 79
     0
146
0.0
170
     0
  0
ENDSEC
  0
SECTION
  2
OBJECTS
  0
DICTIONARY
  5
C
330
0
100
AcDbDictionary
281
     1
  3
ACAD_COLOR
350
4B9
  3
ACAD_GROUP
350
D
  3
ACAD_LAYOUT
350
1A
  3
ACAD_MATERIAL
350
3B
  3
ACAD_MLEADERSTYLE
350
489
  3
ACAD_MLINESTYLE
350
17
  3
ACAD_PLOTSETTINGS
350
19
  3
ACAD_PLOTSTYLENAME
350
E
  3
ACAD_SCALELIST
350
3973
  3
ACAD_TABLESTYLE
350
4BA
  3
ACAD_VISUALSTYLE
350
2A
  3
ACDB_RECOMPOSE_DATA
350
39AC
  3
AcDbVariableDictionary
350
487
  0
DICTIONARY
  5
84C
330
8
100
AcDbDictionary
280
     1
281
     1
  0
DICTIONARY
  5
7D1
330
2
100
AcDbDictionary
280
     1
281
     1
  3
ACAD_LAYERFILTERS
360
41DB
  3
ACAD_LAYERSTATES
360
7D2
  3
ACLYDICTIONARY
360
41DA
  0
DICTIONARY
  5
39A4
330
10
100
AcDbDictionary
280
     1
281
     1
  3
ADSK_XREC_LAYER_RECONCILED
360
39A5
  0
DICTIONARY
  5
39A6
330
87B
100
AcDbDictionary
280
     1
281
     1
  3
ADSK_XREC_LAYER_RECONCILED
360
39A7
  0
DICTIONARY
  5
39A8
330
87D
100
AcDbDictionary
280
     1
281
     1
  3
ADSK_XREC_LAYER_RECONCILED
360
39A9
  0
DICTIONARY
  5
5F8
330
1F
100
AcDbDictionary
280
     1
281
     1
  3
ACAD_SORTENTS
360
5F9
  0
DICTIONARY
  5
41B8
330
41AD
100
AcDbDictionary
280
     1
281
     1
  3
ACAD_DIMASSOC
360
41C0
  0
DICTIONARY
  5
41CC
330
41C1
100
AcDbDictionary
280
     1
281
     1
  3
ACAD_DIMASSOC
360
41D4
  0
DICTIONARY
  5
4B9
102
{ACAD_REACTORS
330
C
102
}
330
C
100
AcDbDictionary
281
     1
  0
DICTIONARY
  5
D
102
{ACAD_REACTORS
330
C
102
}
330
C
100
AcDbDictionary
281
     1
  0
DICTIONARY
  5
1A
102
{ACAD_REACTORS
330
C
102
}
330
C
100
AcDbDictionary
281
     1
  3
Layout1
350
1E
  3
Model
350
22
  0
DICTIONARY
  5
3B
102
{ACAD_REACTORS
330
C
102
}
330
C
100
AcDbDictionary
281
     1
  3
ByBlock
350
3D
  3
ByLayer
350
3C
  3
Global
350
3E
  0
DICTIONARY
  5
489
102
{ACAD_REACTORS
330
C
102
}
330
C
100
AcDbDictionary
281
     1
  3
Standard
350
3995
  0
DICTIONARY
  5
17
102
{ACAD_REACTORS
330
C
102
}
330
C
100
AcDbDictionary
281
     1
  3
Standard
350
18
  0
DICTIONARY
  5
19
102
{ACAD_REACTORS
330
C
102
}
330
C
100
AcDbDictionary
281
     1
  0
ACDBDICTIONARYWDFLT
  5
E
102
{ACAD_REACTORS
330
C
102
}
330
C
100
AcDbDictionary
281
     1
  3
Normal
350
F
100
AcDbDictionaryWithDefault
340
F
  0
DICTIONARY
  5
3973
102
{ACAD_REACTORS
330
C
102
}
330
C
100
AcDbDictionary
281
     1
  3
A0
350
3974
  3
A1
350
3975
  3
A2
350
3976
  3
A3
350
3977
  3
A4
350
3978
  3
A5
350
3979
  3
A6
350
397A
  3
A7
350
397B
  3
A8
350
397C
  3
A9
350
397D
  3
B0
350
397E
  3
B1
350
397F
  3
B2
350
3980
  3
B3
350
3981
  3
B4
350
3982
  3
B5
350
3983
  3
B6
350
3984
  3
B7
350
3985
  3
B8
350
3986
  3
B9
350
3987
  3
C0
350
3988
  3
C1
350
3989
  3
C2
350
398A
  3
C3
350
398B
  3
C4
350
398C
  3
C5
350
398D
  3
C6
350
398E
  3
C7
350
398F
  3
C8
350
3990
  3
C9
350
3991
  3
D0
350
3992
  3
D1
350
3993
  3
D2
350
3994
  0
DICTIONARY
  5
4BA
102
{ACAD_REACTORS
330
C
102
}
330
C
100
AcDbDictionary
281
     1
  3
Standard
350
4BB
  0
DICTIONARY
  5
2A
102
{ACAD_REACTORS
330
C
102
}
330
C
100
AcDbDictionary
281
     1
  3
2dWireframe
350
2F
  3
3D Hidden
350
A47
  3
3dWireframe
350
A48
  3
Basic
350
32
  3
Brighten
350
36
  3
ColorChange
350
3A
  3
Conceptual
350
A4B
  3
Dim
350
35
  3
Facepattern
350
39
  3
Flat
350
2B
  3
FlatWithEdges
350
2C
  3
Gouraud
350
2D
  3
GouraudWithEdges
350
2E
  3
Linepattern
350
38
  3
Realistic
350
A4C
  3
Thicken
350
37
  0
XRECORD
  5
39AC
102
{ACAD_REACTORS
330
C
102
}
330
C
100
AcDbXrecord
280
     1
 90
        1
330
4BB
  0
DICTIONARY
  5
487
102
{ACAD_REACTORS
330
C
102
}
330
C
100
AcDbDictionary
281
     1
  3
CANNOSCALE
350
39AF
  3
CMLEADERSTYLE
350
39AD
  3
CTABLESTYLE
350
5FE
  3
DIMASSOC
350
48A
  3
HIDETEXT
350
48B
  3
INDEXCTL
350
86B
  3
LIGHTINGUNITS
350
39B0
  3
MSLTSCALE
350
39AE
  3
SORTENTS
350
86A
  0
DICTIONARY
  5
41DB
102
{ACAD_REACTORS
330
7D1
102
}
330
7D1
100
AcDbDictionary
281
     1
  0
DICTIONARY
  5
7D2
102
{ACAD_REACTORS
330
7D1
102
}
330
7D1
100
AcDbDictionary
281
     1
  0
DICTIONARY
  5
41DA
102
{ACAD_REACTORS
330
7D1
102
}
330
7D1
100
AcDbDictionary
281
     1
1001
ACAD
1000
<All
  0
XRECORD
  5
39A5
102
{ACAD_REACTORS
330
39A4
102
}
330
39A4
100
AcDbXrecord
280
     1
290
     1
  0
XRECORD
  5
39A7
102
{ACAD_REACTORS
330
39A6
102
}
330
39A6
100
AcDbXrecord
280
     1
290
     1
  0
XRECORD
  5
39A9
102
{ACAD_REACTORS
330
39A8
102
}
330
39A8
100
AcDbXrecord
280
     1
290
     1
  0
SORTENTSTABLE
  5
5F9
102
{ACAD_REACTORS
330
5F8
102
}
330
5F8
100
AcDbSortentsTable
330
1F
  0
DIMASSOC
  5
41C0
102
{ACAD_REACTORS
330
41B8
102
}
330
41B8
100
AcDbDimAssoc
330
41AD
 90
        3
 70
     0
 71
     0
  1
AcDbOsnapPointRef
 72
    13
331
403A
 73
     2
 91
        0
 40
0.0
 10
0.0
 20
0.0
 30
2.000000000000000E+50
 75
     0
  1
AcDbOsnapPointRef
 72
    13
331
403B
 73
     2
 91
        0
 40
0.0
 10
0.0
 20
0.0
 30
2.000000000000000E+50
 75
     0
  0
DIMASSOC
  5
41D4
102
{ACAD_REACTORS
330
41CC
102
}
330
41CC
100
AcDbDimAssoc
330
41C1
 90
        3
 70
     0
 71
     0
  1
AcDbOsnapPointRef
 72
    13
331
403B
 73
     2
 91
        0
 40
0.0
 10
0.0
 20
0.0
 30
2.000000000000000E+50
 75
     0
  1
AcDbOsnapPointRef
 72
     1
331
403B
 73
     2
 91
        0
 40
1.0
 10
0.0
 20
0.0
 30
2.000000000000000E+50
 75
     0
  0
LAYOUT
  5
1E
102
{ACAD_XDICTIONARY
360
7D4
102
}
102
{ACAD_REACTORS
330
1A
102
}
330
1A
100
AcDbPlotSettings
  1

  2
Bullzip PDF Printer
  4
A4
  6

 40
3.174999952316284
 41
3.174999952316284
 42
3.175003051757812
 43
3.17498779296875
 44
209.8886566162109
 45
297.0530090332031
 46
0.0
 47
0.0
 48
6.561544945354853
 49
3.282189374834842
140
296.6096419909582
141
206.4421558651099
142
1.0
143
1.0
 70
   672
 72
     1
 73
     1
 74
     4
  7
monochrome.ctb
 75
    16
147
25.4
 76
     0
 77
     2
 78
   300
148
-6.561544945354853
149
-3.282189374834842
100
AcDbLayout
  1
Layout1
 70
     0
 71
     1
 10
3.386557152386103
 20
0.1071894225185588
 11
300.4395661855892
 21
209.9958460387295
 12
0.0
 22
0.0
 32
0.0
 14
6.561544945354853
 24
3.282189374834842
 34
0.0
 15
296.6096419909582
 25
206.4421558651099
 35
0.0
146
0.0
 13
0.0
 23
0.0
 33
0.0
 16
1.0
 26
0.0
 36
0.0
 17
0.0
 27
1.0
 37
0.0
 76
     0
330
1B
331
7CA
1001
ACAD_PSEXT
1000
Bullzip PDF Printer
1000
Bullzip PDF Printer
1000
BULLZIP
1000
Bullzip PDF Printer 7.2.0.1338
1070
     0
  0
LAYOUT
  5
22
102
{ACAD_REACTORS
330
1A
102
}
330
1A
100
AcDbPlotSettings
  1

  2
none_device
  4
Letter_(8.50_x_11.00_Inches)
  6

 40
6.349999904632568
 41
6.349999904632568
 42
6.350006103515625
 43
6.350006103515625
 44
215.8999938964844
 45
279.3999938964844
 46
0.0
 47
0.0
 48
0.0
 49
0.0
140
0.0
141
0.0
142
1.0
143
1.527278456471936
 70
 11952
 72
     0
 73
     1
 74
     0
  7

 75
     0
147
0.6547594485880677
 76
     0
 77
     2
 78
   300
148
-33.1826833926889
149
-88.79759965204332
100
AcDbLayout
  1
Model
 70
     1
 71
     0
 10
0.0
 20
0.0
 11
12.0
 21
9.0
 12
0.0
 22
0.0
 32
0.0
 14
1.000000000000000E+20
 24
1.000000000000000E+20
 34
1.000000000000000E+20
 15
-1.000000000000000E+20
 25
-1.000000000000000E+20
 35
-1.000000000000000E+20
146
0.0
 13
0.0
 23
0.0
 33
0.0
 16
1.0
 26
0.0
 36
0.0
 17
0.0
 27
1.0
 37
0.0
 76
     0
330
1F
331
29
1001
ACAD_PSEXT
1000
Brak
1000
Brak
1000
Nie można zastosować.
1000
Arkusz nie zostanie wydrukowany dopóki nie wybrano konfiguracji plotera.
1070
     0
  0
MATERIAL
  5
3D
102
{ACAD_XDICTIONARY
360
41F3
102
}
102
{ACAD_REACTORS
330
3B
102
}
330
3B
100
AcDbMaterial
  1
ByBlock
 73
     1
 78
     1
172
     1
176
     1
270
     1
274
     1
  0
MATERIAL
  5
3C
102
{ACAD_XDICTIONARY
360
41F1
102
}
102
{ACAD_REACTORS
330
3B
102
}
330
3B
100
AcDbMaterial
  1
ByLayer
 73
     1
 78
     1
172
     1
176
     1
270
     1
274
     1
  0
MATERIAL
  5
3E
102
{ACAD_XDICTIONARY
360
41F5
102
}
102
{ACAD_REACTORS
330
3B
102
}
330
3B
100
AcDbMaterial
  1
Global
 73
     1
 78
     1
172
     1
176
     1
270
     1
274
     1
  0
MLEADERSTYLE
  5
3995
102
{ACAD_REACTORS
330
489
102
}
330
489
100
AcDbMLeaderStyle
170
     2
171
     1
172
     0
 90
        2
 40
0.0
 41
0.0
173
     1
 91
-1056964608
340
14
 92
       -2
290
     1
 42
0.09
291
     1
 43
0.36
  3
Standard
 44
0.18
300

342
11
174
     1
178
     6
175
     1
176
     0
 93
-1056964608
 45
0.18
292
     0
297
     0
 46
0.18
 94
-1056964608
 47
1.0
 49
1.0
140
1.0
293
     1
141
0.0
294
     1
177
     0
142
1.0
295
     0
296
     0
143
0.125
1001
ACAD_MLEADERVER
1070
     2
  0
MLINESTYLE
  5
18
102
{ACAD_REACTORS
330
17
102
}
330
17
100
AcDbMlineStyle
  2
STANDARD
 70
     0
  3

 62
   256
 51
90.0
 52
90.0
 71
     2
 49
0.5
 62
   256
  6
BYLAYER
 49
-0.5
 62
   256
  6
BYLAYER
  0
ACDBPLACEHOLDER
  5
F
102
{ACAD_REACTORS
330
E
102
}
330
E
  0
SCALE
  5
3974
102
{ACAD_REACTORS
330
3973
102
}
330
3973
100
AcDbScale
 70
     0
300
1:1
140
1.0
141
1.0
290
     1
  0
SCALE
  5
3975
102
{ACAD_REACTORS
330
3973
102
}
330
3973
100
AcDbScale
 70
     0
300
1:2
140
1.0
141
2.0
290
     0
  0
SCALE
  5
3976
102
{ACAD_REACTORS
330
3973
102
}
330
3973
100
AcDbScale
 70
     0
300
1:4
140
1.0
141
4.0
290
     0
  0
SCALE
  5
3977
102
{ACAD_REACTORS
330
3973
102
}
330
3973
100
AcDbScale
 70
     0
300
1:5
140
1.0
141
5.0
290
     0
  0
SCALE
  5
3978
102
{ACAD_REACTORS
330
3973
102
}
330
3973
100
AcDbScale
 70
     0
300
1:8
140
1.0
141
8.0
290
     0
  0
SCALE
  5
3979
102
{ACAD_REACTORS
330
3973
102
}
330
3973
100
AcDbScale
 70
     0
300
1:10
140
1.0
141
10.0
290
     0
  0
SCALE
  5
397A
102
{ACAD_REACTORS
330
3973
102
}
330
3973
100
AcDbScale
 70
     0
300
1:16
140
1.0
141
16.0
290
     0
  0
SCALE
  5
397B
102
{ACAD_REACTORS
330
3973
102
}
330
3973
100
AcDbScale
 70
     0
300
1:20
140
1.0
141
20.0
290
     0
  0
SCALE
  5
397C
102
{ACAD_REACTORS
330
3973
102
}
330
3973
100
AcDbScale
 70
     0
300
1:30
140
1.0
141
30.0
290
     0
  0
SCALE
  5
397D
102
{ACAD_REACTORS
330
3973
102
}
330
3973
100
AcDbScale
 70
     0
300
1:40
140
1.0
141
40.0
290
     0
  0
SCALE
  5
397E
102
{ACAD_REACTORS
330
3973
102
}
330
3973
100
AcDbScale
 70
     0
300
1:50
140
1.0
141
50.0
290
     0
  0
SCALE
  5
397F
102
{ACAD_REACTORS
330
3973
102
}
330
3973
100
AcDbScale
 70
     0
300
1:100
140
1.0
141
100.0
290
     0
  0
SCALE
  5
3980
102
{ACAD_REACTORS
330
3973
102
}
330
3973
100
AcDbScale
 70
     0
300
2:1
140
2.0
141
1.0
290
     0
  0
SCALE
  5
3981
102
{ACAD_REACTORS
330
3973
102
}
330
3973
100
AcDbScale
 70
     0
300
4:1
140
4.0
141
1.0
290
     0
  0
SCALE
  5
3982
102
{ACAD_REACTORS
330
3973
102
}
330
3973
100
AcDbScale
 70
     0
300
8:1
140
8.0
141
1.0
290
     0
  0
SCALE
  5
3983
102
{ACAD_REACTORS
330
3973
102
}
330
3973
100
AcDbScale
 70
     0
300
10:1
140
10.0
141
1.0
290
     0
  0
SCALE
  5
3984
102
{ACAD_REACTORS
330
3973
102
}
330
3973
100
AcDbScale
 70
     0
300
100:1
140
100.0
141
1.0
290
     0
  0
SCALE
  5
3985
102
{ACAD_REACTORS
330
3973
102
}
330
3973
100
AcDbScale
 70
     0
300
1/128" = 1'-0"
140
0.0078125
141
12.0
290
     0
  0
SCALE
  5
3986
102
{ACAD_REACTORS
330
3973
102
}
330
3973
100
AcDbScale
 70
     0
300
1/64" = 1'-0"
140
0.015625
141
12.0
290
     0
  0
SCALE
  5
3987
102
{ACAD_REACTORS
330
3973
102
}
330
3973
100
AcDbScale
 70
     0
300
1/32" = 1'-0"
140
0.03125
141
12.0
290
     0
  0
SCALE
  5
3988
102
{ACAD_REACTORS
330
3973
102
}
330
3973
100
AcDbScale
 70
     0
300
1/16" = 1'-0"
140
0.0625
141
12.0
290
     0
  0
SCALE
  5
3989
102
{ACAD_REACTORS
330
3973
102
}
330
3973
100
AcDbScale
 70
     0
300
3/32" = 1'-0"
140
0.09375
141
12.0
290
     0
  0
SCALE
  5
398A
102
{ACAD_REACTORS
330
3973
102
}
330
3973
100
AcDbScale
 70
     0
300
1/8" = 1'-0"
140
0.125
141
12.0
290
     0
  0
SCALE
  5
398B
102
{ACAD_REACTORS
330
3973
102
}
330
3973
100
AcDbScale
 70
     0
300
3/16" = 1'-0"
140
0.1875
141
12.0
290
     0
  0
SCALE
  5
398C
102
{ACAD_REACTORS
330
3973
102
}
330
3973
100
AcDbScale
 70
     0
300
1/4" = 1'-0"
140
0.25
141
12.0
290
     0
  0
SCALE
  5
398D
102
{ACAD_REACTORS
330
3973
102
}
330
3973
100
AcDbScale
 70
     0
300
3/8" = 1'-0"
140
0.375
141
12.0
290
     0
  0
SCALE
  5
398E
102
{ACAD_REACTORS
330
3973
102
}
330
3973
100
AcDbScale
 70
     0
300
1/2" = 1'-0"
140
0.5
141
12.0
290
     0
  0
SCALE
  5
398F
102
{ACAD_REACTORS
330
3973
102
}
330
3973
100
AcDbScale
 70
     0
300
3/4" = 1'-0"
140
0.75
141
12.0
290
     0
  0
SCALE
  5
3990
102
{ACAD_REACTORS
330
3973
102
}
330
3973
100
AcDbScale
 70
     0
300
1" = 1'-0"
140
1.0
141
12.0
290
     0
  0
SCALE
  5
3991
102
{ACAD_REACTORS
330
3973
102
}
330
3973
100
AcDbScale
 70
     0
300
1-1/2" = 1'-0"
140
1.5
141
12.0
290
     0
  0
SCALE
  5
3992
102
{ACAD_REACTORS
330
3973
102
}
330
3973
100
AcDbScale
 70
     0
300
3" = 1'-0"
140
3.0
141
12.0
290
     0
  0
SCALE
  5
3993
102
{ACAD_REACTORS
330
3973
102
}
330
3973
100
AcDbScale
 70
     0
300
6" = 1'-0"
140
6.0
141
12.0
290
     0
  0
SCALE
  5
3994
102
{ACAD_REACTORS
330
3973
102
}
330
3973
100
AcDbScale
 70
     0
300
1'-0" = 1'-0"
140
12.0
141
12.0
290
     0
  0
TABLESTYLE
  5
4BB
102
{ACAD_XDICTIONARY
360
39AA
102
}
102
{ACAD_REACTORS
330
4BA
102
}
330
4BA
100
AcDbTableStyle
  3
Standard
 70
     0
 71
     0
 40
0.06
 41
0.06
280
     0
281
     0
  7
Standard
140
0.18
170
     2
 62
     0
 63
     7
283
     0
274
    -2
284
     1
 64
     0
275
    -2
285
     1
 65
     0
276
    -2
286
     1
 66
     0
277
    -2
287
     1
 67
     0
278
    -2
288
     1
 68
     0
279
    -2
289
     1
 69
     0
  7
Standard
140
0.25
170
     5
 62
     0
 63
     7
283
     0
274
    -2
284
     1
 64
     0
275
    -2
285
     1
 65
     0
276
    -2
286
     1
 66
     0
277
    -2
287
     1
 67
     0
278
    -2
288
     1
 68
     0
279
    -2
289
     1
 69
     0
  7
Standard
140
0.18
170
     5
 62
     0
 63
     7
283
     0
274
    -2
284
     1
 64
     0
275
    -2
285
     1
 65
     0
276
    -2
286
     1
 66
     0
277
    -2
287
     1
 67
     0
278
    -2
288
     1
 68
     0
279
    -2
289
     1
 69
     0
  0
VISUALSTYLE
  5
2F
102
{ACAD_XDICTIONARY
360
49A
102
}
102
{ACAD_REACTORS
330
2A
102
}
330
2A
100
AcDbVisualStyle
  2
2dWireframe
 70
     4
 71
     0
 72
     2
 73
     0
 90
        0
 40
-0.6
 41
-30.0
 62
     5
 63
     7
 74
     1
 91
        4
 64
     7
 65
   257
 75
     1
175
     1
 42
1.0
 92
        0
 66
   257
 43
1.0
 76
     1
 77
     6
 78
     2
 67
     7
 79
     5
170
     0
171
     0
290
     0
174
     0
 93
        1
 44
0.0
173
     0
291
     0
 45
0.0
1001
ACAD
1000
AcDbSavedByObjectVersion
1070
     0
  0
VISUALSTYLE
  5
A47
102
{ACAD_REACTORS
330
2A
102
}
330
2A
100
AcDbVisualStyle
  2
3D Hidden
 70
     6
 71
     1
 72
     2
 73
     2
 90
        0
 40
-0.6
 41
-30.0
 62
     5
 63
     7
 74
     2
 91
        2
 64
     7
 65
   257
 75
     2
175
     1
 42
40.0
 92
        0
 66
   257
 43
1.0
 76
     1
 77
     6
 78
     2
 67
     7
 79
     3
170
     0
171
     0
290
     0
174
     0
 93
        1
 44
0.0
173
     0
291
     0
 45
0.0
1001
ACAD
1000
AcDbSavedByObjectVersion
1070
     0
  0
VISUALSTYLE
  5
A48
102
{ACAD_XDICTIONARY
360
A49
102
}
102
{ACAD_REACTORS
330
2A
102
}
330
2A
100
AcDbVisualStyle
  2
3dWireframe
 70
     5
 71
     0
 72
     2
 73
     0
 90
        0
 40
-0.6
 41
-30.0
 62
     5
 63
     7
 74
     1
 91
        4
 64
     7
 65
   257
 75
     1
175
     1
 42
1.0
 92
        0
 66
   257
 43
1.0
 76
     1
 77
     6
 78
     2
 67
     7
 79
     5
170
     0
171
     0
290
     0
174
     0
 93
        1
 44
0.0
173
     0
291
     0
 45
0.0
1001
ACAD
1000
AcDbSavedByObjectVersion
1070
     0
  0
VISUALSTYLE
  5
32
102
{ACAD_XDICTIONARY
360
4A0
102
}
102
{ACAD_REACTORS
330
2A
102
}
330
2A
100
AcDbVisualStyle
  2
Basic
 70
     7
 71
     1
 72
     0
 73
     1
 90
        0
 40
-0.6
 41
-30.0
 62
     5
 63
     7
 74
     0
 91
        4
 64
     7
 65
   257
 75
     1
175
     1
 42
1.0
 92
        8
 66
     7
 43
1.0
 76
     1
 77
     6
 78
     2
 67
     7
 79
     5
170
     0
171
     0
290
     0
174
     0
 93
        1
 44
0.0
173
     0
291
     1
 45
0.0
1001
ACAD
1000
AcDbSavedByObjectVersion
1070
     0
  0
VISUALSTYLE
  5
36
102
{ACAD_XDICTIONARY
360
4A8
102
}
102
{ACAD_REACTORS
330
2A
102
}
330
2A
100
AcDbVisualStyle
  2
Brighten
 70
    12
 71
     2
 72
     2
 73
     0
 90
        0
 40
-0.6
 41
-30.0
 62
     5
 63
     7
 74
     1
 91
        4
 64
     7
 65
   257
 75
     1
175
     1
 42
1.0
 92
        8
 66
     7
 43
1.0
 76
     1
 77
     6
 78
     2
 67
     7
 79
     5
170
     0
171
     0
290
     0
174
     0
 93
        1
 44
50.0
173
     0
291
     1
 45
0.0
1001
ACAD
1000
AcDbSavedByObjectVersion
1070
     0
  0
VISUALSTYLE
  5
3A
102
{ACAD_XDICTIONARY
360
4B0
102
}
102
{ACAD_REACTORS
330
2A
102
}
330
2A
100
AcDbVisualStyle
  2
ColorChange
 70
    16
 71
     2
 72
     2
 73
     3
 90
        0
 40
-0.6
 41
-30.0
 62
     5
 63
     8
 74
     1
 91
        4
 64
     7
 65
   257
 75
     1
175
     1
 42
1.0
 92
        8
 66
     8
 43
1.0
 76
     1
 77
     6
 78
     2
 67
     7
 79
     5
170
     0
171
     0
290
     0
174
     0
 93
        1
 44
0.0
173
     0
291
     1
 45
0.0
1001
ACAD
1000
AcDbSavedByObjectVersion
1070
     0
  0
VISUALSTYLE
  5
A4B
102
{ACAD_REACTORS
330
2A
102
}
330
2A
100
AcDbVisualStyle
  2
Conceptual
 70
     9
 71
     3
 72
     2
 73
     0
 90
        0
 40
-0.6
 41
-30.0
 62
     5
 63
     7
 74
     2
 91
        2
 64
     7
 65
   257
 75
     1
175
     1
 42
40.0
 92
        8
 66
     7
 43
1.0
 76
     1
 77
     6
 78
     2
 67
     7
 79
     3
170
     0
171
     0
290
     0
174
     0
 93
        1
 44
0.0
173
     0
291
     0
 45
0.0
1001
ACAD
1000
AcDbSavedByObjectVersion
1070
     0
  0
VISUALSTYLE
  5
35
102
{ACAD_XDICTIONARY
360
4A6
102
}
102
{ACAD_REACTORS
330
2A
102
}
330
2A
100
AcDbVisualStyle
  2
Dim
 70
    11
 71
     2
 72
     2
 73
     0
 90
        0
 40
-0.6
 41
-30.0
 62
     5
 63
     7
 74
     1
 91
        4
 64
     7
 65
   257
 75
     1
175
     1
 42
1.0
 92
        8
 66
     7
 43
1.0
 76
     1
 77
     6
 78
     2
 67
     7
 79
     5
170
     0
171
     0
290
     0
174
     0
 93
        1
 44
-50.0
173
     0
291
     1
 45
0.0
1001
ACAD
1000
AcDbSavedByObjectVersion
1070
     0
  0
VISUALSTYLE
  5
39
102
{ACAD_XDICTIONARY
360
4AE
102
}
102
{ACAD_REACTORS
330
2A
102
}
330
2A
100
AcDbVisualStyle
  2
Facepattern
 70
    15
 71
     2
 72
     2
 73
     0
 90
        0
 40
-0.6
 41
-30.0
 62
     5
 63
     7
 74
     1
 91
        4
 64
     7
 65
   257
 75
     1
175
     1
 42
1.0
 92
        8
 66
     7
 43
1.0
 76
     1
 77
     6
 78
     2
 67
     7
 79
     5
170
     0
171
     0
290
     0
174
     0
 93
        1
 44
0.0
173
     0
291
     1
 45
0.0
1001
ACAD
1000
AcDbSavedByObjectVersion
1070
     0
  0
VISUALSTYLE
  5
2B
102
{ACAD_XDICTIONARY
360
492
102
}
102
{ACAD_REACTORS
330
2A
102
}
330
2A
100
AcDbVisualStyle
  2
Flat
 70
     0
 71
     2
 72
     1
 73
     1
 90
        2
 40
-0.6
 41
30.0
 62
     5
 63
     7
 74
     0
 91
        4
 64
     7
 65
   257
 75
     1
175
     1
 42
1.0
 92
        8
 66
     7
 43
1.0
 76
     1
 77
     6
 78
     2
 67
     7
 79
     5
170
     0
171
     0
290
     0
174
     0
 93
       13
 44
0.0
173
     0
291
     1
 45
0.0
1001
ACAD
1000
AcDbSavedByObjectVersion
1070
     0
  0
VISUALSTYLE
  5
2C
102
{ACAD_XDICTIONARY
360
494
102
}
102
{ACAD_REACTORS
330
2A
102
}
330
2A
100
AcDbVisualStyle
  2
FlatWithEdges
 70
     1
 71
     2
 72
     1
 73
     1
 90
        2
 40
-0.6
 41
30.0
 62
     5
 63
     7
 74
     1
 91
        4
 64
     7
 65
   257
 75
     1
175
     1
 42
1.0
 92
        0
 66
   257
 43
1.0
 76
     1
 77
     6
 78
     2
 67
     7
 79
     5
170
     0
171
     0
290
     0
174
     0
 93
       13
 44
0.0
173
     0
291
     1
 45
0.0
1001
ACAD
1000
AcDbSavedByObjectVersion
1070
     0
  0
VISUALSTYLE
  5
2D
102
{ACAD_XDICTIONARY
360
496
102
}
102
{ACAD_REACTORS
330
2A
102
}
330
2A
100
AcDbVisualStyle
  2
Gouraud
 70
     2
 71
     2
 72
     2
 73
     1
 90
        2
 40
-0.6
 41
30.0
 62
     5
 63
     7
 74
     0
 91
        4
 64
     7
 65
   257
 75
     1
175
     1
 42
1.0
 92
        0
 66
     7
 43
1.0
 76
     1
 77
     6
 78
     2
 67
     7
 79
     5
170
     0
171
     0
290
     0
174
     0
 93
       13
 44
0.0
173
     0
291
     1
 45
0.0
1001
ACAD
1000
AcDbSavedByObjectVersion
1070
     0
  0
VISUALSTYLE
  5
2E
102
{ACAD_XDICTIONARY
360
498
102
}
102
{ACAD_REACTORS
330
2A
102
}
330
2A
100
AcDbVisualStyle
  2
GouraudWithEdges
 70
     3
 71
     2
 72
     2
 73
     1
 90
        2
 40
-0.6
 41
30.0
 62
     5
 63
     7
 74
     1
 91
        4
 64
     7
 65
   257
 75
     1
175
     1
 42
1.0
 92
        0
 66
   257
 43
1.0
 76
     1
 77
     6
 78
     2
 67
     7
 79
     5
170
     0
171
     0
290
     0
174
     0
 93
       13
 44
0.0
173
     0
291
     1
 45
0.0
1001
ACAD
1000
AcDbSavedByObjectVersion
1070
     0
  0
VISUALSTYLE
  5
38
102
{ACAD_XDICTIONARY
360
4AC
102
}
102
{ACAD_REACTORS
330
2A
102
}
330
2A
100
AcDbVisualStyle
  2
Linepattern
 70
    14
 71
     2
 72
     2
 73
     0
 90
        0
 40
-0.6
 41
-30.0
 62
     5
 63
     7
 74
     1
 91
        4
 64
     7
 65
   257
 75
     7
175
     7
 42
1.0
 92
        8
 66
     7
 43
1.0
 76
     1
 77
     6
 78
     2
 67
     7
 79
     5
170
     0
171
     0
290
     0
174
     0
 93
        1
 44
0.0
173
     0
291
     1
 45
0.0
1001
ACAD
1000
AcDbSavedByObjectVersion
1070
     0
  0
VISUALSTYLE
  5
A4C
102
{ACAD_XDICTIONARY
360
A4D
102
}
102
{ACAD_REACTORS
330
2A
102
}
330
2A
100
AcDbVisualStyle
  2
Realistic
 70
     8
 71
     2
 72
     2
 73
     0
 90
        0
 40
-0.6
 41
-30.0
 62
     5
 63
     7
 74
     1
 91
        0
 64
     7
 65
   257
 75
     1
175
     1
 42
1.0
 92
        8
 66
     8
 43
1.0
 76
     1
 77
     6
 78
     2
 67
     7
 79
     5
170
     0
171
     0
290
     0
174
     0
 93
       13
 44
0.0
173
     0
291
     0
 45
0.0
1001
ACAD
1000
AcDbSavedByObjectVersion
1070
     0
  0
VISUALSTYLE
  5
37
102
{ACAD_XDICTIONARY
360
4AA
102
}
102
{ACAD_REACTORS
330
2A
102
}
330
2A
100
AcDbVisualStyle
  2
Thicken
 70
    13
 71
     2
 72
     2
 73
     0
 90
        0
 40
-0.6
 41
-30.0
 62
     5
 63
     7
 74
     1
 91
        4
 64
     7
 65
   257
 75
     1
175
     1
 42
1.0
 92
       12
 66
     7
 43
1.0
 76
     1
 77
     6
 78
     2
 67
     7
 79
     5
170
     0
171
     0
290
     0
174
     0
 93
        1
 44
0.0
173
     0
291
     1
 45
0.0
1001
ACAD
1000
AcDbSavedByObjectVersion
1070
     0
  0
DICTIONARYVAR
  5
39AF
102
{ACAD_REACTORS
330
487
102
}
330
487
100
DictionaryVariables
280
     0
  1
1:1
  0
DICTIONARYVAR
  5
39AD
102
{ACAD_REACTORS
330
487
102
}
330
487
100
DictionaryVariables
280
     0
  1
STANDARD
  0
DICTIONARYVAR
  5
5FE
102
{ACAD_REACTORS
330
487
102
}
330
487
100
DictionaryVariables
280
     0
  1
STANDARD
  0
DICTIONARYVAR
  5
48A
102
{ACAD_REACTORS
330
487
102
}
330
487
100
DictionaryVariables
280
     0
  1
2
  0
DICTIONARYVAR
  5
48B
102
{ACAD_REACTORS
330
487
102
}
330
487
100
DictionaryVariables
280
     0
  1
1
  0
DICTIONARYVAR
  5
86B
102
{ACAD_REACTORS
330
487
102
}
330
487
100
DictionaryVariables
280
     0
  1
0
  0
DICTIONARYVAR
  5
39B0
102
{ACAD_REACTORS
330
487
102
}
330
487
100
DictionaryVariables
280
     0
  1
0
  0
DICTIONARYVAR
  5
39AE
102
{ACAD_REACTORS
330
487
102
}
330
487
100
DictionaryVariables
280
     0
  1
0
  0
DICTIONARYVAR
  5
86A
102
{ACAD_REACTORS
330
487
102
}
330
487
100
DictionaryVariables
280
     0
  1
127
  0
DICTIONARY
  5
7D4
330
1E
100
AcDbDictionary
280
     1
281
     1
  3
ADSK_XREC_LAYOUTTHUMBNAIL
360
7D5
  0
DICTIONARY
  5
41F3
330
3D
100
AcDbDictionary
280
     1
281
     1
  3
ACAD_XREC_ROUNDTRIP
360
41F4
  0
DICTIONARY
  5
41F1
330
3C
100
AcDbDictionary
280
     1
281
     1
  3
ACAD_XREC_ROUNDTRIP
360
41F2
  0
DICTIONARY
  5
41F5
330
3E
100
AcDbDictionary
280
     1
281
     1
  3
ACAD_XREC_ROUNDTRIP
360
41F6
  0
DICTIONARY
  5
39AA
330
4BB
100
AcDbDictionary
280
     1
281
     1
  3
ACAD_ROUNDTRIP_2008_TABLESTYLE_CELLSTYLEMAP
360
41F0
  3
ACAD_XREC_ROUNDTRIP
360
41F7
  0
DICTIONARY
  5
49A
330
2F
100
AcDbDictionary
280
     1
281
     1
  3
ACAD_XREC_ROUNDTRIP
360
49B
  0
DICTIONARY
  5
A49
330
A48
100
AcDbDictionary
280
     1
281
     1
  3
ACAD_XREC_ROUNDTRIP
360
A4A
  0
DICTIONARY
  5
4A0
330
32
100
AcDbDictionary
280
     1
281
     1
  3
ACAD_XREC_ROUNDTRIP
360
4A1
  0
DICTIONARY
  5
4A8
330
36
100
AcDbDictionary
280
     1
281
     1
  3
ACAD_XREC_ROUNDTRIP
360
4A9
  0
DICTIONARY
  5
4B0
330
3A
100
AcDbDictionary
280
     1
281
     1
  3
ACAD_XREC_ROUNDTRIP
360
4B1
  0
DICTIONARY
  5
4A6
330
35
100
AcDbDictionary
280
     1
281
     1
  3
ACAD_XREC_ROUNDTRIP
360
4A7
  0
DICTIONARY
  5
4AE
330
39
100
AcDbDictionary
280
     1
281
     1
  3
ACAD_XREC_ROUNDTRIP
360
4AF
  0
DICTIONARY
  5
492
330
2B
100
AcDbDictionary
280
     1
281
     1
  3
ACAD_XREC_ROUNDTRIP
360
493
  0
DICTIONARY
  5
494
330
2C
100
AcDbDictionary
280
     1
281
     1
  3
ACAD_XREC_ROUNDTRIP
360
495
  0
DICTIONARY
  5
496
330
2D
100
AcDbDictionary
280
     1
281
     1
  3
ACAD_XREC_ROUNDTRIP
360
497
  0
DICTIONARY
  5
498
330
2E
100
AcDbDictionary
280
     1
281
     1
  3
ACAD_XREC_ROUNDTRIP
360
499
  0
DICTIONARY
  5
4AC
330
38
100
AcDbDictionary
280
     1
281
     1
  3
ACAD_XREC_ROUNDTRIP
360
4AD
  0
DICTIONARY
  5
A4D
330
A4C
100
AcDbDictionary
280
     1
281
     1
  3
ACAD_XREC_ROUNDTRIP
360
A4E
  0
DICTIONARY
  5
4AA
330
37
100
AcDbDictionary
280
     1
281
     1
  3
ACAD_XREC_ROUNDTRIP
360
4AB
  0
XRECORD
  5
7D5
102
{ACAD_REACTORS
330
7D4
102
}
330
7D4
100
AcDbXrecord
280
     1
310
28000000B40000007F00000001000800000000004C59000000000000000000000001000000000000FFFFFF0000000000FFFFFF000000000000000000000000000000000000000000000000000000000000000000330000006600000099000000CC000000FF00000000330000333300006633000099330000CC330000FF3300
310
0000660000336600006666000099660000CC660000FF66000000990000339900006699000099990000CC990000FF99000000CC000033CC000066CC000099CC0000CCCC0000FFCC000000FF000033FF000066FF000099FF0000CCFF0000FFFF000000003300330033006600330099003300CC003300FF003300003333003333
310
33006633330099333300CC333300FF33330000663300336633006666330099663300CC663300FF66330000993300339933006699330099993300CC993300FF99330000CC330033CC330066CC330099CC3300CCCC3300FFCC330000FF330033FF330066FF330099FF3300CCFF3300FFFF330000006600330066006600660099
310
006600CC006600FF00660000336600333366006633660099336600CC336600FF33660000666600336666006666660099666600CC666600FF66660000996600339966006699660099996600CC996600FF99660000CC660033CC660066CC660099CC6600CCCC6600FFCC660000FF660033FF660066FF660099FF6600CCFF6600
310
FFFF660000009900330099006600990099009900CC009900FF00990000339900333399006633990099339900CC339900FF33990000669900336699006666990099669900CC669900FF66990000999900339999006699990099999900CC999900FF99990000CC990033CC990066CC990099CC9900CCCC9900FFCC990000FF99
310
0033FF990066FF990099FF9900CCFF9900FFFF99000000CC003300CC006600CC009900CC00CC00CC00FF00CC000033CC003333CC006633CC009933CC00CC33CC00FF33CC000066CC003366CC006666CC009966CC00CC66CC00FF66CC000099CC003399CC006699CC009999CC00CC99CC00FF99CC0000CCCC0033CCCC0066CC
310
CC0099CCCC00CCCCCC00FFCCCC0000FFCC0033FFCC0066FFCC0099FFCC00CCFFCC00FFFFCC000000FF003300FF006600FF009900FF00CC00FF00FF00FF000033FF003333FF006633FF009933FF00CC33FF00FF33FF000066FF003366FF006666FF009966FF00CC66FF00FF66FF000099FF003399FF006699FF009999FF00CC
310
99FF00FF99FF0000CCFF0033CCFF0066CCFF0099CCFF00CCCCFF00FFCCFF0000FFFF0033FFFF0066FFFF0099FFFF00CCFFFF00FFFFFF00000000000D0D0D001A1A1A00282828003535350043434300505050005D5D5D006B6B6B00787878008686860093939300A1A1A100AEAEAE00BBBBBB00C9C9C900D6D6D600E4E4E400
310
F1F1F100FFFFFF0000000000000000000000000000000000000000000000000000000000000000000000000000000000E2E2E2E2E2E2E2E2E2E2E2E2E2E2E2E2E2E2E2E2E2E2E2E2E2E2E2E2E2E2E2E2E2E2E2E2E2E2E2E2E2E2E2E2E2E2E2E2E2E2E2E2E2E2E2E2E2E2E2E2E2E2E2E2E2E2E2E2E2E2E2E2E2E2E2E2E2E2E2
310
E2E2E2E2E2E2E2E2E2E2E2E2E2E2E2E2E2E2E2E2E2E2E2E2E2E2E2E2E2E2E2E2E2E2E2E2E2E2E2E2E2E2E2E2E2E2E2E2E2E2E2E2E2E2E2E2E2E2E2E2E2E2E2E2E2E2E2E2E2E2E2E2E2E2E2E2E2E2E2E2E2E2E2E2E2E2E2E2E2E2E2E2E2E2E2E2E2E2E2E2E2E2F5F5F5F5F5F5F5F5F5F5F5F5F5F5F5F5F5F5F5F5F5F5F5F5F5
310
F5F5F5F5F5F5F5F5F5F5F5F5F5F5F5F5F5F5F5F5F5F5F5F5F5F5F5F5F5F5F5F5F5F5F5F5F5F5F5F5F5F5F5F5F5F5F5F5F5F5F5F5F5F5F5F5F5F5F5F5F5F5F5F5F5F5F5F5F5F5F5F5F5F5F5F5F5F5F5F5F5F5F5F5F5F5F5F5F5F5F5F5F5F5F5F5F5F5F5F5F5F5F5F5F5F5F5F5F5F5F5F5F5F5F5F5F5F5F5F5F5F5F5F5F5F5F5
310
F5F5F5F5F5F5F5F5F5F5F5F5F5F5F5F5F5F5F5F5F5F5F5F5F5F5E2E2F5E2E2E2E2E2E2E2E2E2E2E2E2E2E2E2E2E2E2E2E2E2E2E2E2E2E2E2E2E2E2E2E2E2E2E2E2E2E2E2E2E2E2E2E2E2E2E2E2E2E2E2E2E2E2E2E2E2E2E2E2E2E2E2E2E2E2E2E2E2E2E2E2E2E2E2E2E2E2E2E2E2E2E2E2E2E2E2E2E2E2E2E2E2E2E2E2E2E2
310
E2E2E2E2E2E2E2E2E2E2E2E2E2E2E2E2E2E2E2E2E2E2E2E2E2E2E2E2E2E2E2E2E2E2E2E2E2E2E2E2E2E2E2E2E2E2E2E2E2E2E2E2E2E2E2E2E2E2E2E2E2E2E2E2E2E2E2E2E2E2E2E2E2E2E2E2E2E2F5E2E2F5E2F5F5F5F5F5F5F5F5F5F5F5F5F5F5F5F5F5F5F5F5F5F5F5F5F5F5F5F5F5F5F5F5F5F5F5F5F5F5F5F5F5F5F5F5
310
F5F5F5F5F5F5F5F5F5F5F5F5F5F5F5F5F5F5F5F5F5F5F5F5F5F5F5F5F5F5F5F5F5F5F5F5F5F5F5F5F5F5F5F5F5F5F5F5F5F5F5F5F5F5F5F5F5F5F5F5F5F5F5F5F5F5F5F5F5F5F5F5F5F5F5F5F5F5F5F5F5F5F5F5F5F5F5F5F5F5F5F5F5F5F5F5F5F5F5F5F5F5F5F5F5F5F5F5F5F5F5F5F5F5F5F5F5F5F5F5F5F5F5F5F5F5F5
310
F5F5E2E2F5E2E2F5E2F5F5F5F5F5F5F5F5F5F5F5F5F5F5F5F5F5F5F5F5F5F5F5F5F5F5F5F5F5F5F5F5F5F5F5F5F5F5F5F5F5F5F5F5F5F5F5F5F5F5F5F5F5F5F5F5F5F5F5F5F5F5F5F5F5F5F5F5F5F5F5F5F5F5F5F5F5F5F5F5F5F5F5F5F5F5F5F5F5F5F5F5F5F5F5F5F5F5F5F5F5F5F5F5F5F5F5F5F5F5F5F5F5F5F5F5F5F5
310
F5F5F5F5F5F5F5F5F5F5F5F5F5F5F5F5F5F5F5F5F5F5F5F5F5F5F5F5F5F5F5F5F5F5F5F5F5F5F5F5F5F5F5F5F5F5F5F5F5F5F5F5F5F5F5E2E2F5E2E2F5E2F5F5F5F5F5F5F5F5F5F5F5F5F5F5F5F5F5F5F5F5F5F5F5F5F5F5F5F5F5F5F5F5F5F5F5F5F5F5F5F5F5F5F5F5F5F5F5F5F5F5F5F5F5F5F5F5F5F5F5F5F5F5F5F5F5
310
F5F5F5F5F5F5F5F5F5F5F5F5F5F5F5F5F5F5F5F5F5F5F5F5F5F5F5F5F5F5F5F5F5F5F5F5F5F5F5F5F5F5F5F5F5F5F5F5F5F5F5F5F5F5F5F5F5F5F5F5F5F5F5F5F5F5F5F5F5F5F5F5F5F5F5F5F5F5F5F5F5F5F5F5F5F5F5F5F5F5F5F5F5F5F5F5F5F5F5F5F5F5F5F5F5F5F5F5E2E2F5E2E2F5E2F5F5F5F5F5F5F5F5F5F5F5F5
310
F5F5F5F5F5F5F5F5F5F5F5F5F5F5F5F5F5F5F5F5F5F5F5F5F5F5F5F5F5F5F5F5F5F5F5F5F5F5F5F5F5F5F5F5F5F5F5F5F5F5F5F5F5F5F5F5F5F5F5F5F5F5F5F5F5F5F5F5F5F5F5F5F5F5F5F5F5F5F5F5F5F5F5F5F5F5F5F5F5F5F5F5F5F5F5F5F5F5F5F5F5F5F5F5F5F5F5F5F5F5F5F5F5F5F5F5F5F5F5F5F5F5F5F5F5F5F5
310
F5F5F5F5F5F5F5F5F5F5F5F5F5F5F5F5F5F5F5F5F5F5F5F5F5F5F5F5F5F5F5F5F5F5E2E2F5E2E2F5E2F5F5F5F5F5F5F5F5F5F5F5F5F5F5F5F5F5F5F5F5F5F5F5F5F5F5F5F5F5F5F5F5F5F5F5F5F5F5F5F5F5F5F5F5F5F5F5F5F5F5F5F5F5F5F5F5F5F5F5F5F5F5F5F5F5F5F5F5F5F5F5F5F5F5F5F5F5F5F5F5F5F5F5F5F5F5
310
F5F5F5F5F5F5F5F5F5F5F5F5F5F5F5F5F5F5F5F5F5F5F5F5F5F5F5F5F5F5F5F5F5F5F5F5F5F5F5F5F5F5F5F5F5F5F5F5F5F5F5F5F5F5F5F5F5F5F5F5F5F5F5F5F5F5F5F5F5F5F5F5F5F5F5F5F5F5F5F5F5F5F5F5F5F5F5E2E2F5E2E2F5E2F5F5F5F5F5F5F5F5F5F5F5F5F5F5F5F5F5F5F5F5F5F5F5F5F5F5F5F5F5F5F5F5F5
310
F5F5F5F5F5F5F5F5F5F5F5F5F5F5F5F5F5F5F5F5F5F5F5F5F5F5F5F5F5F5F5F5F5F5F5F5F5F5F5F5F5F5F5F5F5F5F5F5F5F5F5F5F5F5F5F5F5F5F5F5F5F5F5F5F5F5F5F5F5F5F5F5F5F5F5F5F5F5F5F5F5F5F5F5F5F5F5F5F5F5F5F5F5F5F5F5F5F5F5F5F5F5F5F5F5F5F5F5F5F5F5F5F5F5F5F5F5F5F5F5F5F5F5F5F5F5F5
310
F5F5F5F5F5F5F5F5F5F5F5F5F5E2E2F5E2E2F5E2F5F5F5F5F5F5F5F5F5F5F5F5F5F5F5F5F5F5F5F5F5F5F5F5F5F5F5F5F5F5F5F5F5F5F5F5F5F5F5F5F5F5F5F5F5F5F5F5F5F5F5F5F5F5F5F5F5F5F5F5F5F5F5F5F5F5F5F5F5F5F5F5F5F5F5F5F5F5F5F5F5F5F5F5F5F5F5F5F5F5F5F5F5F5F5F5F5F5F5F5F5F5F5F5F5F5F5
310
F5F5F5F5F5F5F5F5F5F5F5F5F5F5F5F5F5F5F5F5F5F5F5F5F5F5F5F5F5F5F5F5F5F5F5F5F5F5F5F5F5F5F5F5F5F5F5F5F5F5F5F5F5F5F5F5F5F5F5F5F5F5F5F5F5F5E2E2F5E2E2F5E2F5F5F5F5F5F5F5F5F5F5F5F5F5F5F5F5F5F5F5F5F5F5F5F5F5F5F5F5F5F5F5F5F5F5F5F5F5F5F5F5F5F5F5F5F5F5F5F5F5F5F5F5F5F5
310
F5F5F5F5F5F5F5F5F5F5F5F5F5F5F5F5F5F5F5F5F5F5F5F5F5F5F5F5F5F5F5F5F5F5F5F5F5F5F5F5F5F5F5F5F5F5F5F5F5F5F5F5F5F5F5F5F5F5F5F5F5F5F5F5F5F5F5F5F5F5F5F5F5F5F5F5F5F5F5F5F5F5F5F5F5F5F5F5F5F5F5F5F5F5F5F5F5F5F5F5F5F5F5F5F5F5F5F5F5F5F5F5F5F5F5F5F5F5F5E2F5F5E2E2F5E2F5
310
F5F5F5F5F5F5F5F5F5F5F5F5F5F5F5F5F5F5F5F5F5F5F5F5F5F5F5F5F5F5F5F5F5F5F5F5F5F5F5F5F5F5F5F5F5F5F5F5F5F5F5F5F5F5F5F5F5F5F5F5F5F5F5F5F5F5F5F5F5F5F5F5F5F5F5F5F5F5F5F5F5F5F5F5F5F5F5F5F5F5F5F5F5F5F5F5F5F5F5F5F5F5F5F5F5F5F5F5F5F5F5F5F5F5F5F5F5F5F5F5F5F5F5F5F5F5F5
310
F5F5F5F5F5F5F5F5F5F5F5F5F5F5F5F5F5F5F5F5F5F5F5F5F5F5F5F5F5F5F5F5F5F5F5F5F5F5F5F5F5F5F5F5F5E2F5F5E2E2F5E2F5F5F5F5F5F5F5F5F5F5F5F5F5F5F5F5F5F5F5F5F5F5F5F5F5F5F5F5F5F5F5F5F5F5F5F5F5F5F5F5F5F5F5F5F5F5F5F5F5F5F5F5F5F5F5F5F5F5F5F5F5F5F5F5F5F5F5F5F5F5F5F5F5F5F5
310
F5F5F5F5F5F5F5F5F5F5F5F5F5F5F5F5F5F5F5F5F5F5F5F5F5F5F5F5F5F5F5F5F5F5F5F5F5F5F5F5F5F5F5F5F5F5F5F5F5F5F5F5F5F5F5F5F5F5F5F5F5F5F5F5F5F5F5F5F5F5F5F5F5F5F5F5F5F5F5F5F5F5F5F5F5F5F5F5F5F5F5F5F5F5F5F5F5F5E2F5F5E2E2F5E2F5F5F5F5F5F5F5F5F5F5F5F5F5F5F5F5F5F5F5F5F5F5
310
F5F5F5F5F5F5F5F5F5F5F5F5F5F5F5F5F5F5F5F5F5F5F5F5F5F5F5F5F5F5F5F5F5F5F5F5F5F5F5F5F5F5F5F5F5F5F5F5F5F5F5F5F5F5F5F5F5F5F5F5F5F5F5F5F5F5F5F5F5F5F5F5F5F5F5F5F5F5F5F5F5F5F5F5F5F5F5F5F5F5F5F5F5F5F5F5F5F5F5F5F5F5F5F5F5F5F5F5F5F5F5F5F5F5F5F5F5F5F5F5F5F5F5F5F5F5F5
310
F5F5F5F5F5F5F5F5F5F5F5F5F5F5F5F5F5F5F5F5F5F5F5F5E2F5F5E2E2F5E2F5F5F5F5F5F5F5F5F5F5F5F5F5F5F5F5F5F5F5F5F5F5F5F5F5F5F5F5F5F5F5F5F5F5F5F5F5F5F5F5F5F5F5F5F5F5F5F5F5F5F5F5F5F5F5F5F5F5F5F5F5F5F5F5F5F5F5F5F5F5F5F5F5F5F5F5F5F5F5F5F5F5F5F5F5F5F5F5F5F5F5F5F5F5F5F5
310
F5F5F5F5F5F5F5F5F5F5F5F5F5F5F5F5F5F5F5F5F5F5F5F5F5F5F5F5F5F5F5F5F5F5F5F5F5F5F5F5F5F5F5F5F5F5F5F5F5F5F5F5F5F5F5F5F5F5F5F5F5F5F5F5F5F5F5F5F5F5F5F5F5F5F5F5F5E2F5F5E2E2F5E2F5F5F5F5F5F5F5F5F5F5F5F5F5F5F5F5F5F5F5F5F5F5F5F5F5F5F5F5F5F5F5F5F5F5F5F5F5F5F5F5F5F5F5
310
F5F5F5F5F5F5F5F5F5F5F5F5F5F5F5F5F5F5F5F5F5F5F5F5F5F5F5F5F5F5F5F5F5F5F5F5F5F5F5F5F5F5F5F5F5F5F5F5F5F5F5F5F5F5F5F5F5F5F5F5F5F5F5F5F5F5F5F5F5F5F5F5F5F5F5F5F5F5F5F5F5F5F5F5F5F5F5F5F5F5F5F5F5F5F5F5F5F5F5F5F5F5F5F5F5F5F5F5F5F5F5F5F5F5F5F5F5F5F5F5F5F5F5F5F5F5F5
310
F5F5F5E2F5F5E2E2F5E2F5F5F5F5F5F5F5F5F5F5F5F5F5F5F5F5F5F5F5F5F5F5F5F5F5F5F5F5F5F5F5F5F5F5F5F5F5F5F5F5F5F5F5F5F5F5F5F5F5F5F5F5F5F5F5F5F5F5F5F5F5F5F5F5F5F5F5F5F5F5F5F5F5F5F5F5F5F5F5F5F5F5F5F5F5F5F5F5F5F5F5F5F5F5F5F5F5F5F5F5F5F5F5F5F5F5F5F5F5F5F5F5F5F5F5F5F5
310
F5F5F5F5F5F5F5F5F5F5F5F5F5F5F5F5F5F5F5F5F5F5F5F5F5F5F5F5F5F5F5F5F5F5F5F5F5F5F5F5F5F5F5F5F5F5F5F5F5F5F5F5F5F5F5F5E2F5F5E2E2F5E2F5F5F5F5F5F5F5F5F5F5F5F5F5F5F5F5F5F5F5F5F5F5F5F5F5F5F5F5F5F5F5F5F5F5F5F5F5F5F5F5F5F5F5F5F5F5F5F5F5F5F5F5F5F5F5F5F5F5F5F5F5F5F5F5
310
F5F5F5F5F5F5F5F5F5F5F5F5F5F5F5F5F5F5F5F5F5F5F5F5F5F5F5F5F5F5F5F5F5F5F5F5F5F5F5F5F5F5F5F5F5F5F5F5F5F5F5F5F5F5F5F5F5F5F5F5F5F5F5F5F5F5F5F5F5F5F5F5F5F5F5F5F5F5F5F5F5F5F5F5F5F5F5F5F5F5F5F5F5F5F5F5F5F5F5F5F5F5F5F5F5F5F5F5F5E2F5F5E2E2F5E2F5F5F5F5F5F5F5F5F5F5F5
310
F5F5F5F5F5F5F5F5F5F5F5F5F5F5F5F5F5F5F5F5F5F5F5F5F5F5F5F5F5F5F5F5F5F5F5F5F5F5F5F5F5F5F5F5F5F5F5F5F5F5F5F5F5F5F5F5F5F5F5F5F5F5F5F5F5F5F5F5F5F5F5F5F5F5F5F5F5F5F5F5F5F5F5F5F5F5F5F5F5F5F5F5F5F5F5F5F5F5F5F5F5F5F5F5F5F5F5F5F5F5F5F5F5F5F5F5F5F5F5F5F5F5F5F5F5F5F5
310
F5F5F5F5F5F5F5F5F5F5F5F5F5F5F5F5F5F5F5F5F5F5F5F5F5F5F5F5F5F5F5F5F5F5F5E2F5F5E2E2F5E2F5F5F5F5F5F5F5F5F5F5F5F5F5F5F5F5F5F5F5F5F5F5F5F5F5F5F5F5F5F5F5F5F5F5F5F5F5F5F5F5F5F5F5F5F5F5F5F5F5F5F5F5F5F5F5F5F5F5F5F5F5F5F5F5F5F5F5F5F5F5F5F5F5F5F5F5F5F5F5F5F5F5F5F5F5
310
F5F5F5F5F5F5F5F5F5F5F5F5F5F5F5F5F5F5F5F5F5F5F5F5F5F5F5F5F5F5F5F5F5F5F5F5F5F5F5F5F5F5F5F5F5F5F5F5F5F5F5F5F5F5F5F5F5F5F5F5F5F5F5F5F5F5F5F5F5F5F5F5F5F5F5F5F5F5F5F5F5F5F5F5F5F5F5F5E2E2F5E2E2F5E2F5F5F5F5F5F5F5F5F5F5F5F5F5F5F5F5F5F5F5F5F5F5F5F5F5F5F5F5F5F5F5F5
310
F5F5F5F5F5F5F5F5F5F5F5F5F5F5F5F5F5F5F5F5F5F5F5F5F5F5F5F5F5F5F5F5F5F5F5F5F5F5F5F5F5F5F5F5F5F5F5F5F5F5F5F5F5F5F5F5F5F5F5F5F5F5F5F5F5F5F5F5F5F5F5F5F5F5F5F5F5F5F5F5F5F5F5F5F5F5F5F5F5F5F5F5F5F5F5F5F5F5F5F5F5F5F5F5F5F5F5F5F5F5F5F5F5F5F5F5F5F5F5F5F5F5F5F5F5F5F5
310
F5F5F5F5F5F5F5F5F5F5F5F5F5F5E2E2F5E2E2F5E2F5F5F5F5F5F5F5F5F5F5F5F5F5F5F5F5F5F5F5F5F5F5F5F5F5F5F5F5F5F5F5F5F5F5F5F5F5F5F5F5F5F5F5F5F5F5F5F5F5F5F5F5F5F5F5F5F5F5F5F5F5F5F5F5F5F5F5F5F5F5F5F5F5F5F5F5F5F5F5F5F5F5F5F5F5F5F5F5F5F5F5F5F5F5F5F5F5F5F5F5F5F5F5F5F5F5
310
F5F5F5F5F5F5F5F5F5F5F5F5F5F5F5F5F5F5F5F5F5F5F5F5F5F5F5F5F5F5F5F5F5F5F5F5F5F5F5F5F5F5F5F5F5F5F5F5F5F5F5F5F5F5F5F5F5F5F5F5F5F5F5F5F5F5F5E2E2F5E2E2F5E2F5F5F5F5F5F5F5F5F5F5F5F5F5F5F5F5F5F5F5F5F5F5F5F5F5F5F5F5F5F5F5F5F5F5F5F5F5F5F5F5F5F5F5F5F5F5F5F5F5F5F5F5F5
310
F5F5F5F5F5F5F5F5F5F5F5F5F5F5F5F5F5F5F5F5F5F5F5F5F5F5F5F5F5F5F5F5F5F5F5F5F5F5F5F5F5F5F5F5F5F5F5F5F5F5F5F5F5F5F5F5F5F5F5F5F5F5F5F5F5F5F5F5F5F5F5F5F5F5F5F5F5F5F5F5F5F5F5F5F5F5F5F5F5F5F5F5F5F5F5F5F5F5F5F5F5F5F5F5F5F5F5F5F5F5F5F5F5F5F5F5F5F5F5F5E2E2F5E2E2F5E2
310
F5F5F5F5F5F5F5F5F5F5F5F5F5F5F5F5F5F5F5F5F5F5F5F5F5F5F5F5F5F5F5F5F5F5F5F5F5F5F5F5F5F5F5F5F5F5F5F5F5F5F5F5F5F5F5F5F5F5F5F5F5F5F5F5F5F5F5F5F5F5F5F5F5F5F5F5F5F5F5F5F5F5F5F5F5F5F5F5F5F5F5F5F5F5F5F5F5F5F5F5F5F5F5F5F5F5F5F5F5F5F5F5F5F5F5F5F5F5F5F5F5F5F5F5F5F5F5
310
F5F5F5F5F5F5F5F5F5F5F5F5F5F5F5F5F5F5F5F5F5F5F5F5F5F5F5F5F5F5F5F5F5F5F5F5F5F5F5F5F5F5F5F5F5F5E2E2F5E2E2F5E2F5F5F5F5F5F5F5F5F5F5F5F5F5F5F5F5F5F5F5F5F5F5F5F5F5F5F5F5F5F5F5F5F5F5F5F5F5F5F5F5F5F5F5F5F5F5F5F5F5F5F5F5F5F5F5F5F5F5F5F5F5F5F5E2E2E2E2E2E2E2E2E2E2E2
310
E2E2E2E2E2E2E2E2E2E2E2E2E2E2E2E2E2E2E2E2E2E2E2E2E2E2E2E2E2E2E2E2E2E2F5F5F5F5F5F5F5F5F5F5F5F5F5F5F5F5F5F5F5F5F5F5F5F5F5F5F5F5F5F5F5F5F5F5F5F5F5F5F5F5F5F5F5F5F5F5F5F5F5F5F5F5F5F5F5F5F5F5F5F5F5F5F5F5F5E2E2F5E2E2F5E2F5F5F5F5F5F5F5F5F5F5F5F5F5F5F5F5F5F5F5F5F5
310
F5F5F5F5F5F5F5F5F5F5F5F5F5F5F5F5F5F5F5F5F5F5F5F5F5F5F5F5F5F5F5F5F5F5F5F5F5F5F5F5F5F5E2E2E2E2E2E2E2E2E2E2E2E2E2E2E2E2E2E2E2E2E2E2E2E2E2E2E2E2E2E2E2E2E2E2E2E2E2E2E2E2E2E2E2E2E2F5F5F5F5F5F5F5F5F5F5F5F5F5F5F5F5F5F5F5F5F5F5F5F5F5F5F5F5F5F5F5F5F5F5F5F5F5F5F5F5
310
F5F5F5F5F5F5F5F5F5F5F5F5F5F5F5F5F5F5F5F5F5F5F5F5F5E2E2F5E2E2F5E2F5F5F5F5F5F5F5F5F5F5F5F5F5F5F5F5F5F5F5F5F5F5F5F5F5F5F5F5F5F5F5F5F5F5F5F5F5F5F5F5F5F5F5F5F5F5F5F5F5F5F5F5F5F5F5F5F5F5F5F5F5F5F5E2E2E2E2E2E2E2E2E2E2E2E2E2E2E2E2E2E2E2E2E2E2E2E2E2E2E2E2E2E2E2E2
310
E2E2E2E2E2E2E2E2E2E2E2E2E2F5F5F5F5F5F5F5F5F5F5F5F5F5F5F5F5F5F5F5F5F5F5F5F5F5F5F5F5F5F5F5F5F5F5F5F5F5F5F5F5F5F5F5F5F5F5F5F5F5F5F5F5F5F5F5F5F5F5F5F5F5F5F5F5F5E2E2F5E2E2F5E2F5F5F5F5F5F5F5F5F5F5F5F5F5F5F5F5F5F5F5F5F5F5F5F5F5F5F5F5F5F5F5F5F5F5F5F5F5F5F5F5F5F5
310
F5F5F5F5F5F5F5F5F5F5F5F5F5F5F5F5F5F5F5F5F5E2E2E2E2E2E2E2E2E2E2E2E2E2E2E2E2E2E2E2E2E2E2E2E2E2E2E2E2E2E2E2E2E2E2E2E2E2E2E2E2E2E2E2E2E2F5F5F5F5F5F5F5F5F5F5F5F5F5F5F5F5F5F5F5F5F5F5F5F5F5F5F5F5F5F5F5F5F5F5F5F5F5F5F5F5F5F5F5F5F5F5F5F5F5F5F5F5F5F5F5F5F5F5F5F5F5
310
F5F5F5F5E2E2F5E2E2F5E2F5F5F5F5F5F5F5F5F5F5F5F5F5F5F5F5F5F5F5F5F5F5F5F5F5F5F5F5F5F5F5F5F5F5F5F5F5F5F5F5F5F5F5F5F5F5F5F5F5F5F5F5F5F5F5F5F5F5F5F5F5F5F5F5F5F5F5F5F5F5F5F5F5F5F5F5F5F5F5F5F5F5F5F5F5F5F5F5F5F5F5F5F5F5F5F5F5F5F5F5F5F5F5F5F5F5F5F5F5F5F5F5F5F5F5F5
310
F5F5F5F5F5F5F5F5F5F5F5F5F5F5F5F5F5F5F5F5F5F5F5F5F5F5F5F5F5F5F5F5F5F5F5F5F5F5F5F5F5F5F5F5F5F5F5F5F5F5F5F5F5F5F5F5F5E2E2F5E2E2F5E2F5F5F5F5F5F5F5F5F5F5F5F5F5F5F5F5F5F5F5F5F5F5F5F5F5F5F5F5F5F5F5F5F5F5F5F5F5F5F5F5F5F5F5F5F5F5F5F5F5F5F5F5F5F5F5F5F5F5F5F5F5F5F5
310
F5F5F5F5F5F5F5F5F5F5F5F5F5F5F5F5F5F5F5F5F5F5F5F5F5F5F5F5F5F5F5F5F5F5F5F5F5F5F5F5F5F5F5F5F5F5F5F5F5F5F5F5F5F5F5F5F5F5F5F5F5F5F5F5F5F5F5F5F5F5F5F5F5F5F5F5F5F5F5F5F5F5F5F5F5F5F5F5F5F5F5F5F5F5F5F5F5F5F5F5F5F5F5F5F5F5F5F5F5F5E2E2F5E2E2F5E2F5F5F5F5F5F5F5F5F5F5
310
F5F5F5F5F5F5F5F5F5F5F5F5F5F5F5F5F5F5F5F5F5F5F5F5F5F5F5F5F5F5F5F5F5F5F5F5F5F5F5F5F5F5F5F5F5F5F5E2BEF5F5F5F5F5F5F5F5F5F5F5F5F5F5F5F5F5F5F5F5F5F5F5F5F5F5F5F5F5F5F5F5F5F5F5F5F5F5F5F5F5F5F5F5F5F5F5F5F5F5F5F5F5F5F5F5F5F5F5F5F5F5F5F5F5F5F5F5F5F5F5F5F5F5F5F5F5F5
310
F5F5F5F5F5F5F5F5F5F5F5F5F5F5F5F5F5F5F5F5F5F5F5F5F5F5F5F5F5F5F5F5F5F5F5F5E2E2F5E2E2F5E2F5F5F5F5F5F5F5F5F5F5F5F5F5F5F5F5F5F5F5F5F5F5F5F5F5F5F5F5F5F5F5F5F5F5F5F5F5F5F5F5F5F5F5F5F5F5F5F5F5F5F5F5F5F5F5E2BEE2E2F5F5F5F5E2E2E2E2F5E2E2E2E2E2E2E2E2F5E2E2E2E2E2E2E2
310
E2F5E2E2E2E2E2E2E2E2F5E2E2E2E2E2E2E2E2F5E2E2E2E2E2E2E2E2F5F5F5F5F5F5F5F5F5F5F5F5F5F5F5F5F5F5F5F5F5F5F5F5F5F5F5F5F5F5F5F5F5F5F5F5F5F5F5F5F5F5F5F5F5F5F5F5F5F5F5F5F5F5F5F5F5F5F5F5F5E2E2F5E2E2F5E2F5F5F5F5F5F5F5F5F5F5F5F5F5F5F5F5F5F5F5F5F5F5F5F5F5F5F5F5F5F5F5
310
F5F5F5F5F5F5F5F5F5F5F5F5F5F5F5F5F5F5F5F5F5F5F5F5BEF5E2F5F5F5F5F5E2F5F5F5F5F5F5F5F5F5F5F5F5F5F5F5F5F5F5F5F5F5F5F5F5F5F5F5F5F5F5F5F5F5F5F5F5F5F5F5F5F5F5F5F5F5F5F5E2F5F5F5F5F5F5F5F5F5F5F5F5F5F5F5F5F5F5F5F5F5F5F5F5F5F5F5F5F5F5F5F5F5F5F5F5F5F5F5F5F5F5F5F5F5F5
310
F5F5F5F5F5F5F5F5F5F5F5F5F5F5F5E2E2F5E2E2F5E2F5F5F5F5F5F5F5F5F5F5F5F5F5F5F5F5F5F5F5F5F5F5F5F5F5F5F5F5F5F5F5F5F5F5F5F5F5F5F5F5F5F5F5F5F5F5F5F5F5F5F5F5F5F5F5F5F5E2F5F5F5F5F5E2F5F5F5F5F5F5F5F5F5F5F5F5F5F5F5F5F5F5F5F5F5F5F5F5F5F5F5F5F5F5F5F5F5F5F5F5F5F5F5F5F5
310
F5F5F5F5F5F5E2F5F5F5F5F5F5F5F5F5F5F5F5F5F5F5F5F5F5F5F5F5F5F5F5F5F5F5F5F5F5F5F5F5F5F5F5F5F5F5F5F5F5F5F5F5F5F5F5F5F5F5F5F5F5F5F5F5F5F5F5F5E2E2F5E2E2F5E2F5F5F5F5F5F5F5F5F5F5F5F5F5F5F5F5F5F5F5F5F5F5F5F5F5F5F5F5F5F5F5F5F5F5F5F5F5F5F5F5F5F5F5F5F5F5F5F5F5F5F5F5
310
F5F5F5F5F5E2F5F5F5F5F5E2F5F5F5F5F5F5F5F5F5F5F5F5F5F5F5F5F5F5F5F5F5F5F5F5F5F5F5F5F5F5F5F5F5F5F5F5F5F5F5F5F5F5F5F5F5F5F5E2F5F5F5F5F5F5F5F5F5F5F5F5F5F5F5F5F5F5F5F5F5F5F5F5F5F5F5F5F5F5F5F5F5F5F5F5F5F5F5F5F5F5F5F5F5F5F5F5F5F5F5F5F5F5F5F5F5F5F5F5F5E2E2F5E2E2F5
310
E2F5F5F5F5F5F5F5F5F5F5F5F5F5F5F5F5F5F5F5F5F5F5F5F5F5F5F5F5F5F5F5F5F5F5F5F5F5F5F5F5F5F5F5F5F5F5F5F5F5F5F5F5F5F5F5F5F5E2F5F5F5F5F5E2F5F5F5F5F5F5F5F5F5F5F5F5F5F5F5F5F5F5F5F5F5F5F5F5F5F5F5F5F5F5F5F5F5F5F5F5F5F5F5F5F5F5F5F5F5F5F5E2F5F5F5F5F5F5F5F5F5F5F5F5F5F5
310
F5F5F5F5F5F5F5F5F5F5F5F5F5F5F5F5F5F5F5F5F5F5F5F5F5F5F5F5F5F5F5F5F5F5F5F5F5F5F5F5F5F5F5F5F5F5F5E2F5F5E2E2F5E2F5F5F5F5F5F5F5F5F5F5F5F5F5F5F5F5F5F5F5F5F5F5F5F5F5F5F5F5F5F5F5F5F5F5F5F5F5F5F5F5F5F5F5F5F5F5F5F5F5F5F5F5F5F5F5F5F5E2F5F5F5F5F5E2F5F5F5F5F5F5F5F5F5
310
F5F5F5F5F5F5F5F5F5F5F5F5F5F5F5F5F5F5F5F5F5F5F5F5F5F5F5F5F5F5F5F5F5F5F5F5F5F5E2F5F5F5F5F5F5F5F5F5F5F5F5F5F5F5F5F5F5F5F5F5F5F5F5F5F5F5F5F5F5F5F5F5F5F5F5F5F5F5F5F5F5F5F5F5F5F5F5F5F5F5F5F5F5F5F5F5F5F5F5F5E2F5F5E2E2F5E2F5F5F5F5F5F5F5F5F5F5F5F5F5F5F5F5F5F5F5F5
310
F5F5F5F5F5F5F5F5F5F5F5F5F5F5F5F5F5F5F5F5F5F5F5F5F5F5F5F5F5F5F5F5F5F5F5F5F5E2F5F5F5F5F5E2F5F5F5F5F5F5F5F5F5F5F5F5F5F5F5F5F5F5F5F5F5F5F5F5F5F5F5F5F5F5F5F5F5F5F5F5F5F5F5F5F5F5F5F5F5F5F5E2F5F5F5F5F5F5F5F5F5F5F5F5F5F5F5F5F5F5F5F5F5F5F5F5F5F5F5F5F5F5F5F5F5F5F5
310
F5F5F5F5F5F5F5F5F5F5F5F5F5F5F5F5F5F5F5F5F5F5F5F5F5F5E2F5F5E2E2F5E2F5F5F5F5F5F5F5F5F5F5F5F5F5F5F5F5F5F5F5F5F5F5F5F5F5F5F5F5F5F5F5F5F5F5F5F5F5F5F5F5F5F5F5F5F5F5F5F5F5F5F5F5F5F5F5F5F5E2F5F5F5F5F5E2F5F5F5F5F5F5F5F5F5F5F5F5F5F5F5F5F5F5F5F5F5F5F5F5F5F5F5F5F5F5
310
F5F5F5F5F5F5F5F5F5F5F5F5F5F5F5F5F5E2F5F5F5F5F5F5F5F5F5F5F5F5F5F5F5F5F5F5F5F5F5F5F5F5F5F5F5F5F5F5F5F5F5F5F5F5F5F5F5F5F5F5F5F5F5F5F5F5F5F5F5F5F5F5F5F5F5F5F5F5F5E2F5F5E2E2F5E2F5F5F5F5F5F5F5F5F5F5F5F5F5F5F5F5F5F5F5F5F5F5F5F5F5F5F5F5F5F5F5F5F5F5F5F5F5F5F5F5F5
310
F5F5F5F5F5F5F5F5F5F5F5F5F5F5F5F5E2F5F5F5F5F5E2F5F5F5F5F5F5F5F5F5F5F5F5F5F5F5F5F5F5F5F5F5F5F5F5F5F5F5F5F5F5F5F5F5F5F5F5F5F5F5F5F5F5F5F5F5F5F5E2F5F5F5F5F5F5F5F5F5F5F5F5F5F5F5F5F5F5F5F5F5F5F5F5F5F5F5F5F5F5F5F5F5F5F5F5F5F5F5F5F5F5F5F5F5F5F5F5F5F5F5F5F5F5F5F5
310
F5F5F5F5F5E2F5F5E2E2F5E2F5F5F5F5F5F5F5F5F5F5F5F5F5F5F5F5F5F5F5F5F5F5F5F5F5F5F5F5F5F5F5F5F5F5F5F5F5F5F5F5F5F5F5F5F5F5F5F5F5F5F5F5F5F5F5F5F5E2F5F5F5F5F5F5F5F5F5F5F5F5F5F5F5F5F5F5F5F5F5F5F5F5F5F5F5F5F5F5F5F5F5F5F5F5F5F5F5F5F5F5F5F5F5F5F5F5F5F5F5F5F5F5F5F5F5
310
F5F5F5F5F5F5F5F5F5F5F5F5F5F5F5F5F5F5F5F5F5F5F5F5F5F5F5F5F5F5F5F5F5F5F5F5F5F5F5F5F5F5F5F5F5F5F5F5F5F5F5F5F5F5F5F5F5F5E2F5F5E2E2F5E2F5F5F5F5F5F5F5F5F5F5F5F5F5F5F5F5F5F5F5F5F5F5F5F5F5F5F5F5F5F5F5F5F5F5F5F5F5F5F5F5F5F5F5F5F5F5F5F5F5F5F5F5F5F5F5F5F5E2F5F5F5F5
310
F5E2F5F5F5F5F5F5F5F5F5F5F5F5F5F5F5F5F5F5F5F5F5F5F5F5F5F5F5F5F5F5F5F5F5F5F5F5F5F5F5F5F5F5F5F5F5F5F5E2F5F5F5F5F5F5F5F5F5F5F5F5F5F5F5F5F5F5F5F5F5F5F5F5F5F5F5F5F5F5F5F5F5F5F5F5F5F5F5F5F5F5F5F5F5F5F5F5F5F5F5F5F5F5F5F5F5F5F5F5F5E2F5F5E2E2F5E2F5F5F5F5F5F5F5F5F5
310
F5F5F5F5F5F5F5F5F5F5F5F5F5F5F5F5F5F5F5F5F5F5F5F5F5F5F5F5F5F5F5F5F5F5F5F5F5F5F5F5F5F5F5F5F5F5F5F5E2F5F5F5F5F5E2F5F5F5F5F5F5F5F5F5F5F5F5F5F5F5F5F5F5F5F5F5F5F5F5F5F5F5F5F5F5F5F5F5F5F5F5F5F5F5F5F5F5F5F5F5F5F5E2F5F5F5F5F5F5F5F5F5F5F5F5F5F5F5F5F5F5F5F5F5F5F5F5
310
F5F5F5F5F5F5F5F5F5F5F5F5F5F5F5F5F5F5F5F5F5F5F5F5F5F5F5F5F5F5F5F5F5F5F5F5F5E2F5F5E2E2F5E2F5F5F5F5F5F5F5F5F5F5F5F5F5F5F5F5F5F5F5F5F5F5F5F5F5F5F5F5F5F5F5F5F5F5F5F5F5F5F5F5F5F5F5F5F5F5F5F5F5F5F5F5F5F5F5F5F5E2F5F5F5F5F5E2F5F5F5F5F5F5F5F5F5F5F5F5F5F5F5F5F5F5F5
310
F5F5F5F5F5F5F5F5F5F5F5F5F5F5F5F5F5F5F5F5F5F5F5F5F5F5F5F5E2F5F5F5F5F5F5F5F5F5F5F5F5F5F5F5F5F5F5F5F5F5F5F5F5F5F5F5F5F5F5F5F5F5F5F5F5F5F5F5F5F5F5F5F5F5F5F5F5F5F5F5F5F5F5F5F5F5F5F5F5F5E2E2F5E2E2F5E2F5F5F5F5F5F5F5F5F5F5F5F5F5F5F5F5F5F5F5F5F5F5F5F5F5F5F5F5F5F5
310
F5F5F5F5F5F5F5F5F5F5F5F5F5F5F5F5F5F5F5F5F5F5F5F5F5F5F5E2F5F5F5F5F5E2F5F5F5F5F5F5F5F5F5F5F5F5F5F5F5F5F5F5F5F5F5F5F5F5F5F5F5F5F5F5F5F5F5F5F5F5F5F5F5F5F5F5F5F5F5F5F5E2F5F5F5F5F5F5F5F5F5F5F5F5F5F5F5F5F5F5F5F5F5F5F5F5F5F5F5F5F5F5F5F5F5F5F5F5F5F5F5F5F5F5F5F5F5
310
F5F5F5F5F5F5F5F5F5F5F5F5F5F5F5F5E2E2F5E2E2F5E2F5F5F5F5F5F5F5F5F5F5F5F5F5F5F5F5F5F5F5F5F5F5F5F5F5F5F5F5F5F5F5F5F5F5F5F5F5F5F5F5F5F5F5F5F5F5F5F5F5F5F5F5F5F5F5F5F5E2F5F5F5F5F5E2F5F5F5F5F5F5F5F5F5F5F5F5F5F5F5F5F5F5F5F5F5F5F5F5F5F5F5F5F5F5F5F5F5F5F5F5F5F5F5F5
310
F5F5F5F5F5F5F5E2F5F5F5F5F5F5F5F5F5F5F5F5F5F5F5F5F5F5F5F5F5F5F5F5F5F5F5F5F5F5F5F5F5F5F5F5F5F5F5F5F5F5F5F5F5F5F5F5F5F5F5F5F5F5F5F5F5F5F5F5F5E2E2F5E2E2F5E2F5F5F5F5F5F5F5F5F5F5F5F5F5F5F5F5F5F5F5F5F5F5F5F5F5F5F5F5F5F5F5F5F5F5F5F5F5F5F5F5F5F5F5F5F5F5F5F5F5F5F5
310
F5F5F5F5F5F5E2F5F5F5F5F5E2F5F5F5F5F5F5F5F5F5F5F5F5F5F5F5F5F5F5F5F5F5F5F5F5F5F5F5F5F5F5F5F5F5F5F5F5F5F5F5F5F5F5F5F5F5F5F5E2F5F5F5F5F5F5F5F5F5F5F5F5F5F5F5F5F5F5F5F5F5F5F5F5F5F5F5F5F5F5F5F5F5F5F5F5F5F5F5F5F5F5F5F5F5F5F5F5F5F5F5F5F5F5F5F5F5F5F5F5F5E2E2F5E2E2
310
F5E2F5F5F5F5F5F5F5F5F5F5F5F5F5F5F5F5F5F5F5F5F5F5F5F5F5F5F5F5F5F5F5F5F5F5F5F5F5F5F5F5F5F5F5F5F5F5F5F5F5F5F5F5F5F5F5F5F5E2F5F5F5F5F5E2F5F5F5F5F5F5F5F5F5F5F5F5F5F5F5F5F5F5F5F5F5F5F5F5F5F5F5F5F5F5F5F5F5F5F5F5F5F5F5F5F5F5F5F5F5F5F5E2F5F5F5F5F5F5F5F5F5F5F5F5F5
310
F5F5F5F5F5F5F5F5F5F5F5F5F5F5F5F5F5F5F5F5F5F5F5F5F5F5F5F5F5F5F5F5F5F5F5F5F5F5F5F5F5F5F5F5F5F5F5F5E2E2F5E2E2F5E2F5F5F5F5F5F5F5F5F5F5F5F5F5F5F5F5F5F5F5F5F5F5F5F5F5F5F5F5F5F5F5F5F5F5F5F5F5F5F5F5F5F5F5F5F5F5F5F5F5F5F5F5F5F5F5F5F5E2F5F5F5F5F5E2F5F5F5F5F5F5F5F5
310
F5F5F5F5F5F5F5F5F5E2F5F5F5F5F5F5F5F5F5F5F5E2E2F5F5F5F5F5F5F5F5F5F5F5F5F5F5F5F5E2F5F5F5F5F5F5F5F5F5F5F5F5F5F5F5F5F5F5F5F5F5F5F5F5F5F5F5F5F5F5F5F5F5F5F5F5F5F5F5F5F5F5F5F5F5F5F5F5F5F5F5F5F5F5F5F5F5F5F5F5F5E2E2F5E2E2F5E2F5F5F5F5F5F5F5F5F5F5F5F5F5F5F5F5F5F5F5
310
F5F5F5F5F5F5F5F5F5F5F5F5F5F5F5F5F5F5F5F5F5F5F5F5F5F5F5F5F5F5F5F5F5F5F5F5F5F5E2F5F5F5F5F5F5F5F5F5F5F5F5F5F5F5F5F5F5F5F5F5F5E2E2E2E2E2E2E2E2E2E2E2E2E2E2E2F5F5F5F5F5F5F5F5F5F5F5F5F5F5F5F5F5F5F5F5F5F5F5F5F5F5F5F5F5F5F5F5F5F5F5F5F5F5F5F5F5F5F5F5F5F5F5F5F5F5F5
310
F5F5F5F5F5F5F5F5F5F5F5F5F5F5F5F5F5F5F5F5F5F5F5F5F5F5F5E2E2F5E2E2F5E2F5F5F5F5F5F5F5F5F5F5F5F5F5F5F5F5F5F5F5F5F5F5F5F5F5F5F5F5F5F5F5F5F5F5F5F5F5F5F5F5F5F5F5F5F5F5F5F5F5F5F5F5F5F5F5F5F5E2F5F5F5F5F5E2F5F5F5F5F5F5F5F5F5F5F5F5F5F5F5F5E2E2F5F5F5F5F5E2E2F5F5F5F5
310
F5E2F5F5F5F5F5F5F5F5F5F5F5F5F5F5F5F5E2F5F5F5F5F5F5F5F5F5F5F5F5F5F5F5F5F5F5F5F5F5F5F5F5F5F5F5F5F5F5F5F5F5F5F5F5F5F5F5F5F5F5F5F5F5F5F5F5F5F5F5F5F5F5F5F5F5F5F5F5F5E2E2F5E2E2F5E2F5F5F5F5F5F5F5F5F5F5F5F5F5F5F5F5F5F5F5F5F5F5F5F5F5F5F5F5F5F5F5F5F5F5F5F5F5F5F5F5
310
F5F5F5F5F5F5F5F5F5F5F5F5F5F5F5F5F5E2F5F5F5F5F5E2F5F5F5F5F5F5F5F5F5F5F5F5F5F5F5F5E2F5F5F5F5F5F5E2E2F5F5F5F5F5E2F5F5F5F5F5F5F5F5F5F5F5F5F5F5F5F5E2F5F5F5F5F5F5F5F5F5F5F5F5F5F5F5F5F5F5F5F5F5F5F5F5F5F5F5F5F5F5F5F5F5F5F5F5F5F5F5F5F5F5F5F5F5F5F5F5F5F5F5F5F5F5F5
310
F5F5F5F5F5F5E2E2F5E2E2F5E2F5F5F5F5F5F5F5F5F5F5F5F5F5F5F5F5F5F5F5F5F5F5F5F5F5F5F5F5F5F5F5F5F5F5F5F5F5F5F5F5F5F5F5F5F5F5F5F5F5F5F5F5F5F5F5F5F5E2F5F5F5F5F5E2F5F5F5F5F5F5F5F5F5F5F5F5F5F5F5F5E2F5F5F5F5F5F5E2E2F5F5F5F5F5E2F5F5F5F5F5F5F5F5F5F5F5F5F5F5F5F5E2F5F5
310
F5F5F5F5F5F5F5F5F5F5F5F5F5F5F5F5F5F5F5F5F5F5F5F5F5F5F5F5F5F5F5F5F5F5F5F5F5F5F5F5F5F5F5F5F5F5F5F5F5F5F5F5F5F5F5F5F5F5F5E2E2F5E2E2F5E2F5F5F5F5F5F5F5F5F5F5F5F5F5F5F5F5F5F5F5F5F5F5F5F5F5F5F5F5F5F5F5F5F5F5F5F5F5F5F5F5F5F5F5F5F5F5F5F5F5F5F5F5F5F5F5F5F5E2F5F5F5
310
F5F5E2F5F5F5F5F5F5F5F5F5F5F5F5F5F5F5F5E2F5F5F5F5F5F5E2E2F5F5F5F5F5E2F5F5F5F5F5F5F5F5F5F5F5F5F5F5F5F5E2F5F5F5F5F5F5F5F5F5F5F5F5F5F5F5F5F5F5F5F5F5F5F5F5F5F5F5F5F5F5F5F5F5F5F5F5F5F5F5F5F5F5F5F5F5F5F5F5F5F5F5F5F5F5F5F5F5F5F5F5F5E2E2F5E2E2F5E2F5F5F5F5F5F5F5F5
310
F5F5F5F5F5F5F5F5F5F5F5F5F5F5F5F5F5F5F5F5F5F5F5F5F5F5F5F5F5F5F5F5F5F5F5F5F5F5F5F5F5F5F5F5F5F5F5F5F5E2F5F5F5F5F5E2F5F5F5F5F5F5F5F5F5F5F5F5F5F5F5F5E2F5F5F5F5F5F5E2E2F5F5F5F5F5E2F5F5F5F5F5F5F5F5F5F5F5F5F5F5F5F5E2F5F5F5F5F5F5F5F5F5F5F5F5F5F5F5F5F5F5F5F5F5F5F5
310
F5F5F5F5F5F5F5F5F5F5F5F5F5F5F5F5F5F5F5F5F5F5F5F5F5F5F5F5F5F5F5F5F5F5F5F5F5F5E2E2F5E2E2F5E2F5F5F5F5F5F5F5F5F5F5F5F5F5F5F5F5F5F5F5F5F5F5F5F5F5F5F5F5F5F5F5F5F5F5F5F5F5F5F5F5F5F5F5F5F5F5F5F5F5F5F5F5F5F5F5F5F5E2F5F5F5F5F5E2F5F5F5F5F5F5F5F5F5F5F5F5F5F5F5F5E2F5
310
F5F5F5F5F5E2E2F5F5F5F5F5E2F5F5F5F5F5F5F5F5F5F5F5F5F5F5F5F5E2F5F5F5F5F5F5F5F5F5F5F5F5F5F5F5F5F5F5F5F5F5F5F5F5F5F5F5F5F5F5F5F5F5F5F5F5F5F5F5F5F5F5F5F5F5F5F5F5F5F5F5F5F5F5F5F5F5F5F5F5F5E2E2F5E2E2F5E2F5F5F5F5F5F5F5F5F5F5F5F5F5F5F5F5F5F5F5F5F5F5F5F5F5F5F5F5F5
310
F5F5F5F5F5F5F5F5F5F5F5F5F5F5F5F5F5F5F5F5F5F5F5F5F5F5F5F5E2F5F5F5F5F5E2F5F5F5F5F5F5F5F5F5F5F5F5F5F5F5F5E2F5F5F5F5F5F5E2E2F5F5F5F5F5E2F5F5F5F5F5F5F5F5F5F5F5F5F5F5F5F5E2F5F5F5F5F5F5F5F5F5F5F5F5F5F5F5F5F5F5F5F5F5F5F5F5F5F5F5F5F5F5F5F5F5F5F5F5F5F5F5F5F5F5F5F5
310
F5F5F5F5F5F5F5F5F5F5F5F5F5F5F5F5F5E2E2F5E2E2F5E2F5F5F5F5F5F5F5F5F5F5F5F5F5F5F5F5F5F5F5F5F5F5F5F5F5F5F5F5F5F5F5F5F5F5F5F5F5F5F5F5F5F5F5F5F5F5F5F5F5F5F5F5F5F5F5F5F5E2F5F5F5F5F5E2F5F5F5F5F5F5F5F5F5F5F5F5F5F5F5F5E2F5F5F5F5F5F5E2E2F5F5F5F5F5E2F5F5F5F5F5F5F5F5
310
F5F5F5F5F5F5F5F5E2F5F5F5F5F5F5F5F5F5F5F5F5F5F5F5F5F5F5F5F5F5F5F5F5F5F5F5F5F5F5F5F5F5F5F5F5F5F5F5F5F5F5F5F5F5F5F5F5F5F5F5F5F5F5F5F5F5F5F5F5F5E2E2F5E2E2F5E2F5F5F5F5F5F5F5F5F5F5F5F5F5F5F5F5F5F5F5F5F5F5F5F5F5F5F5F5F5F5F5F5F5F5F5F5F5F5F5F5F5F5F5F5F5F5F5F5F5F5
310
F5F5F5F5F5F5F5E2F5F5F5F5F5F5F5F5F5F5F5F5F5F5F5F5F5F5F5F5F5F5E2F5F5F5F5F5F5E2E2F5F5F5F5F5E2F5F5F5F5F5F5F5F5F5F5F5F5F5F5F5F5F5F5F5F5F5F5F5F5F5F5F5F5F5F5F5F5F5F5F5F5F5F5F5F5F5F5F5F5F5F5F5F5F5F5F5F5F5F5F5F5F5F5F5F5F5F5F5F5F5F5F5F5F5F5F5F5F5F5F5F5F5F5E2E2F5E2
310
E2F5E2F5F5F5F5F5F5F5F5F5F5F5F5F5F5F5F5F5F5F5F5F5F5F5F5F5F5F5F5F5F5F5F5F5F5F5F5F5F5F5F5F5F5F5F5F5F5F5F5F5F5F5F5F5F5F5F5F5E2F5F5F5F5F5E2F5F5F5F5F5F5F5F5F5F5F5F5F5F5F5F5E2F5F5F5F5F5F5E2E2F5F5F5F5F5E2F5F5F5F5F5F5F5F5F5F5F5F5F5F5F5F5E2F5F5F5F5F5F5F5F5F5F5F5F5
310
F5F5F5F5F5F5F5F5F5F5F5F5F5F5F5F5F5F5F5F5F5F5F5F5F5F5F5F5F5F5F5F5F5F5F5F5F5F5F5F5F5F5F5F5F5F5F5F5F5E2F5F5E2E2F5E2F5F5F5F5F5F5F5F5F5F5F5F5F5F5F5F5F5F5F5F5F5F5F5F5F5F5F5F5F5F5F5F5F5F5F5F5F5F5F5F5F5F5F5F5F5F5F5F5F5F5F5F5E2E2E2E2F5E2F5F5F5F5F5E2F5F5F5F5F5F5F5
310
F5F5F5F5F5F5F5F5F5E2F5F5F5F5F5F5E2E2F5F5F5F5F5E2F5F5F5F5F5F5F5F5F5F5F5F5F5F5F5F5E2F5F5F5F5F5F5F5F5F5F5F5F5F5F5F5F5F5F5F5F5F5F5F5F5F5F5F5F5F5F5F5F5F5F5F5F5F5F5F5F5F5F5F5F5F5F5F5F5F5F5F5F5F5F5F5F5F5F5F5F5F5E2F5F5E2E2F5E2F5F5F5F5F5F5F5F5F5F5F5F5F5F5F5F5F5F5
310
F5F5F5F5F5F5F5F5F5F5F5F5F5F5F5F5F5F5F5F5F5F5F5F5F5F5F5F5F5F5F5F5F5F5E2E2E2E2F5E2F5F5F5F5F5E2F5F5F5F5F5F5F5F5F5F5F5F5F5F5F5F5E2F5F5F5F5F5F5E2E2F5F5F5F5F5E2F5F5F5F5F5F5F5F5F5F5F5F5F5F5F5F5E2F5F5F5F5F5F5F5F5F5F5F5F5F5F5F5F5F5F5F5F5F5F5F5F5F5F5F5F5F5F5F5F5F5
310
F5F5F5F5F5F5F5F5F5F5F5F5F5F5F5F5F5F5F5F5F5F5F5F5F5F5F5F5E2F5F5E2E2F5E2F5F5F5F5F5F5F5F5F5F5F5F5F5F5F5F5F5F5F5F5F5F5F5F5F5F5F5F5F5F5F5F5F5F5F5F5F5F5F5F5F5F5F5F5F5F5F5F5F5F5F5F5E2E2E2E2F5E2F5F5F5F5F5E2F5F5F5F5F5F5F5F5F5F5F5F5F5F5F5F5E2E2F5F5F5F5F5E2E2F5F5F5
310
F5F5E2F5F5F5F5F5F5F5F5F5F5F5F5F5F5F5F5E2F5F5F5F5F5F5F5F5F5F5F5F5F5F5F5F5F5F5F5F5F5F5F5F5F5F5F5F5F5F5F5F5F5F5F5F5F5F5F5F5F5F5F5F5F5F5F5F5F5F5F5F5F5F5F5F5F5F5F5F5F5E2F5F5E2E2F5E2F5F5F5F5F5F5F5F5F5F5F5F5F5F5F5F5F5F5F5F5F5F5F5F5F5F5F5F5F5F5F5F5F5F5F5F5F5F5F5
310
F5F5F5F5F5F5F5F5F5F5F5F5F5E2E2E2E2F5E2F5F5F5F5F5E2F5F5F5F5F5F5F5F5F5F5F5F5F5F5F5F5E2E2E2E2E2E2E2E2E2E2E2E2E2E2E2F5F5F5F5F5F5F5F5F5F5F5F5F5F5F5F5E2F5F5F5F5F5F5F5F5F5F5F5F5F5F5F5F5F5F5F5F5F5F5F5F5F5F5F5F5F5F5F5F5F5F5F5F5F5F5F5F5F5F5F5F5F5F5F5F5F5F5F5F5F5F5
310
F5F5F5F5F5F5F5E2F5F5E2E2F5E2F5F5F5F5F5F5F5F5F5F5F5F5F5F5F5F5F5F5F5F5F5F5F5F5F5F5F5F5F5F5F5F5F5F5F5F5F5F5F5F5F5F5F5F5F5F5F5F5F5F5F5F5E2E2E2E2F5E2F5F5F5F5F5E2F5F5F5F5F5F5F5F5F5F5F5F5F5F5F5F5F5E2E2E2E2E2E2E2E2E2E2E2E2E2E2F5F5F5F5F5F5F5F5F5F5F5F5F5F5F5F5E2F5
310
F5F5F5F5F5F5F5F5F5F5F5F5F5F5F5F5F5F5F5F5F5F5F5F5F5F5F5F5F5F5F5F5F5F5F5F5F5F5F5F5F5F5F5F5F5F5F5F5F5F5F5F5F5F5F5F5F5F5F5F5E2F5F5E2E2F5E2F5F5F5F5F5F5F5F5F5F5F5F5F5F5F5F5F5F5F5F5F5F5F5F5F5F5F5F5F5F5F5F5F5F5F5F5F5F5F5F5F5F5F5F5F5F5F5F5F5F5F5F5F5F5F5F5F5E2F5F5
310
F5F5F5E2F5F5F5F5F5F5F5F5F5F5F5F5F5F5F5F5F5E2E2E2E2E2E2E2E2E2E2E2E2E2E2F5F5F5F5F5F5F5F5F5F5F5F5F5F5F5F5E2F5F5F5F5F5F5F5F5F5F5F5F5F5F5F5F5F5F5F5F5F5F5F5F5F5F5F5F5F5F5F5F5F5F5F5F5F5F5F5F5F5F5F5F5F5F5F5F5F5F5F5F5F5F5F5F5F5F5F5F5F5E2F5F5E2E2F5E2F5F5F5F5F5F5F5
310
F5F5F5F5F5F5F5F5F5F5F5F5F5F5F5F5F5F5F5F5F5F5F5F5F5F5F5F5F5F5F5F5F5F5F5F5F5F5F5F5F5F5F5F5F5F5F5F5F5F5E2F5F5F5F5F5E2F5F5F5F5F5F5F5F5F5F5F5F5F5F5F5F5F5E2E2E2E2E2E2E2E2E2E2E2E2E2F5F5F5F5F5F5F5F5F5F5F5F5F5F5F5F5F5E2F5F5F5F5F5F5F5F5F5F5F5F5F5F5F5F5F5F5F5F5F5F5
310
F5F5F5F5F5F5F5F5F5F5F5F5F5F5F5F5F5F5F5F5F5F5F5F5F5F5F5F5F5F5F5F5F5F5F5F5F5F5F5E2F5F5E2E2F5E2F5F5F5F5F5F5F5F5F5F5F5F5F5F5F5F5F5F5F5F5F5F5F5F5F5F5F5F5F5F5F5F5F5F5F5F5F5F5F5F5F5F5F5F5F5F5F5F5F5F5F5F5F5F5F5F5F5E2F5F5F5F5F5F5F5F5F5F5F5F5F5F5F5F5F5F5F5F5F5F5F5
310
E2E2F5E2E2E2E2E2E2E2E2F5E2F5F5F5F5F5F5F5F5F5F5F5F5F5F5F5F5F5F5F5F5F5F5F5F5F5F5F5F5F5F5F5F5F5F5F5F5F5F5F5F5F5F5F5F5F5F5F5F5F5F5F5F5F5F5F5F5F5F5F5F5F5F5F5F5F5F5F5F5F5F5F5F5F5F5F5F5F5F5F5E2F5F5E2E2F5E2F5F5F5F5F5F5F5F5F5F5F5F5F5F5F5F5F5F5F5F5F5F5F5F5F5F5F5F5
310
F5F5F5F5F5F5F5F5F5F5F5F5F5F5F5F5F5F5F5F5F5F5F5F5F5F5F5F5F5E2F5F5F5F5F5E2F5F5F5F5F5F5F5F5F5F5F5F5F5F5F5F5F5E2E2E2E2E2E2E2E2E2E2E2E2E2F5F5F5F5F5F5F5F5F5F5F5F5F5F5F5F5F5E2F5F5F5F5F5F5F5F5F5F5F5F5F5F5F5F5F5F5F5F5F5F5F5F5F5F5F5F5F5F5F5F5F5F5F5F5F5F5F5F5F5F5F5
310
F5F5F5F5F5F5F5F5F5F5F5F5F5F5F5F5F5F5E2E2F5E2E2F5E2F5F5F5F5F5F5F5F5F5F5F5F5F5F5F5F5F5F5F5F5F5F5F5F5F5F5F5F5F5F5F5F5F5F5F5F5F5F5F5F5F5F5F5F5F5F5F5F5F5F5F5F5F5F5F5F5F5E2F5F5F5F5F5E2F5F5F5F5F5F5F5F5F5F5F5F5F5F5F5F5F5E2E2E2E2E2E2E2E2E2E2E2E2E2F5F5F5F5F5F5F5F5
310
F5F5F5F5F5F5F5F5F5E2F5F5F5F5F5F5F5F5F5F5F5F5F5F5F5F5F5F5F5F5F5F5F5F5F5F5F5F5F5F5F5F5F5F5F5F5F5F5F5F5F5F5F5F5F5F5F5F5F5F5F5F5F5F5F5F5F5F5F5F5F5E2E2F5E2E2F5E2F5F5F5F5F5F5F5F5F5F5F5F5F5F5F5F5F5F5F5F5F5F5F5F5F5F5F5F5F5F5F5F5F5F5F5F5F5F5F5F5F5F5F5F5F5F5F5F5F5
310
F5F5F5F5F5F5F5F5E2F5F5F5F5F5E2F5F5F5F5F5F5F5F5F5F5F5F5F5F5F5F5F5E2E2F5E2E2E2E2E2E2E2E2F5E2E2F5F5F5F5F5F5F5F5F5F5F5F5F5F5F5F5E2F5F5F5F5F5F5F5F5F5F5F5F5F5F5F5F5F5F5F5F5F5F5F5F5F5F5F5F5F5F5F5F5F5F5F5F5F5F5F5F5F5F5F5F5F5F5F5F5F5F5F5F5F5F5F5F5F5F5F5F5F5E2E2F5
310
E2E2F5E2F5F5F5F5F5F5F5F5F5F5F5F5F5F5F5F5F5F5F5F5F5F5F5F5F5F5F5F5F5F5F5F5F5F5F5F5F5F5F5F5F5F5F5F5F5F5F5F5F5F5F5F5F5F5F5F5F5E2F5F5F5F5F5E2F5F5F5F5F5F5F5F5F5F5F5F5F5F5F5F5F5E2E2E2E2E2E2E2E2E2E2E2E2E2E2F5F5F5F5F5F5F5F5F5F5F5F5F5F5F5F5E2F5F5F5F5F5F5F5F5F5F5F5
310
F5F5F5F5F5F5F5F5F5F5F5F5F5F5F5F5F5F5F5F5F5F5F5F5F5F5F5F5F5F5F5F5F5F5F5F5F5F5F5F5F5F5F5F5F5F5F5F5F5F5E2E2F5E2E2F5E2F5F5F5F5F5F5F5F5F5F5F5F5F5F5F5F5F5F5F5F5F5F5F5F5F5F5F5F5F5F5F5F5F5F5F5F5F5F5F5F5F5F5F5F5F5F5F5F5F5F5F5F5F5F5F5F5F5E2F5F5F5F5F5E2F5F5F5F5F5F5
310
F5F5F5F5F5F5F5F5F5F5F5E2E2E2E2E2E2E2E2E2E2E2E2E2E2F5F5F5F5F5F5F5F5F5F5F5F5F5F5F5F5E2F5F5F5F5F5F5F5F5F5F5F5F5F5F5F5F5F5F5F5F5F5F5F5F5F5F5F5F5F5F5F5F5F5F5F5F5F5F5F5F5F5F5F5F5F5F5F5F5F5F5F5F5F5F5F5F5F5F5F5F5F5E2E2F5E2E2F5E2F5F5F5F5F5F5F5F5F5F5F5F5F5F5F5F5F5
310
F5F5F5F5F5F5F5F5F5F5F5F5F5F5F5F5F5F5F5F5F5F5F5F5F5F5F5F5F5F5F5F5F5F5F5F5F5F5F5F5E2F5F5F5F5F5E2F5F5F5F5F5F5F5F5F5F5F5F5F5F5F5F5F5E2E2E2E2E2E2E2E2E2E2E2E2E2E2F5F5F5F5F5F5F5F5F5F5F5F5F5F5F5F5E2F5F5F5F5F5F5F5F5F5F5F5F5F5F5F5F5F5F5F5F5F5F5F5F5F5F5F5F5F5F5F5F5
310
F5F5F5F5F5F5F5F5F5F5F5F5F5F5F5F5F5F5F5F5F5F5F5F5F5F5F5F5F5E2E2F5E2E2F5E2F5F5F5F5F5F5F5F5F5F5F5F5F5F5F5F5F5F5F5F5F5F5F5F5F5F5F5F5F5F5F5F5F5F5F5F5F5F5F5F5F5F5F5F5F5F5F5F5F5F5F5F5F5F5F5F5F5E2F5F5F5F5F5E2F5F5F5F5F5F5F5F5F5F5F5F5F5F5F5F5F5E2E2F5E2E2E2E2E2E2E2
310
E2F5E2E2F5F5F5F5F5F5F5F5F5F5F5F5F5F5F5F5E2F5F5F5F5F5F5F5F5F5F5F5F5F5F5F5F5F5F5F5F5F5F5F5F5F5F5F5F5F5F5F5F5F5F5F5F5F5F5F5F5F5F5F5F5F5F5F5F5F5F5F5F5F5F5F5F5F5F5F5F5F5E2E2F5E2E2F5E2F5F5F5F5F5F5F5F5F5F5F5F5F5F5F5F5F5F5F5F5F5F5F5F5F5F5F5F5F5F5F5F5F5F5F5F5F5F5
310
F5F5F5F5F5F5F5F5F5F5F5F5F5F5F5F5F5F5F5E2F5F5F5F5F5E2F5F5F5F5F5F5F5F5F5F5F5F5F5F5F5F5F5E2E2E2E2E2E2E2E2E2E2E2E2E2E2F5F5F5F5F5F5F5F5F5F5F5F5F5F5F5F5E2F5F5F5F5F5F5F5F5F5F5F5F5F5F5F5F5F5F5F5F5F5F5F5F5F5F5F5F5F5F5F5F5F5F5F5F5F5F5F5F5F5F5F5F5F5F5F5F5F5F5F5F5F5
310
F5F5F5F5F5F5F5F5E2E2F5E2E2F5E2F5F5F5F5F5F5F5F5F5F5F5F5F5F5F5F5F5F5F5F5F5F5F5F5F5F5F5F5F5F5F5F5F5F5F5F5F5F5F5F5F5F5F5F5F5F5F5F5F5F5F5F5F5F5F5F5F5E2F5F5F5F5F5F5F5F5F5F5F5F5F5F5F5F5F5F5F5F5F5F5F5E2E2E2E2E2E2E2E2E2E2E2E2E2E2F5F5F5F5F5F5F5F5F5F5F5F5F5F5F5F5F5
310
F5F5F5F5F5F5F5F5F5F5F5F5F5F5F5F5F5F5F5F5F5F5F5F5F5F5F5F5F5F5F5F5F5F5F5F5F5F5F5F5F5F5F5F5F5F5F5F5F5F5F5F5F5F5F5F5F5F5F5F5F5E2E2F5E2E2F5E2F5F5F5F5F5F5F5F5F5F5F5F5F5F5F5F5F5F5F5F5F5F5F5F5F5F5F5F5F5F5F5F5F5F5F5F5F5F5F5F5F5F5F5F5F5F5F5F5F5F5F5F5F5F5F5F5F5E2F5
310
F5F5F5F5E2F5F5F5F5F5F5F5F5F5F5F5F5F5F5F5F5F5E2F5F5F5F5F5F5F5F5F5F5F5E2E2F5F5F5F5F5F5F5F5F5F5F5F5F5F5F5F5E2F5F5F5F5F5F5F5F5F5F5F5F5F5F5F5F5F5F5F5F5F5F5F5F5F5F5F5F5F5F5F5F5F5F5F5F5F5F5F5F5F5F5F5F5F5F5F5F5F5F5F5F5F5F5F5F5F5F5F5F5F5E2E2F5E2E2F5E2F5F5F5F5F5F5
310
F5F5F5F5F5F5F5F5F5F5F5F5F5F5F5F5F5F5F5F5F5F5F5F5F5F5F5F5F5F5F5F5F5F5F5F5F5F5F5F5F5F5F5F5F5F5F5F5F5F5F5E2F5F5F5F5F5E2F5F5F5F5F5F5F5F5F5F5F5F5F5F5F5F5F5F5F5F5F5F5F5F5F5F5F5F5F5F5F5F5F5F5F5F5F5F5F5F5F5F5F5F5F5F5F5E2F5F5F5F5F5F5F5F5F5F5F5F5F5F5F5F5F5F5F5F5F5
310
F5F5F5F5F5F5F5F5F5F5F5F5F5F5F5F5F5F5F5F5F5F5F5F5F5F5F5F5F5F5F5F5F5F5F5F5F5F5F5F5E2E2F5E2E2F5E2F5F5F5F5F5F5F5F5F5F5F5F5F5F5F5F5F5F5F5F5F5F5F5F5F5F5F5F5F5F5F5F5F5F5F5F5F5F5F5F5F5F5F5F5F5F5F5F5F5F5F5F5F5F5F5F5F5E2F5F5F5F5F5E2F5F5F5F5F5F5F5F5F5F5F5F5F5F5F5F5
310
F5F5F5F5F5F5F5F5F5F5F5F5F5F5F5F5F5F5F5F5F5F5F5F5F5F5F5F5F5F5F5E2F5F5F5F5F5F5F5F5F5F5F5F5F5F5F5F5F5F5F5F5F5F5F5F5F5F5F5F5F5F5F5F5F5F5F5F5F5F5F5F5F5F5F5F5F5F5F5F5F5F5F5F5F5F5F5F5F5F5F5F5F5E2E2F5E2E2F5E2F5F5F5F5F5F5F5F5F5F5F5F5F5F5F5F5F5F5F5F5F5F5F5F5F5F5F5
310
F5F5F5F5F5F5F5F5F5F5F5F5F5F5F5F5F5F5F5F5F5F5F5F5F5F5F5F5F5F5E2F5F5F5F5F5E2F5F5F5F5F5F5F5F5F5F5F5F5F5F5F5F5F5F5F5F5F5F5F5F5F5F5F5F5F5F5F5F5F5F5F5F5F5F5F5F5F5F5F5F5F5F5F5E2F5F5F5F5F5F5F5F5F5F5F5F5F5F5F5F5F5F5F5F5F5F5F5F5F5F5F5F5F5F5F5F5F5F5F5F5F5F5F5F5F5F5
310
F5F5F5F5F5F5F5F5F5F5F5F5F5F5F5F5F5F5F5E2E2F5E2E2F5E2F5F5F5F5F5F5F5F5F5F5F5F5F5F5F5F5F5F5F5F5F5F5F5F5F5F5F5F5F5F5F5F5F5F5F5F5F5F5F5F5F5F5F5F5F5F5F5F5F5F5F5F5F5F5F5F5F5E2F5F5F5F5F5E2F5F5F5F5F5F5F5F5F5F5F5F5F5F5F5F5F5F5F5F5F5F5F5F5F5F5F5F5F5F5F5F5F5F5F5F5F5
310
F5F5F5F5F5F5F5F5F5F5E2F5F5F5F5F5F5F5F5F5F5F5F5F5F5F5F5F5F5F5F5F5F5F5F5F5F5F5F5F5F5F5F5F5F5F5F5F5F5F5F5F5F5F5F5F5F5F5F5F5F5F5F5F5F5F5F5F5F5F5F5F5E2E2F5E2E2F5E2F5F5F5F5F5F5F5F5F5F5F5F5F5F5F5F5F5F5F5F5F5F5F5F5F5F5F5F5F5F5F5F5F5F5F5F5F5F5F5F5F5F5F5F5F5F5F5F5
310
F5F5F5F5F5F5F5F5F5E2F5F5F5F5F5E2F5F5F5F5F5F5F5F5F5F5F5F5F5F5F5F5F5F5F5F5F5F5F5F5F5F5F5F5F5F5F5F5F5F5F5F5F5F5F5F5F5F5F5F5F5F5F5E2F5F5F5F5F5F5F5F5F5F5F5F5F5F5F5F5F5F5F5F5F5F5F5F5F5F5F5F5F5F5F5F5F5F5F5F5F5F5F5F5F5F5F5F5F5F5F5F5F5F5F5F5F5F5F5F5F5F5F5F5F5E2E2
310
F5E2E2F5E2F5F5F5F5F5F5F5F5F5F5F5F5F5F5F5F5F5F5F5F5F5F5F5F5F5F5F5F5F5F5F5F5F5F5F5F5F5F5F5F5F5F5F5F5F5F5F5F5F5F5F5F5F5F5F5F5F5E2F5F5F5F5F5E2F5F5F5F5F5F5F5F5F5F5F5F5F5F5F5F5F5F5F5F5F5F5F5F5F5F5F5F5F5F5F5F5F5F5F5F5F5F5F5F5F5F5F5F5F5F5F5E2F5F5F5F5F5F5F5F5F5F5
310
F5F5F5F5F5F5F5F5F5F5F5F5F5F5F5F5F5F5F5F5F5F5F5F5F5F5F5F5F5F5F5F5F5F5F5F5F5F5F5F5F5F5F5F5F5F5F5F5F5F5F5E2E2F5E2E2F5E2F5F5F5F5F5F5F5F5F5F5F5F5F5F5F5F5F5F5F5F5F5F5F5F5F5F5F5F5F5F5F5F5F5F5F5F5F5F5F5F5F5F5F5F5F5F5F5F5F5F5F5F5F5F5F5F5F5E2F5F5F5F5F5E2F5F5F5F5F5
310
F5F5F5F5F5F5F5F5F5F5F5F5F5F5F5F5F5F5F5F5F5F5F5F5F5F5F5F5F5F5F5F5F5F5F5F5F5F5F5F5F5F5E2F5F5F5F5F5F5F5F5F5F5F5F5F5F5F5F5F5F5F5F5F5F5F5F5F5F5F5F5F5F5F5F5F5F5F5F5F5F5F5F5F5F5F5F5F5F5F5F5F5F5F5F5F5F5F5F5F5F5F5F5F5E2F5F5E2E2F5E2F5F5F5F5F5F5F5F5F5F5F5F5F5F5F5F5
310
F5F5F5F5F5F5F5F5F5F5F5F5F5F5F5F5F5F5F5F5F5F5F5F5F5F5F5F5F5F5F5F5F5F5F5F5F5F5F5F5F5E2F5F5F5F5F5F5F5F5F5F5F5F5F5F5F5F5F5F5F5F5F5F5F5F5F5F5F5F5F5F5F5F5F5F5F5F5F5F5F5F5F5F5F5F5F5F5F5F5F5F5F5F5F5F5F5F5F5F5F5F5F5F5F5F5F5F5F5F5F5F5F5F5F5F5F5F5F5F5F5F5F5F5F5F5F5
310
F5F5F5F5F5F5F5F5F5F5F5F5F5F5F5F5F5F5F5F5F5F5F5F5F5F5F5F5F5F5E2F5F5E2E2F5E2F5F5F5F5F5F5F5F5F5F5F5F5F5F5F5F5F5F5F5F5F5F5F5F5F5F5F5F5F5F5F5F5F5F5F5F5F5F5F5F5F5F5F5F5F5F5F5F5F5F5F5F5F5F5F5F5F5E2F5F5F5F5F5E2F5F5F5F5F5F5F5F5F5F5F5F5F5F5F5F5F5F5F5F5F5F5F5F5F5F5
310
F5F5F5F5F5F5F5F5F5F5F5F5F5F5F5F5F5F5F5F5F5E2F5F5F5F5F5F5F5F5F5F5F5F5F5F5F5F5F5F5F5F5F5F5F5F5F5F5F5F5F5F5F5F5F5F5F5F5F5F5F5F5F5F5F5F5F5F5F5F5F5F5F5F5F5F5F5F5F5F5F5F5F5E2F5F5E2E2F5E2F5F5F5F5F5F5F5F5F5F5F5F5F5F5F5F5F5F5F5F5F5F5F5F5F5F5F5F5F5F5F5F5F5F5F5F5F5
310
F5F5F5F5F5F5F5F5F5F5F5F5F5F5F5F5F5F5F5F5E2F5F5F5F5F5E2F5F5F5F5F5F5F5F5F5F5F5F5F5F5F5F5F5F5F5F5F5F5F5F5F5F5F5F5F5F5F5F5F5F5F5F5F5F5F5F5F5F5F5F5F5F5F5E2F5F5F5F5F5F5F5F5F5F5F5F5F5F5F5F5F5F5F5F5F5F5F5F5F5F5F5F5F5F5F5F5F5F5F5F5F5F5F5F5F5F5F5F5F5F5F5F5F5F5F5F5
310
F5F5F5F5F5F5F5F5F5E2F5F5E2E2F5E2F5F5F5F5F5F5F5F5F5F5F5F5F5F5F5F5F5F5F5F5F5F5F5F5F5F5F5F5F5F5F5F5F5F5F5F5F5F5F5F5F5F5F5F5F5F5F5F5F5F5F5F5F5F5F5F5F5E2F5F5F5F5F5E2F5F5F5F5F5F5F5F5F5F5F5F5F5F5F5F5F5F5F5F5F5F5F5F5F5F5F5F5F5F5F5F5F5F5F5F5F5F5F5F5F5F5F5F5F5F5F5
310
E2F5F5F5F5F5F5F5F5F5F5F5F5F5F5F5F5F5F5F5F5F5F5F5F5F5F5F5F5F5F5F5F5F5F5F5F5F5F5F5F5F5F5F5F5F5F5F5F5F5F5F5F5F5F5F5F5F5F5F5F5F5E2F5F5E2E2F5E2F5F5F5F5F5F5F5F5F5F5F5F5F5F5F5F5F5F5F5F5F5F5F5F5F5F5F5F5F5F5F5F5F5F5F5F5F5F5F5F5F5F5F5F5F5F5F5F5F5F5F5F5F5F5F5F5F5E2
310
F5F5F5F5F5E2F5F5F5F5F5F5F5F5F5F5F5F5F5F5F5F5F5F5F5F5F5F5F5F5F5F5F5F5F5F5F5F5F5F5F5F5F5F5F5F5F5F5F5F5F5F5F5E2F5F5F5F5F5F5F5F5F5F5F5F5F5F5F5F5F5F5F5F5F5F5F5F5F5F5F5F5F5F5F5F5F5F5F5F5F5F5F5F5F5F5F5F5F5F5F5F5F5F5F5F5F5F5F5F5F5F5F5F5F5E2F5F5E2E2F5E2F5F5F5F5F5
310
F5F5F5F5F5F5F5F5F5F5F5F5F5F5F5F5F5F5F5F5F5F5F5F5F5F5F5F5F5F5F5F5F5F5F5F5F5F5F5F5F5F5F5F5F5F5F5F5F5F5F5F5E2F5F5F5F5F5E2F5F5F5F5F5F5F5F5F5F5F5F5F5F5F5F5F5F5F5F5F5F5F5F5F5F5F5F5F5F5F5F5F5F5F5F5F5F5F5F5F5F5F5F5F5F5F5E2F5F5F5F5F5F5F5F5F5F5F5F5F5F5F5F5F5F5F5F5
310
F5F5F5F5F5F5F5F5F5F5F5F5F5F5F5F5F5F5F5F5F5F5F5F5F5F5F5F5F5F5F5F5F5F5F5F5F5F5F5F5F5E2F5F5E2E2F5E2F5F5F5F5F5F5F5F5F5F5F5F5F5F5F5F5F5F5F5F5F5F5F5F5F5F5F5F5F5F5F5F5F5F5F5F5F5F5F5F5F5F5F5F5F5F5F5F5F5F5F5F5F5F5F5F5F5E2F5F5F5F5F5E2F5F5F5F5F5F5F5F5F5F5F5F5F5F5F5
310
F5F5F5F5F5F5F5F5F5F5F5F5F5F5F5F5F5F5F5F5F5F5F5F5F5F5F5F5F5F5F5F5E2F5F5F5F5F5F5F5F5F5F5F5F5F5F5F5F5F5F5F5F5F5F5F5F5F5F5F5F5F5F5F5F5F5F5F5F5F5F5F5F5F5F5F5F5F5F5F5F5F5F5F5F5F5F5F5F5F5F5F5F5F5E2F5F5E2E2F5E2F5F5F5F5F5F5F5F5F5F5F5F5F5F5F5F5F5F5F5F5F5F5F5F5F5F5
310
F5F5F5F5F5F5F5F5F5F5F5F5F5F5F5F5F5F5F5F5F5F5F5F5F5F5F5F5F5F5F5E2F5F5F5F5F5E2F5F5F5F5F5F5F5F5F5F5F5F5F5F5F5F5F5F5F5F5F5F5F5F5F5F5F5F5F5F5F5F5F5F5F5F5F5F5F5F5F5F5F5F5F5F5F5E2F5F5F5F5F5F5F5F5F5F5F5F5F5F5F5F5F5F5F5F5F5F5F5F5F5F5F5F5F5F5F5F5F5F5F5F5F5F5F5F5F5
310
F5F5F5F5F5F5F5F5F5F5F5F5F5F5F5F5F5F5F5F5E2E2F5E2E2F5E2F5F5F5F5F5F5F5F5F5F5F5F5F5F5F5F5F5F5F5F5F5F5F5F5F5F5F5F5F5F5F5F5F5F5F5F5F5F5F5F5F5F5F5F5F5F5F5F5F5F5F5F5F5F5F5F5F5E2BEF5F5F5F5E2F5F5F5F5F5F5F5F5F5F5F5F5F5F5F5F5F5F5F5F5F5F5F5F5F5F5F5F5F5F5F5F5F5F5F5F5
310
F5F5F5F5F5F5F5F5F5F5F5E2F5F5F5F5F5F5F5F5F5F5F5F5F5F5F5F5F5F5F5F5F5F5F5F5F5F5F5F5F5F5F5F5F5F5F5F5F5F5F5F5F5F5F5F5F5F5F5F5F5F5F5F5F5F5F5F5F5F5F5F5F5E2E2F5E2E2F5E2F5F5F5F5F5F5F5F5F5F5F5F5F5F5F5F5F5F5F5F5F5F5F5F5F5F5F5F5F5F5F5F5F5F5F5F5F5F5F5F5F5F5F5F5F5F5F5
310
F5F5F5F5F5F5F5F5E2BEE2E2F5F5F5F5E2E2E2E2F5E2E2E2E2E2E2E2E2F5E2E2E2E2E2E2E2E2F5E2E2E2E2E2E2E2E2F5E2E2E2E2E2E2E2E2F5E2E2E2E2E2E2E2E2F5F5F5F5F5F5F5F5F5F5F5F5F5F5F5F5F5F5F5F5F5F5F5F5F5F5F5F5F5F5F5F5F5F5F5F5F5F5F5F5F5F5F5F5F5F5F5F5F5F5F5F5F5F5F5F5F5F5F5F5F5E2
310
E2F5E2E2F5E2F5F5F5F5F5F5F5F5F5F5F5F5F5F5F5F5F5F5F5F5F5F5F5F5F5F5F5F5F5F5F5F5F5F5F5F5F5F5F5F5F5F5F5F5F5F5F5F5F5F5F5F5F5F5F5BEF5E2F5F5F5F5F5F5F5F5F5F5F5F5F5F5F5F5F5F5F5F5F5F5F5F5F5F5F5F5F5F5F5F5F5F5F5F5F5F5F5F5F5F5F5F5F5F5F5F5F5F5F5F5F5F5F5F5F5F5F5F5F5F5F5
310
F5F5F5F5F5F5F5F5F5F5F5F5F5F5F5F5F5F5F5F5F5F5F5F5F5F5F5F5F5F5F5F5F5F5F5F5F5F5F5F5F5F5F5F5F5F5F5F5F5F5F5F5E2E2F5E2E2F5E2F5F5F5F5F5F5F5F5F5F5F5F5F5F5F5F5F5F5F5F5F5F5F5F5F5F5F5F5F5F5F5F5F5F5F5F5F5F5F5F5F5F5F5F5F5F5F5F5F5F5F5F5F5F5F5F5F5F5F5F5F5F5F5F5F5F5F5F5
310
F5F5F5F5F5F5F5F5F5F5F5F5F5F5F5F5F5F5F5F5F5F5F5F5F5F5F5F5F5F5F5F5F5F5F5F5F5F5F5F5F5F5F5F5F5F5F5F5F5F5F5F5F5F5F5F5F5F5F5F5F5F5F5F5F5F5F5F5F5F5F5F5F5F5F5F5F5F5F5F5F5F5F5F5F5F5F5F5F5F5F5F5F5F5F5F5F5F5F5F5F5F5F5F5F5E2E2F5E2E2F5E2F5F5F5F5F5F5F5F5F5F5F5F5F5F5F5
310
F5F5F5F5F5F5F5F5F5F5F5F5F5F5F5F5F5F5F5F5F5F5F5F5F5F5F5F5F5F5F5F5F5F5F5F5F5F5F5F5F5F5F5F5F5F5F5F5F5F5F5F5F5F5F5F5F5F5F5F5F5F5F5F5F5F5F5F5F5F5F5F5F5F5F5F5F5F5F5F5F5F5F5F5F5F5F5F5F5F5F5F5F5F5F5F5F5F5F5F5F5F5F5F5F5F5F5F5F5F5F5F5F5F5F5F5F5F5F5F5F5F5F5F5F5F5F5
310
F5F5F5F5F5F5F5F5F5F5F5F5F5F5F5F5F5F5F5F5F5F5F5F5F5F5F5F5F5F5F5E2E2F5E2E2F5E2F5F5F5F5F5F5F5F5F5F5F5F5F5F5F5F5F5F5F5F5F5F5F5F5F5F5F5F5F5F5F5F5F5F5F5F5F5F5F5F5F5F5F5F5F5F5F5F5F5F5F5F5F5F5F5F5F5F5F5F5F5F5F5E2F5F5F5F5F5F5F5F5F5F5F5F5F5F5F5F5F5F5F5F5F5F5F5F5F5
310
F5F5F5F5F5F5F5F5F5F5F5F5F5F5F5F5F5F5F5F5F5F5E2F5F5F5F5F5F5F5F5F5F5F5F5F5F5F5F5F5F5F5F5F5F5F5F5F5F5F5F5F5F5F5F5F5F5F5F5F5F5F5F5F5F5F5F5F5F5F5F5F5F5F5F5F5F5F5F5F5F5F5F5F5E2E2F5E2E2F5E2F5F5F5F5F5F5F5F5F5F5F5F5F5F5F5F5F5F5F5F5F5F5F5F5F5F5F5F5F5F5F5F5F5F5F5F5
310
F5F5F5F5F5F5F5F5F5F5F5F5F5F5F5F5F5F5F5F5F5F5F5F5F5F5BEE2F5F5F5F5F5F5F5F5F5F5F5F5F5F5F5F5F5F5F5F5F5F5F5F5F5F5F5F5F5F5F5F5F5F5F5F5F5F5F5F5F5F5F5F5F5F5BEE2F5F5F5F5F5F5F5F5F5F5F5F5F5F5F5F5F5F5F5F5F5F5F5F5F5F5F5F5F5F5F5F5F5F5F5F5F5F5F5F5F5F5F5F5F5F5F5F5F5F5F5
310
F5F5F5F5F5F5F5F5F5F5E2E2F5E2E2F5E2F5F5F5F5F5F5F5F5F5F5F5F5F5F5F5F5F5F5F5F5F5F5F5F5F5F5F5F5F5F5F5F5F5F5F5F5F5F5F5F5F5F5F5F5F5F5F5F5F5F5F5F5F5F5F5F5F5F5F5F5F5F5E2E2E2E2E2E2E2E2E2E2E2E2E2E2E2E2E2E2E2E2E2E2E2E2E2E2E2E2E2E2E2E2E2E2E2E2E2E2E2E2E2E2E2E2E2E2E2E2
310
E2E2E2F5F5F5F5F5F5F5F5F5F5F5F5F5F5F5F5F5F5F5F5F5F5F5F5F5F5F5F5F5F5F5F5F5F5F5F5F5F5F5F5F5F5F5F5F5F5F5F5F5F5F5F5F5F5F5F5F5F5F5F5E2E2F5E2E2F5E2F5F5F5F5F5F5F5F5F5F5F5F5F5F5F5F5F5F5F5F5F5F5F5F5F5F5F5F5F5F5F5F5F5F5F5F5F5F5F5F5F5F5F5F5F5F5F5F5F5F5F5F5F5F5F5F5F5
310
F5F5F5F5F5F5E2BEF5F5F5F5F5F5F5F5F5F5F5F5F5F5F5F5F5F5F5F5E2E2E2E2E2F5F5F5F5F5F5F5F5F5F5F5F5F5F5F5F5F5F5F5F5F5E2BEF5F5F5F5F5F5F5F5F5F5F5F5F5F5F5F5F5F5F5F5F5F5F5F5F5F5F5F5F5F5F5F5F5F5F5F5F5F5F5F5F5F5F5F5F5F5F5F5F5F5F5F5F5F5F5F5F5F5F5F5E2E2F5E2E2F5E2F5F5F5F5
310
F5F5F5F5F5F5F5F5F5F5F5F5F5F5F5F5F5F5F5F5F5F5F5F5F5F5F5F5F5F5F5F5F5F5F5F5F5F5F5F5F5F5F5F5F5F5F5F5F5F5F5F5F5F5F5F5F5F5F5E2F5F5F5F5F5F5F5F5F5F5F5F5F5F5F5F5F5F5F5F5F5E2E2E2E2E2F5F5F5F5F5F5F5F5F5F5F5F5F5F5F5F5F5F5F5F5F5E2F5F5F5F5F5F5F5F5F5F5F5F5F5F5F5F5F5F5F5
310
F5F5F5F5F5F5F5F5F5F5F5F5F5F5F5F5F5F5F5F5F5F5F5F5F5F5F5F5F5F5F5F5F5F5F5F5F5F5F5F5F5F5E2E2F5E2E2F5E2F5F5F5F5F5F5F5F5F5F5F5F5F5F5F5F5F5F5F5F5F5F5F5F5F5F5F5F5F5F5F5F5F5F5F5F5F5F5F5F5F5F5F5F5F5F5F5F5F5F5F5F5F5F5F5F5F5F5F5F5F5F5F5F5F5F5F5F5F5F5F5F5F5F5F5F5F5F5
310
F5F5F5F5F5F5F5E2E2E2E2E2F5F5F5F5F5F5F5F5F5F5F5F5F5F5F5F5F5F5F5F5F5F5F5F5F5F5F5F5F5F5F5F5F5F5F5F5F5F5F5F5F5F5F5F5F5F5F5F5F5F5F5F5F5F5F5F5F5F5F5F5F5F5F5F5F5F5F5F5F5F5F5F5F5F5F5F5F5F5F5F5F5F5F5E2E2F5E2E2F5E2F5F5F5F5F5F5F5F5F5F5F5F5F5F5F5F5F5F5F5F5F5F5F5F5F5
310
F5F5F5F5F5F5F5F5F5F5F5F5F5F5F5F5F5F5F5F5F5F5F5F5F5F5F5F5F5F5F5F5F5F5F5F5F5F5F5F5F5F5F5F5F5F5F5F5F5F5F5F5F5F5F5F5F5F5F5F5F5F5F5F5F5F5F5F5F5F5F5F5F5F5F5F5F5F5F5F5F5F5F5F5F5F5F5F5F5F5F5F5F5F5F5F5F5F5F5F5F5F5F5F5F5F5F5F5F5F5F5F5F5F5F5F5F5F5F5F5F5F5F5F5F5F5F5
310
F5F5F5F5F5F5F5F5F5F5F5F5F5F5F5F5F5F5F5F5F5E2E2F5E2E2F5E2F5F5F5F5F5F5F5F5F5F5F5F5F5F5F5F5F5F5F5F5F5F5F5F5F5F5F5F5F5F5F5F5F5F5F5F5F5F5F5F5F5F5F5F5F5F5F5F5F5F5F5F5F5F5F5F5F5F5F5F5F5F5F5F5F5F5F5F5F5F5F5F5F5F5F5F5F5F5F5F5F5F5F5F5F5F5F5F5F5F5F5F5F5F5F5F5F5F5F5
310
F5F5F5F5F5F5F5F5F5F5F5F5F5F5F5F5F5F5F5F5F5F5F5F5F5F5F5F5F5F5F5F5F5F5F5F5F5F5F5F5F5F5F5F5F5F5F5F5F5F5F5F5F5F5F5F5F5F5F5F5F5F5F5F5F5F5F5F5F5F5F5F5F5F5E2E2F5E2E2F5E2F5F5F5F5F5F5F5F5F5F5F5F5F5F5F5F5F5F5F5F5F5F5F5F5F5F5F5F5F5F5F5F5F5F5F5F5F5F5F5F5F5F5F5F5F5F5
310
F5F5F5F5F5F5F5F5F5F5F5F5F5F5F5F5F5F5F5F5F5F5F5F5F5F5F5F5F5F5F5F5F5F5F5F5F5F5F5F5F5F5F5F5F5F5F5F5F5F5F5F5F5F5F5F5F5F5F5F5F5F5F5F5F5F5F5F5F5F5F5F5F5F5F5F5F5F5F5F5F5F5F5F5F5F5F5F5F5F5F5F5F5F5F5F5F5F5F5F5F5F5F5F5F5F5F5F5F5F5F5F5F5F5F5F5F5F5F5F5F5F5F5F5F5F5F5
310
E2E2F5E2E2F5E2F5F5F5F5F5F5F5F5F5F5F5F5F5F5F5F5F5F5F5F5F5F5F5F5F5F5F5F5F5F5F5F5F5F5F5F5F5F5F5F5F5F5F5F5F5F5F5F5F5F5F5F5F5F5F5F5F5F5F5F5F5F5F5F5F5F5F5F5F5F5F5F5F5F5F5F5F5F5F5F5F5F5F5F5F5F5F5F5F5F5F5F5F5F5F5F5F5F5F5F5F5F5F5F5F5F5F5F5F5F5F5F5F5F5F5F5F5F5F5F5
310
F5F5F5F5F5F5F5F5F5F5F5F5F5F5F5F5F5F5F5F5F5F5F5F5F5F5F5F5F5F5F5F5F5F5F5F5F5F5F5F5F5F5F5F5F5F5F5F5F5F5F5F5F5E2E2F5E2E2F5E2F5F5F5F5F5F5F5F5F5F5F5F5F5F5F5F5F5F5F5F5F5F5F5F5F5F5F5F5F5F5F5F5F5F5F5F5F5F5F5F5F5F5F5F5F5F5F5F5F5F5F5F5F5F5F5F5F5F5F5F5F5F5F5F5F5F5F5
310
F5F5F5F5F5F5F5F5F5F5F5F5F5F5F5F5F5F5F5F5F5F5F5F5F5F5F5F5F5F5F5F5F5F5F5F5F5F5F5F5F5F5F5F5F5F5F5F5F5F5F5F5F5F5F5F5F5F5F5F5F5F5F5F5F5F5F5F5F5F5F5F5F5F5F5F5F5F5F5F5F5F5F5F5F5F5F5F5F5F5F5F5F5F5F5F5F5F5F5F5F5F5F5F5F5F5E2F5F5E2E2F5E2F5F5F5F5F5F5F5F5F5F5F5F5F5F5
310
F5F5F5F5F5F5F5F5F5F5F5F5F5F5F5F5F5F5F5F5F5F5F5F5F5F5F5F5F5F5F5F5F5F5F5F5F5F5F5F5F5F5F5F5F5F5F5F5F5F5F5F5F5F5F5F5F5F5F5F5F5F5F5F5F5F5F5F5F5F5F5F5F5F5F5F5F5F5F5F5F5F5F5F5F5F5F5F5F5F5F5F5F5F5F5F5F5F5F5F5F5F5F5F5F5F5F5F5F5F5F5F5F5F5F5F5F5F5F5F5F5F5F5F5F5F5F5
310
F5F5F5F5F5F5F5F5F5F5F5F5F5F5F5F5F5F5F5F5F5F5F5F5F5F5F5F5F5F5F5F5E2F5F5E2E2F5E2F5F5F5F5F5F5F5F5F5F5F5F5F5F5F5F5F5F5F5F5F5F5F5F5F5F5F5F5F5F5F5F5F5F5F5F5F5F5F5F5F5F5F5F5F5F5F5F5F5F5F5F5F5F5F5F5F5F5F5F5F5F5F5F5F5F5F5F5F5F5F5F5F5F5F5F5F5F5F5F5F5F5F5F5F5F5F5F5
310
F5F5F5F5F5F5F5F5F5F5F5F5F5F5F5F5F5F5F5F5F5F5F5F5F5F5F5F5F5F5F5F5F5F5F5F5F5F5F5F5F5F5F5F5F5F5F5F5F5F5F5F5F5F5F5F5F5F5F5F5F5F5F5F5F5F5F5F5F5F5F5F5F5F5F5F5F5F5F5F5F5F5F5F5F5E2F5F5E2E2F5E2F5F5F5F5F5F5F5F5F5F5F5F5F5F5F5F5F5F5F5F5F5F5F5F5F5F5F5F5F5F5F5F5F5F5F5
310
F5F5F5F5F5F5F5F5F5F5F5F5F5F5F5F5F5F5F5F5F5F5F5F5F5F5F5F5F5F5F5F5F5F5F5F5F5F5F5F5F5F5F5F5F5F5F5F5F5F5F5F5F5F5F5F5F5F5F5F5F5F5F5F5F5F5F5F5F5F5F5F5F5F5F5F5F5F5F5F5F5F5F5F5F5F5F5F5F5F5F5F5F5F5F5F5F5F5F5F5F5F5F5F5F5F5F5F5F5F5F5F5F5F5F5F5F5F5F5F5F5F5F5F5F5F5F5
310
F5F5F5F5F5F5F5F5F5F5F5E2F5F5E2E2F5E2F5F5F5F5F5F5F5F5F5F5F5F5F5F5F5F5F5F5F5F5F5F5F5F5F5F5F5F5F5F5F5F5F5F5F5F5F5F5F5F5F5F5F5F5F5F5F5F5F5F5F5F5F5F5F5F5F5F5F5F5F5F5F5F5F5F5F5F5F5F5F5F5F5F5F5F5F5F5F5F5F5F5F5F5F5F5F5F5F5F5F5F5F5F5F5F5F5F5F5F5F5F5F5F5F5F5F5F5F5
310
F5F5F5F5F5F5F5F5F5F5F5F5F5F5F5F5F5F5F5F5F5F5F5F5F5F5F5F5F5F5F5F5F5F5F5F5F5F5F5F5F5F5F5F5F5F5F5F5F5F5F5F5F5F5F5F5F5F5F5F5F5F5F5F5E2F5F5E2E2F5E2F5F5F5F5F5F5F5F5F5F5F5F5F5F5F5F5F5F5F5F5F5F5F5F5F5F5F5F5F5F5F5F5F5F5F5F5F5F5F5F5F5F5F5F5F5F5F5F5F5F5F5F5F5F5F5F5
310
F5F5F5F5F5F5F5F5F5F5F5F5F5F5F5F5F5F5F5F5F5F5F5F5F5F5F5F5F5F5F5F5F5F5F5F5F5F5F5F5F5F5F5F5F5F5F5F5F5F5F5F5F5F5F5F5F5F5F5F5F5F5F5F5F5F5F5F5F5F5F5F5F5F5F5F5F5F5F5F5F5F5F5F5F5F5F5F5F5F5F5F5F5F5F5F5F5F5F5F5F5F5F5F5F5F5F5F5F5F5F5F5F5F5F5F5F5E2F5F5E2E2F5E2F5F5F5
310
F5F5F5F5F5F5F5F5F5F5F5F5F5F5F5F5F5F5F5F5F5F5F5F5F5F5F5F5F5F5F5F5F5F5F5F5F5F5F5F5F5F5F5F5F5F5F5F5F5F5F5F5F5F5F5F5F5F5F5F5F5F5F5F5F5F5F5F5F5F5F5F5F5F5F5F5F5F5F5F5F5F5F5F5F5F5F5F5F5F5F5F5F5F5F5F5F5F5F5F5F5F5F5F5F5F5F5F5F5F5F5F5F5F5F5F5F5F5F5F5F5F5F5F5F5F5F5
310
F5F5F5F5F5F5F5F5F5F5F5F5F5F5F5F5F5F5F5F5F5F5F5F5F5F5F5F5F5F5F5F5F5F5F5F5F5F5F5F5F5F5F5E2F5F5E2E2F5E2F5F5F5F5F5F5F5F5F5F5F5F5F5F5F5F5F5F5F5F5F5F5F5F5F5F5F5F5F5F5F5F5F5F5F5F5F5F5F5F5F5F5F5F5F5F5F5F5F5F5F5F5F5F5F5F5F5F5F5F5F5F5F5F5F5F5F5F5F5F5F5F5F5F5F5F5F5
310
F5F5F5F5F5F5F5F5F5F5F5F5F5F5F5F5F5F5F5F5F5F5F5F5F5F5F5F5F5F5F5F5F5F5F5F5F5F5F5F5F5F5F5F5F5F5F5F5F5F5F5F5F5F5F5F5F5F5F5F5F5F5F5F5F5F5F5F5F5F5F5F5F5F5F5F5F5F5F5F5F5F5F5F5F5F5F5F5F5F5F5F5F5F5F5F5E2F5F5E2E2F5E2F5F5F5F5F5F5F5F5F5F5F5F5F5F5F5F5F5F5F5F5F5F5F5F5
310
F5F5F5F5F5F5F5F5F5F5F5F5F5F5F5F5F5F5F5F5F5F5F5F5F5F5F5F5F5F5F5F5F5F5F5F5F5F5F5F5F5F5F5F5F5F5F5F5F5F5F5F5F5F5F5F5F5F5F5F5F5F5F5F5F5F5F5F5F5F5F5F5F5F5F5F5F5F5F5F5F5F5F5F5F5F5F5F5F5F5F5F5F5F5F5F5F5F5F5F5F5F5F5F5F5F5F5F5F5F5F5F5F5F5F5F5F5F5F5F5F5F5F5F5F5F5F5
310
F5F5F5F5F5F5F5F5F5F5F5F5F5F5F5F5F5F5F5F5F5F5E2F5F5E2E2F5E2F5F5F5F5F5F5F5F5F5F5F5F5F5F5F5F5F5F5F5F5F5F5F5F5F5F5F5F5F5F5F5F5F5F5F5F5F5F5F5F5F5F5F5F5F5F5F5F5F5F5F5F5F5F5F5F5F5F5F5F5F5F5F5F5F5F5F5F5F5F5F5F5F5F5F5F5F5F5F5F5F5F5F5F5F5F5F5F5F5F5F5F5F5F5F5F5F5F5
310
F5F5F5F5F5F5F5F5F5F5F5F5F5F5F5F5F5F5F5F5F5F5F5F5F5F5F5F5F5F5F5F5F5F5F5F5F5F5F5F5F5F5F5F5F5F5F5F5F5F5F5F5F5F5F5F5F5F5F5F5F5F5F5F5F5F5F5F5F5F5F5F5F5F5F5E2E2F5E2E2F5E2F5F5F5F5F5F5F5F5F5F5F5F5F5F5F5F5F5F5F5F5F5F5F5F5F5F5F5F5F5F5F5F5F5F5F5F5F5F5F5F5F5F5F5F5F5
310
F5F5F5F5F5F5F5F5F5F5F5F5F5F5F5F5F5F5F5F5F5F5F5F5F5F5F5F5F5F5F5F5F5F5F5F5F5F5F5F5F5F5F5F5F5F5F5F5F5F5F5F5F5F5F5F5F5F5F5F5F5F5F5F5F5F5F5F5F5F5F5F5F5F5F5F5F5F5F5F5F5F5F5F5F5F5F5F5F5F5F5F5F5F5F5F5F5F5F5F5F5F5F5F5F5F5F5F5F5F5F5F5F5F5F5F5F5F5F5F5F5F5F5F5F5F5F5
310
F5E2E2F5E2E2F5E2F5F5F5F5F5F5F5F5F5F5F5F5F5F5F5F5F5F5F5F5F5F5F5F5F5F5F5F5F5F5F5F5F5F5F5F5F5F5F5F5F5F5F5F5F5F5F5F5F5F5F5F5F5F5F5F5F5F5F5F5F5F5F5F5F5F5F5F5F5F5F5F5F5F5F5F5F5F5F5F5F5F5F5F5F5F5F5F5F5F5F5F5F5F5F5F5F5F5F5F5F5F5F5F5F5F5F5F5F5F5F5F5F5F5F5F5F5F5F5
310
F5F5F5F5F5F5F5F5F5F5F5F5F5F5F5F5F5F5F5F5F5F5F5F5F5F5F5F5F5F5F5F5F5F5F5F5F5F5F5F5F5F5F5F5F5F5F5F5F5F5F5F5F5F5E2E2F5E2E2F5E2F5F5F5F5F5F5F5F5F5F5F5F5F5F5F5F5F5F5F5F5F5F5F5F5F5F5F5F5F5F5F5F5F5F5F5F5F5F5F5F5F5F5F5F5F5F5F5F5F5F5F5F5F5F5F5F5F5F5F5F5F5F5F5F5F5F5
310
F5F5F5F5F5F5F5F5F5F5F5F5F5F5F5F5F5F5F5F5F5F5F5F5F5F5F5F5F5F5F5F5F5F5F5F5F5F5F5F5F5F5F5F5F5F5F5F5F5F5F5F5F5F5F5F5F5F5F5F5F5F5F5F5F5F5F5F5F5F5F5F5F5F5F5F5F5F5F5F5F5F5F5F5F5F5F5F5F5F5F5F5F5F5F5F5F5F5F5F5F5F5F5F5F5F5F5E2E2F5E2E2F5E2F5F5F5F5F5F5F5F5F5F5F5F5F5
310
F5F5F5F5F5F5F5F5F5F5F5F5F5F5F5F5F5F5F5F5F5F5F5F5F5F5F5F5F5F5F5F5F5F5F5F5F5F5F5F5F5F5F5F5F5F5F5F5F5F5F5F5F5F5F5F5F5F5F5F5F5F5F5F5F5F5F5F5F5F5F5F5F5F5F5F5F5F5F5F5F5F5F5F5F5F5F5F5F5F5F5F5F5F5F5F5F5F5F5F5F5F5F5F5F5F5F5F5F5F5F5F5F5F5F5F5F5F5F5F5F5F5F5F5F5F5F5
310
F5F5F5F5F5F5F5F5F5F5F5F5F5F5F5F5F5F5F5F5F5F5F5F5F5F5F5F5F5F5F5F5F5E2E2F5E2E2F5E2F5F5F5F5F5F5F5F5F5F5F5F5F5F5F5F5F5F5F5F5F5F5F5F5F5F5F5F5F5F5F5F5F5F5F5F5F5F5F5F5F5F5F5F5F5F5F5F5F5F5F5F5F5F5F5F5F5F5F5F5F5F5F5F5F5F5F5F5F5F5F5F5F5F5F5F5F5F5F5F5F5F5F5F5F5F5F5
310
F5F5F5F5F5F5F5F5F5F5F5F5F5F5F5F5F5F5F5F5F5F5F5F5F5F5F5F5F5F5F5F5F5F5F5F5F5F5F5F5F5F5F5F5F5F5F5F5F5F5F5F5F5F5F5F5F5F5F5F5F5F5F5F5F5F5F5F5F5F5F5F5F5F5F5F5F5F5F5F5F5F5F5F5F5F5E2E2F5E2E2F5E2F5F5F5F5F5F5F5F5F5F5F5F5F5F5F5F5F5F5F5F5F5F5F5F5F5F5F5F5F5F5F5F5F5F5
310
F5F5F5F5F5F5F5F5F5F5F5F5F5F5F5F5F5F5F5F5F5F5F5F5F5F5F5F5F5F5F5F5F5F5F5F5F5F5F5F5F5F5F5F5F5F5F5F5F5F5F5F5F5F5F5F5F5F5F5F5F5F5F5F5F5F5F5F5F5F5F5F5F5F5F5F5F5F5F5F5F5F5F5F5F5F5F5F5F5F5F5F5F5F5F5F5F5F5F5F5F5F5F5F5F5F5F5F5F5F5F5F5F5F5F5F5F5F5F5F5F5F5F5F5F5F5F5
310
F5F5F5F5F5F5F5F5F5F5F5F5E2E2F5E2E2F5E2E2E2E2E2E2E2E2E2E2E2E2E2E2E2E2E2E2E2E2E2E2E2E2E2E2E2E2E2E2E2E2E2E2E2E2E2E2E2E2E2E2E2E2E2E2E2E2E2E2E2E2E2E2E2E2E2E2E2E2E2E2E2E2E2E2E2E2E2E2E2E2E2E2E2E2E2E2E2E2E2E2E2E2E2E2E2E2E2E2E2E2E2E2E2E2E2E2E2E2E2E2E2E2E2E2E2E2E2
310
E2E2E2E2E2E2E2E2E2E2E2E2E2E2E2E2E2E2E2E2E2E2E2E2E2E2E2E2E2E2E2E2E2E2E2E2E2E2E2E2E2E2E2E2E2E2E2E2E2E2E2E2E2E2E2E2E2E2E2E2E2E2E2E2E2E2E2F5E2E2F5F5F5F5F5F5F5F5F5F5F5F5F5F5F5F5F5F5F5F5F5F5F5F5F5F5F5F5F5F5F5F5F5F5F5F5F5F5F5F5F5F5F5F5F5F5F5F5F5F5F5F5F5F5F5F5F5
310
F5F5F5F5F5F5F5F5F5F5F5F5F5F5F5F5F5F5F5F5F5F5F5F5F5F5F5F5F5F5F5F5F5F5F5F5F5F5F5F5F5F5F5F5F5F5F5F5F5F5F5F5F5F5F5F5F5F5F5F5F5F5F5F5F5F5F5F5F5F5F5F5F5F5F5F5F5F5F5F5F5F5F5F5F5F5F5F5F5F5F5F5F5F5F5F5F5F5F5F5F5F5F5F5F5F5F5F5F5F5F5F5F5F5F5F5F5F5F5F5F5E2E2E2E2E2E2
310
E2E2E2E2E2E2E2E2E2E2E2E2E2E2E2E2E2E2E2E2E2E2E2E2E2E2E2E2E2E2E2E2E2E2E2E2E2E2E2E2E2E2E2E2E2E2E2E2E2E2E2E2E2E2E2E2E2E2E2E2E2E2E2E2E2E2E2E2E2E2E2E2E2E2E2E2E2E2E2E2E2E2E2E2E2E2E2E2E2E2E2E2E2E2E2E2E2E2E2E2E2E2E2E2E2E2E2E2E2E2E2E2E2E2E2E2E2E2E2E2E2E2E2E2E2E2E2
310
E2E2E2E2E2E2E2E2E2E2E2E2E2E2E2E2E2E2E2E2E2E2E2E2E2E2E2E2E2E2E2E2E2E2E2E2E2E2E2E2E2E2E2E2E2E2E2E2
  0
XRECORD
  5
41F4
102
{ACAD_REACTORS
330
41F3
102
}
330
41F3
100
AcDbXrecord
280
     1
102
MATERIAL
148
0.0
149
0.0
149
0.0
 93
        0
 94
      127
282
     0
 72
     1
 77
     1
171
     1
175
     1
179
     1
273
     0
  0
XRECORD
  5
41F2
102
{ACAD_REACTORS
330
41F1
102
}
330
41F1
100
AcDbXrecord
280
     1
102
MATERIAL
148
0.0
149
0.0
149
0.0
 93
        0
 94
      127
282
     0
 72
     1
 77
     1
171
     1
175
     1
179
     1
273
     0
  0
XRECORD
  5
41F6
102
{ACAD_REACTORS
330
41F5
102
}
330
41F5
100
AcDbXrecord
280
     1
102
MATERIAL
148
0.0
149
0.0
149
0.0
 93
        0
 94
      127
282
     0
 72
     1
 77
     1
171
     1
175
     1
179
     1
273
     0
  0
CELLSTYLEMAP
  5
41F0
102
{ACAD_REACTORS
330
39AA
102
}
330
39AA
100
AcDbCellStyleMap
 90
        3
300
CELLSTYLE
  1
TABLEFORMAT_BEGIN
 90
        5
170
     1
 91
        0
 92
    32768
 62
   257
 93
        1
300
CONTENTFORMAT
  1
CONTENTFORMAT_BEGIN
 90
        0
 91
        0
 92
      512
 93
        0
300

 40
0.0
140
1.0
 94
        5
 62
     0
340
11
144
0.25
309
CONTENTFORMAT_END
171
     0
 94
        6
 95
        1
302
GRIDFORMAT
  1
GRIDFORMAT_BEGIN
 90
        0
 91
        1
 62
     0
 92
       -2
340
0
 93
        0
 40
0.045
309
GRIDFORMAT_END
 95
        2
302
GRIDFORMAT
  1
GRIDFORMAT_BEGIN
 90
        0
 91
        1
 62
     0
 92
       -2
340
0
 93
        0
 40
0.045
309
GRIDFORMAT_END
 95
        4
302
GRIDFORMAT
  1
GRIDFORMAT_BEGIN
 90
        0
 91
        1
 62
     0
 92
       -2
340
0
 93
        0
 40
0.045
309
GRIDFORMAT_END
 95
        8
302
GRIDFORMAT
  1
GRIDFORMAT_BEGIN
 90
        0
 91
        1
 62
     0
 92
       -2
340
0
 93
        0
 40
0.045
309
GRIDFORMAT_END
 95
       16
302
GRIDFORMAT
  1
GRIDFORMAT_BEGIN
 90
        0
 91
        1
 62
     0
 92
       -2
340
0
 93
        0
 40
0.045
309
GRIDFORMAT_END
 95
       32
302
GRIDFORMAT
  1
GRIDFORMAT_BEGIN
 90
        0
 91
        1
 62
     0
 92
       -2
340
0
 93
        0
 40
0.045
309
GRIDFORMAT_END
309
TABLEFORMAT_END
  1
CELLSTYLE_BEGIN
 90
        1
 91
        1
300
_TITLE
309
CELLSTYLE_END
300
CELLSTYLE
  1
TABLEFORMAT_BEGIN
 90
        5
170
     1
 91
        0
 92
        0
 62
   257
 93
        1
300
CONTENTFORMAT
  1
CONTENTFORMAT_BEGIN
 90
        0
 91
        0
 92
      512
 93
        0
300

 40
0.0
140
1.0
 94
        5
 62
     0
340
11
144
0.18
309
CONTENTFORMAT_END
171
     0
 94
        6
 95
        1
302
GRIDFORMAT
  1
GRIDFORMAT_BEGIN
 90
        0
 91
        1
 62
     0
 92
       -2
340
0
 93
        0
 40
0.045
309
GRIDFORMAT_END
 95
        2
302
GRIDFORMAT
  1
GRIDFORMAT_BEGIN
 90
        0
 91
        1
 62
     0
 92
       -2
340
0
 93
        0
 40
0.045
309
GRIDFORMAT_END
 95
        4
302
GRIDFORMAT
  1
GRIDFORMAT_BEGIN
 90
        0
 91
        1
 62
     0
 92
       -2
340
0
 93
        0
 40
0.045
309
GRIDFORMAT_END
 95
        8
302
GRIDFORMAT
  1
GRIDFORMAT_BEGIN
 90
        0
 91
        1
 62
     0
 92
       -2
340
0
 93
        0
 40
0.045
309
GRIDFORMAT_END
 95
       16
302
GRIDFORMAT
  1
GRIDFORMAT_BEGIN
 90
        0
 91
        1
 62
     0
 92
       -2
340
0
 93
        0
 40
0.045
309
GRIDFORMAT_END
 95
       32
302
GRIDFORMAT
  1
GRIDFORMAT_BEGIN
 90
        0
 91
        1
 62
     0
 92
       -2
340
0
 93
        0
 40
0.045
309
GRIDFORMAT_END
309
TABLEFORMAT_END
  1
CELLSTYLE_BEGIN
 90
        2
 91
        1
300
_HEADER
309
CELLSTYLE_END
300
CELLSTYLE
  1
TABLEFORMAT_BEGIN
 90
        5
170
     1
 91
        0
 92
        0
 62
   257
 93
        1
300
CONTENTFORMAT
  1
CONTENTFORMAT_BEGIN
 90
        0
 91
        0
 92
      512
 93
        0
300

 40
0.0
140
1.0
 94
        2
 62
     0
340
11
144
0.18
309
CONTENTFORMAT_END
171
     0
 94
        6
 95
        1
302
GRIDFORMAT
  1
GRIDFORMAT_BEGIN
 90
        0
 91
        1
 62
     0
 92
       -2
340
0
 93
        0
 40
0.045
309
GRIDFORMAT_END
 95
        2
302
GRIDFORMAT
  1
GRIDFORMAT_BEGIN
 90
        0
 91
        1
 62
     0
 92
       -2
340
0
 93
        0
 40
0.045
309
GRIDFORMAT_END
 95
        4
302
GRIDFORMAT
  1
GRIDFORMAT_BEGIN
 90
        0
 91
        1
 62
     0
 92
       -2
340
0
 93
        0
 40
0.045
309
GRIDFORMAT_END
 95
        8
302
GRIDFORMAT
  1
GRIDFORMAT_BEGIN
 90
        0
 91
        1
 62
     0
 92
       -2
340
0
 93
        0
 40
0.045
309
GRIDFORMAT_END
 95
       16
302
GRIDFORMAT
  1
GRIDFORMAT_BEGIN
 90
        0
 91
        1
 62
     0
 92
       -2
340
0
 93
        0
 40
0.045
309
GRIDFORMAT_END
 95
       32
302
GRIDFORMAT
  1
GRIDFORMAT_BEGIN
 90
        0
 91
        1
 62
     0
 92
       -2
340
0
 93
        0
 40
0.045
309
GRIDFORMAT_END
309
TABLEFORMAT_END
  1
CELLSTYLE_BEGIN
 90
        3
 91
        2
300
_DATA
309
CELLSTYLE_END
  0
XRECORD
  5
41F7
102
{ACAD_REACTORS
330
39AA
102
}
330
39AA
100
AcDbXrecord
280
     1
102
ACAD_ROUNDTRIP_PRE2007_TABLESTYLE
 90
      512
 91
        0
  1

 92
      512
 93
        0
  2

 94
      512
 95
        0
  3

  0
XRECORD
  5
49B
102
{ACAD_REACTORS
330
49A
102
}
330
49A
100
AcDbXrecord
280
     1
102
RTVSPropertyOp0
 70
     1
102
RTVSPropertyOp1
 70
     1
102
RTVSPropertyOp2
 70
     1
102
RTVSPropertyOp3
 70
     1
102
RTVSPropertyOp4
 70
     1
102
RTVSPropertyOp5
 70
     1
102
RTVSPropertyOp6
 70
     1
102
RTVSPropertyOp7
 70
     1
102
RTVSPropertyOp8
 70
     1
102
RTVSPropertyOp9
 70
     1
102
RTVSPropertyOp10
 70
     1
102
RTVSPropertyOp11
 70
     1
102
RTVSPropertyOp12
 70
     1
102
RTVSPropertyOp13
 70
     1
102
RTVSPropertyOp14
 70
     1
102
RTVSPropertyOp15
 70
     1
102
RTVSPropertyOp16
 70
     1
102
RTVSPropertyOp17
 70
     1
102
RTVSPropertyOp18
 70
     1
102
RTVSPropertyOp19
 70
     1
102
RTVSPropertyOp20
 70
     1
102
RTVSPropertyOp21
 70
     1
102
RTVSPropertyOp22
 70
     1
102
RTVSPropertyOp23
 70
     1
102
RTVSPropertyOp24
 70
     1
102
RTVSPropertyOp25
 70
     1
102
RTVSPropertyOp26
 70
     1
102
RTVSPropertyOp27
 70
     1
  0
XRECORD
  5
A4A
102
{ACAD_REACTORS
330
A49
102
}
330
A49
100
AcDbXrecord
280
     1
102
RTVSPropertyOp0
 70
     1
102
RTVSPropertyOp1
 70
     1
102
RTVSPropertyOp2
 70
     1
102
RTVSPropertyOp3
 70
     1
102
RTVSPropertyOp4
 70
     1
102
RTVSPropertyOp5
 70
     1
102
RTVSPropertyOp6
 70
     1
102
RTVSPropertyOp7
 70
     1
102
RTVSPropertyOp8
 70
     1
102
RTVSPropertyOp9
 70
     1
102
RTVSPropertyOp10
 70
     1
102
RTVSPropertyOp11
 70
     1
102
RTVSPropertyOp12
 70
     1
102
RTVSPropertyOp13
 70
     1
102
RTVSPropertyOp14
 70
     1
102
RTVSPropertyOp15
 70
     1
102
RTVSPropertyOp16
 70
     1
102
RTVSPropertyOp17
 70
     1
102
RTVSPropertyOp18
 70
     1
102
RTVSPropertyOp19
 70
     1
102
RTVSPropertyOp20
 70
     1
102
RTVSPropertyOp21
 70
     1
102
RTVSPropertyOp22
 70
     1
102
RTVSPropertyOp23
 70
     1
102
RTVSPropertyOp24
 70
     1
102
RTVSPropertyOp25
 70
     1
102
RTVSPropertyOp26
 70
     1
102
RTVSPropertyOp27
 70
     1
  0
XRECORD
  5
4A1
102
{ACAD_REACTORS
330
4A0
102
}
330
4A0
100
AcDbXrecord
280
     1
102
RTVSPropertyOp0
 70
     1
102
RTVSPropertyOp1
 70
     1
102
RTVSPropertyOp2
 70
     1
102
RTVSPropertyOp3
 70
     1
102
RTVSPropertyOp4
 70
     1
102
RTVSPropertyOp5
 70
     1
102
RTVSPropertyOp6
 70
     1
102
RTVSPropertyOp7
 70
     1
102
RTVSPropertyOp8
 70
     1
102
RTVSPropertyOp9
 70
     1
102
RTVSPropertyOp10
 70
     1
102
RTVSPropertyOp11
 70
     1
102
RTVSPropertyOp12
 70
     1
102
RTVSPropertyOp13
 70
     1
102
RTVSPropertyOp14
 70
     1
102
RTVSPropertyOp15
 70
     1
102
RTVSPropertyOp16
 70
     1
102
RTVSPropertyOp17
 70
     1
102
RTVSPropertyOp18
 70
     1
102
RTVSPropertyOp19
 70
     1
102
RTVSPropertyOp20
 70
     1
102
RTVSPropertyOp21
 70
     1
102
RTVSPropertyOp22
 70
     1
102
RTVSPropertyOp23
 70
     1
102
RTVSPropertyOp24
 70
     1
102
RTVSPropertyOp25
 70
     1
102
RTVSPropertyOp26
 70
     1
102
RTVSPropertyOp27
 70
     1
  0
XRECORD
  5
4A9
102
{ACAD_REACTORS
330
4A8
102
}
330
4A8
100
AcDbXrecord
280
     1
102
RTVSPropertyOp0
 70
     1
102
RTVSPropertyOp1
 70
     1
102
RTVSPropertyOp2
 70
     1
102
RTVSPropertyOp3
 70
     1
102
RTVSPropertyOp4
 70
     1
102
RTVSPropertyOp5
 70
     1
102
RTVSPropertyOp6
 70
     1
102
RTVSPropertyOp7
 70
     1
102
RTVSPropertyOp8
 70
     1
102
RTVSPropertyOp9
 70
     1
102
RTVSPropertyOp10
 70
     1
102
RTVSPropertyOp11
 70
     1
102
RTVSPropertyOp12
 70
     1
102
RTVSPropertyOp13
 70
     1
102
RTVSPropertyOp14
 70
     1
102
RTVSPropertyOp15
 70
     1
102
RTVSPropertyOp16
 70
     1
102
RTVSPropertyOp17
 70
     1
102
RTVSPropertyOp18
 70
     1
102
RTVSPropertyOp19
 70
     1
102
RTVSPropertyOp20
 70
     1
102
RTVSPropertyOp21
 70
     1
102
RTVSPropertyOp22
 70
     1
102
RTVSPropertyOp23
 70
     1
102
RTVSPropertyOp24
 70
     1
102
RTVSPropertyOp25
 70
     1
102
RTVSPropertyOp26
 70
     1
102
RTVSPropertyOp27
 70
     1
  0
XRECORD
  5
4B1
102
{ACAD_REACTORS
330
4B0
102
}
330
4B0
100
AcDbXrecord
280
     1
102
RTVSPropertyOp0
 70
     1
102
RTVSPropertyOp1
 70
     1
102
RTVSPropertyOp2
 70
     1
102
RTVSPropertyOp3
 70
     1
102
RTVSPropertyOp4
 70
     1
102
RTVSPropertyOp5
 70
     1
102
RTVSPropertyOp6
 70
     1
102
RTVSPropertyOp7
 70
     1
102
RTVSPropertyOp8
 70
     1
102
RTVSPropertyOp9
 70
     1
102
RTVSPropertyOp10
 70
     1
102
RTVSPropertyOp11
 70
     1
102
RTVSPropertyOp12
 70
     1
102
RTVSPropertyOp13
 70
     1
102
RTVSPropertyOp14
 70
     1
102
RTVSPropertyOp15
 70
     1
102
RTVSPropertyOp16
 70
     1
102
RTVSPropertyOp17
 70
     1
102
RTVSPropertyOp18
 70
     1
102
RTVSPropertyOp19
 70
     1
102
RTVSPropertyOp20
 70
     1
102
RTVSPropertyOp21
 70
     1
102
RTVSPropertyOp22
 70
     1
102
RTVSPropertyOp23
 70
     1
102
RTVSPropertyOp24
 70
     1
102
RTVSPropertyOp25
 70
     1
102
RTVSPropertyOp26
 70
     1
102
RTVSPropertyOp27
 70
     1
  0
XRECORD
  5
4A7
102
{ACAD_REACTORS
330
4A6
102
}
330
4A6
100
AcDbXrecord
280
     1
102
RTVSPropertyOp0
 70
     1
102
RTVSPropertyOp1
 70
     1
102
RTVSPropertyOp2
 70
     1
102
RTVSPropertyOp3
 70
     1
102
RTVSPropertyOp4
 70
     1
102
RTVSPropertyOp5
 70
     1
102
RTVSPropertyOp6
 70
     1
102
RTVSPropertyOp7
 70
     1
102
RTVSPropertyOp8
 70
     1
102
RTVSPropertyOp9
 70
     1
102
RTVSPropertyOp10
 70
     1
102
RTVSPropertyOp11
 70
     1
102
RTVSPropertyOp12
 70
     1
102
RTVSPropertyOp13
 70
     1
102
RTVSPropertyOp14
 70
     1
102
RTVSPropertyOp15
 70
     1
102
RTVSPropertyOp16
 70
     1
102
RTVSPropertyOp17
 70
     1
102
RTVSPropertyOp18
 70
     1
102
RTVSPropertyOp19
 70
     1
102
RTVSPropertyOp20
 70
     1
102
RTVSPropertyOp21
 70
     1
102
RTVSPropertyOp22
 70
     1
102
RTVSPropertyOp23
 70
     1
102
RTVSPropertyOp24
 70
     1
102
RTVSPropertyOp25
 70
     1
102
RTVSPropertyOp26
 70
     1
102
RTVSPropertyOp27
 70
     1
  0
XRECORD
  5
4AF
102
{ACAD_REACTORS
330
4AE
102
}
330
4AE
100
AcDbXrecord
280
     1
102
RTVSPropertyOp0
 70
     1
102
RTVSPropertyOp1
 70
     1
102
RTVSPropertyOp2
 70
     1
102
RTVSPropertyOp3
 70
     1
102
RTVSPropertyOp4
 70
     1
102
RTVSPropertyOp5
 70
     1
102
RTVSPropertyOp6
 70
     1
102
RTVSPropertyOp7
 70
     1
102
RTVSPropertyOp8
 70
     1
102
RTVSPropertyOp9
 70
     1
102
RTVSPropertyOp10
 70
     1
102
RTVSPropertyOp11
 70
     1
102
RTVSPropertyOp12
 70
     1
102
RTVSPropertyOp13
 70
     1
102
RTVSPropertyOp14
 70
     1
102
RTVSPropertyOp15
 70
     1
102
RTVSPropertyOp16
 70
     1
102
RTVSPropertyOp17
 70
     1
102
RTVSPropertyOp18
 70
     1
102
RTVSPropertyOp19
 70
     1
102
RTVSPropertyOp20
 70
     1
102
RTVSPropertyOp21
 70
     1
102
RTVSPropertyOp22
 70
     1
102
RTVSPropertyOp23
 70
     1
102
RTVSPropertyOp24
 70
     1
102
RTVSPropertyOp25
 70
     1
102
RTVSPropertyOp26
 70
     1
102
RTVSPropertyOp27
 70
     1
  0
XRECORD
  5
493
102
{ACAD_REACTORS
330
492
102
}
330
492
100
AcDbXrecord
280
     1
102
RTVSPropertyOp0
 70
     1
102
RTVSPropertyOp1
 70
     1
102
RTVSPropertyOp2
 70
     1
102
RTVSPropertyOp3
 70
     1
102
RTVSPropertyOp4
 70
     1
102
RTVSPropertyOp5
 70
     1
102
RTVSPropertyOp6
 70
     1
102
RTVSPropertyOp7
 70
     1
102
RTVSPropertyOp8
 70
     1
102
RTVSPropertyOp9
 70
     1
102
RTVSPropertyOp10
 70
     1
102
RTVSPropertyOp11
 70
     1
102
RTVSPropertyOp12
 70
     1
102
RTVSPropertyOp13
 70
     1
102
RTVSPropertyOp14
 70
     1
102
RTVSPropertyOp15
 70
     1
102
RTVSPropertyOp16
 70
     1
102
RTVSPropertyOp17
 70
     1
102
RTVSPropertyOp18
 70
     1
102
RTVSPropertyOp19
 70
     1
102
RTVSPropertyOp20
 70
     1
102
RTVSPropertyOp21
 70
     1
102
RTVSPropertyOp22
 70
     1
102
RTVSPropertyOp23
 70
     1
102
RTVSPropertyOp24
 70
     1
102
RTVSPropertyOp25
 70
     1
102
RTVSPropertyOp26
 70
     1
102
RTVSPropertyOp27
 70
     1
  0
XRECORD
  5
495
102
{ACAD_REACTORS
330
494
102
}
330
494
100
AcDbXrecord
280
     1
102
RTVSPropertyOp0
 70
     1
102
RTVSPropertyOp1
 70
     1
102
RTVSPropertyOp2
 70
     1
102
RTVSPropertyOp3
 70
     1
102
RTVSPropertyOp4
 70
     1
102
RTVSPropertyOp5
 70
     1
102
RTVSPropertyOp6
 70
     1
102
RTVSPropertyOp7
 70
     1
102
RTVSPropertyOp8
 70
     1
102
RTVSPropertyOp9
 70
     1
102
RTVSPropertyOp10
 70
     1
102
RTVSPropertyOp11
 70
     1
102
RTVSPropertyOp12
 70
     1
102
RTVSPropertyOp13
 70
     1
102
RTVSPropertyOp14
 70
     1
102
RTVSPropertyOp15
 70
     1
102
RTVSPropertyOp16
 70
     1
102
RTVSPropertyOp17
 70
     1
102
RTVSPropertyOp18
 70
     1
102
RTVSPropertyOp19
 70
     1
102
RTVSPropertyOp20
 70
     1
102
RTVSPropertyOp21
 70
     1
102
RTVSPropertyOp22
 70
     1
102
RTVSPropertyOp23
 70
     1
102
RTVSPropertyOp24
 70
     1
102
RTVSPropertyOp25
 70
     1
102
RTVSPropertyOp26
 70
     1
102
RTVSPropertyOp27
 70
     1
  0
XRECORD
  5
497
102
{ACAD_REACTORS
330
496
102
}
330
496
100
AcDbXrecord
280
     1
102
RTVSPropertyOp0
 70
     1
102
RTVSPropertyOp1
 70
     1
102
RTVSPropertyOp2
 70
     1
102
RTVSPropertyOp3
 70
     1
102
RTVSPropertyOp4
 70
     1
102
RTVSPropertyOp5
 70
     1
102
RTVSPropertyOp6
 70
     1
102
RTVSPropertyOp7
 70
     1
102
RTVSPropertyOp8
 70
     1
102
RTVSPropertyOp9
 70
     1
102
RTVSPropertyOp10
 70
     1
102
RTVSPropertyOp11
 70
     1
102
RTVSPropertyOp12
 70
     1
102
RTVSPropertyOp13
 70
     1
102
RTVSPropertyOp14
 70
     1
102
RTVSPropertyOp15
 70
     1
102
RTVSPropertyOp16
 70
     1
102
RTVSPropertyOp17
 70
     1
102
RTVSPropertyOp18
 70
     1
102
RTVSPropertyOp19
 70
     1
102
RTVSPropertyOp20
 70
     1
102
RTVSPropertyOp21
 70
     1
102
RTVSPropertyOp22
 70
     1
102
RTVSPropertyOp23
 70
     1
102
RTVSPropertyOp24
 70
     1
102
RTVSPropertyOp25
 70
     1
102
RTVSPropertyOp26
 70
     1
102
RTVSPropertyOp27
 70
     1
  0
XRECORD
  5
499
102
{ACAD_REACTORS
330
498
102
}
330
498
100
AcDbXrecord
280
     1
102
RTVSPropertyOp0
 70
     1
102
RTVSPropertyOp1
 70
     1
102
RTVSPropertyOp2
 70
     1
102
RTVSPropertyOp3
 70
     1
102
RTVSPropertyOp4
 70
     1
102
RTVSPropertyOp5
 70
     1
102
RTVSPropertyOp6
 70
     1
102
RTVSPropertyOp7
 70
     1
102
RTVSPropertyOp8
 70
     1
102
RTVSPropertyOp9
 70
     1
102
RTVSPropertyOp10
 70
     1
102
RTVSPropertyOp11
 70
     1
102
RTVSPropertyOp12
 70
     1
102
RTVSPropertyOp13
 70
     1
102
RTVSPropertyOp14
 70
     1
102
RTVSPropertyOp15
 70
     1
102
RTVSPropertyOp16
 70
     1
102
RTVSPropertyOp17
 70
     1
102
RTVSPropertyOp18
 70
     1
102
RTVSPropertyOp19
 70
     1
102
RTVSPropertyOp20
 70
     1
102
RTVSPropertyOp21
 70
     1
102
RTVSPropertyOp22
 70
     1
102
RTVSPropertyOp23
 70
     1
102
RTVSPropertyOp24
 70
     1
102
RTVSPropertyOp25
 70
     1
102
RTVSPropertyOp26
 70
     1
102
RTVSPropertyOp27
 70
     1
  0
XRECORD
  5
4AD
102
{ACAD_REACTORS
330
4AC
102
}
330
4AC
100
AcDbXrecord
280
     1
102
RTVSPropertyOp0
 70
     1
102
RTVSPropertyOp1
 70
     1
102
RTVSPropertyOp2
 70
     1
102
RTVSPropertyOp3
 70
     1
102
RTVSPropertyOp4
 70
     1
102
RTVSPropertyOp5
 70
     1
102
RTVSPropertyOp6
 70
     1
102
RTVSPropertyOp7
 70
     1
102
RTVSPropertyOp8
 70
     1
102
RTVSPropertyOp9
 70
     1
102
RTVSPropertyOp10
 70
     1
102
RTVSPropertyOp11
 70
     1
102
RTVSPropertyOp12
 70
     1
102
RTVSPropertyOp13
 70
     1
102
RTVSPropertyOp14
 70
     1
102
RTVSPropertyOp15
 70
     1
102
RTVSPropertyOp16
 70
     1
102
RTVSPropertyOp17
 70
     1
102
RTVSPropertyOp18
 70
     1
102
RTVSPropertyOp19
 70
     1
102
RTVSPropertyOp20
 70
     1
102
RTVSPropertyOp21
 70
     1
102
RTVSPropertyOp22
 70
     1
102
RTVSPropertyOp23
 70
     1
102
RTVSPropertyOp24
 70
     1
102
RTVSPropertyOp25
 70
     1
102
RTVSPropertyOp26
 70
     1
102
RTVSPropertyOp27
 70
     1
  0
XRECORD
  5
A4E
102
{ACAD_REACTORS
330
A4D
102
}
330
A4D
100
AcDbXrecord
280
     1
102
RTVSPropertyOp0
 70
     1
102
RTVSPropertyOp1
 70
     1
102
RTVSPropertyOp2
 70
     1
102
RTVSPropertyOp3
 70
     1
102
RTVSPropertyOp4
 70
     1
102
RTVSPropertyOp5
 70
     1
102
RTVSPropertyOp6
 70
     1
102
RTVSPropertyOp7
 70
     1
102
RTVSPropertyOp8
 70
     1
102
RTVSPropertyOp9
 70
     1
102
RTVSPropertyOp10
 70
     1
102
RTVSPropertyOp11
 70
     1
102
RTVSPropertyOp12
 70
     1
102
RTVSPropertyOp13
 70
     1
102
RTVSPropertyOp14
 70
     1
102
RTVSPropertyOp15
 70
     1
102
RTVSPropertyOp16
 70
     1
102
RTVSPropertyOp17
 70
     1
102
RTVSPropertyOp18
 70
     1
102
RTVSPropertyOp19
 70
     1
102
RTVSPropertyOp20
 70
     1
102
RTVSPropertyOp21
 70
     1
102
RTVSPropertyOp22
 70
     1
102
RTVSPropertyOp23
 70
     1
102
RTVSPropertyOp24
 70
     1
102
RTVSPropertyOp25
 70
     1
102
RTVSPropertyOp26
 70
     1
102
RTVSPropertyOp27
 70
     1
  0
XRECORD
  5
4AB
102
{ACAD_REACTORS
330
4AA
102
}
330
4AA
100
AcDbXrecord
280
     1
102
RTVSPropertyOp0
 70
     1
102
RTVSPropertyOp1
 70
     1
102
RTVSPropertyOp2
 70
     1
102
RTVSPropertyOp3
 70
     1
102
RTVSPropertyOp4
 70
     1
102
RTVSPropertyOp5
 70
     1
102
RTVSPropertyOp6
 70
     1
102
RTVSPropertyOp7
 70
     1
102
RTVSPropertyOp8
 70
     1
102
RTVSPropertyOp9
 70
     1
102
RTVSPropertyOp10
 70
     1
102
RTVSPropertyOp11
 70
     1
102
RTVSPropertyOp12
 70
     1
102
RTVSPropertyOp13
 70
     1
102
RTVSPropertyOp14
 70
     1
102
RTVSPropertyOp15
 70
     1
102
RTVSPropertyOp16
 70
     1
102
RTVSPropertyOp17
 70
     1
102
RTVSPropertyOp18
 70
     1
102
RTVSPropertyOp19
 70
     1
102
RTVSPropertyOp20
 70
     1
102
RTVSPropertyOp21
 70
     1
102
RTVSPropertyOp22
 70
     1
102
RTVSPropertyOp23
 70
     1
102
RTVSPropertyOp24
 70
     1
102
RTVSPropertyOp25
 70
     1
102
RTVSPropertyOp26
 70
     1
102
RTVSPropertyOp27
 70
     1
  0
ENDSEC
  0
EOF
