  0
SECTION
  2
HEADER
  9
$ACADVER
  1
AC1018
  9
$ACADMAINTVER
 70
   104
  9
$DWGCODEPAGE
  3
ANSI_1250
  9
$LASTSAVEDBY
  1
bonzo
  9
$INSBASE
 10
0.0
 20
0.0
 30
0.0
  9
$EXTMIN
 10
20.17808190308336
 20
1.447919702378759
 30
0.0
  9
$EXTMAX
 10
28.51847011546979
 20
9.193500953411778
 30
0.0
  9
$LIMMIN
 10
0.0
 20
0.0
  9
$LIMMAX
 10
12.0
 20
9.0
  9
$ORTHOMODE
 70
     1
  9
$REGENMODE
 70
     1
  9
$FILLMODE
 70
     1
  9
$QTEXTMODE
 70
     0
  9
$MIRRTEXT
 70
     1
  9
$LTSCALE
 40
1.0
  9
$ATTMODE
 70
     1
  9
$TEXTSIZE
 40
0.2
  9
$TRACEWID
 40
0.05
  9
$TEXTSTYLE
  7
Standard
  9
$CLAYER
  8
STREFA BEZPIECZEŃSTWA
  9
$CELTYPE
  6
ByLayer
  9
$CECOLOR
 62
   256
  9
$CELTSCALE
 40
1.0
  9
$DISPSILH
 70
     0
  9
$DIMSCALE
 40
0.02
  9
$DIMASZ
 40
3.0
  9
$DIMEXO
 40
20.0
  9
$DIMDLI
 40
0.0
  9
$DIMRND
 40
0.05
  9
$DIMDLE
 40
0.0
  9
$DIMEXE
 40
5.0
  9
$DIMTP
 40
0.0
  9
$DIMTM
 40
0.0
  9
$DIMTXT
 40
9.0
  9
$DIMCEN
 40
12.0
  9
$DIMTSZ
 40
0.0
  9
$DIMTOL
 70
     0
  9
$DIMLIM
 70
     0
  9
$DIMTIH
 70
     0
  9
$DIMTOH
 70
     0
  9
$DIMSE1
 70
     1
  9
$DIMSE2
 70
     1
  9
$DIMTAD
 70
     1
  9
$DIMZIN
 70
     1
  9
$DIMBLK
  1

  9
$DIMASO
 70
     1
  9
$DIMSHO
 70
     1
  9
$DIMPOST
  1

  9
$DIMAPOST
  1

  9
$DIMALT
 70
     0
  9
$DIMALTD
 70
     4
  9
$DIMALTF
 40
1.0
  9
$DIMLFAC
 40
1.0
  9
$DIMTOFL
 70
     1
  9
$DIMTVP
 40
0.0
  9
$DIMTIX
 70
     1
  9
$DIMSOXD
 70
     0
  9
$DIMSAH
 70
     1
  9
$DIMBLK1
  1
MAR-STRZ
  9
$DIMBLK2
  1
MAR-STRZ
  9
$DIMSTYLE
  2
AR SKALA 1-50
  9
$DIMCLRD
 70
   256
  9
$DIMCLRE
 70
   256
  9
$DIMCLRT
 70
   256
  9
$DIMTFAC
 40
0.01
  9
$DIMGAP
 40
6.0
  9
$DIMJUST
 70
     0
  9
$DIMSD1
 70
     0
  9
$DIMSD2
 70
     0
  9
$DIMTOLJ
 70
     1
  9
$DIMTZIN
 70
     0
  9
$DIMALTZ
 70
     0
  9
$DIMALTTZ
 70
     0
  9
$DIMUPT
 70
     0
  9
$DIMDEC
 70
     2
  9
$DIMTDEC
 70
     2
  9
$DIMALTU
 70
     2
  9
$DIMALTTD
 70
     4
  9
$DIMTXSTY
  7
AR 01 SWIS
  9
$DIMAUNIT
 70
     0
  9
$DIMADEC
 70
     1
  9
$DIMALTRND
 40
0.0
  9
$DIMAZIN
 70
     0
  9
$DIMDSEP
 70
    46
  9
$DIMATFIT
 70
     3
  9
$DIMFRAC
 70
     0
  9
$DIMLDRBLK
  1
MAR-STRZ
  9
$DIMLUNIT
 70
     2
  9
$DIMLWD
 70
    -2
  9
$DIMLWE
 70
    -2
  9
$DIMTMOVE
 70
     2
  9
$LUNITS
 70
     2
  9
$LUPREC
 70
     4
  9
$SKETCHINC
 40
0.1
  9
$FILLETRAD
 40
0.5
  9
$AUNITS
 70
     0
  9
$AUPREC
 70
     0
  9
$MENU
  1
.
  9
$ELEVATION
 40
0.0
  9
$PELEVATION
 40
0.0
  9
$THICKNESS
 40
0.0
  9
$LIMCHECK
 70
     0
  9
$CHAMFERA
 40
0.5
  9
$CHAMFERB
 40
0.5
  9
$CHAMFERC
 40
1.0
  9
$CHAMFERD
 40
0.0
  9
$SKPOLY
 70
     0
  9
$TDCREATE
 40
2455956.499359827
  9
$TDUCREATE
 40
2455956.416026493
  9
$TDUPDATE
 40
2459311.319051748
  9
$TDUUPDATE
 40
2459311.235718414
  9
$TDINDWG
 40
0.2065435880
  9
$TDUSRTIMER
 40
0.2065435880
  9
$USRTIMER
 70
     1
  9
$ANGBASE
 50
0.0
  9
$ANGDIR
 70
     0
  9
$PDMODE
 70
     0
  9
$PDSIZE
 40
0.0
  9
$PLINEWID
 40
0.0
  9
$SPLFRAME
 70
     0
  9
$SPLINETYPE
 70
     6
  9
$SPLINESEGS
 70
     8
  9
$HANDSEED
  5
222CE
  9
$SURFTAB1
 70
     6
  9
$SURFTAB2
 70
     6
  9
$SURFTYPE
 70
     6
  9
$SURFU
 70
     6
  9
$SURFV
 70
     6
  9
$UCSBASE
  2

  9
$UCSNAME
  2

  9
$UCSORG
 10
0.0
 20
0.0
 30
0.0
  9
$UCSXDIR
 10
1.0
 20
0.0
 30
0.0
  9
$UCSYDIR
 10
0.0
 20
1.0
 30
0.0
  9
$UCSORTHOREF
  2

  9
$UCSORTHOVIEW
 70
     0
  9
$UCSORGTOP
 10
0.0
 20
0.0
 30
0.0
  9
$UCSORGBOTTOM
 10
0.0
 20
0.0
 30
0.0
  9
$UCSORGLEFT
 10
0.0
 20
0.0
 30
0.0
  9
$UCSORGRIGHT
 10
0.0
 20
0.0
 30
0.0
  9
$UCSORGFRONT
 10
0.0
 20
0.0
 30
0.0
  9
$UCSORGBACK
 10
0.0
 20
0.0
 30
0.0
  9
$PUCSBASE
  2

  9
$PUCSNAME
  2

  9
$PUCSORG
 10
0.0
 20
0.0
 30
0.0
  9
$PUCSXDIR
 10
1.0
 20
0.0
 30
0.0
  9
$PUCSYDIR
 10
0.0
 20
1.0
 30
0.0
  9
$PUCSORTHOREF
  2

  9
$PUCSORTHOVIEW
 70
     0
  9
$PUCSORGTOP
 10
0.0
 20
0.0
 30
0.0
  9
$PUCSORGBOTTOM
 10
0.0
 20
0.0
 30
0.0
  9
$PUCSORGLEFT
 10
0.0
 20
0.0
 30
0.0
  9
$PUCSORGRIGHT
 10
0.0
 20
0.0
 30
0.0
  9
$PUCSORGFRONT
 10
0.0
 20
0.0
 30
0.0
  9
$PUCSORGBACK
 10
0.0
 20
0.0
 30
0.0
  9
$USERI1
 70
     0
  9
$USERI2
 70
     0
  9
$USERI3
 70
     0
  9
$USERI4
 70
     0
  9
$USERI5
 70
     0
  9
$USERR1
 40
0.0
  9
$USERR2
 40
0.0
  9
$USERR3
 40
0.0
  9
$USERR4
 40
0.0
  9
$USERR5
 40
0.0
  9
$WORLDVIEW
 70
     1
  9
$SHADEDGE
 70
     3
  9
$SHADEDIF
 70
    70
  9
$TILEMODE
 70
     1
  9
$MAXACTVP
 70
    64
  9
$PINSBASE
 10
0.0
 20
0.0
 30
0.0
  9
$PLIMCHECK
 70
     0
  9
$PEXTMIN
 10
6.561544945354853
 20
3.282189374834842
 30
0.0
  9
$PEXTMAX
 10
416.7133315898103
 20
290.5875349075164
 30
0.0
  9
$PLIMMIN
 10
3.386557152386103
 20
0.1071894225185588
  9
$PLIMMAX
 10
423.5448823476986
 20
297.1601984557217
  9
$UNITMODE
 70
     0
  9
$VISRETAIN
 70
     1
  9
$PLINEGEN
 70
     0
  9
$PSLTSCALE
 70
     0
  9
$TREEDEPTH
 70
  3020
  9
$CMLSTYLE
  2
Standard
  9
$CMLJUST
 70
     0
  9
$CMLSCALE
 40
1.0
  9
$PROXYGRAPHICS
 70
     1
  9
$MEASUREMENT
 70
     0
  9
$CELWEIGHT
370
    -1
  9
$ENDCAPS
280
     0
  9
$JOINSTYLE
280
     0
  9
$LWDISPLAY
290
     0
  9
$INSUNITS
 70
     1
  9
$HYPERLINKBASE
  1

  9
$STYLESHEET
  1

  9
$XEDIT
290
     1
  9
$CEPSNTYPE
380
     0
  9
$PSTYLEMODE
290
     1
  9
$FINGERPRINTGUID
  2
{1B330B5B-CE04-4EC8-B886-8C8BFC3A02BF}
  9
$VERSIONGUID
  2
{6376ED7B-984A-4763-B631-C77A4274BBA9}
  9
$EXTNAMES
290
     1
  9
$PSVPSCALE
 40
0.0
  9
$OLESTARTUP
290
     0
  9
$SORTENTS
280
   127
  9
$INDEXCTL
280
     0
  9
$HIDETEXT
280
     1
  9
$XCLIPFRAME
290
     0
  9
$HALOGAP
280
     0
  9
$OBSCOLOR
 70
   257
  9
$OBSLTYPE
280
     0
  9
$INTERSECTIONDISPLAY
280
     0
  9
$INTERSECTIONCOLOR
 70
   257
  9
$DIMASSOC
280
     2
  9
$PROJECTNAME
  1

  0
ENDSEC
  0
SECTION
  2
CLASSES
  0
CLASS
  1
ACDBDICTIONARYWDFLT
  2
AcDbDictionaryWithDefault
  3
ObjectDBX Classes
 90
        0
 91
        1
280
     0
281
     0
  0
CLASS
  1
VISUALSTYLE
  2
AcDbVisualStyle
  3
ObjectDBX Classes
 90
     4095
 91
       16
280
     0
281
     0
  0
CLASS
  1
MATERIAL
  2
AcDbMaterial
  3
ObjectDBX Classes
 90
     1153
 91
        3
280
     0
281
     0
  0
CLASS
  1
DICTIONARYVAR
  2
AcDbDictionaryVar
  3
ObjectDBX Classes
 90
        0
 91
        9
280
     0
281
     0
  0
CLASS
  1
TABLESTYLE
  2
AcDbTableStyle
  3
ObjectDBX Classes
 90
     4095
 91
        1
280
     0
281
     0
  0
CLASS
  1
SORTENTSTABLE
  2
AcDbSortentsTable
  3
ObjectDBX Classes
 90
        0
 91
        1
280
     0
281
     0
  0
CLASS
  1
DIMASSOC
  2
AcDbDimAssoc
  3
"AcDbDimAssoc|Product Desc:     AcDim ARX App For Dimension|Company:          Autodesk, Inc.|WEB Address:      www.autodesk.com"
 90
        0
 91
        2
280
     0
281
     0
  0
CLASS
  1
SCALE
  2
AcDbScale
  3
ObjectDBX Classes
 90
     1153
 91
       33
280
     0
281
     0
  0
CLASS
  1
MLEADERSTYLE
  2
AcDbMLeaderStyle
  3
ACDB_MLEADERSTYLE_CLASS
 90
     4095
 91
        1
280
     0
281
     0
  0
CLASS
  1
CELLSTYLEMAP
  2
AcDbCellStyleMap
  3
ObjectDBX Classes
 90
     1152
 91
        2
280
     0
281
     0
  0
CLASS
  1
ARC_DIMENSION
  2
AcDbArcDimension
  3
ObjectDBX Classes
 90
     1025
 91
        0
280
     0
281
     1
  0
ENDSEC
  0
SECTION
  2
TABLES
  0
TABLE
  2
VPORT
  5
8
102
{ACAD_XDICTIONARY
360
84C
102
}
330
0
100
AcDbSymbolTable
 70
     1
  0
VPORT
  5
29
330
8
100
AcDbSymbolTableRecord
100
AcDbViewportTableRecord
  2
*Active
 70
     0
 10
0.0
 20
0.0
 11
1.0
 21
1.0
 12
24.93673697191713
 22
5.07076249917665
 13
0.0
 23
0.0
 14
0.5
 24
0.5
 15
0.5
 25
0.5
 16
0.0
 26
0.0
 36
1.0
 17
0.0
 27
0.0
 37
-1000.0
 40
15.52101412936559
 41
2.060556464811783
 42
50.0
 43
4.148984367261674
 44
9.217858496371269
 50
0.0
 51
0.0
 71
     0
 72
   100
 73
     1
 74
     3
 75
     0
 76
     0
 77
     0
 78
     0
281
     0
 65
     1
110
0.0
120
0.0
130
0.0
111
1.0
121
0.0
131
0.0
112
0.0
122
1.0
132
0.0
 79
     0
146
0.0
  0
ENDTAB
  0
TABLE
  2
LTYPE
  5
5
330
0
100
AcDbSymbolTable
 70
     2
  0
LTYPE
  5
14
330
5
100
AcDbSymbolTableRecord
100
AcDbLinetypeTableRecord
  2
ByBlock
 70
     0
  3

 72
    65
 73
     0
 40
0.0
  0
LTYPE
  5
15
330
5
100
AcDbSymbolTableRecord
100
AcDbLinetypeTableRecord
  2
ByLayer
 70
     0
  3

 72
    65
 73
     0
 40
0.0
  0
LTYPE
  5
16
330
5
100
AcDbSymbolTableRecord
100
AcDbLinetypeTableRecord
  2
Continuous
 70
     0
  3
Solid line
 72
    65
 73
     0
 40
0.0
  0
LTYPE
  5
886
330
5
100
AcDbSymbolTableRecord
100
AcDbLinetypeTableRecord
  2
DASHED
 70
     0
  3
Dashed __ __ __ __ __ __ __ __ __ __ __ __ __ _
 72
    65
 73
     2
 40
0.75
 49
0.5
 74
     0
 49
-0.25
 74
     0
  0
ENDTAB
  0
TABLE
  2
LAYER
  5
2
102
{ACAD_XDICTIONARY
360
7D1
102
}
330
0
100
AcDbSymbolTable
 70
     4
  0
LAYER
  5
10
102
{ACAD_XDICTIONARY
360
17835
102
}
330
2
100
AcDbSymbolTableRecord
100
AcDbLayerTableRecord
  2
0
 70
     0
 62
     7
  6
Continuous
370
    25
390
F
  0
LAYER
  5
87B
102
{ACAD_XDICTIONARY
360
17837
102
}
330
2
100
AcDbSymbolTableRecord
100
AcDbLayerTableRecord
  2
STREFA BEZPIECZEŃSTWA
 70
     0
 62
     7
  6
DASHED
370
    25
390
F
1001
AcAecLayerStandard
1000

1000

  0
LAYER
  5
87D
102
{ACAD_XDICTIONARY
360
17839
102
}
330
2
100
AcDbSymbolTableRecord
100
AcDbLayerTableRecord
  2
WYMIAR
 70
     0
 62
     7
  6
Continuous
370
    25
390
F
1001
AcAecLayerStandard
1000

1000

  0
LAYER
  5
8CC
330
2
100
AcDbSymbolTableRecord
100
AcDbLayerTableRecord
  2
Defpoints
 70
     0
 62
     7
  6
Continuous
290
     0
370
     5
390
F
1001
RAK
1000
{ACET-LAYISO
1070
     0
1070
     7
1000
Continuous
1071
        5
1071
        0
1005
F
1000
ACET-LAYISO}
  0
ENDTAB
  0
TABLE
  2
STYLE
  5
3
330
0
100
AcDbSymbolTable
 70
     2
  0
STYLE
  5
11
330
3
100
AcDbSymbolTableRecord
100
AcDbTextStyleTableRecord
  2
Standard
 70
     0
 40
0.0
 41
1.0
 50
0.0
 71
     0
 42
0.2
  3
txt
  4

  0
STYLE
  5
8CE
330
3
100
AcDbSymbolTableRecord
100
AcDbTextStyleTableRecord
  2
AR 01 SWIS
 70
     0
 40
0.0
 41
1.0
 50
0.0
 71
     0
 42
55.0
  3
swissc.ttf
  4

1001
ACAD
1000
Swis721 Cn BT
1071
       34
  0
ENDTAB
  0
TABLE
  2
VIEW
  5
6
330
0
100
AcDbSymbolTable
 70
     0
  0
ENDTAB
  0
TABLE
  2
UCS
  5
7
330
0
100
AcDbSymbolTable
 70
     0
  0
ENDTAB
  0
TABLE
  2
APPID
  5
9
330
0
100
AcDbSymbolTable
 70
     9
  0
APPID
  5
12
330
9
100
AcDbSymbolTableRecord
100
AcDbRegAppTableRecord
  2
ACAD
 70
     0
  0
APPID
  5
7CB
330
9
100
AcDbSymbolTableRecord
100
AcDbRegAppTableRecord
  2
ACAD_PSEXT
 70
     0
  0
APPID
  5
875
330
9
100
AcDbSymbolTableRecord
100
AcDbRegAppTableRecord
  2
ACAD_EXEMPT_FROM_CAD_STANDARDS
 70
     0
  0
APPID
  5
87C
330
9
100
AcDbSymbolTableRecord
100
AcDbRegAppTableRecord
  2
AcAecLayerStandard
 70
     0
  0
APPID
  5
8D4
330
9
100
AcDbSymbolTableRecord
100
AcDbRegAppTableRecord
  2
RAK
 70
     0
  0
APPID
  5
8D5
330
9
100
AcDbSymbolTableRecord
100
AcDbRegAppTableRecord
  2
ACAD_DSTYLE_DIMJOGGED_JOGANGLE_SYMBOL
 70
     0
  0
APPID
  5
8D6
330
9
100
AcDbSymbolTableRecord
100
AcDbRegAppTableRecord
  2
ACAD_DSTYLE_DIMJAG
 70
     0
  0
APPID
  5
8D7
330
9
100
AcDbSymbolTableRecord
100
AcDbRegAppTableRecord
  2
ACAD_DSTYLE_DIMTALN
 70
     0
  0
APPID
  5
1782F
330
9
100
AcDbSymbolTableRecord
100
AcDbRegAppTableRecord
  2
ACAD_MLEADERVER
 70
     0
  0
ENDTAB
  0
TABLE
  2
DIMSTYLE
  5
A
330
0
100
AcDbSymbolTable
 70
     2
100
AcDbDimStyleTable
 71
     1
340
8CF
  0
DIMSTYLE
105
8CF
102
{ACAD_REACTORS
330
22275
330
22289
102
}
330
A
100
AcDbSymbolTableRecord
100
AcDbDimStyleTableRecord
  2
AR SKALA 1-50
 70
     0
 40
0.02
 41
3.0
 42
20.0
 43
0.0
 44
5.0
 45
0.05
 73
     0
 74
     0
 75
     1
 76
     1
 77
     1
 78
     1
140
9.0
141
12.0
143
1.0
146
0.01
147
6.0
171
     4
172
     1
173
     1
174
     1
176
   256
177
   256
178
   256
179
     1
271
     2
272
     2
274
     4
279
     2
340
8CE
341
8BC
343
8BC
344
8BC
  0
DIMSTYLE
105
A46
330
A
100
AcDbSymbolTableRecord
100
AcDbDimStyleTableRecord
  2
Standard
 70
     0
340
11
  0
ENDTAB
  0
TABLE
  2
BLOCK_RECORD
  5
1
330
0
100
AcDbSymbolTable
 70
     5
  0
BLOCK_RECORD
  5
1F
102
{ACAD_XDICTIONARY
360
5F8
102
}
330
1
100
AcDbSymbolTableRecord
100
AcDbBlockTableRecord
  2
*Model_Space
340
22
  0
BLOCK_RECORD
  5
1B
330
1
100
AcDbSymbolTableRecord
100
AcDbBlockTableRecord
  2
*Paper_Space
340
1E
  0
BLOCK_RECORD
  5
8BC
330
1
100
AcDbSymbolTableRecord
100
AcDbBlockTableRecord
  2
MAR-STRZ
340
0
310
2800000020000000200000000100080000000000000400000000000000000000000000000000000000000000000080000080000000808000800000008000800080800000C0C0C000C0DCC000F0CAA6000020400000206000002080000020A0000020C0000020E00000400000004020000040400000406000004080000040A0
310
000040C0000040E00000600000006020000060400000606000006080000060A0000060C0000060E00000800000008020000080400000806000008080000080A0000080C0000080E00000A0000000A0200000A0400000A0600000A0800000A0A00000A0C00000A0E00000C0000000C0200000C0400000C0600000C0800000C0
310
A00000C0C00000C0E00000E0000000E0200000E0400000E0600000E0800000E0A00000E0C00000E0E00040000000400020004000400040006000400080004000A0004000C0004000E00040200000402020004020400040206000402080004020A0004020C0004020E000404000004040200040404000404060004040800040
310
40A0004040C0004040E00040600000406020004060400040606000406080004060A0004060C0004060E00040800000408020004080400040806000408080004080A0004080C0004080E00040A0000040A0200040A0400040A0600040A0800040A0A00040A0C00040A0E00040C0000040C0200040C0400040C0600040C08000
310
40C0A00040C0C00040C0E00040E0000040E0200040E0400040E0600040E0800040E0A00040E0C00040E0E00080000000800020008000400080006000800080008000A0008000C0008000E00080200000802020008020400080206000802080008020A0008020C0008020E00080400000804020008040400080406000804080
310
008040A0008040C0008040E00080600000806020008060400080606000806080008060A0008060C0008060E00080800000808020008080400080806000808080008080A0008080C0008080E00080A0000080A0200080A0400080A0600080A0800080A0A00080A0C00080A0E00080C0000080C0200080C0400080C0600080C0
310
800080C0A00080C0C00080C0E00080E0000080E0200080E0400080E0600080E0800080E0A00080E0C00080E0E000C0000000C0002000C0004000C0006000C0008000C000A000C000C000C000E000C0200000C0202000C0204000C0206000C0208000C020A000C020C000C020E000C0400000C0402000C0404000C0406000C0
310
408000C040A000C040C000C040E000C0600000C0602000C0604000C0606000C0608000C060A000C060C000C060E000C0800000C0802000C0804000C0806000C0808000C080A000C080C000C080E000C0A00000C0A02000C0A04000C0A06000C0A08000C0A0A000C0A0C000C0A0E000C0C00000C0C02000C0C04000C0C06000
310
C0C08000C0C0A000F0FBFF00A4A0A000808080000000FF0000FF000000FFFF00FF000000FF00FF00FFFF0000FFFFFF00000000000000000000000000000000000000000000000000000000000000000000000000000000000000000000000000FF000000000000000000000000000000000000000000000000000000000000
310
00FF00000000000000000000000000000000000000000000000000000000000000FF00000000000000000000000000000000000000000000000000000000000000FF00000000000000000000000000000000000000000000000000000000000000FF000000000000000000000000000000000000000000F900000000000000
310
0000FF00000000000000000000000000000000000000000000F90000000000000000FF0000000000000000000000000000000000000000000000F900000000000000FF000000000000000000000000000000000000000000000000F9000000000000FF00000000000000000000000000000000000000000000000000F90000
310
000000FF0000000000000000000000000000000000000000000000000000F900000000FF000000000000000000000000000000000000000000000000000000F9000000FF00000000000000000000000000000000000000000000000000000000F90000FF000000000000000000000000000000000000000000000000000000
310
0000F900FF000000000000000000000000000000000000000000000000000000000000F9FF00000000000000000000000000000000000000000000FFFFFFFFFFFFFFFFFFFFFFFFFFFFFFFFFFFF0000000000000000000000000000000000000000000000FFF900000000000000000000000000000000000000000000000000
310
0000000000FF00F90000000000000000000000000000000000000000000000000000000000FF0000F900000000000000000000000000000000000000000000000000000000FF000000F9000000000000000000000000000000000000000000000000000000FF00000000F90000000000000000000000000000000000000000
310
000000000000FF0000000000F900000000000000000000000000000000000000000000000000FF000000000000F9000000000000000000000000000000000000000000000000FF00000000000000F90000000000000000000000000000000000000000000000FF0000000000000000F9000000000000000000000000000000
310
00000000000000FF00000000000000000000000000000000000000000000000000000000000000FF00000000000000000000000000000000000000000000000000000000000000FF00000000000000000000000000000000000000000000000000000000000000FF0000000000000000000000000000000000000000000000
310
0000000000000000FF0000000000000000000000000000000000000000000000000000000000000000000000000000000000000000000000
102
{BLKREFS
331
21AEC
331
21AED
331
21B08
331
21B09
331
2229E
331
2229F
331
222A5
331
222A6
102
}
  0
BLOCK_RECORD
  5
22276
330
1
100
AcDbSymbolTableRecord
100
AcDbBlockTableRecord
  2
*D3
340
0
  0
BLOCK_RECORD
  5
2228A
330
1
100
AcDbSymbolTableRecord
100
AcDbBlockTableRecord
  2
*D4
340
0
  0
ENDTAB
  0
ENDSEC
  0
SECTION
  2
BLOCKS
  0
BLOCK
  5
20
330
1F
100
AcDbEntity
  8
0
100
AcDbBlockBegin
  2
*Model_Space
 70
     0
 10
0.0
 20
0.0
 30
0.0
  3
*Model_Space
  1

  0
ENDBLK
  5
21
330
1F
100
AcDbEntity
  8
0
100
AcDbBlockEnd
  0
BLOCK
  5
1C
330
1B
100
AcDbEntity
 67
     1
  8
0
100
AcDbBlockBegin
  2
*Paper_Space
 70
     0
 10
0.0
 20
0.0
 30
0.0
  3
*Paper_Space
  1

  0
ENDBLK
  5
1D
330
1B
100
AcDbEntity
 67
     1
  8
0
100
AcDbBlockEnd
  0
BLOCK
  5
8BD
330
8BC
100
AcDbEntity
  8
0
100
AcDbBlockBegin
  2
MAR-STRZ
 70
     0
 10
0.0
 20
0.0
 30
0.0
  3
MAR-STRZ
  1

  0
LINE
  5
8BE
330
8BC
100
AcDbEntity
  8
0
100
AcDbLine
 10
0.0
 20
2.299999999999272
 30
0.0
 11
0.0
 21
-2.299999999999272
 31
0.0
  0
LINE
  5
8BF
330
8BC
100
AcDbEntity
  8
0
 62
    10
100
AcDbLine
 10
1.5
 20
1.5
 30
0.0
 11
-1.5
 21
-1.5
 31
0.0
  0
LINE
  5
8C0
330
8BC
100
AcDbEntity
  8
0
100
AcDbLine
 10
1.399999999999636
 20
0.0
 30
0.0
 11
-1.399999999999636
 21
0.0
 31
0.0
  0
ENDBLK
  5
8C1
330
8BC
100
AcDbEntity
  8
0
100
AcDbBlockEnd
  0
BLOCK
  5
22277
330
22276
100
AcDbEntity
  8
0
100
AcDbBlockBegin
  2
*D3
 70
     1
 10
0.0
 20
0.0
 30
0.0
  3
*D3
  1

  0
LINE
  5
222A4
330
22276
100
AcDbEntity
  8
WYMIAR
370
    -2
100
AcDbLine
 10
20.32808190308336
 20
8.838682771593596
 30
0.0
 11
27.40808190308337
 21
8.838682771593596
 31
0.0
  0
INSERT
  5
222A5
330
22276
100
AcDbEntity
  8
WYMIAR
370
    -2
100
AcDbBlockReference
  2
MAR-STRZ
 10
20.26808190308337
 20
8.838682771593596
 30
0.0
 41
0.06
 42
0.06
 43
0.06
 50
180.0
  0
INSERT
  5
222A6
330
22276
100
AcDbEntity
  8
WYMIAR
370
    -2
100
AcDbBlockReference
  2
MAR-STRZ
 10
27.46808190308336
 20
8.838682771593596
 30
0.0
 41
0.06
 42
0.06
 43
0.06
  0
MTEXT
  5
222A7
330
22276
100
AcDbEntity
  8
WYMIAR
100
AcDbMText
 10
23.86808190308336
 20
9.051195758606583
 30
0.0
 40
0.18
 41
0.0
 71
     5
 72
     1
  1
\A1;7.20
  7
AR 01 SWIS
 73
     1
 44
1.0
  0
POINT
  5
222A8
330
22276
100
AcDbEntity
  8
Defpoints
 62
     0
100
AcDbPoint
 10
20.26808190308337
 20
8.137919702378759
 30
0.0
  0
POINT
  5
222A9
330
22276
100
AcDbEntity
  8
Defpoints
 62
     0
100
AcDbPoint
 10
27.46808190308336
 20
8.137919702378759
 30
0.0
  0
POINT
  5
222AA
330
22276
100
AcDbEntity
  8
Defpoints
 62
     0
100
AcDbPoint
 10
27.46808190308336
 20
8.838682771593596
 30
0.0
  0
ENDBLK
  5
22278
330
22276
100
AcDbEntity
  8
0
100
AcDbBlockEnd
  0
BLOCK
  5
2228B
330
2228A
100
AcDbEntity
  8
0
100
AcDbBlockBegin
  2
*D4
 70
     1
 10
0.0
 20
0.0
 30
0.0
  3
*D4
  1

  0
LINE
  5
2229D
330
2228A
100
AcDbEntity
  8
WYMIAR
370
    -2
100
AcDbLine
 10
28.38047011546983
 20
8.077919702378757
 30
0.0
 11
28.38047011546983
 21
1.597919702378759
 31
0.0
  0
INSERT
  5
2229E
330
2228A
100
AcDbEntity
  8
WYMIAR
370
    -2
100
AcDbBlockReference
  2
MAR-STRZ
 10
28.38047011546983
 20
8.137919702378757
 30
0.0
 41
0.06
 42
0.06
 43
0.06
 50
90.0
  0
INSERT
  5
2229F
330
2228A
100
AcDbEntity
  8
WYMIAR
370
    -2
100
AcDbBlockReference
  2
MAR-STRZ
 10
28.38047011546983
 20
1.537919702378759
 30
0.0
 41
0.06
 42
0.06
 43
0.06
 50
270.0
  0
MTEXT
  5
222A0
330
2228A
100
AcDbEntity
  8
WYMIAR
100
AcDbMText
 10
28.16807401157372
 20
4.837919702378763
 30
0.0
 40
0.18
 41
0.0
 71
     5
 72
     1
  1
\A1;6.60
  7
AR 01 SWIS
 11
0.0000000000000001
 21
1.0
 31
0.0
 73
     1
 44
1.0
  0
POINT
  5
222A1
330
2228A
100
AcDbEntity
  8
Defpoints
 62
     0
100
AcDbPoint
 10
27.46808190308336
 20
8.137919702378759
 30
0.0
  0
POINT
  5
222A2
330
2228A
100
AcDbEntity
  8
Defpoints
 62
     0
100
AcDbPoint
 10
26.46808190308336
 20
1.53791970237876
 30
0.0
  0
POINT
  5
222A3
330
2228A
100
AcDbEntity
  8
Defpoints
 62
     0
100
AcDbPoint
 10
28.38047011546983
 20
1.537919702378759
 30
0.0
  0
ENDBLK
  5
2228C
330
2228A
100
AcDbEntity
  8
0
100
AcDbBlockEnd
  0
ENDSEC
  0
SECTION
  2
ENTITIES
  0
LINE
  5
21B48
330
1F
100
AcDbEntity
  8
STREFA BEZPIECZEŃSTWA
100
AcDbLine
 10
20.26808190308337
 20
8.137919702378759
 30
0.0
 11
27.46808190308336
 21
8.137919702378759
 31
0.0
  0
LINE
  5
21D49
330
1F
100
AcDbEntity
  8
0
100
AcDbLine
 10
24.33082167097913
 20
6.501024562197148
 30
0.0
 11
24.33082167097912
 21
6.541024562197148
 31
0.0
  0
LINE
  5
21D4B
330
1F
100
AcDbEntity
  8
0
100
AcDbLine
 10
25.2065217297304
 20
4.162895700233253
 30
0.0
 11
25.20730526761671
 21
4.16348726904432
 31
0.0
  0
LINE
  5
21D4C
330
1F
100
AcDbEntity
  8
0
100
AcDbLine
 10
25.20422417672881
 20
4.16234400035594
 30
0.0
 11
25.2065217297304
 21
4.162895700233253
 31
0.0
  0
LINE
  5
21D4D
330
1F
100
AcDbEntity
  8
0
100
AcDbLine
 10
25.2009658910289
 20
4.161921239498809
 30
0.0
 11
25.20422417672881
 21
4.16234400035594
 31
0.0
  0
LINE
  5
21D4E
330
1F
100
AcDbEntity
  8
0
100
AcDbLine
 10
25.16438700976385
 20
4.162332677498834
 30
0.0
 11
25.16764553525863
 21
4.161911768904992
 31
0.0
  0
LINE
  5
21D4F
330
1F
100
AcDbEntity
  8
0
100
AcDbLine
 10
25.16208914351587
 20
4.162883071227152
 30
0.0
 11
25.16438700976385
 21
4.162332677498834
 31
0.0
  0
LINE
  5
21D50
330
1F
100
AcDbEntity
  8
0
100
AcDbLine
 10
25.16130526947479
 20
4.163474194535123
 30
0.0
 11
25.16208914351587
 21
4.162883071227152
 31
0.0
  0
LINE
  5
21D51
330
1F
100
AcDbEntity
  8
0
100
AcDbLine
 10
24.68729564884808
 20
4.165285984259945
 30
0.0
 11
25.16130470729344
 21
4.165452115118451
 31
0.0
  0
LINE
  5
21D52
330
1F
100
AcDbEntity
  8
0
100
AcDbLine
 10
25.2061921908264
 20
5.322311227292949
 30
0.0
 11
25.20697532959229
 21
5.324307020002109
 31
0.0
  0
LINE
  5
21D53
330
1F
100
AcDbEntity
  8
0
100
AcDbLine
 10
25.20389500974582
 20
5.320450999055619
 30
0.0
 11
25.2061921908264
 21
5.322311227292949
 31
0.0
  0
LINE
  5
21D54
330
1F
100
AcDbEntity
  8
0
100
AcDbLine
 10
25.20063700875712
 20
5.319026539796961
 30
0.0
 11
25.20389500974582
 21
5.320450999055619
 31
0.0
  0
LINE
  5
21D55
330
1F
100
AcDbEntity
  8
0
100
AcDbLine
 10
25.16405784278087
 20
5.320439676198514
 30
0.0
 11
25.16731665298684
 21
5.319017069203145
 31
0.0
  0
LINE
  5
21D56
330
1F
100
AcDbEntity
  8
0
100
AcDbLine
 10
25.16175960461187
 20
5.322298598286849
 30
0.0
 11
25.16405784278087
 21
5.320439676198514
 31
0.0
  0
LINE
  5
21D57
330
1F
100
AcDbEntity
  8
0
100
AcDbLine
 10
25.16097533145038
 20
5.324293945492911
 30
0.0
 11
25.16175960461187
 21
5.322298598286849
 31
0.0
  0
LINE
  5
21D58
330
1F
100
AcDbEntity
  8
0
100
AcDbLine
 10
24.68697348356756
 20
5.330727982731453
 30
0.0
 11
25.16097343430033
 21
5.330968681598907
 31
0.0
  0
LINE
  5
21D59
330
1F
100
AcDbEntity
  8
0
100
AcDbLine
 10
25.20697532959229
 20
5.324307020002109
 30
0.0
 11
25.20693058060859
 21
5.481747206561568
 31
0.0
  0
LINE
  5
21D5A
330
1F
100
AcDbEntity
  8
0
100
AcDbLine
 10
25.1703746540678
 20
5.318875831871764
 30
0.0
 11
25.17224208883953
 21
5.315540558275571
 31
0.0
  0
LINE
  5
21D5B
330
1F
100
AcDbEntity
  8
0
100
AcDbLine
 10
25.19846618727662
 20
5.322198029985798
 30
0.0
 11
25.19851657812247
 21
5.326020179034546
 31
0.0
  0
LINE
  5
21D5C
330
1F
100
AcDbEntity
  8
0
100
AcDbLine
 10
25.19742826849016
 20
5.318519159618301
 30
0.0
 11
25.19846618727662
 21
5.322198029985798
 31
0.0
  0
LINE
  5
21D5D
330
1F
100
AcDbEntity
  8
0
100
AcDbLine
 10
25.17490912464178
 20
5.312802259055683
 30
0.0
 11
25.17819400739212
 21
5.310847544778674
 31
0.0
  0
LINE
  5
21D5E
330
1F
100
AcDbEntity
  8
0
100
AcDbLine
 10
25.17224208883953
 20
5.315540558275571
 30
0.0
 11
25.17490912464178
 21
5.312802259055683
 31
0.0
  0
LINE
  5
21D5F
330
1F
100
AcDbEntity
  8
0
100
AcDbLine
 10
25.19273525499328
 20
5.31256724106571
 30
0.0
 11
25.19547355421316
 21
5.315234276867965
 31
0.0
  0
LINE
  5
21D60
330
1F
100
AcDbEntity
  8
0
100
AcDbLine
 10
25.18939998139708
 20
5.310699806293971
 30
0.0
 11
25.19273525499328
 21
5.31256724106571
 31
0.0
  0
LINE
  5
21D61
330
1F
100
AcDbEntity
  8
0
100
AcDbLine
 10
25.18569502680837
 20
5.309759235146358
 30
0.0
 11
25.18939998139708
 21
5.310699806293971
 31
0.0
  0
LINE
  5
21D62
330
1F
100
AcDbEntity
  8
0
100
AcDbLine
 10
25.18187287775962
 20
5.309809625992212
 30
0.0
 11
25.18569502680837
 21
5.309759235146358
 31
0.0
  0
LINE
  5
21D63
330
1F
100
AcDbEntity
  8
0
100
AcDbLine
 10
25.17819400739212
 20
5.310847544778674
 30
0.0
 11
25.18187287775962
 21
5.309809625992212
 31
0.0
  0
LINE
  5
21D64
330
1F
100
AcDbEntity
  8
0
100
AcDbLine
 10
25.19752538575275
 20
5.31783772748535
 30
0.0
 11
25.19685326420688
 21
5.317552869212711
 31
0.0
  0
LINE
  5
21D65
330
1F
100
AcDbEntity
  8
0
100
AcDbLine
 10
25.19961369666447
 20
5.319554581515031
 30
0.0
 11
25.19752538575275
 21
5.31783772748535
 31
0.0
  0
LINE
  5
21D66
330
1F
100
AcDbEntity
  8
0
100
AcDbLine
 10
25.20063627876715
 20
5.321594860870732
 30
0.0
 11
25.19961369666447
 21
5.319554581515031
 31
0.0
  0
LINE
  5
21D67
330
1F
100
AcDbEntity
  8
0
100
AcDbLine
 10
25.20052344478039
 20
5.323819523886076
 30
0.0
 11
25.20063627876715
 21
5.321594860870732
 31
0.0
  0
LINE
  5
21D68
330
1F
100
AcDbEntity
  8
0
100
AcDbLine
 10
25.19928288415393
 20
5.326076963453015
 30
0.0
 11
25.20052344478039
 21
5.323819523886076
 31
0.0
  0
LINE
  5
21D69
330
1F
100
AcDbEntity
  8
0
100
AcDbLine
 10
25.19851635817325
 20
5.326794025614528
 30
0.0
 11
25.19928288415393
 21
5.326076963453015
 31
0.0
  0
LINE
  5
21D6A
330
1F
100
AcDbEntity
  8
0
100
AcDbLine
 10
25.16731438227551
 20
5.327006104624285
 30
0.0
 11
25.16833696437819
 21
5.329046383979985
 31
0.0
  0
LINE
  5
21D6B
330
1F
100
AcDbEntity
  8
0
100
AcDbLine
 10
25.16742721626226
 20
5.324781441608934
 30
0.0
 11
25.16731438227551
 21
5.327006104624285
 31
0.0
  0
LINE
  5
21D6C
330
1F
100
AcDbEntity
  8
0
100
AcDbLine
 10
25.16833696437819
 20
5.329046383979985
 30
0.0
 11
25.16943198933712
 21
5.329946632119661
 31
0.0
  0
LINE
  5
21D6D
330
1F
100
AcDbEntity
  8
0
100
AcDbLine
 10
25.16866777688872
 20
5.322524002041994
 30
0.0
 11
25.16742721626226
 21
5.324781441608934
 31
0.0
  0
LINE
  5
21D6E
330
1F
100
AcDbEntity
  8
0
100
AcDbLine
 10
25.16969165603569
 20
5.321566193679672
 30
0.0
 11
25.16866777688872
 21
5.322524002041994
 31
0.0
  0
LINE
  5
21D6F
330
1F
100
AcDbEntity
  8
0
100
AcDbLine
 10
25.16130526947479
 20
4.163474194535123
 30
0.0
 11
25.16130470729344
 21
4.165452115118451
 31
0.0
  0
LINE
  5
21D70
330
1F
100
AcDbEntity
  8
0
100
AcDbLine
 10
25.16097533145038
 20
5.324293945492911
 30
0.0
 11
25.16097343430033
 21
5.330968681598907
 31
0.0
  0
LINE
  5
21D71
330
1F
100
AcDbEntity
  8
0
100
AcDbLine
 10
25.16097343430033
 20
5.330968681598907
 30
0.0
 11
25.16093058246667
 21
5.48173413205237
 31
0.0
  0
LINE
  5
21D72
330
1F
100
AcDbEntity
  8
0
100
AcDbLine
 10
25.19851657812247
 20
5.326020179034546
 30
0.0
 11
25.19851635817325
 21
5.326794025614528
 31
0.0
  0
LINE
  5
21D73
330
1F
100
AcDbEntity
  8
0
100
AcDbLine
 10
25.16943408292018
 20
5.32258078646047
 30
0.0
 11
25.16969165603569
 21
5.321566193679672
 31
0.0
  0
LINE
  5
21D74
330
1F
100
AcDbEntity
  8
0
100
AcDbLine
 10
25.16969165603569
 20
5.321566193679672
 30
0.0
 11
25.1703746540678
 21
5.318875831871764
 31
0.0
  0
LINE
  5
21D75
330
1F
100
AcDbEntity
  8
0
100
AcDbLine
 10
25.19547355421316
 20
5.315234276867965
 30
0.0
 11
25.19685326420688
 21
5.317552869212711
 31
0.0
  0
LINE
  5
21D76
330
1F
100
AcDbEntity
  8
0
100
AcDbLine
 10
25.19685326420688
 20
5.317552869212711
 30
0.0
 11
25.19742826849016
 21
5.318519159618301
 31
0.0
  0
LINE
  5
21D77
330
1F
100
AcDbEntity
  8
0
100
AcDbLine
 10
25.16943408292018
 20
5.32258078646047
 30
0.0
 11
25.16943198933712
 21
5.329946632119661
 31
0.0
  0
LINE
  5
21D78
330
1F
100
AcDbEntity
  8
0
100
AcDbLine
 10
25.2009658910289
 20
4.161921239498809
 30
0.0
 11
25.20105066959886
 21
3.863645105264911
 31
0.0
  0
LINE
  5
21D79
330
1F
100
AcDbEntity
  8
0
100
AcDbLine
 10
25.16731665298684
 20
5.319017069203145
 30
0.0
 11
25.16731438227551
 21
5.327006104624285
 31
0.0
  0
LINE
  5
21D7A
330
1F
100
AcDbEntity
  8
0
100
AcDbLine
 10
25.20063627876715
 20
5.321594860870732
 30
0.0
 11
25.20063700875712
 21
5.319026539796961
 31
0.0
  0
LINE
  5
21D7B
330
1F
100
AcDbEntity
  8
0
100
AcDbLine
 10
25.20063700875712
 20
5.319026539796961
 30
0.0
 11
25.2009658910289
 21
4.161921239498809
 31
0.0
  0
LINE
  5
21D7C
330
1F
100
AcDbEntity
  8
0
100
AcDbLine
 10
25.16773061296767
 20
3.862583174701175
 30
0.0
 11
25.16764553525863
 21
4.161911768904992
 31
0.0
  0
LINE
  5
21D7D
330
1F
100
AcDbEntity
  8
0
100
AcDbLine
 10
25.16764553525863
 20
4.161911768904992
 30
0.0
 11
25.16731665298684
 21
5.319017069203145
 31
0.0
  0
LINE
  5
21D7E
330
1F
100
AcDbEntity
  8
0
100
AcDbLine
 10
25.20730526761671
 20
4.16348726904432
 30
0.0
 11
25.20739049078469
 21
3.863646907222602
 31
0.0
  0
LINE
  5
21D7F
330
1F
100
AcDbEntity
  8
0
100
AcDbLine
 10
25.16130526947479
 20
4.163474194535123
 30
0.0
 11
25.16138507977743
 21
3.882677897133806
 31
0.0
  0
LINE
  5
21D80
330
1F
100
AcDbEntity
  8
0
100
AcDbLine
 10
25.16097533145038
 20
5.324293945492911
 30
0.0
 11
25.16130470729344
 21
4.165452115118451
 31
0.0
  0
LINE
  5
21D81
330
1F
100
AcDbEntity
  8
0
100
AcDbLine
 10
25.20697532959229
 20
5.324307020002109
 30
0.0
 11
25.20730526761671
 21
4.16348726904432
 31
0.0
  0
LINE
  5
21D82
330
1F
100
AcDbEntity
  8
0
100
AcDbLine
 10
25.16938884632459
 20
5.481736536131784
 30
0.0
 11
25.16943198933712
 21
5.329946632119661
 31
0.0
  0
LINE
  5
21D83
330
1F
100
AcDbEntity
  8
0
100
AcDbLine
 10
24.68651266421721
 20
4.162747898850984
 30
0.0
 11
24.68729620210352
 21
4.163339467662051
 31
0.0
  0
LINE
  5
21D84
330
1F
100
AcDbEntity
  8
0
100
AcDbLine
 10
24.68421511121561
 20
4.162196198973671
 30
0.0
 11
24.68651266421721
 21
4.162747898850984
 31
0.0
  0
LINE
  5
21D85
330
1F
100
AcDbEntity
  8
0
100
AcDbLine
 10
24.68095682551571
 20
4.16177343811654
 30
0.0
 11
24.68421511121561
 21
4.162196198973671
 31
0.0
  0
LINE
  5
21D86
330
1F
100
AcDbEntity
  8
0
100
AcDbLine
 10
24.64437794425066
 20
4.162184876116565
 30
0.0
 11
24.64763646974543
 21
4.161763967522723
 31
0.0
  0
LINE
  5
21D87
330
1F
100
AcDbEntity
  8
0
100
AcDbLine
 10
24.64208007800268
 20
4.162735269844883
 30
0.0
 11
24.64437794425066
 21
4.162184876116565
 31
0.0
  0
LINE
  5
21D88
330
1F
100
AcDbEntity
  8
0
100
AcDbLine
 10
24.6412962039616
 20
4.163326393152853
 30
0.0
 11
24.64208007800268
 21
4.162735269844883
 31
0.0
  0
LINE
  5
21D89
330
1F
100
AcDbEntity
  8
0
100
AcDbLine
 10
24.6861831253132
 20
5.32216342591068
 30
0.0
 11
24.6869662640791
 21
5.324159218619833
 31
0.0
  0
LINE
  5
21D8A
330
1F
100
AcDbEntity
  8
0
100
AcDbLine
 10
24.68388594423262
 20
5.32030319767335
 30
0.0
 11
24.6861831253132
 21
5.32216342591068
 31
0.0
  0
LINE
  5
21D8B
330
1F
100
AcDbEntity
  8
0
100
AcDbLine
 10
24.68062794324393
 20
5.318878738414685
 30
0.0
 11
24.68388594423262
 21
5.32030319767335
 31
0.0
  0
LINE
  5
21D8C
330
1F
100
AcDbEntity
  8
0
100
AcDbLine
 10
24.64404877726767
 20
5.320291874816245
 30
0.0
 11
24.64730758747365
 21
5.318869267820868
 31
0.0
  0
LINE
  5
21D8D
330
1F
100
AcDbEntity
  8
0
100
AcDbLine
 10
24.64175053909867
 20
5.32215079690458
 30
0.0
 11
24.64404877726767
 21
5.320291874816245
 31
0.0
  0
LINE
  5
21D8E
330
1F
100
AcDbEntity
  8
0
100
AcDbLine
 10
24.64096626593717
 20
5.324146144110635
 30
0.0
 11
24.64175053909867
 21
5.32215079690458
 31
0.0
  0
LINE
  5
21D8F
330
1F
100
AcDbEntity
  8
0
100
AcDbLine
 10
24.6869662640791
 20
5.324159218619833
 30
0.0
 11
24.68692151509539
 21
5.481599405179299
 31
0.0
  0
LINE
  5
21D90
330
1F
100
AcDbEntity
  8
0
100
AcDbLine
 10
24.6503655885546
 20
5.318728030489488
 30
0.0
 11
24.65223302332634
 21
5.315392756893302
 31
0.0
  0
LINE
  5
21D91
330
1F
100
AcDbEntity
  8
0
100
AcDbLine
 10
24.67845712176343
 20
5.322050228603529
 30
0.0
 11
24.67850751260929
 21
5.32587237765227
 31
0.0
  0
LINE
  5
21D92
330
1F
100
AcDbEntity
  8
0
100
AcDbLine
 10
24.67741920297697
 20
5.318371358236031
 30
0.0
 11
24.67845712176343
 21
5.322050228603529
 31
0.0
  0
LINE
  5
21D93
330
1F
100
AcDbEntity
  8
0
100
AcDbLine
 10
24.65490005912859
 20
5.312654457673414
 30
0.0
 11
24.65818494187893
 21
5.310699743396405
 31
0.0
  0
LINE
  5
21D94
330
1F
100
AcDbEntity
  8
0
100
AcDbLine
 10
24.65223302332634
 20
5.315392756893302
 30
0.0
 11
24.65490005912859
 21
5.312654457673414
 31
0.0
  0
LINE
  5
21D95
330
1F
100
AcDbEntity
  8
0
100
AcDbLine
 10
24.67272618948008
 20
5.312419439683445
 30
0.0
 11
24.67546448869996
 21
5.315086475485696
 31
0.0
  0
LINE
  5
21D96
330
1F
100
AcDbEntity
  8
0
100
AcDbLine
 10
24.66939091588388
 20
5.310552004911695
 30
0.0
 11
24.67272618948008
 21
5.312419439683445
 31
0.0
  0
LINE
  5
21D97
330
1F
100
AcDbEntity
  8
0
100
AcDbLine
 10
24.66568596129518
 20
5.309611433764089
 30
0.0
 11
24.66939091588388
 21
5.310552004911695
 31
0.0
  0
LINE
  5
21D98
330
1F
100
AcDbEntity
  8
0
100
AcDbLine
 10
24.66186381224642
 20
5.309661824609943
 30
0.0
 11
24.66568596129518
 21
5.309611433764089
 31
0.0
  0
LINE
  5
21D99
330
1F
100
AcDbEntity
  8
0
100
AcDbLine
 10
24.65818494187893
 20
5.310699743396405
 30
0.0
 11
24.66186381224642
 21
5.309661824609943
 31
0.0
  0
LINE
  5
21D9A
330
1F
100
AcDbEntity
  8
0
100
AcDbLine
 10
24.67751632023956
 20
5.317689926103081
 30
0.0
 11
24.67684419869368
 21
5.317405067830446
 31
0.0
  0
LINE
  5
21D9B
330
1F
100
AcDbEntity
  8
0
100
AcDbLine
 10
24.67960463115128
 20
5.319406780132762
 30
0.0
 11
24.67751632023956
 21
5.317689926103081
 31
0.0
  0
LINE
  5
21D9C
330
1F
100
AcDbEntity
  8
0
100
AcDbLine
 10
24.68062721325396
 20
5.321447059488463
 30
0.0
 11
24.67960463115128
 21
5.319406780132762
 31
0.0
  0
LINE
  5
21D9D
330
1F
100
AcDbEntity
  8
0
100
AcDbLine
 10
24.6805143792672
 20
5.32367172250381
 30
0.0
 11
24.68062721325396
 21
5.321447059488463
 31
0.0
  0
LINE
  5
21D9E
330
1F
100
AcDbEntity
  8
0
100
AcDbLine
 10
24.67927381864074
 20
5.325929162070746
 30
0.0
 11
24.6805143792672
 21
5.32367172250381
 31
0.0
  0
LINE
  5
21D9F
330
1F
100
AcDbEntity
  8
0
100
AcDbLine
 10
24.67850729266006
 20
5.326646224232259
 30
0.0
 11
24.67927381864074
 21
5.325929162070746
 31
0.0
  0
LINE
  5
21DA0
330
1F
100
AcDbEntity
  8
0
100
AcDbLine
 10
24.64730531676232
 20
5.326858303242016
 30
0.0
 11
24.648327898865
 21
5.328898582597716
 31
0.0
  0
LINE
  5
21DA1
330
1F
100
AcDbEntity
  8
0
100
AcDbLine
 10
24.64741815074907
 20
5.324633640226664
 30
0.0
 11
24.64730531676232
 21
5.326858303242016
 31
0.0
  0
LINE
  5
21DA2
330
1F
100
AcDbEntity
  8
0
100
AcDbLine
 10
24.648327898865
 20
5.328898582597716
 30
0.0
 11
24.64942292382393
 21
5.329798830737392
 31
0.0
  0
LINE
  5
21DA3
330
1F
100
AcDbEntity
  8
0
100
AcDbLine
 10
24.64865871137553
 20
5.322376200659725
 30
0.0
 11
24.64741815074907
 21
5.324633640226664
 31
0.0
  0
LINE
  5
21DA4
330
1F
100
AcDbEntity
  8
0
100
AcDbLine
 10
24.64968259052248
 20
5.321418392297402
 30
0.0
 11
24.64865871137553
 21
5.322376200659725
 31
0.0
  0
LINE
  5
21DA5
330
1F
100
AcDbEntity
  8
0
100
AcDbLine
 10
24.6412962039616
 20
4.163326393152853
 30
0.0
 11
24.64129564178025
 21
4.165304313736182
 31
0.0
  0
LINE
  5
21DA6
330
1F
100
AcDbEntity
  8
0
100
AcDbLine
 10
24.64096626593717
 20
5.324146144110635
 30
0.0
 11
24.64096436878712
 21
5.330820880216638
 31
0.0
  0
LINE
  5
21DA7
330
1F
100
AcDbEntity
  8
0
100
AcDbLine
 10
24.64096436878712
 20
5.330820880216638
 30
0.0
 11
24.64092151695347
 21
5.481586330670101
 31
0.0
  0
LINE
  5
21DA8
330
1F
100
AcDbEntity
  8
0
100
AcDbLine
 10
24.67850751260929
 20
5.32587237765227
 30
0.0
 11
24.67850729266006
 21
5.326646224232259
 31
0.0
  0
LINE
  5
21DA9
330
1F
100
AcDbEntity
  8
0
100
AcDbLine
 10
24.64942501740699
 20
5.322432985078201
 30
0.0
 11
24.64968259052248
 21
5.321418392297402
 31
0.0
  0
LINE
  5
21DAA
330
1F
100
AcDbEntity
  8
0
100
AcDbLine
 10
24.64968259052248
 20
5.321418392297402
 30
0.0
 11
24.6503655885546
 21
5.318728030489488
 31
0.0
  0
LINE
  5
21DAB
330
1F
100
AcDbEntity
  8
0
100
AcDbLine
 10
24.67546448869996
 20
5.315086475485696
 30
0.0
 11
24.67684419869368
 21
5.317405067830446
 31
0.0
  0
LINE
  5
21DAC
330
1F
100
AcDbEntity
  8
0
100
AcDbLine
 10
24.67684419869368
 20
5.317405067830446
 30
0.0
 11
24.67741920297697
 21
5.318371358236031
 31
0.0
  0
LINE
  5
21DAD
330
1F
100
AcDbEntity
  8
0
100
AcDbLine
 10
24.64942501740699
 20
5.322432985078201
 30
0.0
 11
24.64942292382393
 21
5.329798830737392
 31
0.0
  0
LINE
  5
21DAE
330
1F
100
AcDbEntity
  8
0
100
AcDbLine
 10
24.68095682551571
 20
4.16177343811654
 30
0.0
 11
24.68104160408567
 21
3.863497303882642
 31
0.0
  0
LINE
  5
21DAF
330
1F
100
AcDbEntity
  8
0
100
AcDbLine
 10
24.64730758747365
 20
5.318869267820868
 30
0.0
 11
24.64730531676232
 21
5.326858303242016
 31
0.0
  0
LINE
  5
21DB0
330
1F
100
AcDbEntity
  8
0
100
AcDbLine
 10
24.68062721325396
 20
5.321447059488463
 30
0.0
 11
24.68062794324393
 21
5.318878738414685
 31
0.0
  0
LINE
  5
21DB1
330
1F
100
AcDbEntity
  8
0
100
AcDbLine
 10
24.68062794324393
 20
5.318878738414685
 30
0.0
 11
24.68095682551571
 21
4.16177343811654
 31
0.0
  0
LINE
  5
21DB2
330
1F
100
AcDbEntity
  8
0
100
AcDbLine
 10
24.64772154745448
 20
3.862435373318906
 30
0.0
 11
24.64763646974543
 21
4.161763967522723
 31
0.0
  0
LINE
  5
21DB3
330
1F
100
AcDbEntity
  8
0
100
AcDbLine
 10
24.64763646974543
 20
4.161763967522723
 30
0.0
 11
24.64730758747365
 21
5.318869267820868
 31
0.0
  0
LINE
  5
21DB4
330
1F
100
AcDbEntity
  8
0
100
AcDbLine
 10
24.68729620210352
 20
4.163339467662051
 30
0.0
 11
24.68738142527149
 21
3.863499105840332
 31
0.0
  0
LINE
  5
21DB5
330
1F
100
AcDbEntity
  8
0
100
AcDbLine
 10
24.6412962039616
 20
4.163326393152853
 30
0.0
 11
24.64137601426423
 21
3.882530095751537
 31
0.0
  0
LINE
  5
21DB6
330
1F
100
AcDbEntity
  8
0
100
AcDbLine
 10
24.64096626593717
 20
5.324146144110635
 30
0.0
 11
24.64129564178025
 21
4.165304313736182
 31
0.0
  0
LINE
  5
21DB7
330
1F
100
AcDbEntity
  8
0
100
AcDbLine
 10
24.6869662640791
 20
5.324159218619833
 30
0.0
 11
24.68729620210352
 21
4.163339467662051
 31
0.0
  0
LINE
  5
21DB8
330
1F
100
AcDbEntity
  8
0
100
AcDbLine
 10
24.67846325123746
 20
5.481597001099885
 30
0.0
 11
24.67850729266006
 21
5.326646224232259
 31
0.0
  0
LINE
  5
21DB9
330
1F
100
AcDbEntity
  8
0
100
AcDbLine
 10
24.6493797808114
 20
5.481588734749514
 30
0.0
 11
24.64942292382393
 21
5.329798830737392
 31
0.0
  0
LINE
  5
21DBA
330
1F
100
AcDbEntity
  8
0
100
AcDbLine
 10
24.98280309311874
 20
6.637919702378759
 30
0.0
 11
24.98280309311874
 21
6.648919702378766
 31
0.0
  0
LINE
  5
21DBB
330
1F
100
AcDbEntity
  8
0
100
AcDbLine
 10
25.50818558468667
 20
6.637919702378759
 30
0.0
 11
25.50818558468667
 21
6.648919702378748
 31
0.0
  0
LINE
  5
21DBC
330
1F
100
AcDbEntity
  8
0
100
AcDbLine
 10
24.95246687777708
 20
6.648919702378758
 30
0.0
 11
24.94543277336418
 21
6.64755673543032
 31
0.0
  0
LINE
  5
21DBD
330
1F
100
AcDbEntity
  8
0
100
AcDbLine
 10
24.94543277336418
 20
6.64755673543032
 30
0.0
 11
24.93887803154262
 21
6.643560718530142
 31
0.0
  0
LINE
  5
21DBE
330
1F
100
AcDbEntity
  8
0
100
AcDbLine
 10
24.97105065461403
 20
6.637919702378759
 30
0.0
 11
24.96605572401155
 21
6.643560718530142
 31
0.0
  0
LINE
  5
21DBF
330
1F
100
AcDbEntity
  8
0
100
AcDbLine
 10
24.96605572401155
 20
6.643560718530142
 30
0.0
 11
24.95950098218998
 21
6.64755673543032
 31
0.0
  0
LINE
  5
21DC0
330
1F
100
AcDbEntity
  8
0
100
AcDbLine
 10
24.95950098218998
 20
6.64755673543032
 30
0.0
 11
24.95246687777708
 21
6.648919702378758
 31
0.0
  0
LINE
  5
21DC1
330
1F
100
AcDbEntity
  8
0
100
AcDbLine
 10
24.93887803154262
 20
6.643560718530142
 30
0.0
 11
24.93388310094014
 21
6.637919702378759
 31
0.0
  0
LINE
  5
21DC2
330
1F
100
AcDbEntity
  8
0
100
AcDbLine
 10
24.92528918530814
 20
6.637919702378759
 30
0.0
 11
24.92528918530814
 21
6.648919702378758
 31
0.0
  0
LINE
  5
21DC3
330
1F
100
AcDbEntity
  8
0
100
AcDbLine
 10
24.97964457024603
 20
6.637919702378759
 30
0.0
 11
24.97964457024603
 21
6.648919702378758
 31
0.0
  0
LINE
  5
21DC4
330
1F
100
AcDbEntity
  8
0
100
AcDbLine
 10
24.35561489931453
 20
6.637919702378759
 30
0.0
 11
24.35561489931453
 21
6.648919702378741
 31
0.0
  0
LINE
  5
21DC5
330
1F
100
AcDbEntity
  8
0
100
AcDbLine
 10
24.93257978664066
 20
5.497919702378759
 30
0.0
 11
24.9332493471353
 21
5.496635431131295
 31
0.0
  0
LINE
  5
21DC6
330
1F
100
AcDbEntity
  8
0
100
AcDbLine
 10
24.9332493471353
 20
5.496635431131295
 30
0.0
 11
24.93887803154262
 21
5.490278686227384
 31
0.0
  0
LINE
  5
21DC7
330
1F
100
AcDbEntity
  8
0
100
AcDbLine
 10
24.93887803154262
 20
5.490278686227384
 30
0.0
 11
24.94543277336418
 21
5.486282669327195
 31
0.0
  0
LINE
  5
21DC8
330
1F
100
AcDbEntity
  8
0
100
AcDbLine
 10
24.94543277336418
 20
5.486282669327195
 30
0.0
 11
24.95246687777708
 21
5.484919702378757
 31
0.0
  0
LINE
  5
21DC9
330
1F
100
AcDbEntity
  8
0
100
AcDbLine
 10
24.95246687777708
 20
5.484919702378757
 30
0.0
 11
24.95950098218998
 21
5.486282669327195
 31
0.0
  0
LINE
  5
21DCA
330
1F
100
AcDbEntity
  8
0
100
AcDbLine
 10
24.95950098218998
 20
5.486282669327195
 30
0.0
 11
24.96605572401155
 21
5.490278686227384
 31
0.0
  0
LINE
  5
21DCB
330
1F
100
AcDbEntity
  8
0
100
AcDbLine
 10
24.96605572401155
 20
5.490278686227384
 30
0.0
 11
24.97168440841887
 21
5.496635431131295
 31
0.0
  0
LINE
  5
21DCC
330
1F
100
AcDbEntity
  8
0
100
AcDbLine
 10
24.97168440841887
 20
5.496635431131295
 30
0.0
 11
24.9723539689135
 21
5.497919702378759
 31
0.0
  0
LINE
  5
21DCD
330
1F
100
AcDbEntity
  8
0
100
AcDbLine
 10
24.92528918530815
 20
5.497919702378759
 30
0.0
 11
24.92528918530815
 21
5.484919702378757
 31
0.0
  0
LINE
  5
21DCE
330
1F
100
AcDbEntity
  8
0
100
AcDbLine
 10
24.97964457024603
 20
5.484919702378757
 30
0.0
 11
24.97964457024603
 21
5.497919702378759
 31
0.0
  0
LINE
  5
21DCF
330
1F
100
AcDbEntity
  8
0
100
AcDbLine
 10
24.35561489931452
 20
5.497919702378759
 30
0.0
 11
24.35561489931452
 21
5.484919702378707
 31
0.0
  0
LINE
  5
21DD0
330
1F
100
AcDbEntity
  8
0
100
AcDbLine
 10
24.95106294283568
 20
5.497919702378759
 30
0.0
 11
24.95106294283568
 21
6.637919702378759
 31
0.0
  0
LINE
  5
21DD1
330
1F
100
AcDbEntity
  8
0
100
AcDbLine
 10
24.92984973940008
 20
5.497919702378759
 30
0.0
 11
24.92984973940008
 21
6.637919702378759
 31
0.0
  0
LINE
  5
21DD2
330
1F
100
AcDbEntity
  8
0
100
AcDbLine
 10
24.88984287083008
 20
5.567520152578868
 30
0.0
 11
24.89350312486792
 21
5.566838669104647
 31
0.0
  0
LINE
  5
21DD3
330
1F
100
AcDbEntity
  8
0
100
AcDbLine
 10
24.89350312486792
 20
5.566838669104647
 30
0.0
 11
24.89691393864194
 21
5.564840660654557
 31
0.0
  0
LINE
  5
21DD4
330
1F
100
AcDbEntity
  8
0
100
AcDbLine
 10
24.89691393864194
 20
5.564840660654557
 30
0.0
 11
24.89984287083008
 21
5.561662288202597
 31
0.0
  0
LINE
  5
21DD5
330
1F
100
AcDbEntity
  8
0
100
AcDbLine
 10
24.89984287083008
 20
5.561662288202597
 30
0.0
 11
24.902090319544
 21
5.557520152578867
 31
0.0
  0
LINE
  5
21DD6
330
1F
100
AcDbEntity
  8
0
100
AcDbLine
 10
24.902090319544
 20
5.557520152578867
 30
0.0
 11
24.90350312486792
 21
5.552696533480919
 31
0.0
  0
LINE
  5
21DD7
330
1F
100
AcDbEntity
  8
0
100
AcDbLine
 10
24.90350312486792
 20
5.552696533480919
 30
0.0
 11
24.90398500645381
 21
5.547520152578869
 31
0.0
  0
LINE
  5
21DD8
330
1F
100
AcDbEntity
  8
0
100
AcDbLine
 10
24.90398500645381
 20
5.547520152578869
 30
0.0
 11
24.90350312486792
 21
5.542343771676819
 31
0.0
  0
LINE
  5
21DD9
330
1F
100
AcDbEntity
  8
0
100
AcDbLine
 10
24.90350312486792
 20
5.542343771676819
 30
0.0
 11
24.902090319544
 21
5.537520152578867
 31
0.0
  0
LINE
  5
21DDA
330
1F
100
AcDbEntity
  8
0
100
AcDbLine
 10
24.902090319544
 20
5.537520152578867
 30
0.0
 11
24.89984287083008
 21
5.533378016955136
 31
0.0
  0
LINE
  5
21DDB
330
1F
100
AcDbEntity
  8
0
100
AcDbLine
 10
24.89984287083008
 20
5.533378016955136
 30
0.0
 11
24.89691393864194
 21
5.530199644503177
 31
0.0
  0
LINE
  5
21DDC
330
1F
100
AcDbEntity
  8
0
100
AcDbLine
 10
24.89691393864194
 20
5.530199644503177
 30
0.0
 11
24.89350312486792
 21
5.528201636053086
 31
0.0
  0
LINE
  5
21DDD
330
1F
100
AcDbEntity
  8
0
100
AcDbLine
 10
24.89350312486792
 20
5.528201636053086
 30
0.0
 11
24.88984287083008
 21
5.527520152578869
 31
0.0
  0
LINE
  5
21DDE
330
1F
100
AcDbEntity
  8
0
100
AcDbLine
 10
24.36163591571358
 20
5.569475947331088
 30
0.0
 11
24.36529616975142
 21
5.568794463856868
 31
0.0
  0
LINE
  5
21DDF
330
1F
100
AcDbEntity
  8
0
100
AcDbLine
 10
24.37163591571358
 20
5.563618082954818
 30
0.0
 11
24.37388336442749
 21
5.559475947331087
 31
0.0
  0
LINE
  5
21DE0
330
1F
100
AcDbEntity
  8
0
100
AcDbLine
 10
24.36529616975142
 20
5.530157430805306
 30
0.0
 11
24.36163591571358
 21
5.529475947331089
 31
0.0
  0
LINE
  5
21DE1
330
1F
100
AcDbEntity
  8
0
100
AcDbLine
 10
24.36529616975142
 20
5.568794463856868
 30
0.0
 11
24.36870698352544
 21
5.566796455406777
 31
0.0
  0
LINE
  5
21DE2
330
1F
100
AcDbEntity
  8
0
100
AcDbLine
 10
24.36870698352544
 20
5.566796455406777
 30
0.0
 11
24.37163591571358
 21
5.563618082954818
 31
0.0
  0
LINE
  5
21DE3
330
1F
100
AcDbEntity
  8
0
100
AcDbLine
 10
24.37388336442749
 20
5.559475947331087
 30
0.0
 11
24.37529616975143
 21
5.554652328233139
 31
0.0
  0
LINE
  5
21DE4
330
1F
100
AcDbEntity
  8
0
100
AcDbLine
 10
24.37529616975143
 20
5.554652328233139
 30
0.0
 11
24.37577805133731
 21
5.549475947331089
 31
0.0
  0
LINE
  5
21DE5
330
1F
100
AcDbEntity
  8
0
100
AcDbLine
 10
24.37577805133731
 20
5.549475947331089
 30
0.0
 11
24.37529616975143
 21
5.544299566429039
 31
0.0
  0
LINE
  5
21DE6
330
1F
100
AcDbEntity
  8
0
100
AcDbLine
 10
24.37529616975143
 20
5.544299566429039
 30
0.0
 11
24.37388336442749
 21
5.539475947331087
 31
0.0
  0
LINE
  5
21DE7
330
1F
100
AcDbEntity
  8
0
100
AcDbLine
 10
24.37388336442749
 20
5.539475947331087
 30
0.0
 11
24.37163591571358
 21
5.535333811707356
 31
0.0
  0
LINE
  5
21DE8
330
1F
100
AcDbEntity
  8
0
100
AcDbLine
 10
24.37163591571358
 20
5.535333811707356
 30
0.0
 11
24.36870698352544
 21
5.532155439255397
 31
0.0
  0
LINE
  5
21DE9
330
1F
100
AcDbEntity
  8
0
100
AcDbLine
 10
24.36870698352544
 20
5.532155439255397
 30
0.0
 11
24.36529616975142
 21
5.530157430805306
 31
0.0
  0
LINE
  5
21DEA
330
1F
100
AcDbEntity
  8
0
100
AcDbLine
 10
24.36163591571358
 20
6.593475947331086
 30
0.0
 11
24.36529616975142
 21
6.592794463856868
 31
0.0
  0
LINE
  5
21DEB
330
1F
100
AcDbEntity
  8
0
100
AcDbLine
 10
24.36529616975142
 20
6.592794463856868
 30
0.0
 11
24.36870698352544
 21
6.590796455406778
 31
0.0
  0
LINE
  5
21DEC
330
1F
100
AcDbEntity
  8
0
100
AcDbLine
 10
24.36870698352544
 20
6.590796455406778
 30
0.0
 11
24.37163591571358
 21
6.587618082954818
 31
0.0
  0
LINE
  5
21DED
330
1F
100
AcDbEntity
  8
0
100
AcDbLine
 10
24.37163591571358
 20
6.587618082954818
 30
0.0
 11
24.37388336442749
 21
6.583475947331088
 31
0.0
  0
LINE
  5
21DEE
330
1F
100
AcDbEntity
  8
0
100
AcDbLine
 10
24.37388336442749
 20
6.583475947331088
 30
0.0
 11
24.37529616975143
 21
6.578652328233136
 31
0.0
  0
LINE
  5
21DEF
330
1F
100
AcDbEntity
  8
0
100
AcDbLine
 10
24.37529616975143
 20
6.578652328233136
 30
0.0
 11
24.37577805133731
 21
6.573475947331086
 31
0.0
  0
LINE
  5
21DF0
330
1F
100
AcDbEntity
  8
0
100
AcDbLine
 10
24.37577805133731
 20
6.573475947331086
 30
0.0
 11
24.37529616975143
 21
6.568299566429036
 31
0.0
  0
LINE
  5
21DF1
330
1F
100
AcDbEntity
  8
0
100
AcDbLine
 10
24.37529616975143
 20
6.568299566429036
 30
0.0
 11
24.37388336442749
 21
6.563475947331088
 31
0.0
  0
LINE
  5
21DF2
330
1F
100
AcDbEntity
  8
0
100
AcDbLine
 10
24.37388336442749
 20
6.563475947331088
 30
0.0
 11
24.37163591571358
 21
6.559333811707357
 31
0.0
  0
LINE
  5
21DF3
330
1F
100
AcDbEntity
  8
0
100
AcDbLine
 10
24.37163591571358
 20
6.559333811707357
 30
0.0
 11
24.36870698352544
 21
6.556155439255398
 31
0.0
  0
LINE
  5
21DF4
330
1F
100
AcDbEntity
  8
0
100
AcDbLine
 10
24.36870698352544
 20
6.556155439255398
 30
0.0
 11
24.36529616975142
 21
6.554157430805307
 31
0.0
  0
LINE
  5
21DF5
330
1F
100
AcDbEntity
  8
0
100
AcDbLine
 10
24.36529616975142
 20
6.554157430805307
 30
0.0
 11
24.36163591571358
 21
6.553475947331087
 31
0.0
  0
LINE
  5
21DF6
330
1F
100
AcDbEntity
  8
0
100
AcDbLine
 10
24.88984287083008
 20
6.605520152578868
 30
0.0
 11
24.89350312486792
 21
6.604838669104651
 31
0.0
  0
LINE
  5
21DF7
330
1F
100
AcDbEntity
  8
0
100
AcDbLine
 10
24.89350312486792
 20
6.604838669104651
 30
0.0
 11
24.89691393864194
 21
6.602840660654557
 31
0.0
  0
LINE
  5
21DF8
330
1F
100
AcDbEntity
  8
0
100
AcDbLine
 10
24.89691393864194
 20
6.602840660654557
 30
0.0
 11
24.89984287083008
 21
6.599662288202601
 31
0.0
  0
LINE
  5
21DF9
330
1F
100
AcDbEntity
  8
0
100
AcDbLine
 10
24.89984287083008
 20
6.599662288202601
 30
0.0
 11
24.902090319544
 21
6.59552015257887
 31
0.0
  0
LINE
  5
21DFA
330
1F
100
AcDbEntity
  8
0
100
AcDbLine
 10
24.902090319544
 20
6.59552015257887
 30
0.0
 11
24.90350312486792
 21
6.590696533480919
 31
0.0
  0
LINE
  5
21DFB
330
1F
100
AcDbEntity
  8
0
100
AcDbLine
 10
24.90350312486792
 20
6.590696533480919
 30
0.0
 11
24.90398500645381
 21
6.585520152578869
 31
0.0
  0
LINE
  5
21DFC
330
1F
100
AcDbEntity
  8
0
100
AcDbLine
 10
24.90398500645381
 20
6.585520152578869
 30
0.0
 11
24.90350312486792
 21
6.580343771676819
 31
0.0
  0
LINE
  5
21DFD
330
1F
100
AcDbEntity
  8
0
100
AcDbLine
 10
24.90350312486792
 20
6.580343771676819
 30
0.0
 11
24.902090319544
 21
6.575520152578867
 31
0.0
  0
LINE
  5
21DFE
330
1F
100
AcDbEntity
  8
0
100
AcDbLine
 10
24.902090319544
 20
6.575520152578867
 30
0.0
 11
24.89984287083008
 21
6.571378016955137
 31
0.0
  0
LINE
  5
21DFF
330
1F
100
AcDbEntity
  8
0
100
AcDbLine
 10
24.89984287083008
 20
6.571378016955137
 30
0.0
 11
24.89691393864194
 21
6.568199644503181
 31
0.0
  0
LINE
  5
21E00
330
1F
100
AcDbEntity
  8
0
100
AcDbLine
 10
24.89691393864194
 20
6.568199644503181
 30
0.0
 11
24.89350312486792
 21
6.566201636053087
 31
0.0
  0
LINE
  5
21E01
330
1F
100
AcDbEntity
  8
0
100
AcDbLine
 10
24.89350312486792
 20
6.566201636053087
 30
0.0
 11
24.88984287083008
 21
6.565520152578869
 31
0.0
  0
LINE
  5
21E02
330
1F
100
AcDbEntity
  8
0
100
AcDbLine
 10
24.88277180301821
 20
6.605520152578868
 30
0.0
 11
24.88643205705606
 21
6.604838669104651
 31
0.0
  0
LINE
  5
21E03
330
1F
100
AcDbEntity
  8
0
100
AcDbLine
 10
24.88643205705606
 20
6.604838669104651
 30
0.0
 11
24.88984287083007
 21
6.602840660654557
 31
0.0
  0
LINE
  5
21E04
330
1F
100
AcDbEntity
  8
0
100
AcDbLine
 10
24.88984287083007
 20
6.602840660654557
 30
0.0
 11
24.89277180301821
 21
6.599662288202601
 31
0.0
  0
LINE
  5
21E05
330
1F
100
AcDbEntity
  8
0
100
AcDbLine
 10
24.89277180301821
 20
6.599662288202601
 30
0.0
 11
24.89501925173213
 21
6.59552015257887
 31
0.0
  0
LINE
  5
21E06
330
1F
100
AcDbEntity
  8
0
100
AcDbLine
 10
24.89501925173213
 20
6.59552015257887
 30
0.0
 11
24.89643205705606
 21
6.590696533480919
 31
0.0
  0
LINE
  5
21E07
330
1F
100
AcDbEntity
  8
0
100
AcDbLine
 10
24.89643205705606
 20
6.590696533480919
 30
0.0
 11
24.89691393864195
 21
6.585520152578869
 31
0.0
  0
LINE
  5
21E08
330
1F
100
AcDbEntity
  8
0
100
AcDbLine
 10
24.89691393864195
 20
6.585520152578869
 30
0.0
 11
24.89643205705606
 21
6.580343771676819
 31
0.0
  0
LINE
  5
21E09
330
1F
100
AcDbEntity
  8
0
100
AcDbLine
 10
24.89643205705606
 20
6.580343771676819
 30
0.0
 11
24.89501925173213
 21
6.575520152578867
 31
0.0
  0
LINE
  5
21E0A
330
1F
100
AcDbEntity
  8
0
100
AcDbLine
 10
24.89501925173213
 20
6.575520152578867
 30
0.0
 11
24.89277180301821
 21
6.571378016955137
 31
0.0
  0
LINE
  5
21E0B
330
1F
100
AcDbEntity
  8
0
100
AcDbLine
 10
24.89277180301821
 20
6.571378016955137
 30
0.0
 11
24.88984287083007
 21
6.568199644503181
 31
0.0
  0
LINE
  5
21E0C
330
1F
100
AcDbEntity
  8
0
100
AcDbLine
 10
24.88984287083007
 20
6.568199644503181
 30
0.0
 11
24.88643205705606
 21
6.566201636053087
 31
0.0
  0
LINE
  5
21E0D
330
1F
100
AcDbEntity
  8
0
100
AcDbLine
 10
24.88643205705606
 20
6.566201636053087
 30
0.0
 11
24.88277180301821
 21
6.565520152578869
 31
0.0
  0
LINE
  5
21E0E
330
1F
100
AcDbEntity
  8
0
100
AcDbLine
 10
24.88277180301821
 20
6.565520152578869
 30
0.0
 11
24.87911154898037
 21
6.566201636053087
 31
0.0
  0
LINE
  5
21E0F
330
1F
100
AcDbEntity
  8
0
100
AcDbLine
 10
24.87911154898037
 20
6.566201636053087
 30
0.0
 11
24.87570073520635
 21
6.568199644503181
 31
0.0
  0
LINE
  5
21E10
330
1F
100
AcDbEntity
  8
0
100
AcDbLine
 10
24.87570073520635
 20
6.568199644503181
 30
0.0
 11
24.87277180301822
 21
6.571378016955137
 31
0.0
  0
LINE
  5
21E11
330
1F
100
AcDbEntity
  8
0
100
AcDbLine
 10
24.87277180301822
 20
6.571378016955137
 30
0.0
 11
24.8705243543043
 21
6.575520152578867
 31
0.0
  0
LINE
  5
21E12
330
1F
100
AcDbEntity
  8
0
100
AcDbLine
 10
24.8705243543043
 20
6.575520152578867
 30
0.0
 11
24.86911154898037
 21
6.580343771676819
 31
0.0
  0
LINE
  5
21E13
330
1F
100
AcDbEntity
  8
0
100
AcDbLine
 10
24.86911154898037
 20
6.580343771676819
 30
0.0
 11
24.86862966739448
 21
6.585520152578869
 31
0.0
  0
LINE
  5
21E14
330
1F
100
AcDbEntity
  8
0
100
AcDbLine
 10
24.86862966739448
 20
6.585520152578869
 30
0.0
 11
24.86911154898037
 21
6.590696533480919
 31
0.0
  0
LINE
  5
21E15
330
1F
100
AcDbEntity
  8
0
100
AcDbLine
 10
24.86911154898037
 20
6.590696533480919
 30
0.0
 11
24.8705243543043
 21
6.595520152578867
 31
0.0
  0
LINE
  5
21E16
330
1F
100
AcDbEntity
  8
0
100
AcDbLine
 10
24.8705243543043
 20
6.595520152578867
 30
0.0
 11
24.87277180301821
 21
6.599662288202601
 31
0.0
  0
LINE
  5
21E17
330
1F
100
AcDbEntity
  8
0
100
AcDbLine
 10
24.87277180301821
 20
6.599662288202601
 30
0.0
 11
24.87570073520635
 21
6.602840660654557
 31
0.0
  0
LINE
  5
21E18
330
1F
100
AcDbEntity
  8
0
100
AcDbLine
 10
24.87570073520635
 20
6.602840660654557
 30
0.0
 11
24.87911154898037
 21
6.604838669104651
 31
0.0
  0
LINE
  5
21E19
330
1F
100
AcDbEntity
  8
0
100
AcDbLine
 10
24.87911154898037
 20
6.604838669104651
 30
0.0
 11
24.88277180301821
 21
6.605520152578868
 31
0.0
  0
LINE
  5
21E1A
330
1F
100
AcDbEntity
  8
0
100
AcDbLine
 10
24.88984287083008
 20
6.605520152578868
 30
0.0
 11
24.88277180301821
 21
6.605520152578868
 31
0.0
  0
LINE
  5
21E1B
330
1F
100
AcDbEntity
  8
0
100
AcDbLine
 10
24.88984287083008
 20
6.565520152578869
 30
0.0
 11
24.88277180301821
 21
6.565520152578869
 31
0.0
  0
LINE
  5
21E1C
330
1F
100
AcDbEntity
  8
0
100
AcDbLine
 10
24.88277180301821
 20
5.567520152578868
 30
0.0
 11
24.88643205705606
 21
5.566838669104647
 31
0.0
  0
LINE
  5
21E1D
330
1F
100
AcDbEntity
  8
0
100
AcDbLine
 10
24.88643205705606
 20
5.566838669104647
 30
0.0
 11
24.88984287083008
 21
5.564840660654557
 31
0.0
  0
LINE
  5
21E1E
330
1F
100
AcDbEntity
  8
0
100
AcDbLine
 10
24.88984287083008
 20
5.564840660654557
 30
0.0
 11
24.89277180301821
 21
5.561662288202597
 31
0.0
  0
LINE
  5
21E1F
330
1F
100
AcDbEntity
  8
0
100
AcDbLine
 10
24.89277180301821
 20
5.561662288202597
 30
0.0
 11
24.89501925173213
 21
5.557520152578867
 31
0.0
  0
LINE
  5
21E20
330
1F
100
AcDbEntity
  8
0
100
AcDbLine
 10
24.89501925173213
 20
5.557520152578867
 30
0.0
 11
24.89643205705606
 21
5.552696533480919
 31
0.0
  0
LINE
  5
21E21
330
1F
100
AcDbEntity
  8
0
100
AcDbLine
 10
24.89643205705606
 20
5.552696533480919
 30
0.0
 11
24.89691393864195
 21
5.547520152578869
 31
0.0
  0
LINE
  5
21E22
330
1F
100
AcDbEntity
  8
0
100
AcDbLine
 10
24.89691393864195
 20
5.547520152578869
 30
0.0
 11
24.89643205705606
 21
5.542343771676819
 31
0.0
  0
LINE
  5
21E23
330
1F
100
AcDbEntity
  8
0
100
AcDbLine
 10
24.89643205705606
 20
5.542343771676819
 30
0.0
 11
24.89501925173213
 21
5.537520152578867
 31
0.0
  0
LINE
  5
21E24
330
1F
100
AcDbEntity
  8
0
100
AcDbLine
 10
24.89501925173213
 20
5.537520152578867
 30
0.0
 11
24.89277180301821
 21
5.533378016955136
 31
0.0
  0
LINE
  5
21E25
330
1F
100
AcDbEntity
  8
0
100
AcDbLine
 10
24.89277180301821
 20
5.533378016955136
 30
0.0
 11
24.88984287083008
 21
5.530199644503177
 31
0.0
  0
LINE
  5
21E26
330
1F
100
AcDbEntity
  8
0
100
AcDbLine
 10
24.88984287083008
 20
5.530199644503177
 30
0.0
 11
24.88643205705606
 21
5.528201636053086
 31
0.0
  0
LINE
  5
21E27
330
1F
100
AcDbEntity
  8
0
100
AcDbLine
 10
24.88643205705606
 20
5.528201636053086
 30
0.0
 11
24.88277180301821
 21
5.527520152578869
 31
0.0
  0
LINE
  5
21E28
330
1F
100
AcDbEntity
  8
0
100
AcDbLine
 10
24.88277180301821
 20
5.527520152578869
 30
0.0
 11
24.87911154898037
 21
5.528201636053086
 31
0.0
  0
LINE
  5
21E29
330
1F
100
AcDbEntity
  8
0
100
AcDbLine
 10
24.87911154898037
 20
5.528201636053086
 30
0.0
 11
24.87570073520635
 21
5.530199644503177
 31
0.0
  0
LINE
  5
21E2A
330
1F
100
AcDbEntity
  8
0
100
AcDbLine
 10
24.87570073520635
 20
5.530199644503177
 30
0.0
 11
24.87277180301822
 21
5.533378016955136
 31
0.0
  0
LINE
  5
21E2B
330
1F
100
AcDbEntity
  8
0
100
AcDbLine
 10
24.87277180301822
 20
5.533378016955136
 30
0.0
 11
24.8705243543043
 21
5.537520152578867
 31
0.0
  0
LINE
  5
21E2C
330
1F
100
AcDbEntity
  8
0
100
AcDbLine
 10
24.8705243543043
 20
5.537520152578867
 30
0.0
 11
24.86911154898037
 21
5.542343771676819
 31
0.0
  0
LINE
  5
21E2D
330
1F
100
AcDbEntity
  8
0
100
AcDbLine
 10
24.86911154898037
 20
5.542343771676819
 30
0.0
 11
24.86862966739448
 21
5.547520152578869
 31
0.0
  0
LINE
  5
21E2E
330
1F
100
AcDbEntity
  8
0
100
AcDbLine
 10
24.86862966739448
 20
5.547520152578869
 30
0.0
 11
24.86911154898037
 21
5.552696533480919
 31
0.0
  0
LINE
  5
21E2F
330
1F
100
AcDbEntity
  8
0
100
AcDbLine
 10
24.86911154898037
 20
5.552696533480919
 30
0.0
 11
24.8705243543043
 21
5.557520152578867
 31
0.0
  0
LINE
  5
21E30
330
1F
100
AcDbEntity
  8
0
100
AcDbLine
 10
24.8705243543043
 20
5.557520152578867
 30
0.0
 11
24.87277180301821
 21
5.561662288202597
 31
0.0
  0
LINE
  5
21E31
330
1F
100
AcDbEntity
  8
0
100
AcDbLine
 10
24.87277180301821
 20
5.561662288202597
 30
0.0
 11
24.87570073520635
 21
5.564840660654557
 31
0.0
  0
LINE
  5
21E32
330
1F
100
AcDbEntity
  8
0
100
AcDbLine
 10
24.87570073520635
 20
5.564840660654557
 30
0.0
 11
24.87911154898037
 21
5.566838669104647
 31
0.0
  0
LINE
  5
21E33
330
1F
100
AcDbEntity
  8
0
100
AcDbLine
 10
24.87911154898037
 20
5.566838669104647
 30
0.0
 11
24.88277180301821
 21
5.567520152578868
 31
0.0
  0
LINE
  5
21E34
330
1F
100
AcDbEntity
  8
0
100
AcDbLine
 10
24.88984287083008
 20
5.567520152578868
 30
0.0
 11
24.88277180301821
 21
5.567520152578868
 31
0.0
  0
LINE
  5
21E35
330
1F
100
AcDbEntity
  8
0
100
AcDbLine
 10
24.88984287083008
 20
5.527520152578869
 30
0.0
 11
24.88277180301821
 21
5.527520152578869
 31
0.0
  0
LINE
  5
21E36
330
1F
100
AcDbEntity
  8
0
100
AcDbLine
 10
24.35456484790171
 20
5.569475947331088
 30
0.0
 11
24.35822510193956
 21
5.568794463856868
 31
0.0
  0
LINE
  5
21E37
330
1F
100
AcDbEntity
  8
0
100
AcDbLine
 10
24.35822510193956
 20
5.568794463856868
 30
0.0
 11
24.36163591571358
 21
5.566796455406777
 31
0.0
  0
LINE
  5
21E38
330
1F
100
AcDbEntity
  8
0
100
AcDbLine
 10
24.36163591571358
 20
5.566796455406777
 30
0.0
 11
24.36456484790171
 21
5.563618082954818
 31
0.0
  0
LINE
  5
21E39
330
1F
100
AcDbEntity
  8
0
100
AcDbLine
 10
24.36456484790171
 20
5.563618082954818
 30
0.0
 11
24.36681229661563
 21
5.559475947331087
 31
0.0
  0
LINE
  5
21E3A
330
1F
100
AcDbEntity
  8
0
100
AcDbLine
 10
24.36681229661563
 20
5.559475947331087
 30
0.0
 11
24.36822510193956
 21
5.554652328233139
 31
0.0
  0
LINE
  5
21E3B
330
1F
100
AcDbEntity
  8
0
100
AcDbLine
 10
24.36822510193956
 20
5.554652328233139
 30
0.0
 11
24.36870698352544
 21
5.549475947331089
 31
0.0
  0
LINE
  5
21E3C
330
1F
100
AcDbEntity
  8
0
100
AcDbLine
 10
24.36870698352544
 20
5.549475947331089
 30
0.0
 11
24.36822510193956
 21
5.544299566429039
 31
0.0
  0
LINE
  5
21E3D
330
1F
100
AcDbEntity
  8
0
100
AcDbLine
 10
24.36822510193956
 20
5.544299566429039
 30
0.0
 11
24.36681229661563
 21
5.539475947331087
 31
0.0
  0
LINE
  5
21E3E
330
1F
100
AcDbEntity
  8
0
100
AcDbLine
 10
24.36681229661563
 20
5.539475947331087
 30
0.0
 11
24.36456484790171
 21
5.535333811707356
 31
0.0
  0
LINE
  5
21E3F
330
1F
100
AcDbEntity
  8
0
100
AcDbLine
 10
24.36456484790171
 20
5.535333811707356
 30
0.0
 11
24.36163591571358
 21
5.532155439255397
 31
0.0
  0
LINE
  5
21E40
330
1F
100
AcDbEntity
  8
0
100
AcDbLine
 10
24.36163591571358
 20
5.532155439255397
 30
0.0
 11
24.35822510193956
 21
5.530157430805306
 31
0.0
  0
LINE
  5
21E41
330
1F
100
AcDbEntity
  8
0
100
AcDbLine
 10
24.35822510193956
 20
5.530157430805306
 30
0.0
 11
24.35456484790171
 21
5.529475947331089
 31
0.0
  0
LINE
  5
21E42
330
1F
100
AcDbEntity
  8
0
100
AcDbLine
 10
24.35456484790171
 20
5.529475947331089
 30
0.0
 11
24.35090459386387
 21
5.530157430805306
 31
0.0
  0
LINE
  5
21E43
330
1F
100
AcDbEntity
  8
0
100
AcDbLine
 10
24.35090459386387
 20
5.530157430805306
 30
0.0
 11
24.34749378008985
 21
5.532155439255397
 31
0.0
  0
LINE
  5
21E44
330
1F
100
AcDbEntity
  8
0
100
AcDbLine
 10
24.34749378008985
 20
5.532155439255397
 30
0.0
 11
24.34456484790171
 21
5.535333811707356
 31
0.0
  0
LINE
  5
21E45
330
1F
100
AcDbEntity
  8
0
100
AcDbLine
 10
24.34456484790171
 20
5.535333811707356
 30
0.0
 11
24.3423173991878
 21
5.539475947331087
 31
0.0
  0
LINE
  5
21E46
330
1F
100
AcDbEntity
  8
0
100
AcDbLine
 10
24.3423173991878
 20
5.539475947331087
 30
0.0
 11
24.34090459386387
 21
5.544299566429039
 31
0.0
  0
LINE
  5
21E47
330
1F
100
AcDbEntity
  8
0
100
AcDbLine
 10
24.34090459386387
 20
5.544299566429039
 30
0.0
 11
24.34042271227798
 21
5.549475947331089
 31
0.0
  0
LINE
  5
21E48
330
1F
100
AcDbEntity
  8
0
100
AcDbLine
 10
24.34042271227798
 20
5.549475947331089
 30
0.0
 11
24.34090459386387
 21
5.554652328233139
 31
0.0
  0
LINE
  5
21E49
330
1F
100
AcDbEntity
  8
0
100
AcDbLine
 10
24.34090459386387
 20
5.554652328233139
 30
0.0
 11
24.3423173991878
 21
5.559475947331087
 31
0.0
  0
LINE
  5
21E4A
330
1F
100
AcDbEntity
  8
0
100
AcDbLine
 10
24.3423173991878
 20
5.559475947331087
 30
0.0
 11
24.34456484790171
 21
5.563618082954818
 31
0.0
  0
LINE
  5
21E4B
330
1F
100
AcDbEntity
  8
0
100
AcDbLine
 10
24.34456484790171
 20
5.563618082954818
 30
0.0
 11
24.34749378008985
 21
5.566796455406777
 31
0.0
  0
LINE
  5
21E4C
330
1F
100
AcDbEntity
  8
0
100
AcDbLine
 10
24.34749378008985
 20
5.566796455406777
 30
0.0
 11
24.35090459386387
 21
5.568794463856868
 31
0.0
  0
LINE
  5
21E4D
330
1F
100
AcDbEntity
  8
0
100
AcDbLine
 10
24.35090459386387
 20
5.568794463856868
 30
0.0
 11
24.35456484790171
 21
5.569475947331088
 31
0.0
  0
LINE
  5
21E4E
330
1F
100
AcDbEntity
  8
0
100
AcDbLine
 10
24.36163591571358
 20
5.569475947331088
 30
0.0
 11
24.35456484790171
 21
5.569475947331088
 31
0.0
  0
LINE
  5
21E4F
330
1F
100
AcDbEntity
  8
0
100
AcDbLine
 10
24.36163591571358
 20
5.529475947331089
 30
0.0
 11
24.35456484790171
 21
5.529475947331089
 31
0.0
  0
LINE
  5
21E50
330
1F
100
AcDbEntity
  8
0
100
AcDbLine
 10
24.35456484790171
 20
6.593475947331086
 30
0.0
 11
24.35822510193956
 21
6.592794463856868
 31
0.0
  0
LINE
  5
21E51
330
1F
100
AcDbEntity
  8
0
100
AcDbLine
 10
24.35822510193956
 20
6.592794463856868
 30
0.0
 11
24.36163591571358
 21
6.590796455406778
 31
0.0
  0
LINE
  5
21E52
330
1F
100
AcDbEntity
  8
0
100
AcDbLine
 10
24.36163591571358
 20
6.590796455406778
 30
0.0
 11
24.36456484790171
 21
6.587618082954818
 31
0.0
  0
LINE
  5
21E53
330
1F
100
AcDbEntity
  8
0
100
AcDbLine
 10
24.36456484790171
 20
6.587618082954818
 30
0.0
 11
24.36681229661563
 21
6.583475947331088
 31
0.0
  0
LINE
  5
21E54
330
1F
100
AcDbEntity
  8
0
100
AcDbLine
 10
24.36681229661563
 20
6.583475947331088
 30
0.0
 11
24.36822510193956
 21
6.578652328233136
 31
0.0
  0
LINE
  5
21E55
330
1F
100
AcDbEntity
  8
0
100
AcDbLine
 10
24.36822510193956
 20
6.578652328233136
 30
0.0
 11
24.36870698352544
 21
6.573475947331086
 31
0.0
  0
LINE
  5
21E56
330
1F
100
AcDbEntity
  8
0
100
AcDbLine
 10
24.36870698352544
 20
6.573475947331086
 30
0.0
 11
24.36822510193956
 21
6.568299566429036
 31
0.0
  0
LINE
  5
21E57
330
1F
100
AcDbEntity
  8
0
100
AcDbLine
 10
24.36822510193956
 20
6.568299566429036
 30
0.0
 11
24.36681229661563
 21
6.563475947331088
 31
0.0
  0
LINE
  5
21E58
330
1F
100
AcDbEntity
  8
0
100
AcDbLine
 10
24.36681229661563
 20
6.563475947331088
 30
0.0
 11
24.36456484790171
 21
6.559333811707357
 31
0.0
  0
LINE
  5
21E59
330
1F
100
AcDbEntity
  8
0
100
AcDbLine
 10
24.36456484790171
 20
6.559333811707357
 30
0.0
 11
24.36163591571358
 21
6.556155439255398
 31
0.0
  0
LINE
  5
21E5A
330
1F
100
AcDbEntity
  8
0
100
AcDbLine
 10
24.36163591571358
 20
6.556155439255398
 30
0.0
 11
24.35822510193956
 21
6.554157430805307
 31
0.0
  0
LINE
  5
21E5B
330
1F
100
AcDbEntity
  8
0
100
AcDbLine
 10
24.35822510193956
 20
6.554157430805307
 30
0.0
 11
24.35456484790171
 21
6.553475947331087
 31
0.0
  0
LINE
  5
21E5C
330
1F
100
AcDbEntity
  8
0
100
AcDbLine
 10
24.35456484790171
 20
6.553475947331087
 30
0.0
 11
24.35090459386387
 21
6.554157430805307
 31
0.0
  0
LINE
  5
21E5D
330
1F
100
AcDbEntity
  8
0
100
AcDbLine
 10
24.35090459386387
 20
6.554157430805307
 30
0.0
 11
24.34749378008985
 21
6.556155439255398
 31
0.0
  0
LINE
  5
21E5E
330
1F
100
AcDbEntity
  8
0
100
AcDbLine
 10
24.34749378008985
 20
6.556155439255398
 30
0.0
 11
24.34456484790171
 21
6.559333811707357
 31
0.0
  0
LINE
  5
21E5F
330
1F
100
AcDbEntity
  8
0
100
AcDbLine
 10
24.34456484790171
 20
6.559333811707357
 30
0.0
 11
24.34231739918779
 21
6.563475947331085
 31
0.0
  0
LINE
  5
21E60
330
1F
100
AcDbEntity
  8
0
100
AcDbLine
 10
24.34231739918779
 20
6.563475947331085
 30
0.0
 11
24.34090459386387
 21
6.568299566429036
 31
0.0
  0
LINE
  5
21E61
330
1F
100
AcDbEntity
  8
0
100
AcDbLine
 10
24.34090459386387
 20
6.568299566429036
 30
0.0
 11
24.34042271227798
 21
6.573475947331086
 31
0.0
  0
LINE
  5
21E62
330
1F
100
AcDbEntity
  8
0
100
AcDbLine
 10
24.34042271227798
 20
6.573475947331086
 30
0.0
 11
24.34090459386387
 21
6.578652328233136
 31
0.0
  0
LINE
  5
21E63
330
1F
100
AcDbEntity
  8
0
100
AcDbLine
 10
24.34090459386387
 20
6.578652328233136
 30
0.0
 11
24.34231739918779
 21
6.583475947331088
 31
0.0
  0
LINE
  5
21E64
330
1F
100
AcDbEntity
  8
0
100
AcDbLine
 10
24.34231739918779
 20
6.583475947331088
 30
0.0
 11
24.34456484790171
 21
6.587618082954818
 31
0.0
  0
LINE
  5
21E65
330
1F
100
AcDbEntity
  8
0
100
AcDbLine
 10
24.34456484790171
 20
6.587618082954818
 30
0.0
 11
24.34749378008985
 21
6.590796455406778
 31
0.0
  0
LINE
  5
21E66
330
1F
100
AcDbEntity
  8
0
100
AcDbLine
 10
24.34749378008985
 20
6.590796455406778
 30
0.0
 11
24.35090459386387
 21
6.592794463856868
 31
0.0
  0
LINE
  5
21E67
330
1F
100
AcDbEntity
  8
0
100
AcDbLine
 10
24.35090459386387
 20
6.592794463856868
 30
0.0
 11
24.35456484790171
 21
6.593475947331086
 31
0.0
  0
LINE
  5
21E68
330
1F
100
AcDbEntity
  8
0
100
AcDbLine
 10
24.36163591571358
 20
6.593475947331086
 30
0.0
 11
24.35456484790171
 21
6.593475947331086
 31
0.0
  0
LINE
  5
21E69
330
1F
100
AcDbEntity
  8
0
100
AcDbLine
 10
24.36163591571358
 20
6.553475947331087
 30
0.0
 11
24.35456484790171
 21
6.553475947331087
 31
0.0
  0
LINE
  5
21E6A
330
1F
100
AcDbEntity
  8
0
100
AcDbLine
 10
24.98280309311874
 20
5.497919702378759
 30
0.0
 11
24.98280309311874
 21
5.484919702378757
 31
0.0
  0
LINE
  5
21E6B
330
1F
100
AcDbEntity
  8
0
100
AcDbLine
 10
25.50818558468668
 20
5.497919702378759
 30
0.0
 11
25.50818558468668
 21
5.484919702378707
 31
0.0
  0
LINE
  5
21E6C
330
1F
100
AcDbEntity
  8
0
100
AcDbLine
 10
24.98987760672229
 20
5.567520152578868
 30
0.0
 11
24.98632642825477
 21
5.566838669104647
 31
0.0
  0
LINE
  5
21E6D
330
1F
100
AcDbEntity
  8
0
100
AcDbLine
 10
24.98632642825477
 20
5.566838669104647
 30
0.0
 11
24.98301725673122
 21
5.564840660654557
 31
0.0
  0
LINE
  5
21E6E
330
1F
100
AcDbEntity
  8
0
100
AcDbLine
 10
24.98301725673122
 20
5.564840660654557
 30
0.0
 11
24.98017560672229
 21
5.561662288202597
 31
0.0
  0
LINE
  5
21E6F
330
1F
100
AcDbEntity
  8
0
100
AcDbLine
 10
24.98017560672229
 20
5.561662288202597
 30
0.0
 11
24.97799513198005
 21
5.557520152578867
 31
0.0
  0
LINE
  5
21E70
330
1F
100
AcDbEntity
  8
0
100
AcDbLine
 10
24.97799513198005
 20
5.557520152578867
 30
0.0
 11
24.97662442825478
 21
5.552696533480919
 31
0.0
  0
LINE
  5
21E71
330
1F
100
AcDbEntity
  8
0
100
AcDbLine
 10
24.97662442825478
 20
5.552696533480919
 30
0.0
 11
24.97615690674015
 21
5.547520152578869
 31
0.0
  0
LINE
  5
21E72
330
1F
100
AcDbEntity
  8
0
100
AcDbLine
 10
24.97615690674015
 20
5.547520152578869
 30
0.0
 11
24.97662442825478
 21
5.542343771676819
 31
0.0
  0
LINE
  5
21E73
330
1F
100
AcDbEntity
  8
0
100
AcDbLine
 10
24.97662442825478
 20
5.542343771676819
 30
0.0
 11
24.97799513198005
 21
5.537520152578867
 31
0.0
  0
LINE
  5
21E74
330
1F
100
AcDbEntity
  8
0
100
AcDbLine
 10
24.97799513198005
 20
5.537520152578867
 30
0.0
 11
24.98017560672229
 21
5.533378016955136
 31
0.0
  0
LINE
  5
21E75
330
1F
100
AcDbEntity
  8
0
100
AcDbLine
 10
24.98017560672229
 20
5.533378016955136
 30
0.0
 11
24.98301725673122
 21
5.530199644503177
 31
0.0
  0
LINE
  5
21E76
330
1F
100
AcDbEntity
  8
0
100
AcDbLine
 10
24.98301725673122
 20
5.530199644503177
 30
0.0
 11
24.98632642825477
 21
5.528201636053086
 31
0.0
  0
LINE
  5
21E77
330
1F
100
AcDbEntity
  8
0
100
AcDbLine
 10
24.98632642825477
 20
5.528201636053086
 30
0.0
 11
24.98987760672229
 21
5.527520152578869
 31
0.0
  0
LINE
  5
21E78
330
1F
100
AcDbEntity
  8
0
100
AcDbLine
 10
25.50234399457632
 20
5.569475947331088
 30
0.0
 11
25.4987928161088
 21
5.568794463856868
 31
0.0
  0
LINE
  5
21E79
330
1F
100
AcDbEntity
  8
0
100
AcDbLine
 10
25.49264199457632
 20
5.563618082954818
 30
0.0
 11
25.49046151983408
 21
5.559475947331087
 31
0.0
  0
LINE
  5
21E7A
330
1F
100
AcDbEntity
  8
0
100
AcDbLine
 10
25.49879281610881
 20
5.530157430805306
 30
0.0
 11
25.50234399457632
 21
5.529475947331089
 31
0.0
  0
LINE
  5
21E7B
330
1F
100
AcDbEntity
  8
0
100
AcDbLine
 10
25.4987928161088
 20
5.568794463856868
 30
0.0
 11
25.49548364458525
 21
5.566796455406777
 31
0.0
  0
LINE
  5
21E7C
330
1F
100
AcDbEntity
  8
0
100
AcDbLine
 10
25.49548364458525
 20
5.566796455406777
 30
0.0
 11
25.49264199457632
 21
5.563618082954818
 31
0.0
  0
LINE
  5
21E7D
330
1F
100
AcDbEntity
  8
0
100
AcDbLine
 10
25.49046151983408
 20
5.559475947331087
 30
0.0
 11
25.4890908161088
 21
5.554652328233139
 31
0.0
  0
LINE
  5
21E7E
330
1F
100
AcDbEntity
  8
0
100
AcDbLine
 10
25.4890908161088
 20
5.554652328233139
 30
0.0
 11
25.48862329459418
 21
5.549475947331089
 31
0.0
  0
LINE
  5
21E7F
330
1F
100
AcDbEntity
  8
0
100
AcDbLine
 10
25.48862329459418
 20
5.549475947331089
 30
0.0
 11
25.4890908161088
 21
5.544299566429039
 31
0.0
  0
LINE
  5
21E80
330
1F
100
AcDbEntity
  8
0
100
AcDbLine
 10
25.4890908161088
 20
5.544299566429039
 30
0.0
 11
25.49046151983408
 21
5.539475947331087
 31
0.0
  0
LINE
  5
21E81
330
1F
100
AcDbEntity
  8
0
100
AcDbLine
 10
25.49046151983408
 20
5.539475947331087
 30
0.0
 11
25.49264199457632
 21
5.535333811707356
 31
0.0
  0
LINE
  5
21E82
330
1F
100
AcDbEntity
  8
0
100
AcDbLine
 10
25.49264199457632
 20
5.535333811707356
 30
0.0
 11
25.49548364458525
 21
5.532155439255397
 31
0.0
  0
LINE
  5
21E83
330
1F
100
AcDbEntity
  8
0
100
AcDbLine
 10
25.49548364458525
 20
5.532155439255397
 30
0.0
 11
25.49879281610881
 21
5.530157430805306
 31
0.0
  0
LINE
  5
21E84
330
1F
100
AcDbEntity
  8
0
100
AcDbLine
 10
25.50234399457632
 20
6.593475947331086
 30
0.0
 11
25.49879281610881
 21
6.592794463856868
 31
0.0
  0
LINE
  5
21E85
330
1F
100
AcDbEntity
  8
0
100
AcDbLine
 10
25.49879281610881
 20
6.592794463856868
 30
0.0
 11
25.49548364458525
 21
6.590796455406778
 31
0.0
  0
LINE
  5
21E86
330
1F
100
AcDbEntity
  8
0
100
AcDbLine
 10
25.49548364458525
 20
6.590796455406778
 30
0.0
 11
25.49264199457632
 21
6.587618082954818
 31
0.0
  0
LINE
  5
21E87
330
1F
100
AcDbEntity
  8
0
100
AcDbLine
 10
25.49264199457632
 20
6.587618082954818
 30
0.0
 11
25.49046151983408
 21
6.583475947331088
 31
0.0
  0
LINE
  5
21E88
330
1F
100
AcDbEntity
  8
0
100
AcDbLine
 10
25.49046151983408
 20
6.583475947331088
 30
0.0
 11
25.48909081610881
 21
6.578652328233136
 31
0.0
  0
LINE
  5
21E89
330
1F
100
AcDbEntity
  8
0
100
AcDbLine
 10
25.48909081610881
 20
6.578652328233136
 30
0.0
 11
25.48862329459418
 21
6.573475947331086
 31
0.0
  0
LINE
  5
21E8A
330
1F
100
AcDbEntity
  8
0
100
AcDbLine
 10
25.48862329459418
 20
6.573475947331086
 30
0.0
 11
25.48909081610881
 21
6.568299566429036
 31
0.0
  0
LINE
  5
21E8B
330
1F
100
AcDbEntity
  8
0
100
AcDbLine
 10
25.48909081610881
 20
6.568299566429036
 30
0.0
 11
25.49046151983408
 21
6.563475947331088
 31
0.0
  0
LINE
  5
21E8C
330
1F
100
AcDbEntity
  8
0
100
AcDbLine
 10
25.49046151983408
 20
6.563475947331088
 30
0.0
 11
25.49264199457632
 21
6.559333811707357
 31
0.0
  0
LINE
  5
21E8D
330
1F
100
AcDbEntity
  8
0
100
AcDbLine
 10
25.49264199457632
 20
6.559333811707357
 30
0.0
 11
25.49548364458525
 21
6.556155439255398
 31
0.0
  0
LINE
  5
21E8E
330
1F
100
AcDbEntity
  8
0
100
AcDbLine
 10
25.49548364458525
 20
6.556155439255398
 30
0.0
 11
25.49879281610881
 21
6.554157430805307
 31
0.0
  0
LINE
  5
21E8F
330
1F
100
AcDbEntity
  8
0
100
AcDbLine
 10
25.49879281610881
 20
6.554157430805307
 30
0.0
 11
25.50234399457632
 21
6.553475947331087
 31
0.0
  0
LINE
  5
21E90
330
1F
100
AcDbEntity
  8
0
100
AcDbLine
 10
24.98987760672229
 20
6.605520152578868
 30
0.0
 11
24.98632642825478
 21
6.604838669104651
 31
0.0
  0
LINE
  5
21E91
330
1F
100
AcDbEntity
  8
0
100
AcDbLine
 10
24.98632642825478
 20
6.604838669104651
 30
0.0
 11
24.98301725673123
 21
6.602840660654557
 31
0.0
  0
LINE
  5
21E92
330
1F
100
AcDbEntity
  8
0
100
AcDbLine
 10
24.98301725673123
 20
6.602840660654557
 30
0.0
 11
24.98017560672229
 21
6.599662288202601
 31
0.0
  0
LINE
  5
21E93
330
1F
100
AcDbEntity
  8
0
100
AcDbLine
 10
24.98017560672229
 20
6.599662288202601
 30
0.0
 11
24.97799513198005
 21
6.59552015257887
 31
0.0
  0
LINE
  5
21E94
330
1F
100
AcDbEntity
  8
0
100
AcDbLine
 10
24.97799513198005
 20
6.59552015257887
 30
0.0
 11
24.97662442825478
 21
6.590696533480919
 31
0.0
  0
LINE
  5
21E95
330
1F
100
AcDbEntity
  8
0
100
AcDbLine
 10
24.97662442825478
 20
6.590696533480919
 30
0.0
 11
24.97615690674015
 21
6.585520152578869
 31
0.0
  0
LINE
  5
21E96
330
1F
100
AcDbEntity
  8
0
100
AcDbLine
 10
24.97615690674015
 20
6.585520152578869
 30
0.0
 11
24.97662442825478
 21
6.580343771676819
 31
0.0
  0
LINE
  5
21E97
330
1F
100
AcDbEntity
  8
0
100
AcDbLine
 10
24.97662442825478
 20
6.580343771676819
 30
0.0
 11
24.97799513198005
 21
6.575520152578867
 31
0.0
  0
LINE
  5
21E98
330
1F
100
AcDbEntity
  8
0
100
AcDbLine
 10
24.97799513198005
 20
6.575520152578867
 30
0.0
 11
24.98017560672229
 21
6.571378016955137
 31
0.0
  0
LINE
  5
21E99
330
1F
100
AcDbEntity
  8
0
100
AcDbLine
 10
24.98017560672229
 20
6.571378016955137
 30
0.0
 11
24.98301725673123
 21
6.568199644503181
 31
0.0
  0
LINE
  5
21E9A
330
1F
100
AcDbEntity
  8
0
100
AcDbLine
 10
24.98301725673123
 20
6.568199644503181
 30
0.0
 11
24.98632642825478
 21
6.566201636053087
 31
0.0
  0
LINE
  5
21E9B
330
1F
100
AcDbEntity
  8
0
100
AcDbLine
 10
24.98632642825478
 20
6.566201636053087
 30
0.0
 11
24.98987760672229
 21
6.565520152578869
 31
0.0
  0
LINE
  5
21E9C
330
1F
100
AcDbEntity
  8
0
100
AcDbLine
 10
24.99673795671336
 20
6.605520152578868
 30
0.0
 11
24.99318677824585
 21
6.604838669104651
 31
0.0
  0
LINE
  5
21E9D
330
1F
100
AcDbEntity
  8
0
100
AcDbLine
 10
24.99318677824585
 20
6.604838669104651
 30
0.0
 11
24.9898776067223
 21
6.602840660654557
 31
0.0
  0
LINE
  5
21E9E
330
1F
100
AcDbEntity
  8
0
100
AcDbLine
 10
24.9898776067223
 20
6.602840660654557
 30
0.0
 11
24.98703595671337
 21
6.599662288202601
 31
0.0
  0
LINE
  5
21E9F
330
1F
100
AcDbEntity
  8
0
100
AcDbLine
 10
24.98703595671337
 20
6.599662288202601
 30
0.0
 11
24.98485548197113
 21
6.59552015257887
 31
0.0
  0
LINE
  5
21EA0
330
1F
100
AcDbEntity
  8
0
100
AcDbLine
 10
24.98485548197113
 20
6.59552015257887
 30
0.0
 11
24.98348477824585
 21
6.590696533480919
 31
0.0
  0
LINE
  5
21EA1
330
1F
100
AcDbEntity
  8
0
100
AcDbLine
 10
24.98348477824585
 20
6.590696533480919
 30
0.0
 11
24.98301725673122
 21
6.585520152578869
 31
0.0
  0
LINE
  5
21EA2
330
1F
100
AcDbEntity
  8
0
100
AcDbLine
 10
24.98301725673122
 20
6.585520152578869
 30
0.0
 11
24.98348477824585
 21
6.580343771676819
 31
0.0
  0
LINE
  5
21EA3
330
1F
100
AcDbEntity
  8
0
100
AcDbLine
 10
24.98348477824585
 20
6.580343771676819
 30
0.0
 11
24.98485548197113
 21
6.575520152578867
 31
0.0
  0
LINE
  5
21EA4
330
1F
100
AcDbEntity
  8
0
100
AcDbLine
 10
24.98485548197113
 20
6.575520152578867
 30
0.0
 11
24.98703595671337
 21
6.571378016955137
 31
0.0
  0
LINE
  5
21EA5
330
1F
100
AcDbEntity
  8
0
100
AcDbLine
 10
24.98703595671337
 20
6.571378016955137
 30
0.0
 11
24.9898776067223
 21
6.568199644503181
 31
0.0
  0
LINE
  5
21EA6
330
1F
100
AcDbEntity
  8
0
100
AcDbLine
 10
24.9898776067223
 20
6.568199644503181
 30
0.0
 11
24.99318677824585
 21
6.566201636053087
 31
0.0
  0
LINE
  5
21EA7
330
1F
100
AcDbEntity
  8
0
100
AcDbLine
 10
24.99318677824585
 20
6.566201636053087
 30
0.0
 11
24.99673795671336
 21
6.565520152578869
 31
0.0
  0
LINE
  5
21EA8
330
1F
100
AcDbEntity
  8
0
100
AcDbLine
 10
24.99673795671336
 20
6.565520152578869
 30
0.0
 11
25.00028913518088
 21
6.566201636053087
 31
0.0
  0
LINE
  5
21EA9
330
1F
100
AcDbEntity
  8
0
100
AcDbLine
 10
25.00028913518088
 20
6.566201636053087
 30
0.0
 11
25.00359830670443
 21
6.568199644503181
 31
0.0
  0
LINE
  5
21EAA
330
1F
100
AcDbEntity
  8
0
100
AcDbLine
 10
25.00359830670443
 20
6.568199644503181
 30
0.0
 11
25.00643995671336
 21
6.571378016955137
 31
0.0
  0
LINE
  5
21EAB
330
1F
100
AcDbEntity
  8
0
100
AcDbLine
 10
25.00643995671336
 20
6.571378016955137
 30
0.0
 11
25.00862043145561
 21
6.575520152578867
 31
0.0
  0
LINE
  5
21EAC
330
1F
100
AcDbEntity
  8
0
100
AcDbLine
 10
25.00862043145561
 20
6.575520152578867
 30
0.0
 11
25.00999113518088
 21
6.580343771676819
 31
0.0
  0
LINE
  5
21EAD
330
1F
100
AcDbEntity
  8
0
100
AcDbLine
 10
25.00999113518088
 20
6.580343771676819
 30
0.0
 11
25.01045865669551
 21
6.585520152578869
 31
0.0
  0
LINE
  5
21EAE
330
1F
100
AcDbEntity
  8
0
100
AcDbLine
 10
25.01045865669551
 20
6.585520152578869
 30
0.0
 11
25.00999113518088
 21
6.590696533480919
 31
0.0
  0
LINE
  5
21EAF
330
1F
100
AcDbEntity
  8
0
100
AcDbLine
 10
25.00999113518088
 20
6.590696533480919
 30
0.0
 11
25.00862043145561
 21
6.595520152578867
 31
0.0
  0
LINE
  5
21EB0
330
1F
100
AcDbEntity
  8
0
100
AcDbLine
 10
25.00862043145561
 20
6.595520152578867
 30
0.0
 11
25.00643995671337
 21
6.599662288202601
 31
0.0
  0
LINE
  5
21EB1
330
1F
100
AcDbEntity
  8
0
100
AcDbLine
 10
25.00643995671337
 20
6.599662288202601
 30
0.0
 11
25.00359830670443
 21
6.602840660654557
 31
0.0
  0
LINE
  5
21EB2
330
1F
100
AcDbEntity
  8
0
100
AcDbLine
 10
25.00359830670443
 20
6.602840660654557
 30
0.0
 11
25.00028913518088
 21
6.604838669104651
 31
0.0
  0
LINE
  5
21EB3
330
1F
100
AcDbEntity
  8
0
100
AcDbLine
 10
25.00028913518088
 20
6.604838669104651
 30
0.0
 11
24.99673795671336
 21
6.605520152578868
 31
0.0
  0
LINE
  5
21EB4
330
1F
100
AcDbEntity
  8
0
100
AcDbLine
 10
24.98987760672229
 20
6.605520152578868
 30
0.0
 11
24.99673795671336
 21
6.605520152578868
 31
0.0
  0
LINE
  5
21EB5
330
1F
100
AcDbEntity
  8
0
100
AcDbLine
 10
24.98987760672229
 20
6.565520152578869
 30
0.0
 11
24.99673795671336
 21
6.565520152578869
 31
0.0
  0
LINE
  5
21EB6
330
1F
100
AcDbEntity
  8
0
100
AcDbLine
 10
24.99673795671336
 20
5.567520152578868
 30
0.0
 11
24.99318677824585
 21
5.566838669104647
 31
0.0
  0
LINE
  5
21EB7
330
1F
100
AcDbEntity
  8
0
100
AcDbLine
 10
24.99318677824585
 20
5.566838669104647
 30
0.0
 11
24.98987760672229
 21
5.564840660654557
 31
0.0
  0
LINE
  5
21EB8
330
1F
100
AcDbEntity
  8
0
100
AcDbLine
 10
24.98987760672229
 20
5.564840660654557
 30
0.0
 11
24.98703595671337
 21
5.561662288202597
 31
0.0
  0
LINE
  5
21EB9
330
1F
100
AcDbEntity
  8
0
100
AcDbLine
 10
24.98703595671337
 20
5.561662288202597
 30
0.0
 11
24.98485548197112
 21
5.557520152578867
 31
0.0
  0
LINE
  5
21EBA
330
1F
100
AcDbEntity
  8
0
100
AcDbLine
 10
24.98485548197112
 20
5.557520152578867
 30
0.0
 11
24.98348477824585
 21
5.552696533480919
 31
0.0
  0
LINE
  5
21EBB
330
1F
100
AcDbEntity
  8
0
100
AcDbLine
 10
24.98348477824585
 20
5.552696533480919
 30
0.0
 11
24.98301725673122
 21
5.547520152578869
 31
0.0
  0
LINE
  5
21EBC
330
1F
100
AcDbEntity
  8
0
100
AcDbLine
 10
24.98301725673122
 20
5.547520152578869
 30
0.0
 11
24.98348477824585
 21
5.542343771676819
 31
0.0
  0
LINE
  5
21EBD
330
1F
100
AcDbEntity
  8
0
100
AcDbLine
 10
24.98348477824585
 20
5.542343771676819
 30
0.0
 11
24.98485548197112
 21
5.537520152578867
 31
0.0
  0
LINE
  5
21EBE
330
1F
100
AcDbEntity
  8
0
100
AcDbLine
 10
24.98485548197112
 20
5.537520152578867
 30
0.0
 11
24.98703595671337
 21
5.533378016955136
 31
0.0
  0
LINE
  5
21EBF
330
1F
100
AcDbEntity
  8
0
100
AcDbLine
 10
24.98703595671337
 20
5.533378016955136
 30
0.0
 11
24.98987760672229
 21
5.530199644503177
 31
0.0
  0
LINE
  5
21EC0
330
1F
100
AcDbEntity
  8
0
100
AcDbLine
 10
24.98987760672229
 20
5.530199644503177
 30
0.0
 11
24.99318677824585
 21
5.528201636053086
 31
0.0
  0
LINE
  5
21EC1
330
1F
100
AcDbEntity
  8
0
100
AcDbLine
 10
24.99318677824585
 20
5.528201636053086
 30
0.0
 11
24.99673795671336
 21
5.527520152578869
 31
0.0
  0
LINE
  5
21EC2
330
1F
100
AcDbEntity
  8
0
100
AcDbLine
 10
24.99673795671336
 20
5.527520152578869
 30
0.0
 11
25.00028913518088
 21
5.528201636053086
 31
0.0
  0
LINE
  5
21EC3
330
1F
100
AcDbEntity
  8
0
100
AcDbLine
 10
25.00028913518088
 20
5.528201636053086
 30
0.0
 11
25.00359830670443
 21
5.530199644503177
 31
0.0
  0
LINE
  5
21EC4
330
1F
100
AcDbEntity
  8
0
100
AcDbLine
 10
25.00359830670443
 20
5.530199644503177
 30
0.0
 11
25.00643995671336
 21
5.533378016955136
 31
0.0
  0
LINE
  5
21EC5
330
1F
100
AcDbEntity
  8
0
100
AcDbLine
 10
25.00643995671336
 20
5.533378016955136
 30
0.0
 11
25.00862043145561
 21
5.537520152578867
 31
0.0
  0
LINE
  5
21EC6
330
1F
100
AcDbEntity
  8
0
100
AcDbLine
 10
25.00862043145561
 20
5.537520152578867
 30
0.0
 11
25.00999113518088
 21
5.542343771676819
 31
0.0
  0
LINE
  5
21EC7
330
1F
100
AcDbEntity
  8
0
100
AcDbLine
 10
25.00999113518088
 20
5.542343771676819
 30
0.0
 11
25.01045865669551
 21
5.547520152578869
 31
0.0
  0
LINE
  5
21EC8
330
1F
100
AcDbEntity
  8
0
100
AcDbLine
 10
25.01045865669551
 20
5.547520152578869
 30
0.0
 11
25.00999113518088
 21
5.552696533480919
 31
0.0
  0
LINE
  5
21EC9
330
1F
100
AcDbEntity
  8
0
100
AcDbLine
 10
25.00999113518088
 20
5.552696533480919
 30
0.0
 11
25.00862043145561
 21
5.557520152578867
 31
0.0
  0
LINE
  5
21ECA
330
1F
100
AcDbEntity
  8
0
100
AcDbLine
 10
25.00862043145561
 20
5.557520152578867
 30
0.0
 11
25.00643995671336
 21
5.561662288202597
 31
0.0
  0
LINE
  5
21ECB
330
1F
100
AcDbEntity
  8
0
100
AcDbLine
 10
25.00643995671336
 20
5.561662288202597
 30
0.0
 11
25.00359830670443
 21
5.564840660654557
 31
0.0
  0
LINE
  5
21ECC
330
1F
100
AcDbEntity
  8
0
100
AcDbLine
 10
25.00359830670443
 20
5.564840660654557
 30
0.0
 11
25.00028913518088
 21
5.566838669104647
 31
0.0
  0
LINE
  5
21ECD
330
1F
100
AcDbEntity
  8
0
100
AcDbLine
 10
25.00028913518088
 20
5.566838669104647
 30
0.0
 11
24.99673795671336
 21
5.567520152578868
 31
0.0
  0
LINE
  5
21ECE
330
1F
100
AcDbEntity
  8
0
100
AcDbLine
 10
24.98987760672229
 20
5.567520152578868
 30
0.0
 11
24.99673795671336
 21
5.567520152578868
 31
0.0
  0
LINE
  5
21ECF
330
1F
100
AcDbEntity
  8
0
100
AcDbLine
 10
24.98987760672229
 20
5.527520152578869
 30
0.0
 11
24.99673795671336
 21
5.527520152578869
 31
0.0
  0
LINE
  5
21ED0
330
1F
100
AcDbEntity
  8
0
100
AcDbLine
 10
25.50920434456739
 20
5.569475947331088
 30
0.0
 11
25.50565316609987
 21
5.568794463856868
 31
0.0
  0
LINE
  5
21ED1
330
1F
100
AcDbEntity
  8
0
100
AcDbLine
 10
25.50565316609987
 20
5.568794463856868
 30
0.0
 11
25.50234399457632
 21
5.566796455406777
 31
0.0
  0
LINE
  5
21ED2
330
1F
100
AcDbEntity
  8
0
100
AcDbLine
 10
25.50234399457632
 20
5.566796455406777
 30
0.0
 11
25.49950234456739
 21
5.563618082954818
 31
0.0
  0
LINE
  5
21ED3
330
1F
100
AcDbEntity
  8
0
100
AcDbLine
 10
25.49950234456739
 20
5.563618082954818
 30
0.0
 11
25.49732186982515
 21
5.559475947331087
 31
0.0
  0
LINE
  5
21ED4
330
1F
100
AcDbEntity
  8
0
100
AcDbLine
 10
25.49732186982515
 20
5.559475947331087
 30
0.0
 11
25.49595116609987
 21
5.554652328233139
 31
0.0
  0
LINE
  5
21ED5
330
1F
100
AcDbEntity
  8
0
100
AcDbLine
 10
25.49595116609987
 20
5.554652328233139
 30
0.0
 11
25.49548364458525
 21
5.549475947331089
 31
0.0
  0
LINE
  5
21ED6
330
1F
100
AcDbEntity
  8
0
100
AcDbLine
 10
25.49548364458525
 20
5.549475947331089
 30
0.0
 11
25.49595116609987
 21
5.544299566429039
 31
0.0
  0
LINE
  5
21ED7
330
1F
100
AcDbEntity
  8
0
100
AcDbLine
 10
25.49595116609987
 20
5.544299566429039
 30
0.0
 11
25.49732186982515
 21
5.539475947331087
 31
0.0
  0
LINE
  5
21ED8
330
1F
100
AcDbEntity
  8
0
100
AcDbLine
 10
25.49732186982515
 20
5.539475947331087
 30
0.0
 11
25.49950234456739
 21
5.535333811707356
 31
0.0
  0
LINE
  5
21ED9
330
1F
100
AcDbEntity
  8
0
100
AcDbLine
 10
25.49950234456739
 20
5.535333811707356
 30
0.0
 11
25.50234399457632
 21
5.532155439255397
 31
0.0
  0
LINE
  5
21EDA
330
1F
100
AcDbEntity
  8
0
100
AcDbLine
 10
25.50234399457632
 20
5.532155439255397
 30
0.0
 11
25.50565316609987
 21
5.530157430805306
 31
0.0
  0
LINE
  5
21EDB
330
1F
100
AcDbEntity
  8
0
100
AcDbLine
 10
25.50565316609987
 20
5.530157430805306
 30
0.0
 11
25.50920434456739
 21
5.529475947331089
 31
0.0
  0
LINE
  5
21EDC
330
1F
100
AcDbEntity
  8
0
100
AcDbLine
 10
25.50920434456739
 20
5.529475947331089
 30
0.0
 11
25.5127555230349
 21
5.530157430805306
 31
0.0
  0
LINE
  5
21EDD
330
1F
100
AcDbEntity
  8
0
100
AcDbLine
 10
25.5127555230349
 20
5.530157430805306
 30
0.0
 11
25.51606469455846
 21
5.532155439255397
 31
0.0
  0
LINE
  5
21EDE
330
1F
100
AcDbEntity
  8
0
100
AcDbLine
 10
25.51606469455846
 20
5.532155439255397
 30
0.0
 11
25.51890634456739
 21
5.535333811707356
 31
0.0
  0
LINE
  5
21EDF
330
1F
100
AcDbEntity
  8
0
100
AcDbLine
 10
25.51890634456739
 20
5.535333811707356
 30
0.0
 11
25.52108681930963
 21
5.539475947331087
 31
0.0
  0
LINE
  5
21EE0
330
1F
100
AcDbEntity
  8
0
100
AcDbLine
 10
25.52108681930963
 20
5.539475947331087
 30
0.0
 11
25.52245752303491
 21
5.544299566429039
 31
0.0
  0
LINE
  5
21EE1
330
1F
100
AcDbEntity
  8
0
100
AcDbLine
 10
25.52245752303491
 20
5.544299566429039
 30
0.0
 11
25.52292504454954
 21
5.549475947331089
 31
0.0
  0
LINE
  5
21EE2
330
1F
100
AcDbEntity
  8
0
100
AcDbLine
 10
25.52292504454954
 20
5.549475947331089
 30
0.0
 11
25.52245752303491
 21
5.554652328233139
 31
0.0
  0
LINE
  5
21EE3
330
1F
100
AcDbEntity
  8
0
100
AcDbLine
 10
25.52245752303491
 20
5.554652328233139
 30
0.0
 11
25.52108681930963
 21
5.559475947331087
 31
0.0
  0
LINE
  5
21EE4
330
1F
100
AcDbEntity
  8
0
100
AcDbLine
 10
25.52108681930963
 20
5.559475947331087
 30
0.0
 11
25.51890634456739
 21
5.563618082954818
 31
0.0
  0
LINE
  5
21EE5
330
1F
100
AcDbEntity
  8
0
100
AcDbLine
 10
25.51890634456739
 20
5.563618082954818
 30
0.0
 11
25.51606469455846
 21
5.566796455406777
 31
0.0
  0
LINE
  5
21EE6
330
1F
100
AcDbEntity
  8
0
100
AcDbLine
 10
25.51606469455846
 20
5.566796455406777
 30
0.0
 11
25.5127555230349
 21
5.568794463856868
 31
0.0
  0
LINE
  5
21EE7
330
1F
100
AcDbEntity
  8
0
100
AcDbLine
 10
25.5127555230349
 20
5.568794463856868
 30
0.0
 11
25.50920434456739
 21
5.569475947331088
 31
0.0
  0
LINE
  5
21EE8
330
1F
100
AcDbEntity
  8
0
100
AcDbLine
 10
25.50234399457632
 20
5.569475947331088
 30
0.0
 11
25.50920434456739
 21
5.569475947331088
 31
0.0
  0
LINE
  5
21EE9
330
1F
100
AcDbEntity
  8
0
100
AcDbLine
 10
25.50234399457632
 20
5.529475947331089
 30
0.0
 11
25.50920434456739
 21
5.529475947331089
 31
0.0
  0
LINE
  5
21EEA
330
1F
100
AcDbEntity
  8
0
100
AcDbLine
 10
25.50920434456739
 20
6.593475947331086
 30
0.0
 11
25.50565316609988
 21
6.592794463856868
 31
0.0
  0
LINE
  5
21EEB
330
1F
100
AcDbEntity
  8
0
100
AcDbLine
 10
25.50565316609988
 20
6.592794463856868
 30
0.0
 11
25.50234399457632
 21
6.590796455406778
 31
0.0
  0
LINE
  5
21EEC
330
1F
100
AcDbEntity
  8
0
100
AcDbLine
 10
25.50234399457632
 20
6.590796455406778
 30
0.0
 11
25.49950234456739
 21
6.587618082954818
 31
0.0
  0
LINE
  5
21EED
330
1F
100
AcDbEntity
  8
0
100
AcDbLine
 10
25.49950234456739
 20
6.587618082954818
 30
0.0
 11
25.49732186982515
 21
6.583475947331088
 31
0.0
  0
LINE
  5
21EEE
330
1F
100
AcDbEntity
  8
0
100
AcDbLine
 10
25.49732186982515
 20
6.583475947331088
 30
0.0
 11
25.49595116609987
 21
6.578652328233136
 31
0.0
  0
LINE
  5
21EEF
330
1F
100
AcDbEntity
  8
0
100
AcDbLine
 10
25.49595116609987
 20
6.578652328233136
 30
0.0
 11
25.49548364458525
 21
6.573475947331086
 31
0.0
  0
LINE
  5
21EF0
330
1F
100
AcDbEntity
  8
0
100
AcDbLine
 10
25.49548364458525
 20
6.573475947331086
 30
0.0
 11
25.49595116609987
 21
6.568299566429036
 31
0.0
  0
LINE
  5
21EF1
330
1F
100
AcDbEntity
  8
0
100
AcDbLine
 10
25.49595116609987
 20
6.568299566429036
 30
0.0
 11
25.49732186982515
 21
6.563475947331088
 31
0.0
  0
LINE
  5
21EF2
330
1F
100
AcDbEntity
  8
0
100
AcDbLine
 10
25.49732186982515
 20
6.563475947331088
 30
0.0
 11
25.49950234456739
 21
6.559333811707357
 31
0.0
  0
LINE
  5
21EF3
330
1F
100
AcDbEntity
  8
0
100
AcDbLine
 10
25.49950234456739
 20
6.559333811707357
 30
0.0
 11
25.50234399457632
 21
6.556155439255398
 31
0.0
  0
LINE
  5
21EF4
330
1F
100
AcDbEntity
  8
0
100
AcDbLine
 10
25.50234399457632
 20
6.556155439255398
 30
0.0
 11
25.50565316609988
 21
6.554157430805307
 31
0.0
  0
LINE
  5
21EF5
330
1F
100
AcDbEntity
  8
0
100
AcDbLine
 10
25.50565316609988
 20
6.554157430805307
 30
0.0
 11
25.50920434456739
 21
6.553475947331087
 31
0.0
  0
LINE
  5
21EF6
330
1F
100
AcDbEntity
  8
0
100
AcDbLine
 10
25.50920434456739
 20
6.553475947331087
 30
0.0
 11
25.51275552303491
 21
6.554157430805307
 31
0.0
  0
LINE
  5
21EF7
330
1F
100
AcDbEntity
  8
0
100
AcDbLine
 10
25.51275552303491
 20
6.554157430805307
 30
0.0
 11
25.51606469455846
 21
6.556155439255398
 31
0.0
  0
LINE
  5
21EF8
330
1F
100
AcDbEntity
  8
0
100
AcDbLine
 10
25.51606469455846
 20
6.556155439255398
 30
0.0
 11
25.51890634456739
 21
6.559333811707357
 31
0.0
  0
LINE
  5
21EF9
330
1F
100
AcDbEntity
  8
0
100
AcDbLine
 10
25.51890634456739
 20
6.559333811707357
 30
0.0
 11
25.52108681930964
 21
6.563475947331085
 31
0.0
  0
LINE
  5
21EFA
330
1F
100
AcDbEntity
  8
0
100
AcDbLine
 10
25.52108681930964
 20
6.563475947331085
 30
0.0
 11
25.52245752303491
 21
6.568299566429036
 31
0.0
  0
LINE
  5
21EFB
330
1F
100
AcDbEntity
  8
0
100
AcDbLine
 10
25.52245752303491
 20
6.568299566429036
 30
0.0
 11
25.52292504454954
 21
6.573475947331086
 31
0.0
  0
LINE
  5
21EFC
330
1F
100
AcDbEntity
  8
0
100
AcDbLine
 10
25.52292504454954
 20
6.573475947331086
 30
0.0
 11
25.52245752303491
 21
6.578652328233136
 31
0.0
  0
LINE
  5
21EFD
330
1F
100
AcDbEntity
  8
0
100
AcDbLine
 10
25.52245752303491
 20
6.578652328233136
 30
0.0
 11
25.52108681930964
 21
6.583475947331088
 31
0.0
  0
LINE
  5
21EFE
330
1F
100
AcDbEntity
  8
0
100
AcDbLine
 10
25.52108681930964
 20
6.583475947331088
 30
0.0
 11
25.51890634456739
 21
6.587618082954818
 31
0.0
  0
LINE
  5
21EFF
330
1F
100
AcDbEntity
  8
0
100
AcDbLine
 10
25.51890634456739
 20
6.587618082954818
 30
0.0
 11
25.51606469455846
 21
6.590796455406778
 31
0.0
  0
LINE
  5
21F00
330
1F
100
AcDbEntity
  8
0
100
AcDbLine
 10
25.51606469455846
 20
6.590796455406778
 30
0.0
 11
25.51275552303491
 21
6.592794463856868
 31
0.0
  0
LINE
  5
21F01
330
1F
100
AcDbEntity
  8
0
100
AcDbLine
 10
25.51275552303491
 20
6.592794463856868
 30
0.0
 11
25.50920434456739
 21
6.593475947331086
 31
0.0
  0
LINE
  5
21F02
330
1F
100
AcDbEntity
  8
0
100
AcDbLine
 10
25.50234399457632
 20
6.593475947331086
 30
0.0
 11
25.50920434456739
 21
6.593475947331086
 31
0.0
  0
LINE
  5
21F03
330
1F
100
AcDbEntity
  8
0
100
AcDbLine
 10
25.50234399457632
 20
6.553475947331087
 30
0.0
 11
25.50920434456739
 21
6.553475947331087
 31
0.0
  0
LINE
  5
21F05
330
1F
100
AcDbEntity
  8
0
100
AcDbLine
 10
24.97964457024603
 20
6.648919702378758
 30
0.0
 11
24.98280309311874
 21
6.648919702378766
 31
0.0
  0
LINE
  5
21F06
330
1F
100
AcDbEntity
  8
0
100
AcDbLine
 10
24.95106294283568
 20
6.637919702378759
 30
0.0
 11
24.93388310094014
 21
6.637919702378759
 31
0.0
  0
LINE
  5
21F07
330
1F
100
AcDbEntity
  8
0
100
AcDbLine
 10
24.33174700406735
 20
6.637919702378759
 30
0.0
 11
24.33174700406735
 21
6.54072431899906
 31
0.0
  0
LINE
  5
21F08
330
1F
100
AcDbEntity
  8
0
100
AcDbLine
 10
24.95106294283568
 20
5.497919702378759
 30
0.0
 11
24.93257978664066
 21
5.497919702378759
 31
0.0
  0
LINE
  5
21F09
330
1F
100
AcDbEntity
  8
0
100
AcDbLine
 10
24.97964457024603
 20
5.484919702378757
 30
0.0
 11
24.98280309311874
 21
5.484919702378757
 31
0.0
  0
LINE
  5
21F0A
330
1F
100
AcDbEntity
  8
0
100
AcDbLine
 10
24.9723539689135
 20
5.497919702378759
 30
0.0
 11
24.95106294283568
 21
5.497919702378759
 31
0.0
  0
LINE
  5
21F0B
330
1F
100
AcDbEntity
  8
0
100
AcDbLine
 10
25.5313422166555
 20
6.637919702378759
 30
0.0
 11
25.5313422166555
 21
6.352561282185991
 31
0.0
  0
LINE
  5
21F0C
330
1F
100
AcDbEntity
  8
0
100
AcDbLine
 10
24.35561489931452
 20
5.497919702378759
 30
0.0
 11
24.92528918530815
 21
5.497919702378759
 31
0.0
  0
LINE
  5
21F0D
330
1F
100
AcDbEntity
  8
0
100
AcDbLine
 10
24.92528918530815
 20
5.497919702378759
 30
0.0
 11
24.92984973940008
 21
5.497919702378759
 31
0.0
  0
LINE
  5
21F0E
330
1F
100
AcDbEntity
  8
0
100
AcDbLine
 10
24.33174700406735
 20
6.54072431899906
 30
0.0
 11
24.33174700406735
 21
6.500724318999061
 31
0.0
  0
LINE
  5
21F0F
330
1F
100
AcDbEntity
  8
0
100
AcDbLine
 10
24.92984973940008
 20
6.637919702378759
 30
0.0
 11
24.92528918530814
 21
6.637919702378759
 31
0.0
  0
LINE
  5
21F10
330
1F
100
AcDbEntity
  8
0
100
AcDbLine
 10
24.92528918530814
 20
6.637919702378759
 30
0.0
 11
24.35561489931453
 21
6.637919702378759
 31
0.0
  0
LINE
  5
21F11
330
1F
100
AcDbEntity
  8
0
100
AcDbLine
 10
24.98280309311874
 20
6.637919702378759
 30
0.0
 11
25.50818558468667
 21
6.637919702378759
 31
0.0
  0
LINE
  5
21F12
330
1F
100
AcDbEntity
  8
0
100
AcDbLine
 10
24.97964457024603
 20
5.497919702378759
 30
0.0
 11
24.9723539689135
 21
5.497919702378759
 31
0.0
  0
LINE
  5
21F13
330
1F
100
AcDbEntity
  8
0
100
AcDbLine
 10
24.95106294283568
 20
6.637919702378759
 30
0.0
 11
24.97105065461403
 21
6.637919702378759
 31
0.0
  0
LINE
  5
21F14
330
1F
100
AcDbEntity
  8
0
100
AcDbLine
 10
24.92528918530815
 20
5.484919702378757
 30
0.0
 11
24.51190970529748
 21
5.484919702378721
 31
0.0
  0
LINE
  5
21F15
330
1F
100
AcDbEntity
  8
0
100
AcDbLine
 10
24.33174700406735
 20
6.500724318999061
 30
0.0
 11
24.33174700406735
 21
5.632724318999059
 31
0.0
  0
LINE
  5
21F16
330
1F
100
AcDbEntity
  8
0
100
AcDbLine
 10
24.98280309311874
 20
5.484919702378757
 30
0.0
 11
25.39014534414835
 21
5.484919702378718
 31
0.0
  0
LINE
  5
21F17
330
1F
100
AcDbEntity
  8
0
100
AcDbLine
 10
24.97105065461403
 20
6.637919702378759
 30
0.0
 11
24.97964457024603
 21
6.637919702378759
 31
0.0
  0
LINE
  5
21F18
330
1F
100
AcDbEntity
  8
0
100
AcDbLine
 10
24.97964457024603
 20
6.637919702378759
 30
0.0
 11
24.98280309311874
 21
6.637919702378759
 31
0.0
  0
LINE
  5
21F19
330
1F
100
AcDbEntity
  8
0
100
AcDbLine
 10
24.98280309311874
 20
5.497919702378759
 30
0.0
 11
24.97964457024603
 21
5.497919702378759
 31
0.0
  0
LINE
  5
21F1A
330
1F
100
AcDbEntity
  8
0
100
AcDbLine
 10
24.33174700406735
 20
5.632724318999059
 30
0.0
 11
24.33174700406735
 21
5.59272431899906
 31
0.0
  0
LINE
  5
21F1B
330
1F
100
AcDbEntity
  8
0
100
AcDbLine
 10
24.33174700406735
 20
5.59272431899906
 30
0.0
 11
24.33174700406735
 21
5.497919702378759
 31
0.0
  0
LINE
  5
21F1C
330
1F
100
AcDbEntity
  8
0
100
AcDbLine
 10
25.50818558468668
 20
5.497919702378759
 30
0.0
 11
24.98280309311874
 21
5.497919702378759
 31
0.0
  0
LINE
  5
21F1D
330
1F
100
AcDbEntity
  8
0
100
AcDbLine
 10
25.5313422166555
 20
5.786561282185992
 30
0.0
 11
25.5313422166555
 21
5.497919702378759
 31
0.0
  0
LINE
  5
21F1E
330
1F
100
AcDbEntity
  8
0
100
AcDbLine
 10
24.95246687777708
 20
6.648919702378758
 30
0.0
 11
24.97964457024603
 21
6.648919702378758
 31
0.0
  0
LINE
  5
21F1F
330
1F
100
AcDbEntity
  8
0
100
AcDbLine
 10
24.95246687777708
 20
6.648919702378758
 30
0.0
 11
24.92528918530814
 21
6.648919702378758
 31
0.0
  0
LINE
  5
21F20
330
1F
100
AcDbEntity
  8
0
100
AcDbLine
 10
24.98280309311874
 20
6.648919702378766
 30
0.0
 11
25.50818558468667
 21
6.648919702378748
 31
0.0
  0
LINE
  5
21F21
330
1F
100
AcDbEntity
  8
0
100
AcDbLine
 10
24.92528918530814
 20
6.648919702378758
 30
0.0
 11
24.35561489931453
 21
6.648919702378741
 31
0.0
  0
LINE
  5
21F22
330
1F
100
AcDbEntity
  8
0
100
AcDbLine
 10
24.47190970529748
 20
5.484919702378718
 30
0.0
 11
24.35561489931452
 21
5.484919702378707
 31
0.0
  0
LINE
  5
21F23
330
1F
100
AcDbEntity
  8
0
100
AcDbLine
 10
24.33174700406735
 20
5.497919702378759
 30
0.0
 11
24.35561489931452
 21
5.497919702378759
 31
0.0
  0
LINE
  5
21F24
330
1F
100
AcDbEntity
  8
0
100
AcDbLine
 10
24.33174700406735
 20
6.637919702378759
 30
0.0
 11
24.35561489931453
 21
6.637919702378759
 31
0.0
  0
LINE
  5
21F25
330
1F
100
AcDbEntity
  8
0
100
AcDbLine
 10
24.95246687777708
 20
5.484919702378757
 30
0.0
 11
24.97964457024603
 21
5.484919702378757
 31
0.0
  0
LINE
  5
21F26
330
1F
100
AcDbEntity
  8
0
100
AcDbLine
 10
24.95246687777708
 20
5.484919702378757
 30
0.0
 11
24.92528918530815
 21
5.484919702378757
 31
0.0
  0
LINE
  5
21F27
330
1F
100
AcDbEntity
  8
0
100
AcDbLine
 10
25.43014534414835
 20
5.484919702378714
 30
0.0
 11
25.50818558468668
 21
5.484919702378707
 31
0.0
  0
LINE
  5
21F28
330
1F
100
AcDbEntity
  8
0
100
AcDbLine
 10
24.93388310094014
 20
6.637919702378759
 30
0.0
 11
24.92984973940008
 21
6.637919702378759
 31
0.0
  0
LINE
  5
21F29
330
1F
100
AcDbEntity
  8
0
100
AcDbLine
 10
25.5313422166555
 20
6.637919702378759
 30
0.0
 11
25.50818558468667
 21
6.637919702378759
 31
0.0
  0
LINE
  5
21F2A
330
1F
100
AcDbEntity
  8
0
100
AcDbLine
 10
25.50818558468668
 20
5.497919702378759
 30
0.0
 11
25.5313422166555
 21
5.497919702378759
 31
0.0
  0
LINE
  5
21F2B
330
1F
100
AcDbEntity
  8
0
100
AcDbLine
 10
24.93257978664066
 20
5.497919702378759
 30
0.0
 11
24.92984973940008
 21
5.497919702378759
 31
0.0
  0
LINE
  5
21F2C
330
1F
100
AcDbEntity
  8
0
100
AcDbLine
 10
25.53161760879183
 20
6.306561381464593
 30
0.0
 11
25.53119441527323
 21
6.306570347699185
 31
0.0
  0
LINE
  5
21F2D
330
1F
100
AcDbEntity
  8
0
100
AcDbLine
 10
25.5313422166555
 20
5.786561282185992
 30
0.0
 11
25.53134793682453
 21
5.795019548353067
 31
0.0
  0
LINE
  5
21F2E
330
1F
100
AcDbEntity
  8
0
100
AcDbLine
 10
25.53134793682453
 20
5.795019548353067
 30
0.0
 11
25.53133154622571
 21
5.824103016469983
 31
0.0
  0
LINE
  5
21F2F
330
1F
100
AcDbEntity
  8
0
100
AcDbLine
 10
25.53133154622571
 20
5.824103016469983
 30
0.0
 11
25.5313291421463
 21
5.832561280327915
 31
0.0
  0
LINE
  5
21F30
330
1F
100
AcDbEntity
  8
0
100
AcDbLine
 10
25.5313291421463
 20
5.832561280327915
 30
0.0
 11
25.53119441527323
 21
6.306570347699185
 31
0.0
  0
LINE
  5
21F31
330
1F
100
AcDbEntity
  8
0
100
AcDbLine
 10
25.53119441527323
 20
6.306570347699185
 30
0.0
 11
25.53118788060128
 21
6.329561260252638
 31
0.0
  0
LINE
  5
21F32
330
1F
100
AcDbEntity
  8
0
100
AcDbLine
 10
25.53118788060128
 20
6.329561260252638
 30
0.0
 11
25.53118134334668
 21
6.352561259323607
 31
0.0
  0
LINE
  5
21F34
330
1F
100
AcDbEntity
  8
0
100
AcDbLine
 10
24.43862628759946
 20
6.648919702378743
 30
0.0
 11
24.47862628759946
 21
6.648919702378739
 31
0.0
  0
LINE
  5
21F37
330
1F
100
AcDbEntity
  8
0
100
AcDbLine
 10
25.34662628759946
 20
6.648919702378752
 30
0.0
 11
25.38662628759946
 21
6.648919702378751
 31
0.0
  0
LINE
  5
21F39
330
1F
100
AcDbEntity
  8
STREFA BEZPIECZEŃSTWA
100
AcDbLine
 10
25.16138507977743
 20
3.882677897133806
 30
0.0
 11
24.68103615241495
 21
3.882677897133806
 31
0.0
  0
LINE
  5
220AE
330
1F
100
AcDbEntity
  8
0
100
AcDbLine
 10
22.48942624681617
 20
5.519895797962089
 30
0.0
 11
22.48942624681617
 21
5.516488380590995
 31
0.0
  0
LINE
  5
220AF
330
1F
100
AcDbEntity
  8
0
100
AcDbLine
 10
22.48942624681617
 20
5.616488380590997
 30
0.0
 11
22.48942624681617
 21
5.519895797962089
 31
0.0
  0
LINE
  5
220B0
330
1F
100
AcDbEntity
  8
0
100
AcDbLine
 10
22.48942624681617
 20
5.650476345299331
 30
0.0
 11
22.48942624681617
 21
5.616488380590997
 31
0.0
  0
LINE
  5
220B1
330
1F
100
AcDbEntity
  8
0
100
AcDbLine
 10
21.63078422177964
 20
5.651179562544228
 30
0.0
 11
21.63078422177964
 21
5.668588297811698
 31
0.0
  0
LINE
  5
220B2
330
1F
100
AcDbEntity
  8
0
100
AcDbLine
 10
21.63078422177964
 20
5.680588297811699
 30
0.0
 11
21.63078422177964
 21
5.693667925447158
 31
0.0
  0
LINE
  5
220B3
330
1F
100
AcDbEntity
  8
0
100
AcDbLine
 10
21.63078422177964
 20
5.693667925447158
 30
0.0
 11
21.64272938060779
 21
5.693667925447158
 31
0.0
  0
LINE
  5
220B4
330
1F
100
AcDbEntity
  8
0
100
AcDbLine
 10
21.67242938060779
 20
5.693667925447158
 30
0.0
 11
21.68478521755458
 21
5.693667925447158
 31
0.0
  0
LINE
  5
220B5
330
1F
100
AcDbEntity
  8
0
100
AcDbLine
 10
21.68878521755459
 20
5.680588297811699
 30
0.0
 11
21.68478521755458
 21
5.680588297811699
 31
0.0
  0
LINE
  5
220B6
330
1F
100
AcDbEntity
  8
0
100
AcDbLine
 10
21.68878521755459
 20
5.668588297811698
 30
0.0
 11
21.68478521755458
 21
5.668588297811698
 31
0.0
  0
LINE
  5
220B7
330
1F
100
AcDbEntity
  8
0
100
AcDbLine
 10
21.68478521755459
 20
6.438272163114099
 30
0.0
 11
21.68478521755459
 21
6.427510489497215
 31
0.0
  0
LINE
  5
220B8
330
1F
100
AcDbEntity
  8
0
100
AcDbLine
 10
21.68478521755459
 20
6.415510489497215
 30
0.0
 11
21.68478521755459
 21
6.402430861861756
 31
0.0
  0
LINE
  5
220B9
330
1F
100
AcDbEntity
  8
0
100
AcDbLine
 10
21.63078422177964
 20
6.402430861861756
 30
0.0
 11
21.64272938060779
 21
6.402430861861756
 31
0.0
  0
LINE
  5
220BA
330
1F
100
AcDbEntity
  8
0
100
AcDbLine
 10
21.67242938060779
 20
6.402430861861756
 30
0.0
 11
21.68478521755459
 21
6.402430861861756
 31
0.0
  0
LINE
  5
220BB
330
1F
100
AcDbEntity
  8
0
100
AcDbLine
 10
21.70423303746909
 20
6.471634579088735
 30
0.0
 11
21.69901299711545
 21
6.464831690052616
 31
0.0
  0
LINE
  5
220BC
330
1F
100
AcDbEntity
  8
0
100
AcDbLine
 10
21.6988042104383
 20
6.471075720821648
 30
0.0
 11
21.70108598985633
 21
6.474049393654457
 31
0.0
  0
LINE
  5
220BD
330
1F
100
AcDbEntity
  8
0
100
AcDbLine
 10
21.70108598985633
 20
6.474049393654457
 30
0.0
 11
21.70423303746909
 21
6.471634579088735
 31
0.0
  0
LINE
  5
220BE
330
1F
100
AcDbEntity
  8
0
100
AcDbLine
 10
21.68878521755459
 20
6.415510489497215
 30
0.0
 11
21.68478521755459
 21
6.415510489497215
 31
0.0
  0
LINE
  5
220BF
330
1F
100
AcDbEntity
  8
0
100
AcDbLine
 10
21.68878521755459
 20
6.427510489497215
 30
0.0
 11
21.68478521755459
 21
6.427510489497215
 31
0.0
  0
LINE
  5
220C0
330
1F
100
AcDbEntity
  8
0
100
AcDbLine
 10
21.69901299711545
 20
6.464831690052616
 30
0.0
 11
21.70139305713632
 21
6.463005405765592
 31
0.0
  0
LINE
  5
220C1
330
1F
100
AcDbEntity
  8
0
100
AcDbLine
 10
21.67242938060779
 20
5.717582722055766
 30
0.0
 11
21.67242938060779
 21
6.374649393654458
 31
0.0
  0
LINE
  5
220C2
330
1F
100
AcDbEntity
  8
0
100
AcDbLine
 10
21.64272938060779
 20
5.717582722055766
 30
0.0
 11
21.67242938060779
 21
5.717582722055766
 31
0.0
  0
LINE
  5
220C3
330
1F
100
AcDbEntity
  8
0
100
AcDbLine
 10
21.64272938060779
 20
5.717582722055766
 30
0.0
 11
21.64272938060779
 21
6.374649393654458
 31
0.0
  0
LINE
  5
220C4
330
1F
100
AcDbEntity
  8
0
100
AcDbLine
 10
21.64272938060779
 20
5.658182722055766
 30
0.0
 11
21.67242938060779
 21
5.658182722055766
 31
0.0
  0
LINE
  5
220C5
330
1F
100
AcDbEntity
  8
0
100
AcDbLine
 10
21.64272938060779
 20
6.374649393654458
 30
0.0
 11
21.67242938060779
 21
6.374649393654458
 31
0.0
  0
LINE
  5
220C6
330
1F
100
AcDbEntity
  8
0
100
AcDbLine
 10
21.64272938060779
 20
6.434049393654458
 30
0.0
 11
21.67242938060779
 21
6.434049393654458
 31
0.0
  0
LINE
  5
220C7
330
1F
100
AcDbEntity
  8
0
100
AcDbLine
 10
22.60517213189146
 20
6.469050771523416
 30
0.0
 11
22.60517213189146
 21
6.478925273117489
 31
0.0
  0
LINE
  5
220C8
330
1F
100
AcDbEntity
  8
0
100
AcDbLine
 10
22.60517213189146
 20
6.518925273117488
 30
0.0
 11
22.60517213189146
 21
6.526050771523415
 31
0.0
  0
LINE
  5
220C9
330
1F
100
AcDbEntity
  8
0
100
AcDbLine
 10
22.61517213189146
 20
6.469050771523416
 30
0.0
 11
22.61517213189146
 21
6.478925273117489
 31
0.0
  0
LINE
  5
220CA
330
1F
100
AcDbEntity
  8
0
100
AcDbLine
 10
22.61517213189146
 20
6.518925273117488
 30
0.0
 11
22.61517213189146
 21
6.526050771523415
 31
0.0
  0
LINE
  5
220CB
330
1F
100
AcDbEntity
  8
0
100
AcDbLine
 10
22.60517213189146
 20
6.526050771523415
 30
0.0
 11
22.61517213189146
 21
6.526050771523415
 31
0.0
  0
LINE
  5
220CC
330
1F
100
AcDbEntity
  8
0
100
AcDbLine
 10
23.3939456762914
 20
6.479668781085205
 30
0.0
 11
23.39912205719345
 21
6.478987297610984
 31
0.0
  0
LINE
  5
220CD
330
1F
100
AcDbEntity
  8
0
100
AcDbLine
 10
23.39357840125219
 20
6.479820911387562
 30
0.0
 11
23.3939456762914
 21
6.479668781085205
 31
0.0
  0
LINE
  5
220CE
330
1F
100
AcDbEntity
  8
0
100
AcDbLine
 10
23.39912205719345
 20
6.478987297610984
 30
0.0
 11
23.40329812449047
 21
6.47953708730073
 31
0.0
  0
LINE
  5
220CF
330
1F
100
AcDbEntity
  8
0
100
AcDbLine
 10
23.3939456762914
 20
6.518305814136766
 30
0.0
 11
23.39324279691011
 21
6.518014671964323
 31
0.0
  0
LINE
  5
220D0
330
1F
100
AcDbEntity
  8
0
100
AcDbLine
 10
24.30065293178301
 20
6.479444016635714
 30
0.0
 11
24.30412205719345
 21
6.478987297610988
 31
0.0
  0
LINE
  5
220D1
330
1F
100
AcDbEntity
  8
0
100
AcDbLine
 10
22.60517213189146
 20
6.478925273117489
 30
0.0
 11
22.6008042104383
 21
6.478925273117489
 31
0.0
  0
LINE
  5
220D2
330
1F
100
AcDbEntity
  8
0
100
AcDbLine
 10
22.60517213189146
 20
6.518925273117488
 30
0.0
 11
22.6008042104383
 21
6.518925273117488
 31
0.0
  0
LINE
  5
220D3
330
1F
100
AcDbEntity
  8
0
100
AcDbLine
 10
22.60517213189146
 20
6.469050771523416
 30
0.0
 11
22.61517213189146
 21
6.469050771523416
 31
0.0
  0
LINE
  5
220D4
330
1F
100
AcDbEntity
  8
0
100
AcDbLine
 10
22.61517213189145
 20
6.486607182414633
 30
0.0
 11
22.62517213189146
 21
6.486607182414633
 31
0.0
  0
LINE
  5
220D5
330
1F
100
AcDbEntity
  8
0
100
AcDbLine
 10
22.61517213189145
 20
6.506607182414629
 30
0.0
 11
22.62517213189146
 21
6.506607182414629
 31
0.0
  0
LINE
  5
220D6
330
1F
100
AcDbEntity
  8
0
100
AcDbLine
 10
22.48189681100817
 20
6.474725364941747
 30
0.0
 11
22.4659449349673
 21
6.474725364941747
 31
0.0
  0
LINE
  5
220D7
330
1F
100
AcDbEntity
  8
0
100
AcDbLine
 10
22.4539449349673
 20
6.474725364941747
 30
0.0
 11
22.44086530733184
 21
6.474725364941747
 31
0.0
  0
LINE
  5
220D8
330
1F
100
AcDbEntity
  8
0
100
AcDbLine
 10
22.44086530733184
 20
6.528726360716699
 30
0.0
 11
22.44086530733184
 21
6.516781201888544
 31
0.0
  0
LINE
  5
220D9
330
1F
100
AcDbEntity
  8
0
100
AcDbLine
 10
22.44086530733184
 20
6.487081201888546
 30
0.0
 11
22.44086530733184
 21
6.474725364941747
 31
0.0
  0
LINE
  5
220DA
330
1F
100
AcDbEntity
  8
0
100
AcDbLine
 10
22.4539449349673
 20
6.470725364941745
 30
0.0
 11
22.4539449349673
 21
6.474725364941747
 31
0.0
  0
LINE
  5
220DB
330
1F
100
AcDbEntity
  8
0
100
AcDbLine
 10
22.4659449349673
 20
6.470725364941745
 30
0.0
 11
22.4659449349673
 21
6.474725364941747
 31
0.0
  0
LINE
  5
220DC
330
1F
100
AcDbEntity
  8
0
100
AcDbLine
 10
21.6988042104383
 20
6.528726360716699
 30
0.0
 11
21.70702274328179
 21
6.528726360716699
 31
0.0
  0
LINE
  5
220DD
330
1F
100
AcDbEntity
  8
0
100
AcDbLine
 10
21.71902274328179
 20
6.528726360716699
 30
0.0
 11
21.73210237091725
 21
6.528726360716699
 31
0.0
  0
LINE
  5
220DE
330
1F
100
AcDbEntity
  8
0
100
AcDbLine
 10
21.73210237091725
 20
6.528726360716699
 30
0.0
 11
21.73210237091725
 21
6.516781201888552
 31
0.0
  0
LINE
  5
220DF
330
1F
100
AcDbEntity
  8
0
100
AcDbLine
 10
21.73210237091725
 20
6.487081201888546
 30
0.0
 11
21.73210237091725
 21
6.47472536494175
 31
0.0
  0
LINE
  5
220E0
330
1F
100
AcDbEntity
  8
0
100
AcDbLine
 10
21.71902274328179
 20
6.470725364941749
 30
0.0
 11
21.71902274328179
 21
6.47472536494175
 31
0.0
  0
LINE
  5
220E1
330
1F
100
AcDbEntity
  8
0
100
AcDbLine
 10
21.70702274328179
 20
6.470725364941749
 30
0.0
 11
21.70702274328179
 21
6.47472536494175
 31
0.0
  0
LINE
  5
220E2
330
1F
100
AcDbEntity
  8
0
100
AcDbLine
 10
22.41695051072323
 20
6.516781201888544
 30
0.0
 11
22.41695051072323
 21
6.487081201888546
 31
0.0
  0
LINE
  5
220E3
330
1F
100
AcDbEntity
  8
0
100
AcDbLine
 10
21.75988383912454
 20
6.516781201888552
 30
0.0
 11
21.75988383912454
 21
6.487081201888546
 31
0.0
  0
LINE
  5
220E4
330
1F
100
AcDbEntity
  8
0
100
AcDbLine
 10
21.75988383912454
 20
6.516781201888552
 30
0.0
 11
22.41695051072323
 21
6.516781201888544
 31
0.0
  0
LINE
  5
220E5
330
1F
100
AcDbEntity
  8
0
100
AcDbLine
 10
22.47635051072323
 20
6.516781201888544
 30
0.0
 11
22.47635051072323
 21
6.487081201888546
 31
0.0
  0
LINE
  5
220E6
330
1F
100
AcDbEntity
  8
0
100
AcDbLine
 10
21.70048383912454
 20
6.516781201888548
 30
0.0
 11
21.70048383912454
 21
6.487081201888546
 31
0.0
  0
LINE
  5
220E7
330
1F
100
AcDbEntity
  8
0
100
AcDbLine
 10
24.29612745287736
 20
5.610925273117491
 30
0.0
 11
24.29612745287736
 21
6.478925273117489
 31
0.0
  0
LINE
  5
220E8
330
1F
100
AcDbEntity
  8
0
100
AcDbLine
 10
24.20048381758368
 20
5.610925273117491
 30
0.0
 11
24.20048381758368
 21
6.478925273117489
 31
0.0
  0
LINE
  5
220E9
330
1F
100
AcDbEntity
  8
0
100
AcDbLine
 10
24.10110439954697
 20
5.610925273117491
 30
0.0
 11
24.10110439954697
 21
6.478925273117489
 31
0.0
  0
LINE
  5
220EA
330
1F
100
AcDbEntity
  8
0
100
AcDbLine
 10
24.02141603515262
 20
5.610925273117491
 30
0.0
 11
24.02141603515262
 21
6.478925273117489
 31
0.0
  0
LINE
  5
220EB
330
1F
100
AcDbEntity
  8
0
100
AcDbLine
 10
23.94235314134153
 20
5.610925273117487
 30
0.0
 11
23.94235314134153
 21
6.478925273117489
 31
0.0
  0
LINE
  5
220EC
330
1F
100
AcDbEntity
  8
0
100
AcDbLine
 10
23.84554013919029
 20
5.610925273117491
 30
0.0
 11
23.84554013919029
 21
6.478925273117489
 31
0.0
  0
LINE
  5
220ED
330
1F
100
AcDbEntity
  8
0
100
AcDbLine
 10
23.76647724537919
 20
5.610925273117491
 30
0.0
 11
23.76647724537919
 21
6.478925273117489
 31
0.0
  0
LINE
  5
220EE
330
1F
100
AcDbEntity
  8
0
100
AcDbLine
 10
23.68678888098484
 20
5.610925273117491
 30
0.0
 11
23.68678888098484
 21
6.478925273117493
 31
0.0
  0
LINE
  5
220EF
330
1F
100
AcDbEntity
  8
0
100
AcDbLine
 10
23.58740946294813
 20
5.610925273117491
 30
0.0
 11
23.58740946294813
 21
6.478925273117493
 31
0.0
  0
LINE
  5
220F0
330
1F
100
AcDbEntity
  8
0
100
AcDbLine
 10
23.49176582765444
 20
5.610925273117494
 30
0.0
 11
23.49176582765444
 21
6.478925273117493
 31
0.0
  0
LINE
  5
220F1
330
1F
100
AcDbEntity
  8
0
100
AcDbLine
 10
23.41724793236893
 20
5.610925273117494
 30
0.0
 11
23.41724793236893
 21
6.478925273117493
 31
0.0
  0
LINE
  5
220F2
330
1F
100
AcDbEntity
  8
0
100
AcDbLine
 10
23.33304777190985
 20
5.610925273117494
 30
0.0
 11
23.33304777190985
 21
6.478925273117493
 31
0.0
  0
LINE
  5
220F3
330
1F
100
AcDbEntity
  8
0
100
AcDbLine
 10
23.24872158209155
 20
5.610925273117494
 30
0.0
 11
23.24872158209154
 21
6.478925273117493
 31
0.0
  0
LINE
  5
220F4
330
1F
100
AcDbEntity
  8
0
100
AcDbLine
 10
23.16566138735265
 20
5.610925273117494
 30
0.0
 11
23.16566138735265
 21
6.478925273117493
 31
0.0
  0
LINE
  5
220F5
330
1F
100
AcDbEntity
  8
0
100
AcDbLine
 10
23.06888534434192
 20
5.610925273117494
 30
0.0
 11
23.06888534434192
 21
6.478925273117493
 31
0.0
  0
LINE
  5
220F6
330
1F
100
AcDbEntity
  8
0
100
AcDbLine
 10
22.98998911787726
 20
5.610925273117494
 30
0.0
 11
22.98998911787726
 21
6.478925273117493
 31
0.0
  0
LINE
  5
220F7
330
1F
100
AcDbEntity
  8
0
100
AcDbLine
 10
22.89965320660364
 20
5.610925273117494
 30
0.0
 11
22.89965320660364
 21
6.478925273117493
 31
0.0
  0
LINE
  5
220F8
330
1F
100
AcDbEntity
  8
0
100
AcDbLine
 10
22.81885671067204
 20
5.610925273117494
 30
0.0
 11
22.81885671067204
 21
6.478925273117496
 31
0.0
  0
LINE
  5
220F9
330
1F
100
AcDbEntity
  8
0
100
AcDbLine
 10
22.74938676584856
 20
5.610925273117494
 30
0.0
 11
22.74938676584856
 21
6.478925273117493
 31
0.0
  0
LINE
  5
220FA
330
1F
100
AcDbEntity
  8
0
100
AcDbLine
 10
22.66859026991696
 20
5.610925273117491
 30
0.0
 11
22.66859026991696
 21
6.478925273117493
 31
0.0
  0
LINE
  5
220FB
330
1F
100
AcDbEntity
  8
0
100
AcDbLine
 10
22.61517213189146
 20
5.561050771523415
 30
0.0
 11
22.61517213189146
 21
5.570925273117492
 31
0.0
  0
LINE
  5
220FC
330
1F
100
AcDbEntity
  8
0
100
AcDbLine
 10
22.61517213189146
 20
5.610925273117491
 30
0.0
 11
22.61517213189146
 21
5.618050771523417
 31
0.0
  0
LINE
  5
220FD
330
1F
100
AcDbEntity
  8
0
100
AcDbLine
 10
22.60650791912384
 20
5.618050771523417
 30
0.0
 11
22.61517213189146
 21
5.618050771523417
 31
0.0
  0
LINE
  5
220FE
330
1F
100
AcDbEntity
  8
0
100
AcDbLine
 10
23.3939456762914
 20
5.571668781085204
 30
0.0
 11
23.39912205719345
 21
5.570987297610987
 31
0.0
  0
LINE
  5
220FF
330
1F
100
AcDbEntity
  8
0
100
AcDbLine
 10
23.39357840125219
 20
5.571820911387565
 30
0.0
 11
23.3939456762914
 21
5.571668781085204
 31
0.0
  0
LINE
  5
22100
330
1F
100
AcDbEntity
  8
0
100
AcDbLine
 10
23.39912205719345
 20
5.570987297610987
 30
0.0
 11
23.40329812449046
 21
5.571537087300729
 31
0.0
  0
LINE
  5
22101
330
1F
100
AcDbEntity
  8
0
100
AcDbLine
 10
23.3939456762914
 20
5.610305814136768
 30
0.0
 11
23.39324279691011
 21
5.610014671964325
 31
0.0
  0
LINE
  5
22102
330
1F
100
AcDbEntity
  8
0
100
AcDbLine
 10
24.300652931783
 20
5.571444016635716
 30
0.0
 11
24.30412205719345
 21
5.570987297610987
 31
0.0
  0
LINE
  5
22103
330
1F
100
AcDbEntity
  8
0
100
AcDbLine
 10
22.60650791912384
 20
5.561050771523401
 30
0.0
 11
22.61517213189146
 21
5.561050771523415
 31
0.0
  0
LINE
  5
22104
330
1F
100
AcDbEntity
  8
0
100
AcDbLine
 10
22.61517213189145
 20
5.578607182414632
 30
0.0
 11
22.62517213189146
 21
5.578607182414632
 31
0.0
  0
LINE
  5
22105
330
1F
100
AcDbEntity
  8
0
100
AcDbLine
 10
22.61517213189145
 20
5.598607182414628
 30
0.0
 11
22.62517213189146
 21
5.598607182414628
 31
0.0
  0
LINE
  5
22106
330
1F
100
AcDbEntity
  8
0
100
AcDbLine
 10
22.56864680203769
 20
5.530689250486439
 30
0.0
 11
22.56864680203769
 21
5.5322721631141
 31
0.0
  0
LINE
  5
22107
330
1F
100
AcDbEntity
  8
0
100
AcDbLine
 10
22.59705421940877
 20
5.651179562544228
 30
0.0
 11
22.59705421940876
 21
6.438272163114099
 31
0.0
  0
LINE
  5
22108
330
1F
100
AcDbEntity
  8
0
100
AcDbLine
 10
21.79366459080388
 20
5.568689250486404
 30
0.0
 11
21.82451577552841
 21
5.568689250486404
 31
0.0
  0
LINE
  5
22109
330
1F
100
AcDbEntity
  8
0
100
AcDbLine
 10
21.7259951716639
 20
6.47472536494175
 30
0.0
 11
21.7259951716639
 21
5.650476345299331
 31
0.0
  0
LINE
  5
2210A
330
1F
100
AcDbEntity
  8
0
100
AcDbLine
 10
21.82451577552841
 20
5.568689250486404
 30
0.0
 11
21.82451577552841
 21
6.487081201888546
 31
0.0
  0
LINE
  5
2210B
330
1F
100
AcDbEntity
  8
0
100
AcDbLine
 10
21.92152073725952
 20
5.568689250486404
 30
0.0
 11
22.02757984451409
 21
5.568689250486404
 31
0.0
  0
LINE
  5
2210C
330
1F
100
AcDbEntity
  8
0
100
AcDbLine
 10
21.92152073725952
 20
6.487081201888546
 30
0.0
 11
21.92152073725952
 21
5.568689250486404
 31
0.0
  0
LINE
  5
2210D
330
1F
100
AcDbEntity
  8
0
100
AcDbLine
 10
22.02757984451409
 20
5.568689250486404
 30
0.0
 11
22.02757984451409
 21
6.487081201888546
 31
0.0
  0
LINE
  5
2210E
330
1F
100
AcDbEntity
  8
0
100
AcDbLine
 10
22.12781273880523
 20
5.568689250486404
 30
0.0
 11
22.23011808361638
 21
5.568689250486404
 31
0.0
  0
LINE
  5
2210F
330
1F
100
AcDbEntity
  8
0
100
AcDbLine
 10
22.12781273880523
 20
6.487081201888546
 30
0.0
 11
22.12781273880523
 21
5.568689250486404
 31
0.0
  0
LINE
  5
22110
330
1F
100
AcDbEntity
  8
0
100
AcDbLine
 10
22.23011808361638
 20
5.568689250486404
 30
0.0
 11
22.23011808361638
 21
6.487081201888546
 31
0.0
  0
LINE
  5
22111
330
1F
100
AcDbEntity
  8
0
100
AcDbLine
 10
22.3338040344683
 20
6.487081201888546
 30
0.0
 11
22.3338040344683
 21
5.568689250486404
 31
0.0
  0
LINE
  5
22112
330
1F
100
AcDbEntity
  8
0
100
AcDbLine
 10
22.3338040344683
 20
5.568689250486404
 30
0.0
 11
22.38385555202951
 21
5.568689250486404
 31
0.0
  0
LINE
  5
22113
330
1F
100
AcDbEntity
  8
0
100
AcDbLine
 10
22.42892663750116
 20
5.650476345299328
 30
0.0
 11
22.42892663750116
 21
6.487081201888546
 31
0.0
  0
LINE
  5
22114
330
1F
100
AcDbEntity
  8
0
100
AcDbLine
 10
21.6259951716639
 20
6.438272163114099
 30
0.0
 11
21.6259951716639
 21
6.427510489497215
 31
0.0
  0
LINE
  5
22115
330
1F
100
AcDbEntity
  8
0
100
AcDbLine
 10
21.6259951716639
 20
6.415510489497215
 30
0.0
 11
21.6259951716639
 21
5.680588297811699
 31
0.0
  0
LINE
  5
22116
330
1F
100
AcDbEntity
  8
0
100
AcDbLine
 10
21.6259951716639
 20
5.668588297811698
 30
0.0
 11
21.6259951716639
 21
5.651179562544228
 31
0.0
  0
LINE
  5
22117
330
1F
100
AcDbEntity
  8
0
100
AcDbLine
 10
21.82451577552841
 20
5.568689250486404
 30
0.0
 11
21.92152073725952
 21
5.568689250486404
 31
0.0
  0
LINE
  5
22118
330
1F
100
AcDbEntity
  8
0
100
AcDbLine
 10
22.02757984451409
 20
5.568689250486404
 30
0.0
 11
22.12781273880523
 21
5.568689250486404
 31
0.0
  0
LINE
  5
22119
330
1F
100
AcDbEntity
  8
0
100
AcDbLine
 10
22.23011808361638
 20
5.568689250486404
 30
0.0
 11
22.3338040344683
 21
5.568689250486404
 31
0.0
  0
LINE
  5
2211A
330
1F
100
AcDbEntity
  8
0
100
AcDbLine
 10
22.52404924053401
 20
5.651179562544228
 30
0.0
 11
22.52404924053401
 21
6.438272163114099
 31
0.0
  0
LINE
  5
2211B
330
1F
100
AcDbEntity
  8
0
100
AcDbLine
 10
21.57989681100817
 20
6.557179562544227
 30
0.0
 11
21.57989681100817
 21
6.438272163114099
 31
0.0
  0
LINE
  5
2211C
330
1F
100
AcDbEntity
  8
0
100
AcDbLine
 10
21.60002584978256
 20
6.430665862829247
 30
0.0
 11
21.60939653113649
 21
6.430665862829247
 31
0.0
  0
LINE
  5
2211D
330
1F
100
AcDbEntity
  8
0
100
AcDbLine
 10
21.60002584978256
 20
6.557179562544227
 30
0.0
 11
21.60002584978256
 21
6.566325862829248
 31
0.0
  0
LINE
  5
2211E
330
1F
100
AcDbEntity
  8
0
100
AcDbLine
 10
21.60002584978256
 20
6.430665862829247
 30
0.0
 11
21.60002584978256
 21
6.438272163114099
 31
0.0
  0
LINE
  5
2211F
330
1F
100
AcDbEntity
  8
0
100
AcDbLine
 10
21.68570584978256
 20
6.557179562544227
 30
0.0
 11
21.68570584978256
 21
6.566325862829248
 31
0.0
  0
LINE
  5
22120
330
1F
100
AcDbEntity
  8
0
100
AcDbLine
 10
21.63399651365024
 20
6.566325862829248
 30
0.0
 11
21.63399651365024
 21
6.57772586282925
 31
0.0
  0
LINE
  5
22121
330
1F
100
AcDbEntity
  8
0
100
AcDbLine
 10
21.65768596542492
 20
6.566325862829248
 30
0.0
 11
21.65768596542492
 21
6.57772586282925
 31
0.0
  0
LINE
  5
22122
330
1F
100
AcDbEntity
  8
0
100
AcDbLine
 10
21.57989681100817
 20
5.651179562544228
 30
0.0
 11
21.57989681100817
 21
5.5322721631141
 31
0.0
  0
LINE
  5
22123
330
1F
100
AcDbEntity
  8
0
100
AcDbLine
 10
21.60002584978256
 20
5.651179562544228
 30
0.0
 11
21.60002584978256
 21
5.66032586282925
 31
0.0
  0
LINE
  5
22124
330
1F
100
AcDbEntity
  8
0
100
AcDbLine
 10
21.60002584978256
 20
5.66032586282925
 30
0.0
 11
21.6093965311365
 21
5.66032586282925
 31
0.0
  0
LINE
  5
22125
330
1F
100
AcDbEntity
  8
0
100
AcDbLine
 10
22.50202584978256
 20
6.557179562544227
 30
0.0
 11
22.50202584978256
 21
6.566325862829248
 31
0.0
  0
LINE
  5
22126
330
1F
100
AcDbEntity
  8
0
100
AcDbLine
 10
22.58770584978256
 20
6.557179562544227
 30
0.0
 11
22.58770584978256
 21
6.566325862829248
 31
0.0
  0
LINE
  5
22127
330
1F
100
AcDbEntity
  8
0
100
AcDbLine
 10
22.53599651365024
 20
6.566325862829248
 30
0.0
 11
22.53599651365024
 21
6.57772586282925
 31
0.0
  0
LINE
  5
22128
330
1F
100
AcDbEntity
  8
0
100
AcDbLine
 10
22.55968596542492
 20
6.566325862829248
 30
0.0
 11
22.55968596542492
 21
6.57772586282925
 31
0.0
  0
LINE
  5
22129
330
1F
100
AcDbEntity
  8
0
100
AcDbLine
 10
22.57705421940876
 20
5.651179562544228
 30
0.0
 11
22.57705421940876
 21
6.438272163114099
 31
0.0
  0
LINE
  5
2212A
330
1F
100
AcDbEntity
  8
0
100
AcDbLine
 10
21.6988042104383
 20
6.529383551101513
 30
0.0
 11
21.70702274328179
 21
6.529383551101513
 31
0.0
  0
LINE
  5
2212B
330
1F
100
AcDbEntity
  8
0
100
AcDbLine
 10
21.71902274328179
 20
6.529383551101513
 30
0.0
 11
22.4539449349673
 21
6.529383551101521
 31
0.0
  0
LINE
  5
2212C
330
1F
100
AcDbEntity
  8
0
100
AcDbLine
 10
22.4659449349673
 20
6.529383551101521
 30
0.0
 11
22.48189681100817
 21
6.529383551101521
 31
0.0
  0
LINE
  5
2212D
330
1F
100
AcDbEntity
  8
0
100
AcDbLine
 10
22.60650791912384
 20
5.5322721631141
 30
0.0
 11
22.60650791912384
 21
5.561050771523401
 31
0.0
  0
LINE
  5
2212E
330
1F
100
AcDbEntity
  8
0
100
AcDbLine
 10
22.60650791912384
 20
5.618050771523417
 30
0.0
 11
22.60650791912384
 21
5.651179562544228
 31
0.0
  0
LINE
  5
2212F
330
1F
100
AcDbEntity
  8
0
100
AcDbLine
 10
21.63078422177964
 20
5.680588297811699
 30
0.0
 11
21.6259951716639
 21
5.680588297811699
 31
0.0
  0
LINE
  5
22130
330
1F
100
AcDbEntity
  8
0
100
AcDbLine
 10
21.6259951716639
 20
5.680588297811699
 30
0.0
 11
21.62478521755459
 21
5.680588297811699
 31
0.0
  0
LINE
  5
22131
330
1F
100
AcDbEntity
  8
0
100
AcDbLine
 10
21.63078422177964
 20
5.668588297811698
 30
0.0
 11
21.6259951716639
 21
5.668588297811698
 31
0.0
  0
LINE
  5
22132
330
1F
100
AcDbEntity
  8
0
100
AcDbLine
 10
21.6259951716639
 20
5.668588297811698
 30
0.0
 11
21.62478521755459
 21
5.668588297811698
 31
0.0
  0
LINE
  5
22133
330
1F
100
AcDbEntity
  8
0
100
AcDbLine
 10
21.63078422177964
 20
6.415510489497215
 30
0.0
 11
21.6259951716639
 21
6.415510489497215
 31
0.0
  0
LINE
  5
22134
330
1F
100
AcDbEntity
  8
0
100
AcDbLine
 10
21.6259951716639
 20
6.415510489497215
 30
0.0
 11
21.62478521755459
 21
6.415510489497215
 31
0.0
  0
LINE
  5
22135
330
1F
100
AcDbEntity
  8
0
100
AcDbLine
 10
21.63078422177964
 20
6.427510489497215
 30
0.0
 11
21.6259951716639
 21
6.427510489497215
 31
0.0
  0
LINE
  5
22136
330
1F
100
AcDbEntity
  8
0
100
AcDbLine
 10
21.6259951716639
 20
6.427510489497215
 30
0.0
 11
21.62478521755459
 21
6.427510489497215
 31
0.0
  0
LINE
  5
22137
330
1F
100
AcDbEntity
  8
0
100
AcDbLine
 10
21.63078422177964
 20
6.415510489497215
 30
0.0
 11
21.63078422177964
 21
6.402430861861756
 31
0.0
  0
LINE
  5
22138
330
1F
100
AcDbEntity
  8
0
100
AcDbLine
 10
21.69901299711545
 20
6.464831690052616
 30
0.0
 11
21.6988042104383
 21
6.464559593957442
 31
0.0
  0
LINE
  5
22139
330
1F
100
AcDbEntity
  8
0
100
AcDbLine
 10
21.68478521755458
 20
5.680588297811699
 30
0.0
 11
21.68478521755458
 21
5.693667925447158
 31
0.0
  0
LINE
  5
2213A
330
1F
100
AcDbEntity
  8
0
100
AcDbLine
 10
23.4042984380955
 20
6.518305814136766
 30
0.0
 11
23.39959317999498
 21
6.518925273117492
 31
0.0
  0
LINE
  5
2213B
330
1F
100
AcDbEntity
  8
0
100
AcDbLine
 10
23.39959317999498
 20
6.518925273117492
 30
0.0
 11
23.39912205719345
 21
6.518987297610987
 31
0.0
  0
LINE
  5
2213C
330
1F
100
AcDbEntity
  8
0
100
AcDbLine
 10
23.39912205719345
 20
6.518987297610987
 30
0.0
 11
23.39865093439192
 21
6.518925273117492
 31
0.0
  0
LINE
  5
2213D
330
1F
100
AcDbEntity
  8
0
100
AcDbLine
 10
23.39865093439192
 20
6.518925273117492
 30
0.0
 11
23.3939456762914
 21
6.518305814136766
 31
0.0
  0
LINE
  5
2213E
330
1F
100
AcDbEntity
  8
0
100
AcDbLine
 10
24.30365093439188
 20
6.518925273117488
 30
0.0
 11
24.29976791030681
 21
6.5184140632985
 31
0.0
  0
LINE
  5
2213F
330
1F
100
AcDbEntity
  8
0
100
AcDbLine
 10
22.4539449349673
 20
6.528726360716699
 30
0.0
 11
22.4539449349673
 21
6.529383551101521
 31
0.0
  0
LINE
  5
22140
330
1F
100
AcDbEntity
  8
0
100
AcDbLine
 10
22.4539449349673
 20
6.529383551101521
 30
0.0
 11
22.4539449349673
 21
6.534725364941746
 31
0.0
  0
LINE
  5
22141
330
1F
100
AcDbEntity
  8
0
100
AcDbLine
 10
22.4659449349673
 20
6.528726360716699
 30
0.0
 11
22.4659449349673
 21
6.529383551101521
 31
0.0
  0
LINE
  5
22142
330
1F
100
AcDbEntity
  8
0
100
AcDbLine
 10
22.4659449349673
 20
6.529383551101521
 30
0.0
 11
22.4659449349673
 21
6.534725364941746
 31
0.0
  0
LINE
  5
22143
330
1F
100
AcDbEntity
  8
0
100
AcDbLine
 10
21.71902274328179
 20
6.528726360716699
 30
0.0
 11
21.71902274328179
 21
6.529383551101513
 31
0.0
  0
LINE
  5
22144
330
1F
100
AcDbEntity
  8
0
100
AcDbLine
 10
21.71902274328179
 20
6.529383551101513
 30
0.0
 11
21.71902274328179
 21
6.534725364941749
 31
0.0
  0
LINE
  5
22145
330
1F
100
AcDbEntity
  8
0
100
AcDbLine
 10
21.70702274328179
 20
6.528726360716699
 30
0.0
 11
21.70702274328179
 21
6.529383551101513
 31
0.0
  0
LINE
  5
22146
330
1F
100
AcDbEntity
  8
0
100
AcDbLine
 10
21.70702274328179
 20
6.529383551101513
 30
0.0
 11
21.70702274328179
 21
6.534725364941749
 31
0.0
  0
LINE
  5
22147
330
1F
100
AcDbEntity
  8
0
100
AcDbLine
 10
21.75988383912454
 20
6.487081201888546
 30
0.0
 11
21.82451577552841
 21
6.487081201888546
 31
0.0
  0
LINE
  5
22148
330
1F
100
AcDbEntity
  8
0
100
AcDbLine
 10
22.4539449349673
 20
6.528726360716699
 30
0.0
 11
22.44086530733184
 21
6.528726360716699
 31
0.0
  0
LINE
  5
22149
330
1F
100
AcDbEntity
  8
0
100
AcDbLine
 10
23.4042984380955
 20
5.610305814136768
 30
0.0
 11
23.39959317999498
 21
5.610925273117494
 31
0.0
  0
LINE
  5
2214A
330
1F
100
AcDbEntity
  8
0
100
AcDbLine
 10
23.39959317999498
 20
5.610925273117494
 30
0.0
 11
23.39912205719345
 21
5.610987297610986
 31
0.0
  0
LINE
  5
2214B
330
1F
100
AcDbEntity
  8
0
100
AcDbLine
 10
23.39912205719345
 20
5.610987297610986
 30
0.0
 11
23.39865093439192
 21
5.610925273117494
 31
0.0
  0
LINE
  5
2214C
330
1F
100
AcDbEntity
  8
0
100
AcDbLine
 10
23.39865093439192
 20
5.610925273117494
 30
0.0
 11
23.3939456762914
 21
5.610305814136768
 31
0.0
  0
LINE
  5
2214D
330
1F
100
AcDbEntity
  8
0
100
AcDbLine
 10
24.30365093439188
 20
5.610925273117491
 30
0.0
 11
24.29976791030681
 21
5.610414063298499
 31
0.0
  0
LINE
  5
2214E
330
1F
100
AcDbEntity
  8
0
100
AcDbLine
 10
24.30365093439188
 20
5.610925273117491
 30
0.0
 11
24.29612745287736
 21
5.610925273117491
 31
0.0
  0
LINE
  5
2214F
330
1F
100
AcDbEntity
  8
0
100
AcDbLine
 10
23.41724793236893
 20
5.610925273117494
 30
0.0
 11
23.39959317999498
 21
5.610925273117494
 31
0.0
  0
LINE
  5
22150
330
1F
100
AcDbEntity
  8
0
100
AcDbLine
 10
23.39865093439192
 20
5.610925273117494
 30
0.0
 11
23.33304777190985
 21
5.610925273117494
 31
0.0
  0
LINE
  5
22151
330
1F
100
AcDbEntity
  8
0
100
AcDbLine
 10
21.57989681100817
 20
6.438272163114099
 30
0.0
 11
21.60002584978256
 21
6.438272163114099
 31
0.0
  0
LINE
  5
22152
330
1F
100
AcDbEntity
  8
0
100
AcDbLine
 10
21.60002584978256
 20
6.557179562544227
 30
0.0
 11
21.57989681100817
 21
6.557179562544227
 31
0.0
  0
LINE
  5
22153
330
1F
100
AcDbEntity
  8
0
100
AcDbLine
 10
21.6988042104383
 20
5.636467232246584
 30
0.0
 11
21.6988042104383
 21
5.651179562544228
 31
0.0
  0
LINE
  5
22154
330
1F
100
AcDbEntity
  8
0
100
AcDbLine
 10
22.48189681100817
 20
6.557179562544227
 30
0.0
 11
22.48189681100817
 21
6.529383551101521
 31
0.0
  0
LINE
  5
22155
330
1F
100
AcDbEntity
  8
0
100
AcDbLine
 10
22.59912032509347
 20
6.438272163114099
 30
0.0
 11
22.6008042104383
 21
6.438272163114099
 31
0.0
  0
LINE
  5
22156
330
1F
100
AcDbEntity
  8
0
100
AcDbLine
 10
22.6008042104383
 20
6.518925273117488
 30
0.0
 11
22.6008042104383
 21
6.557179562544227
 31
0.0
  0
LINE
  5
22157
330
1F
100
AcDbEntity
  8
0
100
AcDbLine
 10
22.50202584978256
 20
6.557179562544227
 30
0.0
 11
22.48189681100817
 21
6.557179562544227
 31
0.0
  0
LINE
  5
22158
330
1F
100
AcDbEntity
  8
0
100
AcDbLine
 10
21.60939653113649
 20
6.430665862829247
 30
0.0
 11
21.60939653113649
 21
6.438272163114099
 31
0.0
  0
LINE
  5
22159
330
1F
100
AcDbEntity
  8
0
100
AcDbLine
 10
21.79366459080388
 20
5.550689250486424
 30
0.0
 11
21.80281089108889
 21
5.550689250486424
 31
0.0
  0
LINE
  5
2215A
330
1F
100
AcDbEntity
  8
0
100
AcDbLine
 10
22.48760051969371
 20
5.651179562544228
 30
0.0
 11
22.48760051969371
 21
5.568689250486404
 31
0.0
  0
LINE
  5
2215B
330
1F
100
AcDbEntity
  8
0
100
AcDbLine
 10
22.60650791912384
 20
5.651179562544228
 30
0.0
 11
22.59912032509347
 21
5.651179562544228
 31
0.0
  0
LINE
  5
2215C
330
1F
100
AcDbEntity
  8
0
100
AcDbLine
 10
21.68478521755459
 20
6.427510489497215
 30
0.0
 11
21.68478521755459
 21
6.415510489497215
 31
0.0
  0
LINE
  5
2215D
330
1F
100
AcDbEntity
  8
0
100
AcDbLine
 10
21.63078422177964
 20
6.438272163114099
 30
0.0
 11
21.63078422177964
 21
6.427510489497215
 31
0.0
  0
LINE
  5
2215E
330
1F
100
AcDbEntity
  8
0
100
AcDbLine
 10
21.63078422177964
 20
6.427510489497215
 30
0.0
 11
21.63078422177964
 21
6.415510489497215
 31
0.0
  0
LINE
  5
2215F
330
1F
100
AcDbEntity
  8
0
100
AcDbLine
 10
21.68478521755458
 20
5.651179562544228
 30
0.0
 11
21.68478521755458
 21
5.668588297811698
 31
0.0
  0
LINE
  5
22160
330
1F
100
AcDbEntity
  8
0
100
AcDbLine
 10
21.68478521755458
 20
5.668588297811698
 30
0.0
 11
21.68478521755458
 21
5.680588297811699
 31
0.0
  0
LINE
  5
22161
330
1F
100
AcDbEntity
  8
0
100
AcDbLine
 10
21.63078422177964
 20
5.668588297811698
 30
0.0
 11
21.63078422177964
 21
5.680588297811699
 31
0.0
  0
LINE
  5
22162
330
1F
100
AcDbEntity
  8
0
100
AcDbLine
 10
23.41724793236893
 20
6.478925273117493
 30
0.0
 11
23.33304777190985
 21
6.478925273117493
 31
0.0
  0
LINE
  5
22163
330
1F
100
AcDbEntity
  8
0
100
AcDbLine
 10
23.33304777190985
 20
6.478925273117493
 30
0.0
 11
23.24872158209154
 21
6.478925273117493
 31
0.0
  0
LINE
  5
22164
330
1F
100
AcDbEntity
  8
0
100
AcDbLine
 10
23.58740946294813
 20
6.478925273117493
 30
0.0
 11
23.49176582765444
 21
6.478925273117493
 31
0.0
  0
LINE
  5
22165
330
1F
100
AcDbEntity
  8
0
100
AcDbLine
 10
24.10110439954697
 20
6.478925273117489
 30
0.0
 11
24.02141603515262
 21
6.478925273117489
 31
0.0
  0
LINE
  5
22166
330
1F
100
AcDbEntity
  8
0
100
AcDbLine
 10
22.98998911787726
 20
6.478925273117493
 30
0.0
 11
22.89965320660364
 21
6.478925273117493
 31
0.0
  0
LINE
  5
22167
330
1F
100
AcDbEntity
  8
0
100
AcDbLine
 10
22.89965320660364
 20
6.478925273117493
 30
0.0
 11
22.81885671067204
 21
6.478925273117496
 31
0.0
  0
LINE
  5
22168
330
1F
100
AcDbEntity
  8
0
100
AcDbLine
 10
22.74938676584856
 20
6.478925273117493
 30
0.0
 11
22.66859026991696
 21
6.478925273117493
 31
0.0
  0
LINE
  5
22169
330
1F
100
AcDbEntity
  8
0
100
AcDbLine
 10
22.66859026991696
 20
6.478925273117493
 30
0.0
 11
22.61517213189146
 21
6.478925273117489
 31
0.0
  0
LINE
  5
2216A
330
1F
100
AcDbEntity
  8
0
100
AcDbLine
 10
24.29612745287736
 20
6.478925273117489
 30
0.0
 11
24.20048381758368
 21
6.478925273117489
 31
0.0
  0
LINE
  5
2216B
330
1F
100
AcDbEntity
  8
0
100
AcDbLine
 10
23.16566138735265
 20
6.478925273117493
 30
0.0
 11
23.06888534434192
 21
6.478925273117493
 31
0.0
  0
LINE
  5
2216C
330
1F
100
AcDbEntity
  8
0
100
AcDbLine
 10
22.60517213189146
 20
6.518925273117488
 30
0.0
 11
22.60517213189146
 21
6.478925273117489
 31
0.0
  0
LINE
  5
2216D
330
1F
100
AcDbEntity
  8
0
100
AcDbLine
 10
21.6988042104383
 20
6.47472536494175
 30
0.0
 11
21.70702274328179
 21
6.47472536494175
 31
0.0
  0
LINE
  5
2216E
330
1F
100
AcDbEntity
  8
0
100
AcDbLine
 10
21.70702274328179
 20
6.47472536494175
 30
0.0
 11
21.71902274328179
 21
6.47472536494175
 31
0.0
  0
LINE
  5
2216F
330
1F
100
AcDbEntity
  8
0
100
AcDbLine
 10
21.71902274328179
 20
6.47472536494175
 30
0.0
 11
21.7259951716639
 21
6.47472536494175
 31
0.0
  0
LINE
  5
22170
330
1F
100
AcDbEntity
  8
0
100
AcDbLine
 10
21.7259951716639
 20
6.47472536494175
 30
0.0
 11
21.73210237091725
 21
6.47472536494175
 31
0.0
  0
LINE
  5
22171
330
1F
100
AcDbEntity
  8
0
100
AcDbLine
 10
21.70702274328179
 20
6.528726360716699
 30
0.0
 11
21.71902274328179
 21
6.528726360716699
 31
0.0
  0
LINE
  5
22172
330
1F
100
AcDbEntity
  8
0
100
AcDbLine
 10
21.82451577552841
 20
6.487081201888546
 30
0.0
 11
21.92152073725952
 21
6.487081201888546
 31
0.0
  0
LINE
  5
22173
330
1F
100
AcDbEntity
  8
0
100
AcDbLine
 10
22.4659449349673
 20
6.474725364941747
 30
0.0
 11
22.4539449349673
 21
6.474725364941747
 31
0.0
  0
LINE
  5
22174
330
1F
100
AcDbEntity
  8
0
100
AcDbLine
 10
22.48189681100817
 20
6.528726360716699
 30
0.0
 11
22.4659449349673
 21
6.528726360716699
 31
0.0
  0
LINE
  5
22175
330
1F
100
AcDbEntity
  8
0
100
AcDbLine
 10
22.4659449349673
 20
6.528726360716699
 30
0.0
 11
22.4539449349673
 21
6.528726360716699
 31
0.0
  0
LINE
  5
22176
330
1F
100
AcDbEntity
  8
0
100
AcDbLine
 10
23.16566138735265
 20
5.610925273117494
 30
0.0
 11
23.06888534434192
 21
5.610925273117494
 31
0.0
  0
LINE
  5
22177
330
1F
100
AcDbEntity
  8
0
100
AcDbLine
 10
24.29612745287736
 20
5.610925273117491
 30
0.0
 11
24.20048381758368
 21
5.610925273117491
 31
0.0
  0
LINE
  5
22178
330
1F
100
AcDbEntity
  8
0
100
AcDbLine
 10
23.33304777190985
 20
5.610925273117494
 30
0.0
 11
23.24872158209155
 21
5.610925273117494
 31
0.0
  0
LINE
  5
22179
330
1F
100
AcDbEntity
  8
0
100
AcDbLine
 10
23.58740946294813
 20
5.610925273117491
 30
0.0
 11
23.49176582765444
 21
5.610925273117494
 31
0.0
  0
LINE
  5
2217A
330
1F
100
AcDbEntity
  8
0
100
AcDbLine
 10
23.76647724537919
 20
5.610925273117491
 30
0.0
 11
23.68678888098484
 21
5.610925273117491
 31
0.0
  0
LINE
  5
2217B
330
1F
100
AcDbEntity
  8
0
100
AcDbLine
 10
24.10110439954697
 20
5.610925273117491
 30
0.0
 11
24.02141603515262
 21
5.610925273117491
 31
0.0
  0
LINE
  5
2217C
330
1F
100
AcDbEntity
  8
0
100
AcDbLine
 10
22.98998911787726
 20
5.610925273117494
 30
0.0
 11
22.89965320660364
 21
5.610925273117494
 31
0.0
  0
LINE
  5
2217D
330
1F
100
AcDbEntity
  8
0
100
AcDbLine
 10
22.89965320660364
 20
5.610925273117494
 30
0.0
 11
22.81885671067204
 21
5.610925273117494
 31
0.0
  0
LINE
  5
2217E
330
1F
100
AcDbEntity
  8
0
100
AcDbLine
 10
22.74938676584856
 20
5.610925273117494
 30
0.0
 11
22.66859026991696
 21
5.610925273117491
 31
0.0
  0
LINE
  5
2217F
330
1F
100
AcDbEntity
  8
0
100
AcDbLine
 10
22.66859026991696
 20
5.610925273117491
 30
0.0
 11
22.61517213189146
 21
5.610925273117491
 31
0.0
  0
LINE
  5
22180
330
1F
100
AcDbEntity
  8
0
100
AcDbLine
 10
21.60002584978256
 20
6.438272163114099
 30
0.0
 11
21.60939653113649
 21
6.438272163114099
 31
0.0
  0
LINE
  5
22181
330
1F
100
AcDbEntity
  8
0
100
AcDbLine
 10
21.6988042104383
 20
6.47472536494175
 30
0.0
 11
21.6988042104383
 21
6.528726360716699
 31
0.0
  0
LINE
  5
22182
330
1F
100
AcDbEntity
  8
0
100
AcDbLine
 10
21.6988042104383
 20
6.528726360716699
 30
0.0
 11
21.6988042104383
 21
6.529383551101513
 31
0.0
  0
LINE
  5
22183
330
1F
100
AcDbEntity
  8
0
100
AcDbLine
 10
21.6988042104383
 20
6.529383551101513
 30
0.0
 11
21.6988042104383
 21
6.557179562544227
 31
0.0
  0
LINE
  5
22184
330
1F
100
AcDbEntity
  8
0
100
AcDbLine
 10
21.6988042104383
 20
6.557179562544227
 30
0.0
 11
21.68570584978256
 21
6.557179562544227
 31
0.0
  0
LINE
  5
22185
330
1F
100
AcDbEntity
  8
0
100
AcDbLine
 10
21.68570584978256
 20
6.557179562544227
 30
0.0
 11
21.60002584978256
 21
6.557179562544227
 31
0.0
  0
LINE
  5
22186
330
1F
100
AcDbEntity
  8
0
100
AcDbLine
 10
21.67885555202955
 20
5.5322721631141
 30
0.0
 11
21.69466459080388
 21
5.5322721631141
 31
0.0
  0
LINE
  5
22187
330
1F
100
AcDbEntity
  8
0
100
AcDbLine
 10
21.69466459080388
 20
5.5322721631141
 30
0.0
 11
21.6988042104383
 21
5.5322721631141
 31
0.0
  0
LINE
  5
22188
330
1F
100
AcDbEntity
  8
0
100
AcDbLine
 10
21.6988042104383
 20
5.5322721631141
 30
0.0
 11
21.6988042104383
 21
5.632188978143354
 31
0.0
  0
LINE
  5
22189
330
1F
100
AcDbEntity
  8
0
100
AcDbLine
 10
21.6988042104383
 20
5.632188978143354
 30
0.0
 11
21.6988042104383
 21
5.636467232246584
 31
0.0
  0
LINE
  5
2218A
330
1F
100
AcDbEntity
  8
0
100
AcDbLine
 10
21.6988042104383
 20
5.651179562544228
 30
0.0
 11
21.68478521755458
 21
5.651179562544228
 31
0.0
  0
LINE
  5
2218B
330
1F
100
AcDbEntity
  8
0
100
AcDbLine
 10
21.68478521755458
 20
5.651179562544228
 30
0.0
 11
21.63078422177964
 21
5.651179562544228
 31
0.0
  0
LINE
  5
2218C
330
1F
100
AcDbEntity
  8
0
100
AcDbLine
 10
21.63078422177964
 20
5.651179562544228
 30
0.0
 11
21.6259951716639
 21
5.651179562544228
 31
0.0
  0
LINE
  5
2218D
330
1F
100
AcDbEntity
  8
0
100
AcDbLine
 10
22.48189681100817
 20
6.529383551101521
 30
0.0
 11
22.48189681100817
 21
6.528726360716699
 31
0.0
  0
LINE
  5
2218E
330
1F
100
AcDbEntity
  8
0
100
AcDbLine
 10
22.59705421940876
 20
6.438272163114099
 30
0.0
 11
22.59912032509347
 21
6.438272163114099
 31
0.0
  0
LINE
  5
2218F
330
1F
100
AcDbEntity
  8
0
100
AcDbLine
 10
22.6008042104383
 20
6.438272163114099
 30
0.0
 11
22.6008042104383
 21
6.478925273117489
 31
0.0
  0
LINE
  5
22190
330
1F
100
AcDbEntity
  8
0
100
AcDbLine
 10
22.6008042104383
 20
6.478925273117489
 30
0.0
 11
22.6008042104383
 21
6.518925273117488
 31
0.0
  0
LINE
  5
22191
330
1F
100
AcDbEntity
  8
0
100
AcDbLine
 10
22.6008042104383
 20
6.557179562544227
 30
0.0
 11
22.58770584978256
 21
6.557179562544227
 31
0.0
  0
LINE
  5
22192
330
1F
100
AcDbEntity
  8
0
100
AcDbLine
 10
22.58770584978256
 20
6.557179562544227
 30
0.0
 11
22.50202584978256
 21
6.557179562544227
 31
0.0
  0
LINE
  5
22193
330
1F
100
AcDbEntity
  8
0
100
AcDbLine
 10
21.6093965311365
 20
5.651179562544228
 30
0.0
 11
21.6093965311365
 21
5.66032586282925
 31
0.0
  0
LINE
  5
22194
330
1F
100
AcDbEntity
  8
0
100
AcDbLine
 10
21.6093965311365
 20
5.66032586282925
 30
0.0
 11
21.60939653113649
 21
6.430665862829247
 31
0.0
  0
LINE
  5
22195
330
1F
100
AcDbEntity
  8
0
100
AcDbLine
 10
21.80281089108889
 20
5.550689250486424
 30
0.0
 11
22.37215089108889
 21
5.550689250486428
 31
0.0
  0
LINE
  5
22196
330
1F
100
AcDbEntity
  8
0
100
AcDbLine
 10
22.48760051969371
 20
5.568689250486404
 30
0.0
 11
22.48760051969371
 21
5.550689250486431
 31
0.0
  0
LINE
  5
22197
330
1F
100
AcDbEntity
  8
0
100
AcDbLine
 10
22.48760051969371
 20
5.550689250486431
 30
0.0
 11
22.48760051969371
 21
5.5322721631141
 31
0.0
  0
LINE
  5
22198
330
1F
100
AcDbEntity
  8
0
100
AcDbLine
 10
22.48760051969371
 20
5.5322721631141
 30
0.0
 11
22.4945662301482
 21
5.5322721631141
 31
0.0
  0
LINE
  5
22199
330
1F
100
AcDbEntity
  8
0
100
AcDbLine
 10
22.56080347371778
 20
5.5322721631141
 30
0.0
 11
22.56864680203769
 21
5.5322721631141
 31
0.0
  0
LINE
  5
2219A
330
1F
100
AcDbEntity
  8
0
100
AcDbLine
 10
22.59912032509347
 20
5.651179562544228
 30
0.0
 11
22.59705421940877
 21
5.651179562544228
 31
0.0
  0
LINE
  5
2219B
330
1F
100
AcDbEntity
  8
0
100
AcDbLine
 10
22.60650791912384
 20
5.561050771523401
 30
0.0
 11
22.60650791912384
 21
5.618050771523417
 31
0.0
  0
LINE
  5
2219C
330
1F
100
AcDbEntity
  8
0
100
AcDbLine
 10
24.02141603515262
 20
6.478925273117489
 30
0.0
 11
23.94235314134153
 21
6.478925273117489
 31
0.0
  0
LINE
  5
2219D
330
1F
100
AcDbEntity
  8
0
100
AcDbLine
 10
23.84554013919029
 20
6.478925273117489
 30
0.0
 11
23.76647724537919
 21
6.478925273117489
 31
0.0
  0
LINE
  5
2219E
330
1F
100
AcDbEntity
  8
0
100
AcDbLine
 10
23.76647724537919
 20
6.478925273117489
 30
0.0
 11
23.68678888098484
 21
6.478925273117493
 31
0.0
  0
LINE
  5
2219F
330
1F
100
AcDbEntity
  8
0
100
AcDbLine
 10
22.61517213189146
 20
6.518925273117488
 30
0.0
 11
22.61517213189145
 21
6.506607182414629
 31
0.0
  0
LINE
  5
221A0
330
1F
100
AcDbEntity
  8
0
100
AcDbLine
 10
21.92152073725952
 20
6.487081201888546
 30
0.0
 11
22.02757984451409
 21
6.487081201888546
 31
0.0
  0
LINE
  5
221A1
330
1F
100
AcDbEntity
  8
0
100
AcDbLine
 10
23.84554013919029
 20
5.610925273117491
 30
0.0
 11
23.76647724537919
 21
5.610925273117491
 31
0.0
  0
LINE
  5
221A2
330
1F
100
AcDbEntity
  8
0
100
AcDbLine
 10
24.02141603515262
 20
5.610925273117491
 30
0.0
 11
23.94235314134153
 21
5.610925273117487
 31
0.0
  0
LINE
  5
221A3
330
1F
100
AcDbEntity
  8
0
100
AcDbLine
 10
22.61517213189146
 20
5.610925273117491
 30
0.0
 11
22.61517213189145
 21
5.598607182414628
 31
0.0
  0
LINE
  5
221A4
330
1F
100
AcDbEntity
  8
0
100
AcDbLine
 10
21.60939653113649
 20
6.438272163114099
 30
0.0
 11
21.6259951716639
 21
6.438272163114099
 31
0.0
  0
LINE
  5
221A5
330
1F
100
AcDbEntity
  8
0
100
AcDbLine
 10
21.6988042104383
 20
6.471075720821648
 30
0.0
 11
21.6988042104383
 21
6.47472536494175
 31
0.0
  0
LINE
  5
221A6
330
1F
100
AcDbEntity
  8
0
100
AcDbLine
 10
21.57989681100817
 20
5.5322721631141
 30
0.0
 11
21.60002584978256
 21
5.5322721631141
 31
0.0
  0
LINE
  5
221A7
330
1F
100
AcDbEntity
  8
0
100
AcDbLine
 10
21.66715089108889
 20
5.5322721631141
 30
0.0
 11
21.67855089108889
 21
5.5322721631141
 31
0.0
  0
LINE
  5
221A8
330
1F
100
AcDbEntity
  8
0
100
AcDbLine
 10
21.67855089108889
 20
5.5322721631141
 30
0.0
 11
21.67885555202955
 21
5.5322721631141
 31
0.0
  0
LINE
  5
221A9
330
1F
100
AcDbEntity
  8
0
100
AcDbLine
 10
21.60002584978256
 20
5.651179562544228
 30
0.0
 11
21.57989681100817
 21
5.651179562544228
 31
0.0
  0
LINE
  5
221AA
330
1F
100
AcDbEntity
  8
0
100
AcDbLine
 10
22.48189681100817
 20
6.528726360716699
 30
0.0
 11
22.48189681100817
 21
6.474725364941747
 31
0.0
  0
LINE
  5
221AB
330
1F
100
AcDbEntity
  8
0
100
AcDbLine
 10
22.48189681100817
 20
6.474725364941747
 30
0.0
 11
22.48189681100817
 21
6.438272163114099
 31
0.0
  0
LINE
  5
221AC
330
1F
100
AcDbEntity
  8
0
100
AcDbLine
 10
22.48189681100817
 20
6.438272163114099
 30
0.0
 11
22.52404924053401
 21
6.438272163114099
 31
0.0
  0
LINE
  5
221AD
330
1F
100
AcDbEntity
  8
0
100
AcDbLine
 10
22.37215089108889
 20
5.550689250486428
 30
0.0
 11
22.38355089108889
 21
5.550689250486431
 31
0.0
  0
LINE
  5
221AE
330
1F
100
AcDbEntity
  8
0
100
AcDbLine
 10
22.38355089108889
 20
5.550689250486431
 30
0.0
 11
22.38385555202951
 21
5.550689250486431
 31
0.0
  0
LINE
  5
221AF
330
1F
100
AcDbEntity
  8
0
100
AcDbLine
 10
22.50781089108889
 20
5.5322721631141
 30
0.0
 11
22.56080347371778
 21
5.5322721631141
 31
0.0
  0
LINE
  5
221B0
330
1F
100
AcDbEntity
  8
0
100
AcDbLine
 10
22.56864680203769
 20
5.5322721631141
 30
0.0
 11
22.5934095584681
 21
5.5322721631141
 31
0.0
  0
LINE
  5
221B1
330
1F
100
AcDbEntity
  8
0
100
AcDbLine
 10
22.5934095584681
 20
5.5322721631141
 30
0.0
 11
22.60650791912384
 21
5.5322721631141
 31
0.0
  0
LINE
  5
221B2
330
1F
100
AcDbEntity
  8
0
100
AcDbLine
 10
22.52404924053401
 20
5.651179562544228
 30
0.0
 11
22.48760051969371
 21
5.651179562544228
 31
0.0
  0
LINE
  5
221B3
330
1F
100
AcDbEntity
  8
0
100
AcDbLine
 10
22.02757984451409
 20
6.487081201888546
 30
0.0
 11
22.12781273880523
 21
6.487081201888546
 31
0.0
  0
LINE
  5
221B4
330
1F
100
AcDbEntity
  8
0
100
AcDbLine
 10
21.68478521755459
 20
6.438272163114099
 30
0.0
 11
21.6988042104383
 21
6.438272163114099
 31
0.0
  0
LINE
  5
221B5
330
1F
100
AcDbEntity
  8
0
100
AcDbLine
 10
21.6988042104383
 20
6.438272163114099
 30
0.0
 11
21.6988042104383
 21
6.459631555062326
 31
0.0
  0
LINE
  5
221B6
330
1F
100
AcDbEntity
  8
0
100
AcDbLine
 10
21.60002584978256
 20
5.5322721631141
 30
0.0
 11
21.63321089108888
 21
5.5322721631141
 31
0.0
  0
LINE
  5
221B7
330
1F
100
AcDbEntity
  8
0
100
AcDbLine
 10
21.63321089108888
 20
5.5322721631141
 30
0.0
 11
21.66715089108889
 21
5.5322721631141
 31
0.0
  0
LINE
  5
221B8
330
1F
100
AcDbEntity
  8
0
100
AcDbLine
 10
21.6259951716639
 20
5.651179562544228
 30
0.0
 11
21.6093965311365
 21
5.651179562544228
 31
0.0
  0
LINE
  5
221B9
330
1F
100
AcDbEntity
  8
0
100
AcDbLine
 10
21.6093965311365
 20
5.651179562544228
 30
0.0
 11
21.60002584978256
 21
5.651179562544228
 31
0.0
  0
LINE
  5
221BA
330
1F
100
AcDbEntity
  8
0
100
AcDbLine
 10
22.52404924053401
 20
6.438272163114099
 30
0.0
 11
22.57705421940876
 21
6.438272163114099
 31
0.0
  0
LINE
  5
221BB
330
1F
100
AcDbEntity
  8
0
100
AcDbLine
 10
22.57705421940876
 20
6.438272163114099
 30
0.0
 11
22.59705421940876
 21
6.438272163114099
 31
0.0
  0
LINE
  5
221BC
330
1F
100
AcDbEntity
  8
0
100
AcDbLine
 10
22.4945662301482
 20
5.5322721631141
 30
0.0
 11
22.49641089108889
 21
5.5322721631141
 31
0.0
  0
LINE
  5
221BD
330
1F
100
AcDbEntity
  8
0
100
AcDbLine
 10
22.49641089108889
 20
5.5322721631141
 30
0.0
 11
22.50781089108889
 21
5.5322721631141
 31
0.0
  0
LINE
  5
221BE
330
1F
100
AcDbEntity
  8
0
100
AcDbLine
 10
22.59705421940877
 20
5.651179562544228
 30
0.0
 11
22.57705421940876
 21
5.651179562544228
 31
0.0
  0
LINE
  5
221BF
330
1F
100
AcDbEntity
  8
0
100
AcDbLine
 10
22.57705421940876
 20
5.651179562544228
 30
0.0
 11
22.52404924053401
 21
5.651179562544228
 31
0.0
  0
LINE
  5
221C0
330
1F
100
AcDbEntity
  8
0
100
AcDbLine
 10
22.12781273880523
 20
6.487081201888546
 30
0.0
 11
22.23011808361638
 21
6.487081201888546
 31
0.0
  0
LINE
  5
221C1
330
1F
100
AcDbEntity
  8
0
100
AcDbLine
 10
21.6259951716639
 20
6.438272163114099
 30
0.0
 11
21.63078422177964
 21
6.438272163114099
 31
0.0
  0
LINE
  5
221C2
330
1F
100
AcDbEntity
  8
0
100
AcDbLine
 10
21.63078422177964
 20
6.438272163114099
 30
0.0
 11
21.68478521755459
 21
6.438272163114099
 31
0.0
  0
LINE
  5
221C3
330
1F
100
AcDbEntity
  8
0
100
AcDbLine
 10
21.6988042104383
 20
6.459631555062326
 30
0.0
 11
21.6988042104383
 21
6.464559593957442
 31
0.0
  0
LINE
  5
221C4
330
1F
100
AcDbEntity
  8
0
100
AcDbLine
 10
21.6988042104383
 20
6.464559593957442
 30
0.0
 11
21.6988042104383
 21
6.471075720821648
 31
0.0
  0
LINE
  5
221C5
330
1F
100
AcDbEntity
  8
0
100
AcDbLine
 10
21.60002584978256
 20
6.566325862829248
 30
0.0
 11
21.63399651365024
 21
6.566325862829248
 31
0.0
  0
LINE
  5
221C6
330
1F
100
AcDbEntity
  8
0
100
AcDbLine
 10
22.50202584978256
 20
6.566325862829248
 30
0.0
 11
22.53599651365024
 21
6.566325862829248
 31
0.0
  0
LINE
  5
221C7
330
1F
100
AcDbEntity
  8
0
100
AcDbLine
 10
22.23011808361638
 20
6.487081201888546
 30
0.0
 11
22.3338040344683
 21
6.487081201888546
 31
0.0
  0
LINE
  5
221C8
330
1F
100
AcDbEntity
  8
0
100
AcDbLine
 10
22.3338040344683
 20
6.487081201888546
 30
0.0
 11
22.41695051072323
 21
6.487081201888546
 31
0.0
  0
LINE
  5
221C9
330
1F
100
AcDbEntity
  8
0
100
AcDbLine
 10
22.61517213189145
 20
5.578607182414632
 30
0.0
 11
22.61517213189146
 21
5.570925273117492
 31
0.0
  0
LINE
  5
221CA
330
1F
100
AcDbEntity
  8
0
100
AcDbLine
 10
22.61517213189145
 20
6.486607182414633
 30
0.0
 11
22.61517213189146
 21
6.478925273117489
 31
0.0
  0
LINE
  5
221CB
330
1F
100
AcDbEntity
  8
0
100
AcDbLine
 10
21.65768596542492
 20
6.566325862829248
 30
0.0
 11
21.68570584978256
 21
6.566325862829248
 31
0.0
  0
LINE
  5
221CC
330
1F
100
AcDbEntity
  8
0
100
AcDbLine
 10
22.55968596542492
 20
6.566325862829248
 30
0.0
 11
22.58770584978256
 21
6.566325862829248
 31
0.0
  0
LINE
  5
221CD
330
1F
100
AcDbEntity
  8
0
100
AcDbLine
 10
21.68878521755459
 20
5.680588297811699
 30
0.0
 11
21.68878521755459
 21
5.668588297811698
 31
0.0
  0
LINE
  5
221CE
330
1F
100
AcDbEntity
  8
0
100
AcDbLine
 10
21.62478521755459
 20
5.668588297811698
 30
0.0
 11
21.62478521755459
 21
5.680588297811699
 31
0.0
  0
LINE
  5
221CF
330
1F
100
AcDbEntity
  8
0
100
AcDbLine
 10
21.68878521755459
 20
6.415510489497215
 30
0.0
 11
21.68878521755459
 21
6.427510489497215
 31
0.0
  0
LINE
  5
221D0
330
1F
100
AcDbEntity
  8
0
100
AcDbLine
 10
21.62478521755459
 20
6.427510489497215
 30
0.0
 11
21.62478521755459
 21
6.415510489497215
 31
0.0
  0
LINE
  5
221D1
330
1F
100
AcDbEntity
  8
0
100
AcDbLine
 10
21.70139305713632
 20
6.463005405765592
 30
0.0
 11
21.6988042104383
 21
6.459631555062326
 31
0.0
  0
LINE
  5
221D2
330
1F
100
AcDbEntity
  8
0
100
AcDbLine
 10
21.64272938060779
 20
5.693667925447158
 30
0.0
 11
21.64272938060779
 21
5.717582722055766
 31
0.0
  0
LINE
  5
221D3
330
1F
100
AcDbEntity
  8
0
100
AcDbLine
 10
21.64272938060779
 20
5.693667925447158
 30
0.0
 11
21.64272938060779
 21
5.658182722055766
 31
0.0
  0
LINE
  5
221D4
330
1F
100
AcDbEntity
  8
0
100
AcDbLine
 10
21.64272938060779
 20
6.434049393654458
 30
0.0
 11
21.64272938060779
 21
6.402430861861756
 31
0.0
  0
LINE
  5
221D5
330
1F
100
AcDbEntity
  8
0
100
AcDbLine
 10
21.64272938060779
 20
6.374649393654458
 30
0.0
 11
21.64272938060779
 21
6.402430861861756
 31
0.0
  0
LINE
  5
221D6
330
1F
100
AcDbEntity
  8
0
100
AcDbLine
 10
21.67242938060779
 20
5.693667925447158
 30
0.0
 11
21.67242938060779
 21
5.717582722055766
 31
0.0
  0
LINE
  5
221D7
330
1F
100
AcDbEntity
  8
0
100
AcDbLine
 10
21.67242938060779
 20
6.434049393654458
 30
0.0
 11
21.67242938060779
 21
6.402430861861756
 31
0.0
  0
LINE
  5
221D8
330
1F
100
AcDbEntity
  8
0
100
AcDbLine
 10
21.67242938060779
 20
6.402430861861756
 30
0.0
 11
21.67242938060779
 21
6.374649393654458
 31
0.0
  0
LINE
  5
221D9
330
1F
100
AcDbEntity
  8
0
100
AcDbLine
 10
21.67242938060779
 20
5.658182722055766
 30
0.0
 11
21.67242938060779
 21
5.693667925447158
 31
0.0
  0
LINE
  5
221DA
330
1F
100
AcDbEntity
  8
0
100
AcDbLine
 10
23.41724793236893
 20
6.478925273117493
 30
0.0
 11
23.49176582765444
 21
6.478925273117493
 31
0.0
  0
LINE
  5
221DB
330
1F
100
AcDbEntity
  8
0
100
AcDbLine
 10
23.16566138735265
 20
6.478925273117493
 30
0.0
 11
23.24872158209154
 21
6.478925273117493
 31
0.0
  0
LINE
  5
221DC
330
1F
100
AcDbEntity
  8
0
100
AcDbLine
 10
23.58740946294813
 20
6.478925273117493
 30
0.0
 11
23.68678888098484
 21
6.478925273117493
 31
0.0
  0
LINE
  5
221DD
330
1F
100
AcDbEntity
  8
0
100
AcDbLine
 10
24.10110439954697
 20
6.478925273117489
 30
0.0
 11
24.20048381758368
 21
6.478925273117489
 31
0.0
  0
LINE
  5
221DE
330
1F
100
AcDbEntity
  8
0
100
AcDbLine
 10
23.84554013919029
 20
6.478925273117489
 30
0.0
 11
23.94235314134153
 21
6.478925273117489
 31
0.0
  0
LINE
  5
221DF
330
1F
100
AcDbEntity
  8
0
100
AcDbLine
 10
22.98998911787726
 20
6.478925273117493
 30
0.0
 11
23.06888534434192
 21
6.478925273117493
 31
0.0
  0
LINE
  5
221E0
330
1F
100
AcDbEntity
  8
0
100
AcDbLine
 10
22.74938676584856
 20
6.478925273117493
 30
0.0
 11
22.81885671067204
 21
6.478925273117496
 31
0.0
  0
LINE
  5
221E1
330
1F
100
AcDbEntity
  8
0
100
AcDbLine
 10
24.29612745287736
 20
6.478925273117489
 30
0.0
 11
24.33174700406735
 21
6.478925273117489
 31
0.0
  0
LINE
  5
221E2
330
1F
100
AcDbEntity
  8
0
100
AcDbLine
 10
24.30365093439188
 20
6.518925273117488
 30
0.0
 11
23.39959317999498
 21
6.518925273117492
 31
0.0
  0
LINE
  5
221E3
330
1F
100
AcDbEntity
  8
0
100
AcDbLine
 10
22.61517213189146
 20
6.518925273117488
 30
0.0
 11
23.39865093439192
 21
6.518925273117492
 31
0.0
  0
LINE
  5
221E4
330
1F
100
AcDbEntity
  8
0
100
AcDbLine
 10
22.62517213189146
 20
6.486607182414633
 30
0.0
 11
22.62517213189146
 21
6.506607182414629
 31
0.0
  0
LINE
  5
221E5
330
1F
100
AcDbEntity
  8
0
100
AcDbLine
 10
22.61517213189145
 20
6.486607182414633
 30
0.0
 11
22.61517213189145
 21
6.506607182414629
 31
0.0
  0
LINE
  5
221E6
330
1F
100
AcDbEntity
  8
0
100
AcDbLine
 10
22.4539449349673
 20
6.470725364941745
 30
0.0
 11
22.4659449349673
 21
6.470725364941745
 31
0.0
  0
LINE
  5
221E7
330
1F
100
AcDbEntity
  8
0
100
AcDbLine
 10
22.4659449349673
 20
6.534725364941746
 30
0.0
 11
22.4539449349673
 21
6.534725364941746
 31
0.0
  0
LINE
  5
221E8
330
1F
100
AcDbEntity
  8
0
100
AcDbLine
 10
21.71902274328179
 20
6.470725364941749
 30
0.0
 11
21.70702274328179
 21
6.470725364941749
 31
0.0
  0
LINE
  5
221E9
330
1F
100
AcDbEntity
  8
0
100
AcDbLine
 10
21.70702274328179
 20
6.534725364941749
 30
0.0
 11
21.71902274328179
 21
6.534725364941749
 31
0.0
  0
LINE
  5
221EA
330
1F
100
AcDbEntity
  8
0
100
AcDbLine
 10
22.42892663750116
 20
6.487081201888546
 30
0.0
 11
22.41695051072323
 21
6.487081201888546
 31
0.0
  0
LINE
  5
221EB
330
1F
100
AcDbEntity
  8
0
100
AcDbLine
 10
21.73210237091725
 20
6.516781201888552
 30
0.0
 11
21.75988383912454
 21
6.516781201888552
 31
0.0
  0
LINE
  5
221EC
330
1F
100
AcDbEntity
  8
0
100
AcDbLine
 10
21.73210237091725
 20
6.487081201888546
 30
0.0
 11
21.75988383912454
 21
6.487081201888546
 31
0.0
  0
LINE
  5
221ED
330
1F
100
AcDbEntity
  8
0
100
AcDbLine
 10
21.73210237091725
 20
6.516781201888552
 30
0.0
 11
21.70048383912454
 21
6.516781201888548
 31
0.0
  0
LINE
  5
221EE
330
1F
100
AcDbEntity
  8
0
100
AcDbLine
 10
21.73210237091725
 20
6.487081201888546
 30
0.0
 11
21.70048383912454
 21
6.487081201888546
 31
0.0
  0
LINE
  5
221EF
330
1F
100
AcDbEntity
  8
0
100
AcDbLine
 10
22.47635051072323
 20
6.516781201888544
 30
0.0
 11
22.44086530733184
 21
6.516781201888544
 31
0.0
  0
LINE
  5
221F0
330
1F
100
AcDbEntity
  8
0
100
AcDbLine
 10
22.41695051072323
 20
6.516781201888544
 30
0.0
 11
22.44086530733184
 21
6.516781201888544
 31
0.0
  0
LINE
  5
221F1
330
1F
100
AcDbEntity
  8
0
100
AcDbLine
 10
22.42892663750116
 20
6.487081201888546
 30
0.0
 11
22.44086530733184
 21
6.487081201888546
 31
0.0
  0
LINE
  5
221F2
330
1F
100
AcDbEntity
  8
0
100
AcDbLine
 10
22.44086530733184
 20
6.487081201888546
 30
0.0
 11
22.47635051072323
 21
6.487081201888546
 31
0.0
  0
LINE
  5
221F3
330
1F
100
AcDbEntity
  8
0
100
AcDbLine
 10
22.59912032509347
 20
5.651179562544228
 30
0.0
 11
22.59912032509347
 21
6.438272163114099
 31
0.0
  0
LINE
  5
221F4
330
1F
100
AcDbEntity
  8
0
100
AcDbLine
 10
23.16566138735265
 20
5.610925273117494
 30
0.0
 11
23.24872158209155
 21
5.610925273117494
 31
0.0
  0
LINE
  5
221F5
330
1F
100
AcDbEntity
  8
0
100
AcDbLine
 10
23.06888534434192
 20
5.610925273117494
 30
0.0
 11
22.98998911787726
 21
5.610925273117494
 31
0.0
  0
LINE
  5
221F6
330
1F
100
AcDbEntity
  8
0
100
AcDbLine
 10
24.10110439954697
 20
5.610925273117491
 30
0.0
 11
24.20048381758368
 21
5.610925273117491
 31
0.0
  0
LINE
  5
221F7
330
1F
100
AcDbEntity
  8
0
100
AcDbLine
 10
24.33174700406735
 20
5.570925273117492
 30
0.0
 11
22.61517213189146
 21
5.570925273117492
 31
0.0
  0
LINE
  5
221F8
330
1F
100
AcDbEntity
  8
0
100
AcDbLine
 10
23.41724793236893
 20
5.610925273117494
 30
0.0
 11
23.49176582765444
 21
5.610925273117494
 31
0.0
  0
LINE
  5
221F9
330
1F
100
AcDbEntity
  8
0
100
AcDbLine
 10
23.58740946294813
 20
5.610925273117491
 30
0.0
 11
23.68678888098484
 21
5.610925273117491
 31
0.0
  0
LINE
  5
221FA
330
1F
100
AcDbEntity
  8
0
100
AcDbLine
 10
23.84554013919029
 20
5.610925273117491
 30
0.0
 11
23.94235314134153
 21
5.610925273117487
 31
0.0
  0
LINE
  5
221FB
330
1F
100
AcDbEntity
  8
0
100
AcDbLine
 10
22.74938676584856
 20
5.610925273117494
 30
0.0
 11
22.81885671067204
 21
5.610925273117494
 31
0.0
  0
LINE
  5
221FC
330
1F
100
AcDbEntity
  8
0
100
AcDbLine
 10
22.62517213189146
 20
5.578607182414632
 30
0.0
 11
22.62517213189146
 21
5.598607182414628
 31
0.0
  0
LINE
  5
221FD
330
1F
100
AcDbEntity
  8
0
100
AcDbLine
 10
22.61517213189145
 20
5.578607182414632
 30
0.0
 11
22.61517213189145
 21
5.598607182414628
 31
0.0
  0
LINE
  5
221FE
330
1F
100
AcDbEntity
  8
0
100
AcDbLine
 10
21.63399651365024
 20
6.566325862829248
 30
0.0
 11
21.65768596542492
 21
6.566325862829248
 31
0.0
  0
LINE
  5
221FF
330
1F
100
AcDbEntity
  8
0
100
AcDbLine
 10
21.63399651365024
 20
6.57772586282925
 30
0.0
 11
21.65768596542492
 21
6.57772586282925
 31
0.0
  0
LINE
  5
22200
330
1F
100
AcDbEntity
  8
0
100
AcDbLine
 10
22.53599651365024
 20
6.566325862829248
 30
0.0
 11
22.55968596542492
 21
6.566325862829248
 31
0.0
  0
LINE
  5
22201
330
1F
100
AcDbEntity
  8
0
100
AcDbLine
 10
22.53599651365024
 20
6.57772586282925
 30
0.0
 11
22.55968596542492
 21
6.57772586282925
 31
0.0
  0
LINE
  5
22202
330
1F
100
AcDbEntity
  8
0
100
AcDbLine
 10
24.33652446656545
 20
5.609349399009108
 30
0.0
 11
24.30077738913441
 21
5.609349399009108
 31
0.0
  0
LINE
  5
22203
330
1F
100
AcDbEntity
  8
STREFA BEZPIECZEŃSTWA
100
AcDbLine
 10
22.37215089108889
 20
5.550689250486428
 30
0.0
 11
22.48760051969371
 21
5.550689250486431
 31
0.0
  0
LINE
  5
22204
330
1F
100
AcDbEntity
  8
STREFA BEZPIECZEŃSTWA
100
AcDbLine
 10
22.48760051969371
 20
5.550689250486431
 30
0.0
 11
22.48760051969371
 21
5.568689250486404
 31
0.0
  0
LINE
  5
22205
330
1F
100
AcDbEntity
  8
STREFA BEZPIECZEŃSTWA
100
AcDbLine
 10
22.48760051969371
 20
5.568689250486404
 30
0.0
 11
22.38385555202951
 21
5.568689250486404
 31
0.0
  0
LINE
  5
22206
330
1F
100
AcDbEntity
  8
STREFA BEZPIECZEŃSTWA
100
AcDbLine
 10
22.38385555202951
 20
5.568689250486404
 30
0.0
 11
22.42892663750116
 21
5.568689250486404
 31
0.0
  0
LINE
  5
22207
330
1F
100
AcDbEntity
  8
STREFA BEZPIECZEŃSTWA
100
AcDbLine
 10
22.42892663750116
 20
5.568689250486404
 30
0.0
 11
22.42892663750116
 21
5.650476345299328
 31
0.0
  0
LINE
  5
22208
330
1F
100
AcDbEntity
  8
STREFA BEZPIECZEŃSTWA
100
AcDbLine
 10
21.7259951716639
 20
5.650476345299331
 30
0.0
 11
21.7259951716639
 21
5.568689250486404
 31
0.0
  0
LINE
  5
22209
330
1F
100
AcDbEntity
  8
STREFA BEZPIECZEŃSTWA
100
AcDbLine
 10
21.7259951716639
 20
5.568689250486404
 30
0.0
 11
21.79366459080388
 21
5.568689250486404
 31
0.0
  0
LINE
  5
2220A
330
1F
100
AcDbEntity
  8
STREFA BEZPIECZEŃSTWA
100
AcDbLine
 10
21.6988042104383
 20
5.550689250486424
 30
0.0
 11
21.79366459080388
 21
5.550689250486424
 31
0.0
  0
LINE
  5
2220B
330
1F
100
AcDbEntity
  8
STREFA BEZPIECZEŃSTWA
100
AcDbLine
 10
21.6988042104383
 20
5.568689250486404
 30
0.0
 11
21.79366459080388
 21
5.568689250486404
 31
0.0
  0
LINE
  5
2222E
330
1F
100
AcDbEntity
  8
0
100
AcDbLine
 10
22.11900103858253
 20
5.282357517995829
 30
0.0
 11
22.11641284222439
 21
5.282308972284798
 31
0.0
  0
LINE
  5
2222F
330
1F
100
AcDbEntity
  8
0
100
AcDbLine
 10
22.11380387732161
 20
5.111029096483577
 30
0.0
 11
22.11139218895899
 21
5.112028393228201
 31
0.0
  0
LINE
  5
22230
330
1F
100
AcDbEntity
  8
0
100
AcDbLine
 10
22.12644539368564
 20
5.550686824698519
 30
0.0
 11
22.1264130160701
 21
5.283741679153775
 31
0.0
  0
LINE
  5
22231
330
1F
100
AcDbEntity
  8
0
100
AcDbLine
 10
22.1264130160701
 20
5.283741679153775
 30
0.0
 11
22.12607222932188
 21
5.283370594738334
 31
0.0
  0
LINE
  5
22232
330
1F
100
AcDbEntity
  8
0
100
AcDbLine
 10
22.11639202642524
 20
5.110688040828924
 30
0.0
 11
22.11380387732161
 21
5.111029096483577
 31
0.0
  0
LINE
  5
22233
330
1F
100
AcDbEntity
  8
0
100
AcDbLine
 10
22.11898025818558
 20
5.111028468643467
 30
0.0
 11
22.11639202642524
 21
5.110688040828924
 31
0.0
  0
LINE
  5
22234
330
1F
100
AcDbEntity
  8
0
100
AcDbLine
 10
22.11141286556194
 20
5.282501687553017
 30
0.0
 11
22.10934182540432
 21
5.28272981530522
 31
0.0
  0
LINE
  5
22235
330
1F
100
AcDbEntity
  8
0
100
AcDbLine
 10
22.10934182540432
 20
5.28272981530522
 30
0.0
 11
22.10775267520988
 21
5.283026982563237
 31
0.0
  0
LINE
  5
22236
330
1F
100
AcDbEntity
  8
0
100
AcDbLine
 10
22.11641284222439
 20
5.282308972284798
 30
0.0
 11
22.11382465771856
 21
5.28235814583594
 31
0.0
  0
LINE
  5
22237
330
1F
100
AcDbEntity
  8
0
100
AcDbLine
 10
22.11382465771856
 20
5.28235814583594
 30
0.0
 11
22.11141286556194
 21
5.282501687553017
 31
0.0
  0
LINE
  5
22238
330
1F
100
AcDbEntity
  8
0
100
AcDbLine
 10
22.10775267520988
 20
5.283026982563237
 30
0.0
 11
22.1067537129382
 21
5.283372937869529
 31
0.0
  0
LINE
  5
22239
330
1F
100
AcDbEntity
  8
0
100
AcDbLine
 10
22.1067537129382
 20
5.283372937869529
 30
0.0
 11
22.10641301621722
 21
5.283744104941681
 31
0.0
  0
LINE
  5
2223A
330
1F
100
AcDbEntity
  8
0
100
AcDbLine
 10
22.10644539383275
 20
5.550689250486426
 30
0.0
 11
22.10641301621722
 21
5.283744104941681
 31
0.0
  0
LINE
  5
2223B
330
1F
100
AcDbEntity
  8
0
100
AcDbLine
 10
22.12507318315817
 20
5.283024881769285
 30
0.0
 11
22.12348396092402
 21
5.282728100014139
 31
0.0
  0
LINE
  5
2223C
330
1F
100
AcDbEntity
  8
0
100
AcDbLine
 10
22.10673366720729
 20
5.118101021888974
 30
0.0
 11
22.10639323939274
 21
5.120689253649318
 31
0.0
  0
LINE
  5
2223D
330
1F
100
AcDbEntity
  8
0
100
AcDbLine
 10
22.12139218888543
 20
5.112027180334248
 30
0.0
 11
22.11898025818558
 21
5.111028468643467
 31
0.0
  0
LINE
  5
2223E
330
1F
100
AcDbEntity
  8
0
100
AcDbLine
 10
22.12607222932188
 20
5.283370594738334
 30
0.0
 11
22.12507318315817
 21
5.283024881769285
 31
0.0
  0
LINE
  5
2223F
330
1F
100
AcDbEntity
  8
0
100
AcDbLine
 10
22.11139218895899
 20
5.112028393228201
 30
0.0
 11
22.1093213139138
 21
5.11361783064105
 31
0.0
  0
LINE
  5
22240
330
1F
100
AcDbEntity
  8
0
100
AcDbLine
 10
22.12141286548838
 20
5.282500474659063
 30
0.0
 11
22.11900103858253
 21
5.282357517995829
 31
0.0
  0
LINE
  5
22241
330
1F
100
AcDbEntity
  8
0
100
AcDbLine
 10
22.12348396092402
 20
5.282728100014139
 30
0.0
 11
22.12141286548838
 21
5.282500474659063
 31
0.0
  0
LINE
  5
22242
330
1F
100
AcDbEntity
  8
0
100
AcDbLine
 10
22.1234634494335
 20
5.113616115349973
 30
0.0
 11
22.12139218888543
 21
5.112027180334248
 31
0.0
  0
LINE
  5
22243
330
1F
100
AcDbEntity
  8
0
100
AcDbLine
 10
22.10773237889807
 20
5.115689091189118
 30
0.0
 11
22.10673366720729
 21
5.118101021888974
 31
0.0
  0
LINE
  5
22244
330
1F
100
AcDbEntity
  8
0
100
AcDbLine
 10
22.1093213139138
 20
5.11361783064105
 30
0.0
 11
22.10773237889807
 21
5.115689091189118
 31
0.0
  0
LINE
  5
22245
330
1F
100
AcDbEntity
  8
0
100
AcDbLine
 10
22.12639323924563
 20
5.120686827861415
 30
0.0
 11
22.12605218359097
 21
5.118098678757782
 31
0.0
  0
LINE
  5
22246
330
1F
100
AcDbEntity
  8
0
100
AcDbLine
 10
22.12505288684635
 20
5.115686990395168
 30
0.0
 11
22.1234634494335
 21
5.113616115349973
 31
0.0
  0
LINE
  5
22247
330
1F
100
AcDbEntity
  8
0
100
AcDbLine
 10
22.12605218359097
 20
5.118098678757782
 30
0.0
 11
22.12505288684635
 21
5.115686990395168
 31
0.0
  0
LINE
  5
22248
330
1F
100
AcDbEntity
  8
0
100
AcDbLine
 10
22.10639323939274
 20
5.120689253649318
 30
0.0
 11
22.10641301621722
 21
5.283744104941681
 31
0.0
  0
LINE
  5
22249
330
1F
100
AcDbEntity
  8
0
100
AcDbLine
 10
22.12639323924563
 20
5.120686827861415
 30
0.0
 11
22.1264130160701
 21
5.283741679153775
 31
0.0
  0
LINE
  5
22256
330
1F
100
AcDbEntity
  8
0
100
AcDbLine
 10
25.95963444609833
 20
5.623130363436764
 30
0.0
 11
25.95963444609833
 21
6.491130363436763
 31
0.0
  0
LINE
  5
22257
330
1F
100
AcDbEntity
  8
0
100
AcDbLine
 10
25.88057155228723
 20
5.623130363436764
 30
0.0
 11
25.88057155228723
 21
6.491130363436763
 31
0.0
  0
LINE
  5
22258
330
1F
100
AcDbEntity
  8
0
100
AcDbLine
 10
25.80088318789287
 20
5.623130363436764
 30
0.0
 11
25.80088318789287
 21
6.491130363436766
 31
0.0
  0
LINE
  5
22259
330
1F
100
AcDbEntity
  8
0
100
AcDbLine
 10
25.70150376985617
 20
5.623130363436764
 30
0.0
 11
25.70150376985617
 21
6.491130363436766
 31
0.0
  0
LINE
  5
2225A
330
1F
100
AcDbEntity
  8
0
100
AcDbLine
 10
25.60586013456248
 20
5.623130363436768
 30
0.0
 11
25.60586013456248
 21
6.491130363436766
 31
0.0
  0
LINE
  5
2225B
330
1F
100
AcDbEntity
  8
0
100
AcDbLine
 10
25.53134223927697
 20
5.497919702768751
 30
0.0
 11
25.53134223927697
 21
6.365919702768749
 31
0.0
  0
LINE
  5
2225C
330
1F
100
AcDbEntity
  8
STREFA BEZPIECZEŃSTWA
100
AcDbLine
 10
25.95963444609833
 20
6.491130363436763
 30
0.0
 11
25.53134221665549
 21
6.491130363436763
 31
0.0
  0
LINE
  5
22260
330
1F
100
AcDbEntity
  8
STREFA BEZPIECZEŃSTWA
100
AcDbLine
 10
25.53134223927697
 20
5.623130363436764
 30
0.0
 11
25.95963444609833
 21
5.623130363436764
 31
0.0
  0
LINE
  5
22265
102
{ACAD_REACTORS
330
22288
330
2229C
102
}
330
1F
100
AcDbEntity
  8
STREFA BEZPIECZEŃSTWA
100
AcDbLine
 10
27.46808190308336
 20
8.137919702378759
 30
0.0
 11
27.46808190308336
 21
4.137919702378759
 31
0.0
  0
LINE
  5
22267
330
1F
100
AcDbEntity
  8
STREFA BEZPIECZEŃSTWA
100
AcDbLine
 10
27.46808190308336
 20
4.137919702378759
 30
0.0
 11
26.46808190308336
 21
4.137919702378759
 31
0.0
  0
LINE
  5
22268
330
1F
100
AcDbEntity
  8
STREFA BEZPIECZEŃSTWA
100
AcDbLine
 10
26.46808190308336
 20
4.137919702378759
 30
0.0
 11
26.46808190308336
 21
1.53791970237876
 31
0.0
  0
LINE
  5
2226A
330
1F
100
AcDbEntity
  8
STREFA BEZPIECZEŃSTWA
100
AcDbLine
 10
26.46808190308336
 20
1.53791970237876
 30
0.0
 11
23.36808190308336
 21
1.53791970237876
 31
0.0
  0
LINE
  5
22271
330
1F
100
AcDbEntity
  8
STREFA BEZPIECZEŃSTWA
100
AcDbLine
 10
23.36808190308336
 20
3.637919702378759
 30
0.0
 11
20.26808190308337
 21
3.637919702378759
 31
0.0
  0
LINE
  5
22272
102
{ACAD_REACTORS
330
22288
102
}
330
1F
100
AcDbEntity
  8
STREFA BEZPIECZEŃSTWA
100
AcDbLine
 10
20.26808190308337
 20
3.637919702378759
 30
0.0
 11
20.26808190308337
 21
8.137919702378759
 31
0.0
  0
LINE
  5
22273
330
1F
100
AcDbEntity
  8
STREFA BEZPIECZEŃSTWA
100
AcDbLine
 10
23.36808190308336
 20
3.637919702378759
 30
0.0
 11
23.36808190308336
 21
1.53791970237876
 31
0.0
  0
LINE
  5
22274
102
{ACAD_REACTORS
330
2229C
102
}
330
1F
100
AcDbEntity
  8
STREFA BEZPIECZEŃSTWA
100
AcDbLine
 10
23.36808190308336
 20
1.53791970237876
 30
0.0
 11
26.46808190308336
 21
1.53791970237876
 31
0.0
  0
DIMENSION
  5
22275
102
{ACAD_XDICTIONARY
360
22280
102
}
102
{ACAD_REACTORS
330
22288
102
}
330
1F
100
AcDbEntity
  8
WYMIAR
100
AcDbDimension
  2
*D3
 10
27.46808190308336
 20
8.838682771593596
 30
0.0
 11
23.86808190308336
 21
9.051195758606583
 31
0.0
 70
    32
 71
     5
 42
7.199999999999999
  3
AR SKALA 1-50
100
AcDbAlignedDimension
 13
20.26808190308337
 23
8.137919702378759
 33
0.0
 14
27.46808190308336
 24
8.137919702378759
 34
0.0
100
AcDbRotatedDimension
  0
DIMENSION
  5
22289
102
{ACAD_XDICTIONARY
360
22294
102
}
102
{ACAD_REACTORS
330
2229C
102
}
330
1F
100
AcDbEntity
  8
WYMIAR
100
AcDbDimension
  2
*D4
 10
28.38047011546983
 20
1.537919702378759
 30
0.0
 11
28.16807401157372
 21
4.837919702378763
 31
0.0
 70
    32
 71
     5
 42
6.599999999999999
  3
AR SKALA 1-50
100
AcDbAlignedDimension
 13
27.46808190308336
 23
8.137919702378759
 33
0.0
 14
26.46808190308336
 24
1.53791970237876
 34
0.0
 50
90.0
100
AcDbRotatedDimension
  0
VIEWPORT
  5
7CA
330
1B
100
AcDbEntity
 67
     1
  8
0
100
AcDbViewport
 10
298.2280146557528
 20
195.7024362945236
 30
0.0
 40
1330.726096956455
 41
627.8467240200854
 68
     1
 69
     1
 12
298.2280146557528
 22
195.7024362945236
 13
0.0
 23
0.0
 14
10.0
 24
10.0
 15
10.0
 25
10.0
 16
0.0
 26
0.0
 36
1.0
 17
0.0
 27
0.0
 37
0.0
 42
50.0
 43
0.0
 44
0.0
 45
627.8467240200854
 50
0.0
 51
0.0
 72
   100
 90
   819232
  1

281
     0
 71
     1
 74
     0
110
0.0
120
0.0
130
0.0
111
1.0
121
0.0
131
0.0
112
0.0
122
1.0
132
0.0
 79
     0
146
0.0
170
     0
  0
VIEWPORT
  5
99A
330
1B
100
AcDbEntity
 67
     1
  8
Defpoints
100
AcDbViewport
 10
211.6374382675827
 20
146.9348621411756
 30
0.0
 40
410.1517866444555
 41
287.3053455326816
 68
     2
 69
     2
 12
14.7480535703286
 22
6.790923032315443
 13
0.0
 23
0.0
 14
0.5
 24
0.5
 15
0.5
 25
0.5
 16
0.0
 26
0.0
 36
1.0
 17
0.0
 27
0.0
 37
-1000.0
 42
50.0
 43
4.148984367261674
 44
9.217858496371269
 45
14.36526864616932
 50
0.0
 51
0.0
 72
   100
 90
   819296
  1

281
     0
 71
     1
 74
     0
110
0.0
120
0.0
130
0.0
111
1.0
121
0.0
131
0.0
112
0.0
122
1.0
132
0.0
 79
     0
146
0.0
170
     0
  0
ENDSEC
  0
SECTION
  2
OBJECTS
  0
DICTIONARY
  5
C
330
0
100
AcDbDictionary
281
     1
  3
ACAD_COLOR
350
4B9
  3
ACAD_GROUP
350
D
  3
ACAD_LAYOUT
350
1A
  3
ACAD_MATERIAL
350
3B
  3
ACAD_MLEADERSTYLE
350
489
  3
ACAD_MLINESTYLE
350
17
  3
ACAD_PLOTSETTINGS
350
19
  3
ACAD_PLOTSTYLENAME
350
E
  3
ACAD_SCALELIST
350
1780C
  3
ACAD_TABLESTYLE
350
4BA
  3
ACAD_VISUALSTYLE
350
2A
  3
ACDB_RECOMPOSE_DATA
350
1783D
  3
AcDbVariableDictionary
350
487
  0
DICTIONARY
  5
84C
330
8
100
AcDbDictionary
280
     1
281
     1
  0
DICTIONARY
  5
7D1
330
2
100
AcDbDictionary
280
     1
281
     1
  3
ACAD_LAYERFILTERS
360
21B1D
  3
ACAD_LAYERSTATES
360
7D2
  3
ACLYDICTIONARY
360
21B1C
  0
DICTIONARY
  5
17835
330
10
100
AcDbDictionary
280
     1
281
     1
  3
ADSK_XREC_LAYER_RECONCILED
360
17836
  0
DICTIONARY
  5
17837
330
87B
100
AcDbDictionary
280
     1
281
     1
  3
ADSK_XREC_LAYER_RECONCILED
360
17838
  0
DICTIONARY
  5
17839
330
87D
100
AcDbDictionary
280
     1
281
     1
  3
ADSK_XREC_LAYER_RECONCILED
360
1783A
  0
DICTIONARY
  5
5F8
330
1F
100
AcDbDictionary
280
     1
281
     1
  3
ACAD_SORTENTS
360
5F9
  0
DICTIONARY
  5
22280
330
22275
100
AcDbDictionary
280
     1
281
     1
  3
ACAD_DIMASSOC
360
22288
  0
DICTIONARY
  5
22294
330
22289
100
AcDbDictionary
280
     1
281
     1
  3
ACAD_DIMASSOC
360
2229C
  0
DICTIONARY
  5
4B9
102
{ACAD_REACTORS
330
C
102
}
330
C
100
AcDbDictionary
281
     1
  0
DICTIONARY
  5
D
102
{ACAD_REACTORS
330
C
102
}
330
C
100
AcDbDictionary
281
     1
  0
DICTIONARY
  5
1A
102
{ACAD_REACTORS
330
C
102
}
330
C
100
AcDbDictionary
281
     1
  3
Layout1
350
1E
  3
Model
350
22
  0
DICTIONARY
  5
3B
102
{ACAD_REACTORS
330
C
102
}
330
C
100
AcDbDictionary
281
     1
  3
ByBlock
350
3D
  3
ByLayer
350
3C
  3
Global
350
3E
  0
DICTIONARY
  5
489
102
{ACAD_REACTORS
330
C
102
}
330
C
100
AcDbDictionary
281
     1
  3
Standard
350
1782E
  0
DICTIONARY
  5
17
102
{ACAD_REACTORS
330
C
102
}
330
C
100
AcDbDictionary
281
     1
  3
Standard
350
18
  0
DICTIONARY
  5
19
102
{ACAD_REACTORS
330
C
102
}
330
C
100
AcDbDictionary
281
     1
  0
ACDBDICTIONARYWDFLT
  5
E
102
{ACAD_REACTORS
330
C
102
}
330
C
100
AcDbDictionary
281
     1
  3
Normal
350
F
100
AcDbDictionaryWithDefault
340
F
  0
DICTIONARY
  5
1780C
102
{ACAD_REACTORS
330
C
102
}
330
C
100
AcDbDictionary
281
     1
  3
A0
350
1780D
  3
A1
350
1780E
  3
A2
350
1780F
  3
A3
350
17810
  3
A4
350
17811
  3
A5
350
17812
  3
A6
350
17813
  3
A7
350
17814
  3
A8
350
17815
  3
A9
350
17816
  3
B0
350
17817
  3
B1
350
17818
  3
B2
350
17819
  3
B3
350
1781A
  3
B4
350
1781B
  3
B5
350
1781C
  3
B6
350
1781D
  3
B7
350
1781E
  3
B8
350
1781F
  3
B9
350
17820
  3
C0
350
17821
  3
C1
350
17822
  3
C2
350
17823
  3
C3
350
17824
  3
C4
350
17825
  3
C5
350
17826
  3
C6
350
17827
  3
C7
350
17828
  3
C8
350
17829
  3
C9
350
1782A
  3
D0
350
1782B
  3
D1
350
1782C
  3
D2
350
1782D
  0
DICTIONARY
  5
4BA
102
{ACAD_REACTORS
330
C
102
}
330
C
100
AcDbDictionary
281
     1
  3
Standard
350
4BB
  0
DICTIONARY
  5
2A
102
{ACAD_REACTORS
330
C
102
}
330
C
100
AcDbDictionary
281
     1
  3
2dWireframe
350
2F
  3
3D Hidden
350
A47
  3
3dWireframe
350
A48
  3
Basic
350
32
  3
Brighten
350
36
  3
ColorChange
350
3A
  3
Conceptual
350
A4B
  3
Dim
350
35
  3
Facepattern
350
39
  3
Flat
350
2B
  3
FlatWithEdges
350
2C
  3
Gouraud
350
2D
  3
GouraudWithEdges
350
2E
  3
Linepattern
350
38
  3
Realistic
350
A4C
  3
Thicken
350
37
  0
XRECORD
  5
1783D
102
{ACAD_REACTORS
330
C
102
}
330
C
100
AcDbXrecord
280
     1
 90
        1
330
4BB
  0
DICTIONARY
  5
487
102
{ACAD_REACTORS
330
C
102
}
330
C
100
AcDbDictionary
281
     1
  3
CANNOSCALE
350
17840
  3
CMLEADERSTYLE
350
1783E
  3
CTABLESTYLE
350
5FE
  3
DIMASSOC
350
48A
  3
HIDETEXT
350
48B
  3
INDEXCTL
350
86B
  3
LIGHTINGUNITS
350
17841
  3
MSLTSCALE
350
1783F
  3
SORTENTS
350
86A
  0
DICTIONARY
  5
21B1D
102
{ACAD_REACTORS
330
7D1
102
}
330
7D1
100
AcDbDictionary
281
     1
  0
DICTIONARY
  5
7D2
102
{ACAD_REACTORS
330
7D1
102
}
330
7D1
100
AcDbDictionary
281
     1
  0
DICTIONARY
  5
21B1C
102
{ACAD_REACTORS
330
7D1
102
}
330
7D1
100
AcDbDictionary
281
     1
1001
ACAD
1000
<All
  0
XRECORD
  5
17836
102
{ACAD_REACTORS
330
17835
102
}
330
17835
100
AcDbXrecord
280
     1
290
     1
  0
XRECORD
  5
17838
102
{ACAD_REACTORS
330
17837
102
}
330
17837
100
AcDbXrecord
280
     1
290
     1
  0
XRECORD
  5
1783A
102
{ACAD_REACTORS
330
17839
102
}
330
17839
100
AcDbXrecord
280
     1
290
     1
  0
SORTENTSTABLE
  5
5F9
102
{ACAD_REACTORS
330
5F8
102
}
330
5F8
100
AcDbSortentsTable
330
1F
  0
DIMASSOC
  5
22288
102
{ACAD_REACTORS
330
22280
102
}
330
22280
100
AcDbDimAssoc
330
22275
 90
        3
 70
     0
 71
     0
  1
AcDbOsnapPointRef
 72
     1
331
22272
 73
     2
 91
        0
 40
1.0
 10
0.0
 20
0.0
 30
2.000000000000000E+50
 75
     0
  1
AcDbOsnapPointRef
 72
    13
331
22265
 73
     2
 91
        0
 40
0.0
 10
0.0
 20
0.0
 30
2.000000000000000E+50
 75
     0
  0
DIMASSOC
  5
2229C
102
{ACAD_REACTORS
330
22294
102
}
330
22294
100
AcDbDimAssoc
330
22289
 90
        3
 70
     0
 71
     0
  1
AcDbOsnapPointRef
 72
    13
331
22265
 73
     2
 91
        0
 40
0.0
 10
0.0
 20
0.0
 30
2.000000000000000E+50
 75
     0
  1
AcDbOsnapPointRef
 72
     1
331
22274
 73
     2
 91
        0
 40
1.0
 10
0.0
 20
0.0
 30
2.000000000000000E+50
 75
     0
  0
LAYOUT
  5
1E
102
{ACAD_XDICTIONARY
360
7D4
102
}
102
{ACAD_REACTORS
330
1A
102
}
330
1A
100
AcDbPlotSettings
  1

  2
Bullzip PDF Printer
  4
A3
  6

 40
3.174999952316284
 41
3.174999952316284
 42
3.17498779296875
 43
3.17498779296875
 44
297.0530090332031
 45
420.1583251953125
 46
0.0
 47
0.0
 48
6.561544945354853
 49
3.282189374834842
140
416.7133315898103
141
290.5875349075164
142
1.0
143
1.0
 70
   672
 72
     1
 73
     1
 74
     4
  7
monochrome.ctb
 75
    16
147
25.4
 76
     0
 77
     2
 78
   300
148
-6.561544945354853
149
-3.282189374834842
100
AcDbLayout
  1
Layout1
 70
     0
 71
     1
 10
3.386557152386103
 20
0.1071894225185588
 11
423.5448823476986
 21
297.1601984557217
 12
0.0
 22
0.0
 32
0.0
 14
6.561544945354853
 24
3.282189374834842
 34
0.0
 15
416.7133315898103
 25
290.5875349075164
 35
0.0
146
0.0
 13
0.0
 23
0.0
 33
0.0
 16
1.0
 26
0.0
 36
0.0
 17
0.0
 27
1.0
 37
0.0
 76
     0
330
1B
331
7CA
1001
ACAD_PSEXT
1000
Bullzip PDF Printer
1000
Bullzip PDF Printer
1000
BULLZIP
1000
Bullzip PDF Printer 7.2.0.1338
1070
     0
  0
LAYOUT
  5
22
102
{ACAD_REACTORS
330
1A
102
}
330
1A
100
AcDbPlotSettings
  1

  2
none_device
  4
Letter_(8.50_x_11.00_Inches)
  6

 40
6.349999904632568
 41
6.349999904632568
 42
6.350006103515625
 43
6.350006103515625
 44
215.8999938964844
 45
279.3999938964844
 46
0.0
 47
0.0
 48
0.0
 49
0.0
140
0.0
141
0.0
142
1.0
143
2.905514708677072
 70
 11952
 72
     0
 73
     1
 74
     0
  7

 75
     0
147
0.3441730984921828
 76
     0
 77
     2
 78
   300
148
44.2077994961856
149
-8.333763141688276
100
AcDbLayout
  1
Model
 70
     1
 71
     0
 10
0.0
 20
0.0
 11
12.0
 21
9.0
 12
0.0
 22
0.0
 32
0.0
 14
1.000000000000000E+20
 24
1.000000000000000E+20
 34
1.000000000000000E+20
 15
-1.000000000000000E+20
 25
-1.000000000000000E+20
 35
-1.000000000000000E+20
146
0.0
 13
0.0
 23
0.0
 33
0.0
 16
1.0
 26
0.0
 36
0.0
 17
0.0
 27
1.0
 37
0.0
 76
     0
330
1F
331
29
1001
ACAD_PSEXT
1000
Brak
1000
Brak
1000
Nie można zastosować.
1000
Arkusz nie zostanie wydrukowany dopóki nie wybrano konfiguracji plotera.
1070
     0
  0
MATERIAL
  5
3D
102
{ACAD_XDICTIONARY
360
222C9
102
}
102
{ACAD_REACTORS
330
3B
102
}
330
3B
100
AcDbMaterial
  1
ByBlock
 73
     1
 78
     1
172
     1
176
     1
270
     1
274
     1
  0
MATERIAL
  5
3C
102
{ACAD_XDICTIONARY
360
222C7
102
}
102
{ACAD_REACTORS
330
3B
102
}
330
3B
100
AcDbMaterial
  1
ByLayer
 73
     1
 78
     1
172
     1
176
     1
270
     1
274
     1
  0
MATERIAL
  5
3E
102
{ACAD_XDICTIONARY
360
222CB
102
}
102
{ACAD_REACTORS
330
3B
102
}
330
3B
100
AcDbMaterial
  1
Global
 73
     1
 78
     1
172
     1
176
     1
270
     1
274
     1
  0
MLEADERSTYLE
  5
1782E
102
{ACAD_REACTORS
330
489
102
}
330
489
100
AcDbMLeaderStyle
170
     2
171
     1
172
     0
 90
        2
 40
0.0
 41
0.0
173
     1
 91
-1056964608
340
14
 92
       -2
290
     1
 42
0.09
291
     1
 43
0.36
  3
Standard
 44
0.18
300

342
11
174
     1
178
     6
175
     1
176
     0
 93
-1056964608
 45
0.18
292
     0
297
     0
 46
0.18
 94
-1056964608
 47
1.0
 49
1.0
140
1.0
293
     1
141
0.0
294
     1
177
     0
142
1.0
295
     0
296
     0
143
0.125
1001
ACAD_MLEADERVER
1070
     2
  0
MLINESTYLE
  5
18
102
{ACAD_REACTORS
330
17
102
}
330
17
100
AcDbMlineStyle
  2
STANDARD
 70
     0
  3

 62
   256
 51
90.0
 52
90.0
 71
     2
 49
0.5
 62
   256
  6
BYLAYER
 49
-0.5
 62
   256
  6
BYLAYER
  0
ACDBPLACEHOLDER
  5
F
102
{ACAD_REACTORS
330
E
102
}
330
E
  0
SCALE
  5
1780D
102
{ACAD_REACTORS
330
1780C
102
}
330
1780C
100
AcDbScale
 70
     0
300
1:1
140
1.0
141
1.0
290
     1
  0
SCALE
  5
1780E
102
{ACAD_REACTORS
330
1780C
102
}
330
1780C
100
AcDbScale
 70
     0
300
1:2
140
1.0
141
2.0
290
     0
  0
SCALE
  5
1780F
102
{ACAD_REACTORS
330
1780C
102
}
330
1780C
100
AcDbScale
 70
     0
300
1:4
140
1.0
141
4.0
290
     0
  0
SCALE
  5
17810
102
{ACAD_REACTORS
330
1780C
102
}
330
1780C
100
AcDbScale
 70
     0
300
1:5
140
1.0
141
5.0
290
     0
  0
SCALE
  5
17811
102
{ACAD_REACTORS
330
1780C
102
}
330
1780C
100
AcDbScale
 70
     0
300
1:8
140
1.0
141
8.0
290
     0
  0
SCALE
  5
17812
102
{ACAD_REACTORS
330
1780C
102
}
330
1780C
100
AcDbScale
 70
     0
300
1:10
140
1.0
141
10.0
290
     0
  0
SCALE
  5
17813
102
{ACAD_REACTORS
330
1780C
102
}
330
1780C
100
AcDbScale
 70
     0
300
1:16
140
1.0
141
16.0
290
     0
  0
SCALE
  5
17814
102
{ACAD_REACTORS
330
1780C
102
}
330
1780C
100
AcDbScale
 70
     0
300
1:20
140
1.0
141
20.0
290
     0
  0
SCALE
  5
17815
102
{ACAD_REACTORS
330
1780C
102
}
330
1780C
100
AcDbScale
 70
     0
300
1:30
140
1.0
141
30.0
290
     0
  0
SCALE
  5
17816
102
{ACAD_REACTORS
330
1780C
102
}
330
1780C
100
AcDbScale
 70
     0
300
1:40
140
1.0
141
40.0
290
     0
  0
SCALE
  5
17817
102
{ACAD_REACTORS
330
1780C
102
}
330
1780C
100
AcDbScale
 70
     0
300
1:50
140
1.0
141
50.0
290
     0
  0
SCALE
  5
17818
102
{ACAD_REACTORS
330
1780C
102
}
330
1780C
100
AcDbScale
 70
     0
300
1:100
140
1.0
141
100.0
290
     0
  0
SCALE
  5
17819
102
{ACAD_REACTORS
330
1780C
102
}
330
1780C
100
AcDbScale
 70
     0
300
2:1
140
2.0
141
1.0
290
     0
  0
SCALE
  5
1781A
102
{ACAD_REACTORS
330
1780C
102
}
330
1780C
100
AcDbScale
 70
     0
300
4:1
140
4.0
141
1.0
290
     0
  0
SCALE
  5
1781B
102
{ACAD_REACTORS
330
1780C
102
}
330
1780C
100
AcDbScale
 70
     0
300
8:1
140
8.0
141
1.0
290
     0
  0
SCALE
  5
1781C
102
{ACAD_REACTORS
330
1780C
102
}
330
1780C
100
AcDbScale
 70
     0
300
10:1
140
10.0
141
1.0
290
     0
  0
SCALE
  5
1781D
102
{ACAD_REACTORS
330
1780C
102
}
330
1780C
100
AcDbScale
 70
     0
300
100:1
140
100.0
141
1.0
290
     0
  0
SCALE
  5
1781E
102
{ACAD_REACTORS
330
1780C
102
}
330
1780C
100
AcDbScale
 70
     0
300
1/128" = 1'-0"
140
0.0078125
141
12.0
290
     0
  0
SCALE
  5
1781F
102
{ACAD_REACTORS
330
1780C
102
}
330
1780C
100
AcDbScale
 70
     0
300
1/64" = 1'-0"
140
0.015625
141
12.0
290
     0
  0
SCALE
  5
17820
102
{ACAD_REACTORS
330
1780C
102
}
330
1780C
100
AcDbScale
 70
     0
300
1/32" = 1'-0"
140
0.03125
141
12.0
290
     0
  0
SCALE
  5
17821
102
{ACAD_REACTORS
330
1780C
102
}
330
1780C
100
AcDbScale
 70
     0
300
1/16" = 1'-0"
140
0.0625
141
12.0
290
     0
  0
SCALE
  5
17822
102
{ACAD_REACTORS
330
1780C
102
}
330
1780C
100
AcDbScale
 70
     0
300
3/32" = 1'-0"
140
0.09375
141
12.0
290
     0
  0
SCALE
  5
17823
102
{ACAD_REACTORS
330
1780C
102
}
330
1780C
100
AcDbScale
 70
     0
300
1/8" = 1'-0"
140
0.125
141
12.0
290
     0
  0
SCALE
  5
17824
102
{ACAD_REACTORS
330
1780C
102
}
330
1780C
100
AcDbScale
 70
     0
300
3/16" = 1'-0"
140
0.1875
141
12.0
290
     0
  0
SCALE
  5
17825
102
{ACAD_REACTORS
330
1780C
102
}
330
1780C
100
AcDbScale
 70
     0
300
1/4" = 1'-0"
140
0.25
141
12.0
290
     0
  0
SCALE
  5
17826
102
{ACAD_REACTORS
330
1780C
102
}
330
1780C
100
AcDbScale
 70
     0
300
3/8" = 1'-0"
140
0.375
141
12.0
290
     0
  0
SCALE
  5
17827
102
{ACAD_REACTORS
330
1780C
102
}
330
1780C
100
AcDbScale
 70
     0
300
1/2" = 1'-0"
140
0.5
141
12.0
290
     0
  0
SCALE
  5
17828
102
{ACAD_REACTORS
330
1780C
102
}
330
1780C
100
AcDbScale
 70
     0
300
3/4" = 1'-0"
140
0.75
141
12.0
290
     0
  0
SCALE
  5
17829
102
{ACAD_REACTORS
330
1780C
102
}
330
1780C
100
AcDbScale
 70
     0
300
1" = 1'-0"
140
1.0
141
12.0
290
     0
  0
SCALE
  5
1782A
102
{ACAD_REACTORS
330
1780C
102
}
330
1780C
100
AcDbScale
 70
     0
300
1-1/2" = 1'-0"
140
1.5
141
12.0
290
     0
  0
SCALE
  5
1782B
102
{ACAD_REACTORS
330
1780C
102
}
330
1780C
100
AcDbScale
 70
     0
300
3" = 1'-0"
140
3.0
141
12.0
290
     0
  0
SCALE
  5
1782C
102
{ACAD_REACTORS
330
1780C
102
}
330
1780C
100
AcDbScale
 70
     0
300
6" = 1'-0"
140
6.0
141
12.0
290
     0
  0
SCALE
  5
1782D
102
{ACAD_REACTORS
330
1780C
102
}
330
1780C
100
AcDbScale
 70
     0
300
1'-0" = 1'-0"
140
12.0
141
12.0
290
     0
  0
TABLESTYLE
  5
4BB
102
{ACAD_XDICTIONARY
360
1783B
102
}
102
{ACAD_REACTORS
330
4BA
102
}
330
4BA
100
AcDbTableStyle
  3
Standard
 70
     0
 71
     0
 40
0.06
 41
0.06
280
     0
281
     0
  7
Standard
140
0.18
170
     2
 62
     0
 63
     7
283
     0
274
    -2
284
     1
 64
     0
275
    -2
285
     1
 65
     0
276
    -2
286
     1
 66
     0
277
    -2
287
     1
 67
     0
278
    -2
288
     1
 68
     0
279
    -2
289
     1
 69
     0
  7
Standard
140
0.25
170
     5
 62
     0
 63
     7
283
     0
274
    -2
284
     1
 64
     0
275
    -2
285
     1
 65
     0
276
    -2
286
     1
 66
     0
277
    -2
287
     1
 67
     0
278
    -2
288
     1
 68
     0
279
    -2
289
     1
 69
     0
  7
Standard
140
0.18
170
     5
 62
     0
 63
     7
283
     0
274
    -2
284
     1
 64
     0
275
    -2
285
     1
 65
     0
276
    -2
286
     1
 66
     0
277
    -2
287
     1
 67
     0
278
    -2
288
     1
 68
     0
279
    -2
289
     1
 69
     0
  0
VISUALSTYLE
  5
2F
102
{ACAD_XDICTIONARY
360
49A
102
}
102
{ACAD_REACTORS
330
2A
102
}
330
2A
100
AcDbVisualStyle
  2
2dWireframe
 70
     4
 71
     0
 72
     2
 73
     0
 90
        0
 40
-0.6
 41
-30.0
 62
     5
 63
     7
 74
     1
 91
        4
 64
     7
 65
   257
 75
     1
175
     1
 42
1.0
 92
        0
 66
   257
 43
1.0
 76
     1
 77
     6
 78
     2
 67
     7
 79
     5
170
     0
171
     0
290
     0
174
     0
 93
        1
 44
0.0
173
     0
291
     0
 45
0.0
1001
ACAD
1000
AcDbSavedByObjectVersion
1070
     0
  0
VISUALSTYLE
  5
A47
102
{ACAD_REACTORS
330
2A
102
}
330
2A
100
AcDbVisualStyle
  2
3D Hidden
 70
     6
 71
     1
 72
     2
 73
     2
 90
        0
 40
-0.6
 41
-30.0
 62
     5
 63
     7
 74
     2
 91
        2
 64
     7
 65
   257
 75
     2
175
     1
 42
40.0
 92
        0
 66
   257
 43
1.0
 76
     1
 77
     6
 78
     2
 67
     7
 79
     3
170
     0
171
     0
290
     0
174
     0
 93
        1
 44
0.0
173
     0
291
     0
 45
0.0
1001
ACAD
1000
AcDbSavedByObjectVersion
1070
     0
  0
VISUALSTYLE
  5
A48
102
{ACAD_XDICTIONARY
360
A49
102
}
102
{ACAD_REACTORS
330
2A
102
}
330
2A
100
AcDbVisualStyle
  2
3dWireframe
 70
     5
 71
     0
 72
     2
 73
     0
 90
        0
 40
-0.6
 41
-30.0
 62
     5
 63
     7
 74
     1
 91
        4
 64
     7
 65
   257
 75
     1
175
     1
 42
1.0
 92
        0
 66
   257
 43
1.0
 76
     1
 77
     6
 78
     2
 67
     7
 79
     5
170
     0
171
     0
290
     0
174
     0
 93
        1
 44
0.0
173
     0
291
     0
 45
0.0
1001
ACAD
1000
AcDbSavedByObjectVersion
1070
     0
  0
VISUALSTYLE
  5
32
102
{ACAD_XDICTIONARY
360
4A0
102
}
102
{ACAD_REACTORS
330
2A
102
}
330
2A
100
AcDbVisualStyle
  2
Basic
 70
     7
 71
     1
 72
     0
 73
     1
 90
        0
 40
-0.6
 41
-30.0
 62
     5
 63
     7
 74
     0
 91
        4
 64
     7
 65
   257
 75
     1
175
     1
 42
1.0
 92
        8
 66
     7
 43
1.0
 76
     1
 77
     6
 78
     2
 67
     7
 79
     5
170
     0
171
     0
290
     0
174
     0
 93
        1
 44
0.0
173
     0
291
     1
 45
0.0
1001
ACAD
1000
AcDbSavedByObjectVersion
1070
     0
  0
VISUALSTYLE
  5
36
102
{ACAD_XDICTIONARY
360
4A8
102
}
102
{ACAD_REACTORS
330
2A
102
}
330
2A
100
AcDbVisualStyle
  2
Brighten
 70
    12
 71
     2
 72
     2
 73
     0
 90
        0
 40
-0.6
 41
-30.0
 62
     5
 63
     7
 74
     1
 91
        4
 64
     7
 65
   257
 75
     1
175
     1
 42
1.0
 92
        8
 66
     7
 43
1.0
 76
     1
 77
     6
 78
     2
 67
     7
 79
     5
170
     0
171
     0
290
     0
174
     0
 93
        1
 44
50.0
173
     0
291
     1
 45
0.0
1001
ACAD
1000
AcDbSavedByObjectVersion
1070
     0
  0
VISUALSTYLE
  5
3A
102
{ACAD_XDICTIONARY
360
4B0
102
}
102
{ACAD_REACTORS
330
2A
102
}
330
2A
100
AcDbVisualStyle
  2
ColorChange
 70
    16
 71
     2
 72
     2
 73
     3
 90
        0
 40
-0.6
 41
-30.0
 62
     5
 63
     8
 74
     1
 91
        4
 64
     7
 65
   257
 75
     1
175
     1
 42
1.0
 92
        8
 66
     8
 43
1.0
 76
     1
 77
     6
 78
     2
 67
     7
 79
     5
170
     0
171
     0
290
     0
174
     0
 93
        1
 44
0.0
173
     0
291
     1
 45
0.0
1001
ACAD
1000
AcDbSavedByObjectVersion
1070
     0
  0
VISUALSTYLE
  5
A4B
102
{ACAD_REACTORS
330
2A
102
}
330
2A
100
AcDbVisualStyle
  2
Conceptual
 70
     9
 71
     3
 72
     2
 73
     0
 90
        0
 40
-0.6
 41
-30.0
 62
     5
 63
     7
 74
     2
 91
        2
 64
     7
 65
   257
 75
     1
175
     1
 42
40.0
 92
        8
 66
     7
 43
1.0
 76
     1
 77
     6
 78
     2
 67
     7
 79
     3
170
     0
171
     0
290
     0
174
     0
 93
        1
 44
0.0
173
     0
291
     0
 45
0.0
1001
ACAD
1000
AcDbSavedByObjectVersion
1070
     0
  0
VISUALSTYLE
  5
35
102
{ACAD_XDICTIONARY
360
4A6
102
}
102
{ACAD_REACTORS
330
2A
102
}
330
2A
100
AcDbVisualStyle
  2
Dim
 70
    11
 71
     2
 72
     2
 73
     0
 90
        0
 40
-0.6
 41
-30.0
 62
     5
 63
     7
 74
     1
 91
        4
 64
     7
 65
   257
 75
     1
175
     1
 42
1.0
 92
        8
 66
     7
 43
1.0
 76
     1
 77
     6
 78
     2
 67
     7
 79
     5
170
     0
171
     0
290
     0
174
     0
 93
        1
 44
-50.0
173
     0
291
     1
 45
0.0
1001
ACAD
1000
AcDbSavedByObjectVersion
1070
     0
  0
VISUALSTYLE
  5
39
102
{ACAD_XDICTIONARY
360
4AE
102
}
102
{ACAD_REACTORS
330
2A
102
}
330
2A
100
AcDbVisualStyle
  2
Facepattern
 70
    15
 71
     2
 72
     2
 73
     0
 90
        0
 40
-0.6
 41
-30.0
 62
     5
 63
     7
 74
     1
 91
        4
 64
     7
 65
   257
 75
     1
175
     1
 42
1.0
 92
        8
 66
     7
 43
1.0
 76
     1
 77
     6
 78
     2
 67
     7
 79
     5
170
     0
171
     0
290
     0
174
     0
 93
        1
 44
0.0
173
     0
291
     1
 45
0.0
1001
ACAD
1000
AcDbSavedByObjectVersion
1070
     0
  0
VISUALSTYLE
  5
2B
102
{ACAD_XDICTIONARY
360
492
102
}
102
{ACAD_REACTORS
330
2A
102
}
330
2A
100
AcDbVisualStyle
  2
Flat
 70
     0
 71
     2
 72
     1
 73
     1
 90
        2
 40
-0.6
 41
30.0
 62
     5
 63
     7
 74
     0
 91
        4
 64
     7
 65
   257
 75
     1
175
     1
 42
1.0
 92
        8
 66
     7
 43
1.0
 76
     1
 77
     6
 78
     2
 67
     7
 79
     5
170
     0
171
     0
290
     0
174
     0
 93
       13
 44
0.0
173
     0
291
     1
 45
0.0
1001
ACAD
1000
AcDbSavedByObjectVersion
1070
     0
  0
VISUALSTYLE
  5
2C
102
{ACAD_XDICTIONARY
360
494
102
}
102
{ACAD_REACTORS
330
2A
102
}
330
2A
100
AcDbVisualStyle
  2
FlatWithEdges
 70
     1
 71
     2
 72
     1
 73
     1
 90
        2
 40
-0.6
 41
30.0
 62
     5
 63
     7
 74
     1
 91
        4
 64
     7
 65
   257
 75
     1
175
     1
 42
1.0
 92
        0
 66
   257
 43
1.0
 76
     1
 77
     6
 78
     2
 67
     7
 79
     5
170
     0
171
     0
290
     0
174
     0
 93
       13
 44
0.0
173
     0
291
     1
 45
0.0
1001
ACAD
1000
AcDbSavedByObjectVersion
1070
     0
  0
VISUALSTYLE
  5
2D
102
{ACAD_XDICTIONARY
360
496
102
}
102
{ACAD_REACTORS
330
2A
102
}
330
2A
100
AcDbVisualStyle
  2
Gouraud
 70
     2
 71
     2
 72
     2
 73
     1
 90
        2
 40
-0.6
 41
30.0
 62
     5
 63
     7
 74
     0
 91
        4
 64
     7
 65
   257
 75
     1
175
     1
 42
1.0
 92
        0
 66
     7
 43
1.0
 76
     1
 77
     6
 78
     2
 67
     7
 79
     5
170
     0
171
     0
290
     0
174
     0
 93
       13
 44
0.0
173
     0
291
     1
 45
0.0
1001
ACAD
1000
AcDbSavedByObjectVersion
1070
     0
  0
VISUALSTYLE
  5
2E
102
{ACAD_XDICTIONARY
360
498
102
}
102
{ACAD_REACTORS
330
2A
102
}
330
2A
100
AcDbVisualStyle
  2
GouraudWithEdges
 70
     3
 71
     2
 72
     2
 73
     1
 90
        2
 40
-0.6
 41
30.0
 62
     5
 63
     7
 74
     1
 91
        4
 64
     7
 65
   257
 75
     1
175
     1
 42
1.0
 92
        0
 66
   257
 43
1.0
 76
     1
 77
     6
 78
     2
 67
     7
 79
     5
170
     0
171
     0
290
     0
174
     0
 93
       13
 44
0.0
173
     0
291
     1
 45
0.0
1001
ACAD
1000
AcDbSavedByObjectVersion
1070
     0
  0
VISUALSTYLE
  5
38
102
{ACAD_XDICTIONARY
360
4AC
102
}
102
{ACAD_REACTORS
330
2A
102
}
330
2A
100
AcDbVisualStyle
  2
Linepattern
 70
    14
 71
     2
 72
     2
 73
     0
 90
        0
 40
-0.6
 41
-30.0
 62
     5
 63
     7
 74
     1
 91
        4
 64
     7
 65
   257
 75
     7
175
     7
 42
1.0
 92
        8
 66
     7
 43
1.0
 76
     1
 77
     6
 78
     2
 67
     7
 79
     5
170
     0
171
     0
290
     0
174
     0
 93
        1
 44
0.0
173
     0
291
     1
 45
0.0
1001
ACAD
1000
AcDbSavedByObjectVersion
1070
     0
  0
VISUALSTYLE
  5
A4C
102
{ACAD_XDICTIONARY
360
A4D
102
}
102
{ACAD_REACTORS
330
2A
102
}
330
2A
100
AcDbVisualStyle
  2
Realistic
 70
     8
 71
     2
 72
     2
 73
     0
 90
        0
 40
-0.6
 41
-30.0
 62
     5
 63
     7
 74
     1
 91
        0
 64
     7
 65
   257
 75
     1
175
     1
 42
1.0
 92
        8
 66
     8
 43
1.0
 76
     1
 77
     6
 78
     2
 67
     7
 79
     5
170
     0
171
     0
290
     0
174
     0
 93
       13
 44
0.0
173
     0
291
     0
 45
0.0
1001
ACAD
1000
AcDbSavedByObjectVersion
1070
     0
  0
VISUALSTYLE
  5
37
102
{ACAD_XDICTIONARY
360
4AA
102
}
102
{ACAD_REACTORS
330
2A
102
}
330
2A
100
AcDbVisualStyle
  2
Thicken
 70
    13
 71
     2
 72
     2
 73
     0
 90
        0
 40
-0.6
 41
-30.0
 62
     5
 63
     7
 74
     1
 91
        4
 64
     7
 65
   257
 75
     1
175
     1
 42
1.0
 92
       12
 66
     7
 43
1.0
 76
     1
 77
     6
 78
     2
 67
     7
 79
     5
170
     0
171
     0
290
     0
174
     0
 93
        1
 44
0.0
173
     0
291
     1
 45
0.0
1001
ACAD
1000
AcDbSavedByObjectVersion
1070
     0
  0
DICTIONARYVAR
  5
17840
102
{ACAD_REACTORS
330
487
102
}
330
487
100
DictionaryVariables
280
     0
  1
1:1
  0
DICTIONARYVAR
  5
1783E
102
{ACAD_REACTORS
330
487
102
}
330
487
100
DictionaryVariables
280
     0
  1
STANDARD
  0
DICTIONARYVAR
  5
5FE
102
{ACAD_REACTORS
330
487
102
}
330
487
100
DictionaryVariables
280
     0
  1
STANDARD
  0
DICTIONARYVAR
  5
48A
102
{ACAD_REACTORS
330
487
102
}
330
487
100
DictionaryVariables
280
     0
  1
2
  0
DICTIONARYVAR
  5
48B
102
{ACAD_REACTORS
330
487
102
}
330
487
100
DictionaryVariables
280
     0
  1
1
  0
DICTIONARYVAR
  5
86B
102
{ACAD_REACTORS
330
487
102
}
330
487
100
DictionaryVariables
280
     0
  1
0
  0
DICTIONARYVAR
  5
17841
102
{ACAD_REACTORS
330
487
102
}
330
487
100
DictionaryVariables
280
     0
  1
0
  0
DICTIONARYVAR
  5
1783F
102
{ACAD_REACTORS
330
487
102
}
330
487
100
DictionaryVariables
280
     0
  1
0
  0
DICTIONARYVAR
  5
86A
102
{ACAD_REACTORS
330
487
102
}
330
487
100
DictionaryVariables
280
     0
  1
127
  0
DICTIONARY
  5
7D4
330
1E
100
AcDbDictionary
280
     1
281
     1
  3
ADSK_XREC_LAYOUTTHUMBNAIL
360
7D5
  0
DICTIONARY
  5
222C9
330
3D
100
AcDbDictionary
280
     1
281
     1
  3
ACAD_XREC_ROUNDTRIP
360
222CA
  0
DICTIONARY
  5
222C7
330
3C
100
AcDbDictionary
280
     1
281
     1
  3
ACAD_XREC_ROUNDTRIP
360
222C8
  0
DICTIONARY
  5
222CB
330
3E
100
AcDbDictionary
280
     1
281
     1
  3
ACAD_XREC_ROUNDTRIP
360
222CC
  0
DICTIONARY
  5
1783B
330
4BB
100
AcDbDictionary
280
     1
281
     1
  3
ACAD_ROUNDTRIP_2008_TABLESTYLE_CELLSTYLEMAP
360
222C6
  3
ACAD_XREC_ROUNDTRIP
360
222CD
  0
DICTIONARY
  5
49A
330
2F
100
AcDbDictionary
280
     1
281
     1
  3
ACAD_XREC_ROUNDTRIP
360
49B
  0
DICTIONARY
  5
A49
330
A48
100
AcDbDictionary
280
     1
281
     1
  3
ACAD_XREC_ROUNDTRIP
360
A4A
  0
DICTIONARY
  5
4A0
330
32
100
AcDbDictionary
280
     1
281
     1
  3
ACAD_XREC_ROUNDTRIP
360
4A1
  0
DICTIONARY
  5
4A8
330
36
100
AcDbDictionary
280
     1
281
     1
  3
ACAD_XREC_ROUNDTRIP
360
4A9
  0
DICTIONARY
  5
4B0
330
3A
100
AcDbDictionary
280
     1
281
     1
  3
ACAD_XREC_ROUNDTRIP
360
4B1
  0
DICTIONARY
  5
4A6
330
35
100
AcDbDictionary
280
     1
281
     1
  3
ACAD_XREC_ROUNDTRIP
360
4A7
  0
DICTIONARY
  5
4AE
330
39
100
AcDbDictionary
280
     1
281
     1
  3
ACAD_XREC_ROUNDTRIP
360
4AF
  0
DICTIONARY
  5
492
330
2B
100
AcDbDictionary
280
     1
281
     1
  3
ACAD_XREC_ROUNDTRIP
360
493
  0
DICTIONARY
  5
494
330
2C
100
AcDbDictionary
280
     1
281
     1
  3
ACAD_XREC_ROUNDTRIP
360
495
  0
DICTIONARY
  5
496
330
2D
100
AcDbDictionary
280
     1
281
     1
  3
ACAD_XREC_ROUNDTRIP
360
497
  0
DICTIONARY
  5
498
330
2E
100
AcDbDictionary
280
     1
281
     1
  3
ACAD_XREC_ROUNDTRIP
360
499
  0
DICTIONARY
  5
4AC
330
38
100
AcDbDictionary
280
     1
281
     1
  3
ACAD_XREC_ROUNDTRIP
360
4AD
  0
DICTIONARY
  5
A4D
330
A4C
100
AcDbDictionary
280
     1
281
     1
  3
ACAD_XREC_ROUNDTRIP
360
A4E
  0
DICTIONARY
  5
4AA
330
37
100
AcDbDictionary
280
     1
281
     1
  3
ACAD_XREC_ROUNDTRIP
360
4AB
  0
XRECORD
  5
7D5
102
{ACAD_REACTORS
330
7D4
102
}
330
7D4
100
AcDbXrecord
280
     1
310
28000000B40000007F00000001000800000000004C59000000000000000000000001000000000000FFFFFF0000000000FFFFFF000000000000000000000000000000000000000000000000000000000000000000330000006600000099000000CC000000FF00000000330000333300006633000099330000CC330000FF3300
310
0000660000336600006666000099660000CC660000FF66000000990000339900006699000099990000CC990000FF99000000CC000033CC000066CC000099CC0000CCCC0000FFCC000000FF000033FF000066FF000099FF0000CCFF0000FFFF000000003300330033006600330099003300CC003300FF003300003333003333
310
33006633330099333300CC333300FF33330000663300336633006666330099663300CC663300FF66330000993300339933006699330099993300CC993300FF99330000CC330033CC330066CC330099CC3300CCCC3300FFCC330000FF330033FF330066FF330099FF3300CCFF3300FFFF330000006600330066006600660099
310
006600CC006600FF00660000336600333366006633660099336600CC336600FF33660000666600336666006666660099666600CC666600FF66660000996600339966006699660099996600CC996600FF99660000CC660033CC660066CC660099CC6600CCCC6600FFCC660000FF660033FF660066FF660099FF6600CCFF6600
310
FFFF660000009900330099006600990099009900CC009900FF00990000339900333399006633990099339900CC339900FF33990000669900336699006666990099669900CC669900FF66990000999900339999006699990099999900CC999900FF99990000CC990033CC990066CC990099CC9900CCCC9900FFCC990000FF99
310
0033FF990066FF990099FF9900CCFF9900FFFF99000000CC003300CC006600CC009900CC00CC00CC00FF00CC000033CC003333CC006633CC009933CC00CC33CC00FF33CC000066CC003366CC006666CC009966CC00CC66CC00FF66CC000099CC003399CC006699CC009999CC00CC99CC00FF99CC0000CCCC0033CCCC0066CC
310
CC0099CCCC00CCCCCC00FFCCCC0000FFCC0033FFCC0066FFCC0099FFCC00CCFFCC00FFFFCC000000FF003300FF006600FF009900FF00CC00FF00FF00FF000033FF003333FF006633FF009933FF00CC33FF00FF33FF000066FF003366FF006666FF009966FF00CC66FF00FF66FF000099FF003399FF006699FF009999FF00CC
310
99FF00FF99FF0000CCFF0033CCFF0066CCFF0099CCFF00CCCCFF00FFCCFF0000FFFF0033FFFF0066FFFF0099FFFF00CCFFFF00FFFFFF00000000000D0D0D001A1A1A00282828003535350043434300505050005D5D5D006B6B6B00787878008686860093939300A1A1A100AEAEAE00BBBBBB00C9C9C900D6D6D600E4E4E400
310
F1F1F100FFFFFF0000000000000000000000000000000000000000000000000000000000000000000000000000000000E2E2E2E2E2E2E2E2E2E2E2E2E2E2E2E2E2E2E2E2E2E2E2E2E2E2E2E2E2E2E2E2E2E2E2E2E2E2E2E2E2E2E2E2E2E2E2E2E2E2E2E2E2E2E2E2E2E2E2E2E2E2E2E2E2E2E2E2E2E2E2E2E2E2E2E2E2E2E2
310
E2E2E2E2E2E2E2E2E2E2E2E2E2E2E2E2E2E2E2E2E2E2E2E2E2E2E2E2E2E2E2E2E2E2E2E2E2E2E2E2E2E2E2E2E2E2E2E2E2E2E2E2E2E2E2E2E2E2E2E2E2E2E2E2E2E2E2E2E2E2E2E2E2E2E2E2E2E2E2E2E2E2E2E2E2E2E2E2E2E2E2E2E2E2E2E2E2E2E2E2E2E2E2E2E2E2E2E2E2E2E2E2E2E2E2E2E2E2E2E2E2E2E2E2E2E2E2
310
E2E2E2E2E2E2E2E2E2E2E2E2E2E2E2E2E2E2E2E2E2E2E2E2E2E2E2E2E2E2E2E2E2E2E2E2E2E2E2E2E2E2E2E2E2E2E2E2E2E2E2E2E2E2E2E2E2E2E2E2E2E2E2E2E2E2E2E2E2E2E2E2E2E2E2E2E2E2E2E2E2E2E2E2E2E2E2E2E2E2E2E2E2E2E2E2E2E2E2E2E2E2E2E2E2E2E2E2E2E2E2E2E2E2E2E2E2E2E2E2E2E2E2E2E2E2E2
310
E2E2E2E2E2E2E2E2E2E2E2E2E2E2E2E2E2E2E2E2E2E2E2E2E2E2E2E2E2F5F5F5F5F5F5F5F5F5F5F5F5F5F5F5F5F5F5F5F5F5F5F5F5F5F5F5F5F5F5F5F5F5F5F5F5F5F5F5F5F5F5F5F5F5F5F5F5F5F5F5F5F5F5F5F5F5F5F5F5F5F5F5F5F5F5F5F5F5F5F5F5F5F5F5F5F5F5F5F5F5F5F5F5F5F5F5F5F5F5F5F5F5F5F5F5F5F5
310
F5F5F5F5F5F5F5F5F5F5F5F5F5F5F5F5F5F5F5F5F5F5F5F5F5F5F5F5F5F5F5F5F5F5F5F5F5F5F5F5F5F5F5F5F5F5F5F5F5F5F5F5F5F5F5F5F5F5F5F5F5F5F5F5F5F5F5F5F5F5F5F5F5F5F5E2F5E2E2E2E2E2F5F5F5F5F5F5F5F5F5F5F5F5F5F5F5F5F5F5F5F5F5F5F5F5F5F5F5F5F5F5F5F5F5F5F5F5F5F5F5F5F5F5F5F5F5
310
F5F5F5F5F5F5F5F5F5F5F5F5F5F5F5F5F5F5F5F5F5F5F5F5F5F5F5F5F5F5F5F5F5F5F5F5F5F5F5F5F5F5F5F5F5F5F5F5F5F5F5F5F5F5F5F5F5F5F5F5F5F5F5F5F5F5F5F5F5F5F5F5F5F5F5F5F5F5F5F5F5F5F5F5F5F5F5F5F5F5F5F5F5F5F5F5F5F5F5F5F5F5F5F5F5F5F5F5F5F5F5F5F5F5F5F5F5F5F5F5F5F5F5F5F5F5F5
310
F5E2F5E2E2E2E2E2F5F5F5F5F5F5F5F5F5F5F5F5F5F5F5F5F5F5F5F5F5F5F5F5F5F5F5F5F5F5F5F5F5F5F5F5F5F5F5F5F5F5F5F5F5F5F5F5F5F5F5F5F5F5F5F5F5F5F5F5F5F5F5F5F5F5F5F5F5F5F5F5F5F5F5F5F5F5F5F5F5F5F5F5F5F5F5F5F5F5F5F5F5F5F5F5F5F5F5F5F5F5F5F5F5F5F5F5F5F5F5F5F5F5F5F5F5F5F5
310
F5F5F5F5F5F5F5F5F5F5F5F5F5F5F5F5F5F5F5F5F5F5F5F5F5F5F5F5F5F5F5F5F5F5F5F5F5F5F5F5F5F5F5F5F5F5F5F5F5F5F5F5F5F5E2F5E2E2E2E2E2F5F5F5F5F5F5F5F5F5F5F5F5F5F5F5F5F5F5F5F5F5F5F5F5F5F5F5F5F5F5F5F5F5F5F5F5F5F5F5F5F5F5F5F5F5F5F5F5F5F5F5F5F5F5F5F5F5F5F5F5F5F5F5F5F5F5
310
F5F5F5F5F5F5F5F5F5F5F5F5F5F5F5F5F5F5F5F5F5F5F5F5F5F5F5F5F5F5F5F5F5F5F5F5F5F5F5F5F5F5F5F5F5F5F5F5F5F5F5F5F5F5F5F5F5F5F5F5F5F5F5F5F5F5F5F5F5F5F5F5F5F5F5F5F5F5F5F5F5F5F5F5F5F5F5F5F5F5F5F5F5F5F5F5F5F5F5F5F5F5F5F5F5F5F5E2F5E2E2E2E2E2F5F5F5F5F5F5F5F5F5F5F5F5F5
310
F5F5F5F5F5F5F5F5F5F5F5F5F5F5F5F5F5F5F5F5F5F5F5F5F5F5F5F5F5F5F5F5F5F5F5F5F5F5F5F5F5F5F5F5F5F5F5F5F5F5F5F5F5F5F5F5F5F5F5F5F5F5F5F5F5F5F5F5F5F5F5F5F5F5F5F5F5F5F5F5F5F5F5F5F5F5F5F5F5F5F5F5F5F5F5F5F5F5F5F5F5F5F5F5F5F5F5F5F5F5F5F5F5F5F5F5F5F5F5F5F5F5F5F5F5F5F5
310
F5F5F5F5F5F5F5F5F5F5F5F5F5F5F5F5F5F5F5F5F5F5F5F5F5F5F5F5F5F5F5F5F5E2F5E2E2E2E2E2F5F5F5F5F5F5F5F5F5F5F5F5F5F5F5F5F5F5F5F5F5F5F5F5F5F5F5F5F5F5F5F5F5F5F5F5F5F5F5F5F5F5F5F5F5F5F5F5F5F5F5F5F5F5F5F5F5F5F5F5F5F5F5F5F5F5F5F5F5F5F5F5F5F5F5F5F5F5F5F5F5F5F5F5F5F5F5
310
F5F5F5F5F5F5F5F5F5F5F5F5F5F5F5F5F5F5F5F5F5F5F5F5F5F5F5F5F5F5F5F5F5F5F5F5F5F5F5F5F5F5F5F5F5F5F5F5F5F5F5F5F5F5F5F5F5F5F5F5F5F5F5F5F5F5F5F5F5F5F5F5F5F5F5F5F5F5F5F5F5F5F5F5F5F5E2F5E2E2E2E2E2F5F5F5F5F5F5F5F5F5F5F5F5F5F5F5F5F5F5F5F5F5F5F5F5F5F5F5F5F5F5F5F5F5F5
310
F5F5F5F5F5F5F5F5F5F5F5F5F5F5F5F5F5F5F5F5F5F5F5F5F5F5F5F5F5F5F5F5F5F5F5F5F5F5F5F5F5F5F5F5F5F5F5F5F5F5F5F5F5F5F5F5F5F5F5F5F5F5F5F5F5F5F5F5F5F5F5F5F5F5F5F5F5F5F5F5F5F5F5F5F5F5F5F5F5F5F5F5F5F5F5F5F5F5F5F5F5F5F5F5F5F5F5F5F5F5F5F5F5F5F5F5F5F5F5F5F5F5F5F5F5F5F5
310
F5F5F5F5F5F5F5F5F5F5F5F5E2F5E2E2E2E2E2F5F5F5F5F5F5F5F5F5F5F5F5F5F5F5F5F5F5F5F5F5F5F5F5F5F5F5F5F5F5F5F5F5F5F5F5F5F5F5F5F5F5F5F5F5F5F5F5F5F5F5F5F5F5F5F5F5F5F5F5F5F5F5F5F5F5F5F5F5F5F5F5F5F5F5F5F5F5F5F5F5F5F5F5F5F5F5F5F5F5F5F5F5F5F5F5F5F5F5F5F5F5F5F5F5F5F5F5
310
F5F5F5F5F5F5F5F5F5F5F5F5F5F5F5F5F5F5F5F5F5F5F5F5F5F5F5F5F5F5F5F5F5F5F5F5F5F5F5F5F5F5F5F5F5F5F5F5F5F5F5F5F5F5F5F5F5F5F5F5F5F5F5F5F5E2F5F5E2E2E2E2F5F5F5F5F5F5F5F5F5F5F5F5F5F5F5F5F5F5F5F5F5F5F5F5F5F5F5F5F5F5F5F5F5F5F5F5F5F5F5F5F5F5F5F5F5F5F5F5F5F5F5F5F5F5F5
310
F5F5F5F5F5F5F5F5F5F5F5F5F5F5F5F5F5F5F5F5F5F5F5F5F5F5F5F5F5F5F5F5F5F5F5F5F5F5F5F5F5F5F5F5F5F5F5F5F5F5F5F5F5F5F5F5F5F5F5F5F5F5F5F5F5F5F5F5F5F5F5F5F5F5F5F5F5F5F5F5F5F5F5F5F5F5F5F5F5F5F5F5F5F5F5F5F5F5F5F5F5F5F5F5F5F5F5F5F5F5F5F5F5F5F5F5F5F5E2F5F5E2E2E2E2F5F5
310
F5F5F5F5F5F5F5F5F5F5F5F5F5F5F5F5F5F5F5F5F5F5F5F5F5F5F5F5F5F5F5F5F5F5F5F5F5F5F5F5F5F5F5F5F5F5F5F5F5F5F5F5F5F5F5F5F5F5F5F5F5F5F5F5F5F5F5F5F5F5F5F5F5F5F5F5F5F5F5F5F5F5F5F5F5F5F5F5F5F5F5F5F5F5F5F5F5F5F5F5F5F5F5F5F5F5F5F5F5F5F5F5F5F5F5F5F5F5F5F5F5F5F5F5F5F5F5
310
F5F5F5F5F5F5F5F5F5F5F5F5F5F5F5F5F5F5F5F5F5F5F5F5F5F5F5F5F5F5F5F5F5F5F5F5F5F5F5F5F5F5F5F5E2F5F5E2E2E2E2F5F5F5F5F5F5F5F5F5F5F5F5F5F5F5F5F5F5F5F5F5F5F5F5F5F5F5F5F5F5F5F5F5F5F5F5F5F5F5F5F5F5F5F5F5F5F5F5F5F5F5F5F5F5F5F5F5F5F5F5F5F5F5F5F5F5F5F5F5F5F5F5F5F5F5F5
310
F5F5F5F5F5F5F5F5F5F5F5F5F5F5F5F5F5F5F5F5F5F5F5F5F5F5F5F5F5F5F5F5F5F5F5F5F5F5F5F5F5F5F5F5F5F5F5F5F5F5F5F5F5F5F5F5F5F5F5F5F5F5F5F5F5F5F5F5F5F5F5F5F5F5F5F5F5F5F5F5F5F5F5F5F5F5F5F5F5F5F5F5F5F5F5F5F5E2F5F5E2E2E2E2F5F5F5F5F5F5F5F5F5F5F5F5F5F5F5F5F5F5F5F5F5F5F5
310
F5F5F5F5F5F5F5F5F5F5F5F5F5F5F5F5F5F5F5F5F5F5F5F5F5F5F5F5F5F5F5F5F5F5F5F5F5F5F5F5F5F5F5F5F5F5F5F5F5F5F5F5F5F5F5F5F5F5F5F5F5F5F5F5F5F5F5F5F5F5F5F5F5F5F5F5F5F5F5F5F5F5F5F5F5F5F5F5F5F5F5F5F5F5F5F5F5F5F5F5F5F5F5F5F5F5F5F5F5F5F5F5F5F5F5F5F5F5F5F5F5F5F5F5F5F5F5
310
F5F5F5F5F5F5F5F5F5F5F5F5F5F5F5F5F5F5F5F5F5F5F5E2F5F5E2E2E2E2F5F5F5F5F5F5F5F5F5F5F5F5F5F5F5F5F5F5F5F5F5F5F5F5F5F5F5F5F5F5F5F5F5F5F5F5F5F5F5F5E2E2E2E2E2E2E2E2E2E2E2E2E2E2E2E2E2E2E2E2E2E2E2F5F5F5F5F5F5F5F5F5F5F5F5F5F5F5F5F5F5F5F5F5F5F5F5F5F5F5F5F5F5F5F5F5F5
310
F5F5F5F5F5F5F5F5F5F5F5F5F5F5F5F5F5F5F5F5F5F5F5F5F5F5F5F5F5F5F5F5F5F5F5F5F5F5F5F5F5F5F5F5F5F5F5F5F5F5F5F5F5F5F5F5F5F5F5F5F5F5F5F5F5F5F5F5F5F5F5F5F5F5F5F5E2F5F5E2E2E2E2F5F5F5F5F5F5F5F5F5F5F5F5F5F5F5F5F5F5F5F5F5F5F5F5F5F5F5F5F5F5F5F5F5F5F5F5F5F5F5F5E2E2E2E2
310
E2E2E2E2E2E2E2E2E2E2E2E2E2E2E2E2E2E2E2F5F5F5F5F5F5F5F5F5F5F5F5F5F5F5F5F5F5F5F5F5F5F5F5F5F5F5F5F5F5F5F5F5F5F5F5F5F5F5F5F5F5F5F5F5F5F5F5F5F5F5F5F5F5F5F5F5F5F5F5F5F5F5F5F5F5F5F5F5F5F5F5F5F5F5F5F5F5F5F5F5F5F5F5F5F5F5F5F5F5F5F5F5F5F5F5F5F5F5F5F5F5F5F5F5F5F5F5
310
F5F5E2F5F5E2E2E2E2F5F5F5F5F5F5F5F5F5F5F5F5F5F5F5F5F5F5F5F5F5F5F5F5F5F5F5F5F5F5F5F5F5F5F5F5F5F5F5F5E2E2E2E2E2E2E2E2E2E2E2E2E2E2E2E2E2E2E2E2E2E2E2F5F5F5F5F5F5F5F5F5F5F5F5F5F5F5F5F5F5F5F5F5F5F5F5F5F5F5F5F5F5F5F5F5F5F5F5F5F5F5F5F5F5F5F5F5F5F5F5F5F5F5F5F5F5F5
310
F5F5F5F5F5F5F5F5F5F5F5F5F5F5F5F5F5F5F5F5F5F5F5F5F5F5F5F5F5F5F5F5F5F5F5F5F5F5F5F5F5F5F5F5F5F5F5F5F5F5F5F5F5F5F5E2F5F5E2E2E2E2F5F5F5F5F5F5F5F5F5F5F5F5F5F5F5F5F5F5F5F5F5F5F5F5F5F5F5F5F5F5F5F5F5F5F5F5F5F5F5F5F5F5F5F5F5F5F5F5F5F5F5F5F5F5F5F5F5F5F5F5F5F5F5F5F5
310
F5F5F5F5F5F5F5F5F5F5F5F5F5F5F5F5F5F5F5F5F5F5F5F5F5F5F5F5F5F5F5F5F5F5F5F5F5F5F5F5F5F5F5F5F5F5F5F5F5F5F5F5F5F5F5F5F5F5F5F5F5F5F5F5F5F5F5F5F5F5F5F5F5F5F5F5F5F5F5F5F5F5F5F5F5F5F5F5F5F5F5F5F5F5F5F5F5F5F5F5F5F5F5F5F5F5F5F5E2F5F5E2E2E2E2F5F5F5F5F5F5F5F5F5F5F5F5
310
F5F5F5F5F5F5F5F5F5F5F5F5F5F5F5F5F5F5F5F5F5F5F5F5F5F5F5F5F5F5F5F5F5F5F5F5F5F5F5F5F5F5F5F5F5F5F5F5F5F5F5F5F5F5F5F5F5F5F5F5F5F5F5F5F5F5F5F5F5F5F5F5F5F5F5F5F5F5F5F5F5F5F5F5F5F5F5F5F5F5F5F5F5F5F5F5F5F5F5F5F5F5F5F5F5F5F5F5F5F5F5F5F5F5F5F5F5F5F5F5F5F5F5F5F5F5F5
310
F5F5F5F5F5F5F5F5F5F5F5F5F5F5F5F5F5F5F5F5F5F5F5F5F5F5F5F5F5F5F5F5F5F5E2F5E2E2E2E2E2F5F5F5F5F5F5F5F5F5F5F5F5F5F5F5F5F5F5F5F5F5F5F5F5F5F5F5F5F5F5F5F5F5F5F5F5F5F5F5F5F5F5F5F5F5F5F5F5F5F5F5F5F5F5F5F5F5F5F5F5F5F5F5F5F5F5F5F5F5F5F5F5F5F5F5F5F5F5F5F5F5F5F5F5F5F5
310
F5F5F5F5F5F5F5F5F5F5F5F5F5F5F5F5F5F5F5F5F5F5F5F5F5F5F5F5F5F5F5F5F5F5F5F5F5F5F5F5F5F5F5F5F5F5F5F5F5F5F5F5F5F5F5F5F5F5F5F5F5F5F5F5F5F5F5F5F5F5F5F5F5F5F5F5F5F5F5F5F5F5F5F5F5F5F5E2F5E2E2E2E2E2F5F5F5F5F5F5F5F5F5F5F5F5F5F5F5F5F5F5F5F5F5F5F5F5F5F5F5F5F5F5F5F5F5
310
F5F5F5F5F5F5F5F5F5F5F5F5F5F5F5F5F5F5F5F5F5F5F5F5F5F5F5F5F5F5F5F5F5F5F5F5F5F5F5F5F5F5F5F5F5F5F5F5F5F5F5F5F5F5F5F5F5F5F5F5F5F5F5F5F5F5F5F5F5F5F5F5F5F5F5F5F5F5F5F5F5F5F5F5F5F5F5F5F5F5F5F5F5F5F5F5F5F5F5F5F5F5F5F5F5F5F5F5F5F5F5F5F5F5F5F5F5F5F5F5F5F5F5F5F5F5F5
310
F5F5F5F5F5F5F5F5F5F5F5F5F5E2F5E2E2E2E2E2F5F5F5F5F5F5F5F5F5F5F5F5F5F5F5F5F5F5F5F5F5F5F5F5F5F5F5F5F5F5F5F5F5F5F5F5F5F5F5F5F5F5F5F5F5F5F5F5F5F5F5F5F5F5F5F5F5F5F5F5F5F5F5F5F5F5F5F5F5F5F5F5F5F5F5F5F5F5F5F5F5F5F5F5F5F5F5F5F5F5F5F5F5F5F5F5F5F5F5F5F5F5F5F5F5F5F5
310
F5F5F5F5F5F5F5F5F5F5F5F5F5F5F5F5F5F5F5F5F5F5F5F5F5F5F5F5F5F5F5F5F5F5F5F5F5F5F5F5F5F5F5F5F5F5F5F5F5F5F5F5F5F5F5F5F5F5F5F5F5F5F5F5F5F5E2F5E2E2E2E2E2F5F5F5F5F5F5F5F5F5F5F5F5F5F5F5F5F5F5F5F5F5F5F5F5F5F5F5F5F5F5F5F5F5F5F5F5F5F5F5F5F5F5F5F5F5F5F5F5F5F5F5F5F5F5
310
F5F5F5F5F5F5F5F5F5F5F5F5F5F5F5F5F5F5F5F5F5F5F5F5F5F5F5F5F5F5F5F5F5F5F5F5F5F5F5F5F5F5F5F5F5F5F5F5F5F5F5F5F5F5F5F5F5F5F5F5F5F5F5F5F5F5F5F5F5F5F5F5F5F5F5F5F5F5F5F5F5F5F5F5F5F5F5F5F5F5F5F5F5F5F5F5F5F5F5F5F5F5F5F5F5F5F5F5F5F5F5F5F5F5F5F5F5F5F5E2F5E2E2E2E2E2F5
310
F5F5F5F5F5F5F5F5F5F5F5F5F5F5F5F5F5F5F5F5F5F5F5F5F5F5F5F5F5F5F5F5F5F5F5F5F5F5F5F5F5F5F5F5F5F5F5F5F5F5F5F5F5F5F5F5F5F5F5F5F5F5F5F5F5F5F5F5F5F5F5F5F5F5F5F5F5F5F5F5F5F5F5F5F5F5F5F5F5F5F5F5F5F5F5F5F5F5F5F5F5F5F5F5F5F5F5F5F5F5F5F5F5F5F5F5F5F5F5F5F5F5F5F5F5F5F5
310
F5F5F5F5F5F5F5F5F5F5F5F5F5F5F5F5F5F5F5F5F5F5F5F5F5F5F5F5F5F5F5F5F5F5F5F5F5F5F5F5F5F5F5F5F5E2F5E2E2E2E2E2F5F5F5F5F5F5F5F5F5F5F5F5F5F5F5F5F5F5F5F5F5F5F5F5F5F5F5F5F5F5F5F5F5F5F5F5F5F5F5F5F5F5F5F5F5F5F5F5F5F5F5F5F5F5F5F5F5F5F5F5F5F5F5F5F5F5F5F5F5F5F5F5F5F5F5
310
F5F5F5F5F5F5F5F5F5F5F5F5F5F5F5F5F5F5F5F5F5F5F5F5F5F5F5F5F5F5F5F5F5F5F5F5F5F5F5F5F5F5F5F5F5F5F5F5F5F5F5F5F5F5F5F5F5F5F5F5F5F5F5F5F5F5F5F5F5F5F5F5F5F5F5F5F5F5F5F5F5F5F5F5F5F5F5F5F5F5F5F5F5F5F5F5F5F5E2F5E2E2E2E2E2F5F5F5F5F5F5F5F5F5F5F5F5F5F5F5F5F5F5F5F5F5F5
310
F5F5F5F5F5F5F5F5F5F5F5F5F5F5F5F5F5F5F5F5F5F5F5F5F5F5F5F5F5F5F5F5F5F5F5F5F5F5F5F5F5F5F5F5F5F5F5F5F5F5F5F5F5F5F5F5F5F5F5F5F5F5F5F5F5F5F5F5F5F5F5F5F5F5F5F5F5F5F5F5F5F5F5F5F5F5F5F5F5F5F5F5F5F5F5F5F5F5F5F5F5F5F5F5F5F5F5F5F5F5F5F5F5F5F5F5F5F5F5F5F5F5F5F5F5F5F5
310
F5F5F5F5F5F5F5F5F5F5F5F5F5F5F5F5F5F5F5F5F5F5F5F5E2F5E2E2E2E2E2F5F5F5F5F5F5F5F5F5F5F5F5E2BEF5F5F5F5F5F5F5F5F5F5F5F5F5F5F5F5F5F5F5F5F5F5F5F5F5F5F5F5F5F5F5F5F5F5F5F5F5F5F5F5F5F5F5F5F5F5F5F5F5F5F5F5F5F5F5F5F5F5F5F5F5F5F5F5F5F5F5F5F5F5F5F5F5F5F5F5F5F5F5F5F5F5
310
F5F5F5F5F5F5F5F5F5F5F5F5F5F5F5F5F5F5F5F5F5F5F5F5F5F5F5F5F5F5F5F5F5F5F5F5F5F5F5F5F5F5F5F5F5F5F5F5F5F5F5F5F5F5F5F5F5F5F5F5F5F5F5F5F5F5F5F5F5F5F5F5F5F5F5F5F5E2F5E2E2E2E2E2F5F5F5F5F5F5F5F5F5F5F5E2E2E2F5F5F5F5F5F5F5F5F5F5E2E2E2F5E2E2E2E2E2F5E2E2E2E2E2E2E2E2F5
310
E2E2E2E2E2F5E2E2E2E2E2F5E2E2E2E2E2E2F5E2E2E2E2E2F5E2E2E2E2E2F5E2E2E2E2E2E2F5E2E2E2E2E2E2E2E2E2E2E2F5F5F5F5F5F5F5F5F5F5F5F5F5F5F5F5F5F5F5F5F5F5F5F5F5F5F5F5F5F5F5F5F5F5F5F5F5F5F5F5F5F5F5F5F5F5F5F5F5F5F5F5F5F5F5F5F5F5F5F5F5F5F5F5F5F5F5F5F5F5F5F5F5F5F5F5F5F5
310
F5F5F5E2F5E2E2E2E2E2F5F5F5F5F5F5F5F5F5F5F5BEE2F5F5F5F5F5F5F5F5F5F5F5E2F5F5F5F5F5F5F5F5F5F5F5F5F5F5F5F5F5F5F5F5F5F5F5F5F5F5F5F5F5F5F5F5F5F5F5F5F5F5F5F5F5F5F5F5F5F5F5F5F5F5F5F5F5F5F5F5F5F5F5F5F5F5F5F5E2F5F5F5F5F5F5F5F5F5F5F5F5F5F5F5F5F5F5F5F5F5F5F5F5F5F5F5
310
F5F5F5F5F5F5F5F5F5F5F5F5F5F5F5F5F5F5F5F5F5F5F5F5F5F5F5F5F5F5F5F5F5F5F5F5F5F5F5F5F5F5F5F5F5F5F5F5F5F5F5F5F5F5F5F5E2F5E2E2E2E2E2F5F5F5F5F5F5F5F5F5F5F5F5E2F5F5F5F5F5F5F5F5F5F5F5E2F5F5F5F5F5F5F5F5F5F5F5F5F5F5F5F5F5F5F5F5F5F5F5F5F5F5F5F5F5F5F5F5F5F5F5F5F5F5F5
310
F5F5F5F5F5F5F5F5F5F5F5F5F5F5F5F5F5F5F5F5F5F5F5F5F5E2F5F5F5F5F5F5F5F5F5F5F5F5F5F5F5F5F5F5F5F5F5F5F5F5F5F5F5F5F5F5F5F5F5F5F5F5F5F5F5F5F5F5F5F5F5F5F5F5F5F5F5F5F5F5F5F5F5F5F5F5F5F5F5F5F5F5F5F5F5F5F5F5F5F5F5F5F5F5F5F5F5F5F5E2F5E2E2E2E2E2F5F5F5F5F5F5F5F5F5F5F5
310
F5E2F5F5F5F5F5F5F5F5F5F5F5E2F5F5F5F5F5F5F5F5F5F5F5F5F5F5F5F5F5F5F5F5F5F5F5F5F5F5F5F5F5F5F5F5F5F5F5F5F5F5F5F5F5F5F5F5F5F5F5F5F5F5F5F5F5F5F5F5F5F5F5F5F5F5F5F5E2F5F5F5F5F5F5F5F5F5F5F5F5F5F5F5F5F5F5F5F5F5F5F5F5F5F5F5F5F5F5F5F5F5F5F5F5F5F5F5F5F5F5F5F5F5F5F5F5
310
F5F5F5F5F5F5F5F5F5F5F5F5F5F5F5F5F5F5F5F5F5F5F5F5F5F5F5F5F5F5F5F5F5F5F5E2F5E2E2E2E2E2F5F5F5F5F5F5F5F5F5F5F5F5E2F5F5F5F5F5F5F5F5F5F5F5F5F5F5F5F5F5F5F5F5F5F5F5F5F5F5F5F5F5F5F5F5F5F5F5F5F5F5F5F5F5F5F5F5F5F5F5F5F5F5F5F5F5F5F5F5F5F5F5F5F5F5F5F5F5F5F5F5F5F5F5F5
310
F5F5F5F5F5F5F5F5F5F5F5F5F5F5F5F5F5F5F5F5F5F5F5F5F5F5F5F5F5F5F5F5F5F5F5F5F5F5F5F5F5F5F5F5F5F5F5F5F5F5F5F5F5F5F5F5F5F5F5F5F5F5F5F5F5F5F5F5F5F5F5F5F5F5F5F5F5F5F5F5F5F5F5F5F5F5F5F5E2F5E2E2E2E2E2F5F5F5F5F5F5F5F5F5F5F5F5E2F5F5F5F5F5F5F5F5F5F5F5E2F5F5F5F5F5F5F5
310
F5F5F5F5F5F5F5F5F5F5F5F5F5F5F5F5F5F5F5F5F5F5F5F5F5F5F5F5F5F5F5F5F5F5F5F5F5F5F5F5F5F5F5F5F5F5F5F5F5F5F5F5F5F5F5F5F5E2F5F5F5F5F5F5F5F5F5F5F5F5F5F5F5F5F5F5F5F5F5F5F5F5F5F5F5F5F5F5F5F5F5F5F5F5F5F5F5F5F5F5F5F5F5F5F5F5F5F5F5F5F5F5F5F5F5F5F5F5F5F5F5F5F5F5F5F5F5
310
F5F5F5F5F5F5F5F5F5F5F5F5F5F5E2F5E2E2E2E2E2F5F5F5F5F5F5F5F5F5F5F5F5E2F5F5F5F5F5F5F5F5F5F5F5E2F5F5F5F5F5F5F5F5F5F5F5F5F5F5F5F5F5F5F5F5F5F5F5F5F5F5F5F5F5F5F5F5F5F5F5F5F5F5F5F5F5F5F5F5F5F5F5F5F5F5F5F5F5F5F5F5F5F5F5F5F5F5F5F5E2F5F5F5F5F5F5F5F5F5F5F5F5F5F5F5F5
310
F5F5F5F5F5F5F5F5F5F5F5F5F5F5F5F5F5F5F5F5F5F5F5F5F5F5F5F5F5F5F5F5F5F5F5F5F5F5F5F5F5F5F5F5F5F5F5F5F5F5F5F5F5F5F5F5F5F5F5F5F5F5F5F5F5F5F5E2F5E2E2E2E2E2F5F5F5F5F5F5F5F5F5F5F5F5E2F5F5F5F5F5F5F5F5F5F5F5E2F5F5F5F5F5F5F5F5F5F5F5F5F5F5F5F5F5F5F5F5F5F5F5F5F5F5F5F5
310
F5F5F5F5F5F5F5F5F5F5F5F5F5F5F5F5F5F5F5F5F5F5F5F5F5F5F5F5F5F5F5F5F5F5F5F5E2F5F5F5F5F5F5F5F5F5F5F5F5F5F5F5F5F5F5F5F5F5F5F5F5F5F5F5F5F5F5F5F5F5F5F5F5F5F5F5F5F5F5F5F5F5F5F5F5F5F5F5F5F5F5F5F5F5F5F5F5F5F5F5F5F5F5F5F5F5F5F5F5F5F5F5F5F5F5F5F5F5F5F5E2F5F5E2E2E2E2
310
F5F5F5F5F5F5F5F5F5F5F5F5E2F5F5F5F5F5F5F5F5F5F5F5E2F5F5F5F5F5F5F5F5F5F5F5F5F5F5F5F5F5F5F5F5F5F5F5F5F5F5F5F5F5F5F5F5F5F5F5F5F5F5F5F5F5F5F5F5F5F5F5F5F5F5F5F5F5F5F5F5F5F5F5F5F5F5F5F5E2F5F5F5F5F5F5F5F5F5F5F5F5F5F5F5F5F5F5F5F5F5F5F5F5F5F5F5F5F5F5F5F5F5F5F5F5F5
310
F5F5F5F5F5F5F5F5F5F5F5F5F5F5F5F5F5F5F5F5F5F5F5F5F5F5F5F5F5F5F5F5F5F5F5F5F5F5F5F5F5F5F5F5F5F5E2F5F5E2E2E2E2F5F5F5F5F5F5F5F5F5F5F5F5E2F5F5F5F5F5F5F5F5F5F5F5E2F5F5F5F5F5F5F5F5F5F5F5F5F5F5F5F5F5F5F5F5F5F5F5F5F5F5F5F5F5F5F5F5F5F5F5F5F5F5F5F5F5F5F5F5F5F5F5F5F5
310
F5F5F5F5F5F5F5F5F5F5F5F5F5F5F5E2F5F5F5F5F5F5F5F5F5F5F5F5F5F5F5F5F5F5F5F5F5F5F5F5F5F5F5F5F5F5F5F5F5F5F5F5F5F5F5F5F5F5F5F5F5F5F5F5F5F5F5F5F5F5F5F5F5F5F5F5F5F5F5F5F5F5F5F5F5F5F5F5F5F5F5F5F5F5F5F5F5F5F5E2F5F5E2E2E2E2F5F5F5F5F5F5F5F5F5F5F5F5E2F5F5F5F5F5F5F5F5
310
F5F5F5E2F5F5F5F5F5F5F5F5F5F5F5F5F5F5F5F5F5F5F5F5F5F5F5F5F5F5F5F5F5F5F5F5F5F5F5F5F5F5F5F5F5F5F5F5F5F5F5F5F5F5F5F5F5F5F5F5F5F5F5F5F5F5F5F5F5F5F5F5F5F5F5F5F5F5F5F5F5F5F5F5F5F5F5F5F5F5F5F5F5F5F5F5F5F5F5F5F5F5F5F5F5F5F5F5F5F5F5F5F5F5F5F5F5F5F5F5F5F5F5F5F5F5F5
310
F5F5F5F5F5F5F5F5F5F5F5F5F5F5F5F5F5F5F5F5F5F5F5F5F5E2F5F5E2E2E2E2F5F5F5F5F5F5F5F5F5F5F5F5E2F5F5F5F5F5F5F5F5F5F5F5F5F5F5F5F5F5F5F5F5F5F5F5F5F5F5F5F5F5F5F5F5F5F5F5F5F5F5F5F5F5F5F5F5F5F5F5F5F5F5F5F5F5F5F5F5F5F5F5F5F5F5F5F5F5F5F5F5F5F5F5F5F5F5F5F5E2F5F5F5F5F5
310
F5F5F5F5F5F5F5F5F5F5F5F5F5F5F5F5F5F5F5F5F5F5F5F5F5F5F5F5F5F5F5F5F5F5F5F5F5F5F5F5F5F5F5F5F5F5F5F5F5F5F5F5F5F5F5F5F5F5F5F5F5F5F5F5F5F5F5F5F5F5F5F5F5F5F5F5F5F5E2F5F5E2E2E2E2F5F5F5F5F5F5F5F5F5F5F5F5E2F5F5F5F5F5F5F5F5F5F5F5E2F5F5F5F5F5F5F5F5F5F5F5F5F5F5F5F5F5
310
F5F5F5F5F5F5F5F5F5F5F5F5F5F5F5F5F5F5F5F5F5F5F5F5F5F5F5F5F5F5F5F5F5F5F5F5F5F5F5F5F5F5F5F5F5F5F5E2F5F5F5F5F5F5F5F5F5F5F5F5F5F5F5F5F5F5F5F5F5F5F5F5F5F5F5F5F5F5F5F5F5F5F5F5F5F5F5F5F5F5F5F5F5F5F5F5F5F5F5F5F5F5F5F5F5F5F5F5F5F5F5F5F5F5F5F5F5F5F5F5F5F5F5F5F5F5F5
310
F5F5F5F5E2F5F5E2E2E2E2F5F5F5F5F5F5F5F5F5F5F5F5E2F5F5F5F5F5F5F5F5F5F5F5E2F5F5F5F5F5F5F5F5F5F5F5F5E2E2E2E2E2E2E2E2E2F5F5F5F5F5F5F5F5F5F5F5F5F5F5E2E2E2E2E2E2E2E2E2E2E2F5F5F5F5F5F5F5F5F5F5F5F5F5F5F5F5F5F5E2F5F5F5F5F5F5F5F5F5F5F5F5F5F5F5F5F5F5F5F5F5F5F5F5F5F5
310
F5F5F5F5F5F5F5F5F5F5F5F5F5F5F5F5F5F5F5F5F5F5F5F5F5F5F5F5F5F5F5F5F5F5F5F5F5F5F5F5F5F5F5F5F5F5F5F5F5F5F5F5F5F5F5F5F5E2F5F5E2E2E2E2F5F5F5F5F5F5F5F5F5F5F5F5E2F5F5F5F5F5F5F5F5F5F5F5E2F5F5F5F5F5F5F5F5F5F5F5E2E2E2E2E2E2E2E2E2E2E2E2E2E2E2E2E2E2E2E2E2E2E2E2E2F5F5
310
F5F5F5F5F5F5F5E2F5F5F5F5F5F5F5F5F5F5F5F5F5F5F5F5F5F5E2F5F5F5F5F5F5F5F5F5F5F5F5F5F5F5F5F5F5F5F5F5F5F5F5F5F5F5F5F5F5F5F5F5F5F5F5F5F5F5F5F5F5F5F5F5F5F5F5F5F5F5F5F5F5F5F5F5F5F5F5F5F5F5F5F5F5F5F5F5F5F5F5F5F5F5F5F5F5F5F5F5F5F5E2F5F5E2E2E2E2F5F5F5F5F5F5F5F5F5F5
310
F5F5E2F5F5F5F5F5F5F5F5F5F5F5E2F5F5F5F5F5F5F5F5F5F5F5F5E2E2E2E2E2E2E2E2E2E2E2E2E2E2E2E2E2E2E2E2E2E2E2E2F5F5F5F5F5F5F5F5F5E2E2E2E2E2F5F5F5F5F5F5F5F5F5F5F5F5F5F5E2F5F5F5F5F5F5F5F5F5F5F5F5F5F5F5F5F5F5F5F5F5F5F5F5F5F5F5F5F5F5F5F5F5F5F5F5F5F5F5F5F5F5F5F5F5F5F5
310
F5F5F5F5F5F5F5F5F5F5F5F5F5F5F5F5F5F5F5F5F5F5F5F5F5F5F5F5F5F5F5F5F5F5F5F5E2F5F5E2E2E2E2F5F5F5F5F5F5F5F5F5F5F5F5E2F5F5F5F5F5F5F5F5F5F5F5E2F5F5F5F5F5F5F5F5F5F5F5F5E2E2E2E2E2E2E2E2E2E2E2E2E2E2E2E2E2E2E2E2E2E2E2E2F5F5F5F5F5F5F5F5F5E2E2E2E2E2F5F5F5F5F5F5F5F5F5
310
F5F5F5F5F5E2F5F5F5F5F5F5F5F5F5F5F5F5F5F5F5F5F5F5F5F5F5F5F5F5F5F5F5F5F5F5F5F5F5F5F5F5F5F5F5F5F5F5F5F5F5F5F5F5F5F5F5F5F5F5F5F5F5F5F5F5F5F5F5F5F5F5F5F5F5F5F5F5F5F5F5F5F5F5F5F5F5F5F5E2F5E2E2E2E2E2F5F5F5F5F5F5F5F5F5F5F5F5E2F5F5F5F5F5F5F5F5F5F5F5F5F5F5F5F5F5F5
310
F5F5F5F5F5F5E2E2E2E2E2E2E2E2E2E2E2E2E2E2E2E2E2E2E2E2E2E2E2E2F5F5F5F5F5F5F5F5F5E2E2E2F5F5F5F5F5F5F5F5F5F5F5F5F5F5F5F5F5F5F5F5F5F5F5F5F5F5F5F5F5F5F5F5F5F5F5F5F5F5F5F5F5F5F5F5F5F5F5F5F5F5F5F5F5F5F5F5F5F5F5F5F5F5F5F5F5F5F5F5F5F5F5F5F5F5F5F5F5F5F5F5F5F5F5F5F5
310
F5F5F5F5F5F5F5F5F5F5F5F5F5F5F5E2F5E2E2E2E2E2F5F5F5F5F5F5F5F5F5F5F5F5E2F5F5F5F5F5F5F5F5F5F5F5E2F5F5F5F5F5F5F5F5F5F5F5F5E2E2E2E2E2E2E2E2E2E2E2E2E2E2E2E2E2E2E2E2E2E2E2E2F5F5F5F5F5F5F5F5F5E2E2E2E2E2F5F5F5F5F5F5F5F5F5F5F5F5F5F5E2F5F5F5F5F5F5F5F5F5F5F5F5F5F5F5
310
F5F5F5F5F5F5F5F5F5F5F5F5F5F5F5F5F5F5F5F5F5F5F5F5F5F5F5F5F5F5F5F5F5F5F5F5F5F5F5F5F5F5F5F5F5F5F5F5F5F5F5F5F5F5F5F5F5F5F5F5F5F5F5F5F5F5F5F5E2F5E2E2E2E2E2F5F5F5F5F5F5F5F5F5F5F5F5E2F5F5F5F5F5F5F5F5F5F5F5E2F5F5F5F5F5F5F5F5F5F5F5F5E2E2E2E2E2E2E2E2E2E2E2E2E2E2E2
310
E2E2E2E2E2E2E2E2E2F5F5F5F5F5F5F5F5F5E2E2E2F5F5F5F5F5F5F5F5F5F5F5F5F5F5F5F5E2F5F5F5F5F5F5F5F5F5F5F5F5F5F5F5F5F5F5F5F5F5F5F5F5F5F5F5F5F5F5F5F5F5F5F5F5F5F5F5F5F5F5F5F5F5F5F5F5F5F5F5F5F5F5F5F5F5F5F5F5F5F5F5F5F5F5F5F5F5F5F5F5F5F5F5F5F5F5F5F5F5F5F5E2F5E2E2E2E2
310
E2F5F5F5F5F5F5F5F5F5F5F5F5E2F5F5F5F5F5F5F5F5F5F5F5E2F5F5F5F5F5F5F5F5F5F5F5F5E2E2E2E2E2E2E2E2E2E2E2E2E2E2E2E2E2E2E2E2E2E2E2E2F5F5F5F5F5F5F5F5F5E2E2E2E2E2F5F5F5F5F5F5F5F5F5F5F5F5F5F5E2F5F5F5F5F5F5F5F5F5F5F5F5F5F5F5F5F5F5F5F5F5F5F5F5F5F5F5F5F5F5F5F5F5F5F5F5
310
F5F5F5F5F5F5F5F5F5F5F5F5F5F5F5F5F5F5F5F5F5F5F5F5F5F5F5F5F5F5F5F5F5F5F5F5F5F5F5F5F5F5F5F5F5F5F5E2F5E2E2E2E2E2F5F5F5F5F5F5F5F5F5F5F5F5E2F5F5F5F5F5F5F5F5F5F5F5E2F5F5F5F5F5F5F5F5F5F5F5E2E2E2E2E2E2E2E2E2E2E2E2E2E2E2E2E2E2E2E2E2E2E2E2E2F5F5F5F5F5F5F5F5F5E2F5F5
310
F5F5F5F5F5F5F5F5F5F5F5F5F5F5F5F5E2F5F5F5F5F5F5F5F5F5F5F5F5F5F5F5F5F5F5F5F5F5F5F5F5F5F5F5F5F5F5F5F5F5F5F5F5F5F5F5F5F5F5F5F5F5F5F5F5F5F5F5F5F5F5F5F5F5F5F5F5F5F5F5F5F5F5F5F5F5F5F5F5F5F5F5F5F5F5F5F5F5F5F5E2F5E2E2E2E2E2F5F5F5F5F5F5F5F5F5F5F5F5E2F5F5F5F5F5F5F5
310
F5F5F5F5E2F5F5F5F5F5F5F5F5F5F5F5F5E2E2E2E2E2E2E2E2E2F5F5F5F5F5F5F5F5F5F5F5F5F5F5E2E2E2E2E2E2E2E2E2E2E2F5F5F5F5F5F5F5F5F5F5F5F5F5F5F5F5F5F5E2F5F5F5F5F5F5F5F5F5F5F5F5F5F5F5F5F5F5F5F5F5F5F5F5F5F5F5F5F5F5F5F5F5F5F5F5F5F5F5F5F5F5F5F5F5F5F5F5F5F5F5F5F5F5F5F5F5
310
F5F5F5F5F5F5F5F5F5F5F5F5F5F5F5F5F5F5F5F5F5F5F5F5F5F5E2F5E2E2E2E2E2F5F5F5F5F5F5F5F5F5F5F5F5E2F5F5F5F5F5F5F5F5F5F5F5F5F5F5F5F5F5F5F5F5F5F5F5F5E2E2E2E2E2E2E2E2E2F5F5F5F5F5F5F5F5F5F5F5F5F5F5F5F5E2F5F5F5F5F5E2F5F5F5F5F5F5F5F5F5F5F5F5F5F5F5F5F5F5F5F5E2F5F5F5F5
310
F5F5F5F5F5F5F5F5F5F5F5F5F5F5F5F5F5F5F5F5F5F5F5F5F5F5F5F5F5F5F5F5F5F5F5F5F5F5F5F5F5F5F5F5F5F5F5F5F5F5F5F5F5F5F5F5F5F5F5F5F5F5F5F5F5F5F5F5F5F5F5F5F5F5F5F5F5F5F5E2F5E2E2E2E2E2F5F5F5F5F5F5F5F5F5F5F5F5E2F5F5F5F5F5F5F5F5F5F5F5E2F5F5F5F5F5F5F5F5F5F5F5F5E2E2E2E2
310
E2E2E2E2E2F5F5F5F5F5F5F5F5F5F5F5F5F5F5F5E2E2E2E2F5F5F5E2F5F5F5F5F5F5F5F5F5F5F5F5F5F5F5F5F5F5F5F5F5F5F5F5F5F5F5F5F5F5F5F5F5F5F5F5F5F5F5F5F5F5F5F5F5F5F5F5F5F5F5F5F5F5F5F5F5F5F5F5F5F5F5F5F5F5F5F5F5F5F5F5F5F5F5F5F5F5F5F5F5F5F5F5F5F5F5F5F5F5F5F5F5F5F5F5F5F5F5
310
F5F5F5F5F5E2F5E2E2E2E2E2F5F5F5F5F5F5F5F5F5F5F5F5E2F5F5F5F5F5F5F5F5F5F5F5E2F5F5F5F5F5F5F5F5F5F5F5F5E2E2E2E2E2E2E2E2E2F5F5F5F5F5F5F5F5F5F5F5F5F5F5F5E2E2E2E2E2E2E2E2F5F5F5F5F5F5F5F5F5F5F5F5F5F5F5F5F5F5F5E2F5F5F5F5F5F5F5F5F5F5F5F5F5F5F5F5F5F5F5F5F5F5F5F5F5F5
310
F5F5F5F5F5F5F5F5F5F5F5F5F5F5F5F5F5F5F5F5F5F5F5F5F5F5F5F5F5F5F5F5F5F5F5F5F5F5F5F5F5F5F5F5F5F5F5F5F5F5F5F5F5F5F5F5F5F5E2F5E2E2E2E2E2F5F5F5F5F5F5F5F5F5F5F5F5E2F5F5F5F5F5F5F5F5F5F5F5E2F5F5F5F5F5F5F5F5F5F5F5F5E2E2E2E2E2E2E2E2E2F5F5F5F5F5F5F5F5F5F5F5F5F5F5F5E2
310
F5F5F5E2E2E2F5F5F5F5F5F5F5F5F5F5F5F5F5F5F5F5F5F5F5F5E2F5F5F5F5F5F5F5F5F5F5F5F5F5F5F5F5F5F5F5F5F5F5F5F5F5F5F5F5F5F5F5F5F5F5F5F5F5F5F5F5F5F5F5F5F5F5F5F5F5F5F5F5F5F5F5F5F5F5F5F5F5F5F5F5F5F5F5F5F5F5F5F5F5F5F5F5F5F5F5F5F5F5F5F5E2F5E2E2E2E2E2F5F5F5F5F5F5F5F5F5
310
F5F5F5E2F5F5F5F5F5F5F5F5F5F5F5E2F5F5F5F5F5F5F5F5F5F5F5F5E2E2E2E2E2E2E2E2E2F5F5F5F5F5F5F5F5F5F5F5F5F5F5E2E2F5F5F5F5F5E2F5F5F5F5F5F5F5F5F5F5F5F5F5F5F5F5F5F5F5F5E2F5F5F5F5F5F5F5F5F5F5F5F5F5F5F5F5F5F5F5F5F5F5F5F5F5F5F5F5F5F5F5F5F5F5F5F5F5F5F5F5F5F5F5F5F5F5F5
310
F5F5F5F5F5F5F5F5F5F5F5F5F5F5F5F5F5F5F5F5F5F5F5F5F5F5F5F5F5F5F5F5F5F5F5F5F5E2F5E2E2E2E2E2F5F5F5F5F5F5F5F5F5F5F5F5E2F5F5F5F5F5F5F5F5F5F5F5E2F5F5F5F5F5F5F5F5F5F5F5F5E2E2E2E2E2E2E2E2E2F5F5F5F5F5F5F5F5F5F5F5F5F5F5E2E2E2F5F5F5F5E2F5F5F5F5F5F5F5F5F5F5F5F5F5F5F5
310
F5F5F5F5F5E2F5F5F5F5F5F5F5F5F5F5F5F5F5F5F5F5F5F5F5F5F5F5F5F5F5F5F5F5F5F5F5F5F5F5F5F5F5F5F5F5F5F5F5F5F5F5F5F5F5F5F5F5F5F5F5F5F5F5F5F5F5F5F5F5F5F5F5F5F5F5F5F5F5F5F5F5F5F5F5F5F5F5F5F5E2F5E2E2E2E2E2F5F5F5F5F5F5F5F5F5F5F5F5E2F5F5F5F5F5F5F5F5F5F5F5E2F5F5F5F5F5
310
F5F5F5F5F5F5F5E2E2E2E2E2E2E2E2E2F5F5F5F5F5F5F5F5F5F5F5F5F5E2E2E2E2E2E2F5E2E2F5F5F5F5F5F5F5F5F5F5F5F5F5F5F5F5F5F5F5F5E2F5F5F5F5F5F5F5F5F5F5F5F5F5F5F5F5F5F5F5F5F5F5F5F5F5F5F5F5F5F5F5F5F5F5F5F5F5F5F5F5F5F5F5F5F5F5F5F5F5F5F5F5F5F5F5F5F5F5F5F5F5F5F5F5F5F5F5F5
310
F5F5F5F5F5F5F5F5F5F5F5F5F5F5F5F5E2F5E2E2E2E2E2F5F5F5F5F5F5F5F5F5F5F5F5E2F5F5F5F5F5F5F5F5F5F5F5F5F5F5F5F5F5F5F5F5F5F5F5F5E2E2E2E2E2E2E2E2E2F5F5F5F5F5F5F5F5F5F5F5F5F5E2E2F5F5E2E2E2E2F5F5F5F5F5F5F5F5F5F5F5F5F5F5F5F5F5F5F5F5F5F5F5F5F5F5F5F5F5F5F5F5F5F5F5F5F5
310
F5F5F5F5F5F5F5F5F5F5F5F5F5F5F5F5F5F5F5F5F5F5F5F5F5F5F5F5F5F5F5F5F5F5F5F5F5F5F5F5F5F5F5F5F5F5F5F5F5F5F5F5F5F5F5F5F5F5F5F5F5F5F5F5F5F5F5F5F5E2F5E2E2E2E2E2F5F5F5F5F5F5F5F5F5F5F5F5E2F5F5F5F5F5F5F5F5F5F5F5E2F5F5F5F5F5F5F5F5F5F5F5F5E2E2E2E2E2E2E2E2E2F5F5F5F5F5
310
F5F5F5F5F5F5F5E2E2F5F5F5F5F5E2E2F5F5F5F5F5F5F5F5F5F5F5F5F5F5F5F5F5F5F5F5E2F5F5F5F5F5F5F5F5F5F5F5F5F5F5F5F5F5F5F5F5F5F5F5F5F5F5F5F5F5F5F5F5F5F5F5F5F5F5F5F5F5F5F5F5F5F5F5F5F5F5F5F5F5F5F5F5F5F5F5F5F5F5F5F5F5F5F5F5F5F5F5F5F5F5F5F5F5F5F5F5F5F5F5F5F5E2F5E2E2E2
310
E2E2F5F5F5F5F5F5F5F5F5F5F5F5E2F5F5F5F5F5F5F5F5F5F5F5E2F5F5F5F5F5F5F5F5F5F5F5F5E2E2E2E2E2E2E2E2E2F5F5F5F5F5F5F5F5F5F5F5F5E2E2F5F5F5F5F5E2F5F5F5F5F5F5F5F5F5F5F5F5F5F5F5F5F5F5F5F5F5E2F5F5F5F5F5F5F5F5F5F5F5F5F5F5F5F5F5F5F5F5F5F5F5F5F5F5F5F5F5F5F5F5F5F5F5F5F5
310
F5F5F5F5F5F5F5F5F5F5F5F5F5F5F5F5F5F5F5F5F5F5F5F5F5F5F5F5F5F5F5F5F5F5F5F5F5F5F5F5F5F5F5F5F5F5F5F5E2F5F5E2E2E2E2F5F5F5F5F5F5F5F5F5F5F5F5E2F5F5F5F5F5F5F5F5F5F5F5E2F5F5F5F5F5F5F5F5F5F5F5F5E2E2E2E2E2E2E2E2E2F5F5F5F5F5F5F5F5F5F5F5E2E2E2E2E2F5F5E2E2F5F5F5F5F5F5
310
F5F5F5F5F5F5F5F5F5F5F5F5F5F5F5E2F5F5F5F5F5F5F5F5F5F5F5F5F5F5F5F5F5F5F5F5F5F5F5F5F5F5F5F5F5F5F5F5F5F5F5F5F5F5F5F5F5F5F5F5F5F5F5F5F5F5F5F5F5F5F5F5F5F5F5F5F5F5F5F5F5F5F5F5F5F5F5F5F5F5F5F5F5F5F5F5F5F5F5F5F5E2F5F5E2E2E2E2F5F5F5F5F5F5F5F5F5F5F5F5E2F5F5F5F5F5F5
310
F5F5F5F5F5E2F5F5F5F5F5F5F5F5F5F5F5F5E2E2E2E2E2E2E2E2E2F5F5F5F5F5F5F5F5F5F5E2E2F5F5F5E2E2E2E2F5F5F5F5F5F5F5F5F5F5F5F5F5F5F5F5F5F5F5F5F5E2F5F5F5F5F5F5F5F5F5F5F5F5F5F5F5F5F5F5F5F5F5F5F5F5F5F5F5F5F5F5F5F5F5F5F5F5F5F5F5F5F5F5F5F5F5F5F5F5F5F5F5F5F5F5F5F5F5F5F5
310
F5F5F5F5F5F5F5F5F5F5F5F5F5F5F5F5F5F5F5F5F5F5F5F5F5F5F5E2F5F5E2E2E2E2F5F5F5F5F5F5F5F5F5F5F5F5E2F5F5F5F5F5F5F5F5F5F5F5E2F5F5F5F5F5F5F5F5F5F5F5F5E2E2E2E2E2E2E2E2E2F5F5F5F5F5F5F5F5E2E2E2F5E2F5F5F5F5E2F5F5F5F5F5F5F5F5F5F5F5F5F5F5F5F5F5F5F5F5F5F5E2F5F5F5F5F5F5
310
F5F5F5F5F5F5F5F5F5F5F5F5F5F5F5F5F5F5F5F5F5F5F5F5F5F5F5F5F5F5F5F5F5F5F5F5F5F5F5F5F5F5F5F5F5F5F5F5F5F5F5F5F5F5F5F5F5F5F5F5F5F5F5F5F5F5F5F5F5F5F5F5F5F5F5F5F5F5F5F5E2F5F5E2E2E2E2F5F5F5F5F5F5F5F5F5F5F5F5E2F5F5F5F5F5F5F5F5F5F5F5F5F5F5F5F5F5F5F5F5F5F5F5E2E2E2E2
310
E2E2E2E2E2E2E2F5F5F5F5F5F5E2E2E2F5F5F5E2F5F5E2E2F5F5F5F5F5F5F5F5F5F5F5F5F5F5F5F5F5F5F5F5F5F5F5F5F5F5F5F5F5F5F5F5F5F5F5F5F5F5F5F5F5F5F5F5F5F5F5F5F5F5F5F5F5F5F5F5F5F5F5F5F5F5F5F5F5F5F5F5F5F5F5F5F5F5F5F5F5F5F5F5F5F5F5F5F5F5F5F5F5F5F5F5F5F5F5F5F5F5F5F5F5F5F5
310
F5F5F5F5F5F5E2F5F5E2E2E2E2F5F5F5F5F5F5F5F5F5E2E2F5E2F5F5F5F5F5F5F5F5F5F5F5E2F5F5F5F5F5F5F5F5F5F5F5E2E2E2E2E2E2E2E2E2E2E2F5F5F5E2E2E2F5F5E2E2F5F5E2E2E2E2F5E2F5F5F5F5F5F5F5F5F5F5F5F5F5F5F5F5F5F5F5F5F5E2F5F5F5F5F5F5F5F5F5F5F5F5F5F5F5F5F5F5F5F5F5F5F5F5F5F5F5
310
F5F5F5F5F5F5F5F5F5F5F5F5F5F5F5F5F5F5F5F5F5F5F5F5F5F5F5F5F5F5F5F5F5F5F5F5F5F5F5F5F5F5F5F5F5F5F5F5F5F5F5F5F5F5F5F5F5F5F5E2F5F5E2E2E2E2F5F5F5F5F5F5F5F5F5E2E2F5E2F5F5F5F5F5F5F5F5F5F5F5E2F5F5F5F5F5F5F5F5F5F5F5E2F5F5F5F5E2F5F5F5F5E2E2E2E2E2E2F5F5F5F5E2F5F5F5E2
310
E2F5F5E2F5F5F5F5F5F5F5F5F5F5F5F5F5F5F5F5F5F5F5F5F5E2F5F5F5F5F5F5F5F5F5F5F5F5F5F5F5F5F5F5F5F5F5F5F5F5F5F5F5F5F5F5F5F5F5F5F5F5F5F5F5F5F5F5F5F5F5F5F5F5F5F5F5F5F5F5F5F5F5F5F5F5F5F5F5F5F5F5F5F5F5F5F5F5F5F5F5F5F5F5F5F5F5F5F5F5F5F5E2F5F5E2E2E2E2F5F5F5F5F5F5F5F5
310
F5E2E2F5E2F5F5F5F5F5F5F5F5F5F5F5E2F5F5F5F5F5F5F5F5F5F5F5E2F5F5F5F5E2F5F5F5F5E2E2E2F5F5E2E2F5F5F5E2E2E2E2E2F5F5F5F5E2F5F5F5F5F5F5F5F5F5F5F5F5F5F5F5F5F5F5F5E2F5F5F5F5F5F5F5F5F5F5F5F5F5F5F5F5F5F5F5F5F5F5F5F5F5F5F5F5F5F5F5F5F5F5F5F5F5F5F5F5F5F5F5F5F5F5F5F5F5
310
F5F5F5F5F5F5F5F5F5F5F5F5F5F5F5F5F5F5F5F5F5F5F5F5F5F5F5F5F5F5F5F5F5F5F5F5F5F5E2F5F5E2E2E2E2F5F5F5F5F5F5F5F5F5E2E2F5E2F5F5F5F5F5F5F5F5F5F5F5E2F5F5F5F5F5F5F5F5F5F5F5E2F5F5F5F5E2F5F5F5F5E2F5E2F5F5F5E2F5F5F5F5E2E2E2F5F5F5F5F5F5F5F5F5F5F5F5F5F5F5F5F5F5F5F5F5F5
310
F5F5F5E2F5F5F5F5F5F5F5F5F5F5F5F5F5F5F5F5F5F5F5F5F5F5F5F5F5F5F5F5F5F5F5F5F5F5F5F5F5F5F5F5F5F5F5F5F5F5F5F5F5F5F5F5F5F5F5F5F5F5F5F5F5F5F5F5F5F5F5F5F5F5F5F5F5F5F5F5F5F5F5F5F5F5F5F5F5F5F5E2F5F5E2E2E2E2F5F5F5F5F5F5F5F5F5F5F5F5E2F5F5F5F5F5F5F5F5F5F5F5E2F5F5F5F5
310
F5F5F5F5F5F5F5E2F5F5F5F5E2F5F5F5F5E2F5E2F5F5F5E2E2F5E2E2E2F5F5F5F5F5F5F5F5F5F5F5F5F5F5F5F5F5F5F5F5F5F5F5F5F5F5E2F5F5F5F5F5F5F5F5F5F5F5F5F5F5F5F5F5F5F5F5F5F5F5F5F5F5F5F5F5F5F5F5F5F5F5F5F5F5F5F5F5F5F5F5F5F5F5F5F5F5F5F5F5F5F5F5F5F5F5F5F5F5F5F5F5F5F5F5F5F5F5
310
F5F5F5F5F5F5F5F5F5F5F5F5F5F5F5F5F5E2F5E2E2E2E2E2F5F5F5F5F5F5F5F5F5F5F5F5E2F5F5F5F5F5F5F5F5F5F5F5F5F5F5F5F5F5F5F5F5F5F5F5E2F5F5F5F5E2F5F5F5F5E2F5F5E2F5F5F5E2E2E2E2F5F5F5F5F5F5F5F5F5F5F5F5F5F5F5F5F5F5F5F5F5F5F5F5F5F5F5F5F5F5F5F5F5F5F5F5F5F5F5F5F5F5F5F5F5F5
310
F5F5F5F5F5F5F5F5F5F5F5F5F5F5F5F5F5F5F5F5F5F5F5F5F5F5F5F5F5F5F5F5F5F5F5F5F5F5F5F5F5F5F5F5F5F5F5F5F5F5F5F5F5F5F5F5F5F5F5F5F5F5F5F5F5F5F5F5F5F5E2F5E2E2E2E2E2F5F5F5F5F5F5F5F5F5F5F5F5E2F5F5F5F5F5F5F5F5F5F5F5E2F5F5F5F5F5F5F5F5F5F5F5E2F5F5F5F5E2F5F5F5F5E2F5F5E2
310
E2E2E2E2E2F5F5F5F5F5F5F5F5F5F5F5F5F5F5F5F5F5F5F5F5F5F5F5F5F5F5F5F5E2F5F5F5F5F5F5F5F5F5F5F5F5F5F5F5F5F5F5F5F5F5F5F5F5F5F5F5F5F5F5F5F5F5F5F5F5F5F5F5F5F5F5F5F5F5F5F5F5F5F5F5F5F5F5F5F5F5F5F5F5F5F5F5F5F5F5F5F5F5F5F5F5F5F5F5F5F5F5F5F5F5F5F5F5F5F5F5F5F5E2F5E2E2
310
E2E2E2F5F5F5F5F5F5F5F5F5F5F5F5E2F5F5F5F5F5F5F5F5F5F5F5E2F5F5F5F5F5F5F5F5F5F5F5E2F5F5F5F5E2F5F5F5F5E2E2E2E2E2E2E2F5F5F5F5F5F5F5F5F5F5F5F5F5F5F5F5F5F5F5F5F5F5F5F5F5F5F5F5F5E2F5F5F5F5F5F5F5F5F5F5F5F5F5F5F5F5F5F5F5F5F5F5F5F5F5F5F5F5F5F5F5F5F5F5F5F5F5F5F5F5F5
310
F5F5F5F5F5F5F5F5F5F5F5F5F5F5F5F5F5F5F5F5F5F5F5F5F5F5F5F5F5F5F5F5F5F5F5F5F5F5F5F5F5F5F5F5F5F5F5F5F5E2F5E2E2E2E2E2F5F5F5F5F5F5F5F5F5F5F5F5E2F5F5F5F5F5F5F5F5F5F5F5E2F5F5F5F5F5F5F5F5F5F5F5E2F5F5F5F5E2F5F5F5F5E2E2E2F5F5F5F5F5F5F5F5F5F5F5F5F5F5F5F5F5F5F5F5F5F5
310
F5F5F5F5F5F5F5F5F5F5E2F5F5F5F5F5F5F5F5F5F5F5F5F5F5F5F5F5F5F5F5F5F5F5F5F5F5F5F5F5F5F5F5F5F5F5F5F5F5F5F5F5F5F5F5F5F5F5F5F5F5F5F5F5F5F5F5F5F5F5F5F5F5F5F5F5F5F5F5F5F5F5F5F5F5F5F5F5F5F5F5F5F5F5F5F5F5F5F5F5F5F5E2F5E2E2E2E2E2F5F5F5F5F5F5F5F5F5F5F5F5E2F5F5F5F5F5
310
F5F5F5F5F5F5E2F5F5F5F5F5F5F5F5F5F5F5E2E2E2E2E2E2E2E2E2E2E2F5F5F5F5F5F5F5F5F5F5F5F5F5F5F5F5F5F5F5F5F5F5F5F5F5F5F5F5F5F5F5F5F5F5E2F5F5F5F5F5F5F5F5F5F5F5F5F5F5F5F5F5F5F5F5F5F5F5F5F5F5F5F5F5F5F5F5F5F5F5F5F5F5F5F5F5F5F5F5F5F5F5F5F5F5F5F5F5F5F5F5F5F5F5F5F5F5F5
310
F5F5F5F5F5F5F5F5F5F5F5F5F5F5F5F5F5F5F5F5F5F5F5F5F5F5F5F5E2F5E2E2E2E2E2F5F5F5F5F5F5F5F5F5F5F5F5E2F5F5F5F5F5F5F5F5F5F5F5E2F5F5F5F5F5F5F5F5F5F5F5F5F5E2E2F5F5F5E2F5F5F5F5F5F5F5F5F5F5F5F5F5F5F5F5F5F5F5F5F5F5F5F5F5F5F5F5F5F5F5F5F5F5F5F5E2F5F5F5F5F5F5F5F5F5F5F5
310
F5F5F5F5F5F5F5F5F5F5F5F5F5F5F5F5F5F5F5F5F5F5F5F5F5F5F5F5F5F5F5F5F5F5F5F5F5F5F5F5F5F5F5F5F5F5F5F5F5F5F5F5F5F5F5F5F5F5F5F5F5F5F5F5F5F5F5F5F5F5F5F5F5F5F5F5F5F5F5F5F5E2F5E2E2E2E2E2F5F5F5F5F5F5F5F5F5F5F5F5E2F5F5F5F5F5F5F5F5F5F5F5E2F5F5F5F5F5F5F5F5F5F5F5F5F5E2
310
E2E2E2E2E2F5F5F5F5F5F5F5F5F5F5F5F5F5F5F5F5F5F5F5F5F5F5F5F5F5F5F5F5F5F5F5F5F5F5F5E2F5F5F5F5F5F5F5F5F5F5F5F5F5F5F5F5F5F5F5F5F5F5F5F5F5F5F5F5F5F5F5F5F5F5F5F5F5F5F5F5F5F5F5F5F5F5F5F5F5F5F5F5F5F5F5F5F5F5F5F5F5F5F5F5F5F5F5F5F5F5F5F5F5F5F5F5F5F5F5F5F5F5F5F5F5F5
310
F5F5F5F5F5F5F5E2F5E2E2E2E2E2F5F5F5F5F5F5F5F5F5F5F5F5E2F5F5F5F5F5F5F5F5F5F5F5F5F5F5F5F5F5F5F5F5F5F5F5F5F5E2E2F5F5F5E2F5F5F5F5F5F5F5F5F5F5F5F5F5F5F5F5F5F5F5F5F5F5F5F5F5F5F5F5F5F5F5F5F5F5E2F5F5F5F5F5F5F5F5F5F5F5F5F5F5F5F5F5F5F5F5F5F5F5F5F5F5F5F5F5F5F5F5F5F5
310
F5F5F5F5F5F5F5F5F5F5F5F5F5F5F5F5F5F5F5F5F5F5F5F5F5F5F5F5F5F5F5F5F5F5F5F5F5F5F5F5F5F5F5F5F5F5F5F5F5F5F5F5F5F5F5F5F5F5F5F5E2F5E2E2E2E2E2F5F5F5F5F5F5F5F5F5F5F5F5E2F5F5F5F5F5F5F5F5F5F5F5E2F5F5F5F5F5F5F5F5F5F5F5F5F5E2E2F5F5F5E2F5F5F5F5F5F5F5F5F5F5F5F5F5F5F5F5
310
F5F5F5F5F5F5F5F5F5F5F5F5F5F5F5F5F5F5E2F5F5F5F5F5F5F5F5F5F5F5F5F5F5F5F5F5F5F5F5F5F5F5F5F5F5F5F5F5F5F5F5F5F5F5F5F5F5F5F5F5F5F5F5F5F5F5F5F5F5F5F5F5F5F5F5F5F5F5F5F5F5F5F5F5F5F5F5F5F5F5F5F5F5F5F5F5F5F5F5F5F5F5F5F5F5F5F5F5F5F5F5F5F5E2F5E2E2E2E2E2F5F5F5F5F5F5F5
310
F5F5F5F5F5E2F5F5F5F5F5F5F5F5F5F5F5E2F5F5F5F5F5F5F5F5F5F5F5F5F5E2E2F5F5F5E2F5F5F5F5F5F5F5F5F5F5F5F5F5F5F5F5F5F5F5F5F5F5F5F5F5F5F5F5F5F5F5F5F5E2F5F5F5F5F5F5F5F5F5F5F5F5F5F5F5F5F5F5F5F5F5F5F5F5F5F5F5F5F5F5F5F5F5F5F5F5F5F5F5F5F5F5F5F5F5F5F5F5F5F5F5F5F5F5F5F5
310
F5F5F5F5F5F5F5F5F5F5F5F5F5F5F5F5F5F5F5F5F5F5F5F5F5F5F5F5F5F5F5F5F5F5F5F5F5F5F5E2F5E2E2E2E2E2F5F5F5F5F5F5F5F5F5F5F5F5E2F5F5F5F5F5F5F5F5F5F5F5E2F5F5F5F5F5F5F5F5F5F5F5F5F5E2E2F5F5F5E2F5F5F5F5F5F5F5F5F5F5F5F5F5F5F5F5F5F5F5F5F5F5F5F5F5F5F5F5F5F5F5F5E2F5F5F5F5
310
F5F5F5F5F5F5F5F5F5F5F5F5F5F5F5F5F5F5F5F5F5F5F5F5F5F5F5F5F5F5F5F5F5F5F5F5F5F5F5F5F5F5F5F5F5F5F5F5F5F5F5F5F5F5F5F5F5F5F5F5F5F5F5F5F5F5F5F5F5F5F5F5F5F5F5F5F5F5F5F5F5F5F5F5F5F5F5F5F5F5F5F5E2F5E2E2E2E2E2F5F5F5F5F5F5F5F5F5F5F5F5E2F5F5F5F5F5F5F5F5F5F5F5E2E2E2F5
310
F5F5F5F5F5F5F5F5F5F5E2E2F5F5F5E2F5F5F5F5F5F5F5F5F5F5F5F5F5F5F5F5F5F5F5F5F5F5F5F5F5F5F5F5F5F5F5E2F5F5F5F5F5F5F5F5F5F5F5F5F5F5F5F5F5F5F5F5F5F5F5F5F5F5F5F5F5F5F5F5F5F5F5F5F5F5F5F5F5F5F5F5F5F5F5F5F5F5F5F5F5F5F5F5F5F5F5F5F5F5F5F5F5F5F5F5F5F5F5F5F5F5F5F5F5F5F5
310
F5F5F5F5F5F5F5F5F5F5F5F5F5F5F5F5F5F5E2F5E2E2E2E2E2F5F5F5F5F5F5F5F5F5F5F5F5E2F5F5F5F5F5F5F5F5F5F5F5F5F5E2F5F5F5F5F5F5F5F5F5F5F5E2E2F5F5F5E2F5F5F5F5F5F5F5F5F5F5F5F5F5F5F5F5F5F5F5F5F5F5F5F5F5F5F5F5F5F5E2F5F5F5F5F5F5F5F5F5F5F5F5F5F5F5F5F5F5F5F5F5F5F5F5F5F5F5
310
F5F5F5F5F5F5F5F5F5F5F5F5F5F5F5F5F5F5F5F5F5F5F5F5F5F5F5F5F5F5F5F5F5F5F5F5F5F5F5F5F5F5F5F5F5F5F5F5F5F5F5F5F5F5F5F5F5F5F5F5F5F5F5F5F5F5F5F5F5F5F5E2F5E2E2E2E2E2F5F5F5F5F5F5F5F5F5F5F5F5E2F5F5F5F5F5F5F5F5F5F5F5F5F5E2F5F5F5F5F5F5F5F5F5F5F5E2E2F5F5F5E2F5F5F5F5F5
310
F5F5F5F5F5F5F5F5F5F5F5F5F5F5F5F5F5F5F5F5F5F5F5F5E2F5F5F5F5F5F5F5F5F5F5F5F5F5F5F5F5F5F5F5F5F5F5F5F5F5F5F5F5F5F5F5F5F5F5F5F5F5F5F5F5F5F5F5F5F5F5F5F5F5F5F5F5F5F5F5F5F5F5F5F5F5F5F5F5F5F5F5F5F5F5F5F5F5F5F5F5F5F5F5F5F5F5F5F5F5F5F5F5F5F5F5F5F5F5F5F5F5F5F5E2F5E2
310
E2E2E2E2F5F5F5F5F5F5F5F5F5F5F5F5E2F5F5F5F5F5F5F5F5F5F5F5F5F5E2F5F5F5F5F5F5F5F5F5F5F5E2E2F5F5F5E2F5F5F5F5F5F5F5F5F5F5F5F5F5F5F5F5F5F5F5F5F5F5F5F5F5F5F5F5E2F5F5F5F5F5F5F5F5F5F5F5F5F5F5F5F5F5F5F5F5F5F5F5F5F5F5F5F5F5F5F5F5F5F5F5F5F5F5F5F5F5F5F5F5F5F5F5F5F5F5
310
F5F5F5F5F5F5F5F5F5F5F5F5F5F5F5F5F5F5F5F5F5F5F5F5F5F5F5F5F5F5F5F5F5F5F5F5F5F5F5F5F5F5F5F5F5F5F5F5F5F5E2F5E2E2E2E2E2F5F5F5F5F5F5F5F5F5F5F5F5E2F5F5F5F5F5F5F5F5F5F5F5F5F5E2F5F5F5F5F5F5F5F5F5F5F5E2E2E2E2E2E2F5F5F5F5F5F5F5F5F5F5F5F5F5F5F5F5F5F5F5F5F5F5F5F5F5F5
310
E2F5F5F5F5F5F5F5F5F5F5F5F5F5F5F5F5F5F5F5F5F5F5F5F5F5F5F5F5F5F5F5F5F5F5F5F5F5F5F5F5F5F5F5F5F5F5F5F5F5F5F5F5F5F5F5F5F5F5F5F5F5F5F5F5F5F5F5F5F5F5F5F5F5F5F5F5F5F5F5F5F5F5F5F5F5F5F5F5F5F5F5F5F5F5F5F5F5F5F5F5F5F5E2F5F5E2E2E2E2F5F5F5F5F5F5F5F5F5F5F5F5E2F5F5F5F5
310
F5F5F5F5F5F5F5F5F5E2F5F5F5F5F5F5F5F5F5F5F5E2E2F5F5F5E2F5F5F5F5F5F5F5F5F5F5F5F5F5F5F5F5F5F5F5F5F5F5F5F5E2E2F5F5F5F5F5F5F5F5F5F5F5F5F5F5F5F5F5F5F5F5F5F5F5F5F5F5F5F5F5F5F5F5F5F5F5F5F5F5F5F5F5F5F5F5F5F5F5F5F5F5F5F5F5F5F5F5F5F5F5F5F5F5F5F5F5F5F5F5F5F5F5F5F5F5
310
F5F5F5F5F5F5F5F5F5F5F5F5F5F5F5F5F5F5F5F5F5F5F5F5F5F5F5F5F5E2F5F5E2E2E2E2F5F5F5F5F5F5F5F5F5F5F5F5E2F5F5F5F5F5F5F5F5F5F5F5F5F5F5F5F5F5F5F5F5F5F5F5F5F5E2E2F5F5F5E2F5F5F5F5F5F5F5F5F5F5F5F5F5F5F5F5F5F5F5F5F5F5E2E2F5F5F5F5F5F5F5F5F5F5F5F5F5F5F5F5F5F5F5F5F5F5F5
310
F5F5F5F5F5F5F5F5F5F5F5F5F5F5F5F5F5F5F5F5F5F5F5F5F5F5F5F5F5F5F5F5F5F5F5F5F5F5F5F5F5F5F5F5F5F5F5F5F5F5F5F5F5F5F5F5F5F5F5F5F5F5F5F5F5F5F5F5F5F5F5F5F5F5F5F5F5F5F5F5F5F5E2F5F5E2E2E2E2F5F5F5F5F5F5F5F5F5F5F5F5E2F5F5F5F5F5F5F5F5F5F5F5F5F5E2F5F5F5F5F5F5F5F5F5F5F5
310
E2E2F5F5F5E2F5F5F5F5F5F5F5F5F5F5F5F5F5F5F5F5F5F5F5F5F5E2F5F5F5F5F5F5F5F5F5F5F5F5F5F5F5F5F5F5F5F5F5F5F5F5F5F5F5F5F5F5F5F5F5F5F5F5F5F5F5F5F5F5F5F5F5F5F5F5F5F5F5F5F5F5F5F5F5F5F5F5F5F5F5F5F5F5F5F5F5F5F5F5F5F5F5F5F5F5F5F5F5F5F5F5F5F5F5F5F5F5F5F5F5F5F5F5F5F5F5
310
F5F5F5F5F5F5F5F5E2F5F5E2E2E2E2F5F5F5F5F5F5F5F5F5F5F5F5E2F5F5F5F5F5F5F5F5F5F5F5F5F5E2F5F5F5F5F5F5F5F5F5F5F5F5F5F5F5F5F5F5F5F5F5F5F5F5F5F5F5F5F5F5F5F5F5F5F5F5E2E2F5F5F5F5F5F5F5F5F5F5F5F5F5F5F5F5F5F5F5F5F5F5F5F5F5F5F5F5F5F5F5F5F5F5F5F5F5F5F5F5F5F5F5F5F5F5F5
310
F5F5F5F5F5F5F5F5F5F5F5F5F5F5F5F5F5F5F5F5F5F5F5F5F5F5F5F5F5F5F5F5F5F5F5F5F5F5F5F5F5F5F5F5F5F5F5F5F5F5F5F5F5F5F5F5F5F5F5F5F5E2F5F5E2E2E2E2F5F5F5F5F5F5F5F5F5F5F5F5E2F5F5F5F5F5F5F5F5F5F5F5F5F5E2F5F5F5F5F5F5F5F5F5F5F5F5F5F5F5F5F5F5F5F5F5F5F5F5F5F5F5F5F5F5F5F5
310
F5F5E2E2F5F5F5F5F5F5F5F5F5F5F5F5F5F5F5F5F5F5F5F5F5F5F5F5F5F5F5F5F5F5F5F5F5F5F5F5F5F5F5F5F5F5F5F5F5F5F5F5F5F5F5F5F5F5F5F5F5F5F5F5F5F5F5F5F5F5F5F5F5F5F5F5F5F5F5F5F5F5F5F5F5F5F5F5F5F5F5F5F5F5F5F5F5F5F5F5F5F5F5F5F5F5F5F5F5F5F5F5F5F5E2F5F5E2E2E2E2F5F5F5F5F5F5
310
F5F5F5F5F5F5E2F5F5F5F5F5F5F5F5F5F5F5F5F5E2F5F5F5F5F5F5F5F5F5F5F5F5F5F5F5F5F5F5F5F5F5F5F5F5F5F5F5F5F5F5F5E2E2F5F5F5F5F5F5F5F5F5F5F5F5F5F5F5F5F5F5F5F5F5F5F5F5F5F5F5F5F5F5F5F5F5F5F5F5F5F5F5F5F5F5F5F5F5F5F5F5F5F5F5F5F5F5F5F5F5F5F5F5F5F5F5F5F5F5F5F5F5F5F5F5F5
310
F5F5F5F5F5F5F5F5F5F5F5F5F5F5F5F5F5F5F5F5F5F5F5F5F5F5F5F5F5F5F5F5F5F5F5F5F5F5F5F5E2F5F5E2E2E2E2F5F5F5F5F5F5F5F5F5F5F5F5E2F5F5F5F5F5F5F5F5F5F5F5F5F5E2F5F5F5F5F5F5F5F5F5F5F5F5F5F5F5F5F5F5F5F5F5F5F5F5F5F5F5F5F5E2E2F5F5F5F5F5F5F5F5F5F5F5F5F5F5F5F5F5F5F5F5F5F5
310
F5F5F5F5F5F5F5F5F5F5F5F5F5F5F5F5F5F5F5F5F5F5F5F5F5F5F5F5F5F5F5F5F5F5F5F5F5F5F5F5F5F5F5F5F5F5F5F5F5F5F5F5F5F5F5F5F5F5F5F5F5F5F5F5F5F5F5F5F5F5F5F5F5F5F5F5F5F5F5F5F5F5F5F5F5F5F5F5F5F5F5F5F5E2F5F5E2E2E2E2F5F5F5F5F5F5F5F5F5F5F5F5E2F5F5F5F5F5F5F5F5F5F5F5F5F5F5
310
F5F5F5F5F5F5F5F5F5F5F5F5F5F5F5F5F5F5F5F5F5F5F5F5F5F5F5F5F5E2F5F5F5F5F5F5F5F5F5F5F5F5F5F5F5F5F5F5F5F5F5F5F5F5F5F5F5F5F5F5F5F5F5F5F5F5F5F5F5F5F5F5F5F5F5F5F5F5F5F5F5F5F5F5F5F5F5F5F5F5F5F5F5F5F5F5F5F5F5F5F5F5F5F5F5F5F5F5F5F5F5F5F5F5F5F5F5F5F5F5F5F5F5F5F5F5F5
310
F5F5F5F5F5F5F5F5F5F5F5F5F5F5F5F5F5F5F5E2F5F5E2E2E2E2F5F5F5F5F5F5F5F5F5F5F5F5E2F5F5F5F5F5F5F5F5F5F5F5F5F5E2F5F5F5F5F5F5F5F5F5F5F5F5F5F5F5F5F5F5F5F5F5F5F5F5F5F5F5F5F5E2F5F5F5F5F5F5F5F5F5F5F5F5F5F5F5F5F5F5F5F5F5F5F5F5F5F5F5F5F5F5F5F5F5F5F5F5F5F5F5F5F5F5F5F5
310
F5F5F5F5F5F5F5F5F5F5F5F5F5F5F5F5F5F5F5F5F5F5F5F5F5F5F5F5F5F5F5F5F5F5F5F5F5F5F5F5F5F5F5F5F5F5F5F5F5F5F5F5F5F5F5F5F5F5F5F5F5F5F5F5F5F5F5F5F5F5F5F5E2F5E2E2E2E2E2F5F5F5F5F5F5F5F5F5F5F5F5E2F5F5F5F5F5F5F5F5F5F5F5F5F5E2F5F5F5F5F5F5F5F5F5F5F5F5F5F5F5F5F5F5F5F5F5
310
F5F5F5F5F5F5F5F5F5F5F5F5F5F5F5F5F5F5F5F5F5F5F5F5F5F5F5F5F5F5F5F5F5F5F5F5F5F5F5F5F5F5F5F5F5F5F5F5F5F5F5F5F5F5F5F5F5F5F5F5F5F5F5F5F5F5F5F5F5F5F5F5F5F5F5F5F5F5F5F5F5F5F5F5F5F5F5F5F5F5F5F5F5F5F5F5F5F5F5F5F5F5F5F5F5F5F5F5F5F5F5F5F5F5F5F5F5F5F5F5F5F5F5F5F5E2F5
310
E2E2E2E2E2F5F5F5F5F5F5F5F5F5F5F5F5E2F5F5F5F5F5F5F5F5F5F5F5F5F5E2F5F5F5F5F5F5F5F5F5F5F5F5F5F5F5F5F5F5F5F5F5F5F5F5F5F5F5F5F5E2F5F5F5F5F5F5F5F5F5F5F5F5F5F5F5F5F5F5F5F5F5F5F5F5F5F5F5F5F5F5F5F5F5F5F5F5F5F5F5F5F5F5F5F5F5F5F5F5F5F5F5F5F5F5F5F5F5F5F5F5F5F5F5F5F5
310
F5F5F5F5F5F5F5F5F5F5F5F5F5F5F5F5F5F5F5F5F5F5F5F5F5F5F5F5F5F5F5F5F5F5F5F5F5F5F5F5F5F5F5F5F5F5F5F5F5F5F5E2F5E2E2E2E2E2F5F5F5F5F5F5F5F5F5F5F5F5E2F5F5F5F5F5F5F5F5F5F5F5F5F5E2F5F5F5F5F5F5F5F5F5F5F5F5F5F5F5F5F5F5F5F5F5F5F5F5F5F5F5F5F5E2F5F5F5F5F5F5F5F5F5F5F5F5
310
F5F5F5F5F5F5F5F5F5F5F5F5F5F5F5F5F5F5F5F5F5F5F5F5F5F5F5F5F5F5F5F5F5F5F5F5F5F5F5F5F5F5F5F5F5F5F5F5F5F5F5F5F5F5F5F5F5F5F5F5F5F5F5F5F5F5F5F5F5F5F5F5F5F5F5F5F5F5F5F5F5F5F5F5F5F5F5F5F5F5F5F5F5F5F5F5F5F5F5F5F5F5F5F5E2F5E2E2E2E2E2F5F5F5F5F5F5F5F5F5F5F5F5E2F5F5F5
310
F5F5F5F5F5F5F5F5F5F5E2F5F5F5F5F5F5F5F5F5F5F5F5F5F5F5F5F5F5F5F5F5F5F5F5F5F5F5F5F5E2F5F5F5F5F5F5F5F5F5F5F5F5F5F5F5F5F5F5F5F5F5F5F5F5F5F5F5F5F5F5F5F5F5F5F5F5F5F5F5F5F5F5F5F5F5F5F5F5F5F5F5F5F5F5F5F5F5F5F5F5F5F5F5F5F5F5F5F5F5F5F5F5F5F5F5F5F5F5F5F5F5F5F5F5F5F5
310
F5F5F5F5F5F5F5F5F5F5F5F5F5F5F5F5F5F5F5F5F5F5F5F5F5F5F5F5F5F5E2F5E2E2E2E2E2F5F5F5F5F5F5F5F5F5F5F5F5E2F5F5F5F5F5F5F5F5F5F5F5F5F5E2F5F5F5F5F5F5F5F5F5F5F5F5F5F5F5F5F5F5F5F5F5F5F5F5F5F5F5F5F5E2F5F5F5F5F5F5F5F5F5F5F5F5F5F5F5F5F5F5F5F5F5F5F5F5F5F5F5F5F5F5F5F5F5
310
F5F5F5F5F5F5F5F5F5F5F5F5F5F5F5F5F5F5F5F5F5F5F5F5F5F5F5F5F5F5F5F5F5F5F5F5F5F5F5F5F5F5F5F5F5F5F5F5F5F5F5F5F5F5F5F5F5F5F5F5F5F5F5F5F5F5F5F5F5F5F5F5F5F5F5F5F5F5F5F5F5F5F5E2F5E2E2E2E2E2F5F5F5F5F5F5F5F5F5F5F5F5E2F5F5F5F5F5F5F5F5F5F5F5F5F5F5F5F5F5F5F5F5F5F5F5F5
310
F5F5F5F5F5F5F5F5F5F5F5F5F5F5F5F5F5F5F5E2F5F5F5F5F5F5F5F5F5F5F5F5F5F5F5F5F5F5F5F5F5F5F5F5F5F5F5F5F5F5F5F5F5F5F5F5F5F5F5F5F5F5F5F5F5F5F5F5F5F5F5F5F5F5F5F5F5F5F5F5F5F5F5F5F5F5F5F5F5F5F5F5F5F5F5F5F5F5F5F5F5F5F5F5F5F5F5F5F5F5F5F5F5F5F5F5F5F5F5F5F5F5F5F5F5F5F5
310
F5F5F5F5F5F5F5F5F5E2F5E2E2E2E2E2F5F5F5F5F5F5F5F5F5F5F5F5E2F5F5F5F5F5F5F5F5F5F5F5F5F5E2F5F5F5F5F5F5F5F5F5F5F5F5F5F5F5F5F5F5F5F5F5F5F5F5F5F5F5F5F5F5F5F5F5F5F5F5F5F5F5F5F5F5F5F5F5F5F5F5F5F5F5F5F5F5F5F5F5F5F5F5F5F5F5F5F5F5F5F5F5F5F5F5F5F5F5F5F5F5F5F5F5F5F5F5
310
F5F5F5F5F5F5F5F5F5F5F5F5F5F5F5F5F5F5F5F5F5F5F5F5F5F5F5F5F5F5F5F5F5F5F5F5F5F5F5F5F5F5F5F5F5F5F5F5F5F5F5F5F5F5F5F5F5F5F5F5F5F5E2F5E2E2E2E2E2F5F5F5F5F5F5F5F5F5F5F5F5E2F5F5F5F5F5F5F5F5F5F5F5F5F5E2F5F5F5F5F5F5F5F5F5F5F5F5F5F5F5F5F5F5F5F5F5F5F5F5F5F5F5F5F5F5F5
310
F5F5F5F5F5F5F5F5F5F5F5F5F5F5F5F5F5F5F5F5F5F5F5F5F5F5F5F5F5F5F5F5F5F5F5F5F5F5F5F5F5F5F5F5F5F5F5F5F5F5F5F5F5F5F5F5F5F5F5F5F5F5F5F5F5F5F5F5F5F5F5F5F5F5F5F5F5F5F5F5F5F5F5F5F5F5F5F5F5F5F5F5F5F5F5F5F5F5F5F5F5F5F5F5F5F5F5F5F5F5F5F5F5F5F5E2F5E2E2E2E2E2F5F5F5F5F5
310
F5F5F5F5F5F5F5E2F5F5F5F5F5F5F5F5F5F5F5F5F5E2F5F5F5F5F5F5F5F5F5F5F5F5F5F5F5F5F5F5F5F5F5F5F5F5F5F5F5F5F5E2F5F5F5F5F5F5F5F5F5F5F5F5F5F5F5F5F5F5F5F5F5F5F5F5F5F5F5F5F5F5F5F5F5F5F5F5F5F5F5F5F5F5F5F5F5F5F5F5F5F5F5F5F5F5F5F5F5F5F5F5F5F5F5F5F5F5F5F5F5F5F5F5F5F5F5
310
F5F5F5F5F5F5F5F5F5F5F5F5F5F5F5F5F5F5F5F5F5F5F5F5F5F5F5F5F5F5F5F5F5F5F5F5F5F5F5F5F5E2F5E2E2E2E2E2F5F5F5F5F5F5F5F5F5F5F5F5E2F5F5F5F5F5F5F5F5F5F5F5F5F5E2F5F5F5F5F5F5F5F5F5F5F5F5F5F5F5F5F5F5F5F5F5F5F5F5F5F5F5F5F5E2F5F5F5F5F5F5F5F5F5F5F5F5F5F5F5F5F5F5F5F5F5F5
310
F5F5F5F5F5F5F5F5F5F5F5F5F5F5F5F5F5F5F5F5F5F5F5F5F5F5F5F5F5F5F5F5F5F5F5F5F5F5F5F5F5F5F5F5F5F5F5F5F5F5F5F5F5F5F5F5F5F5F5F5F5F5F5F5F5F5F5F5F5F5F5F5F5F5F5F5F5F5F5F5F5F5F5F5F5F5F5F5F5F5F5F5F5F5E2F5E2E2E2E2E2F5F5F5F5F5F5F5F5F5F5F5F5E2BEF5F5F5F5F5F5F5F5F5F5F5F5
310
E2F5F5F5F5F5F5F5F5F5F5F5F5F5F5F5F5F5F5F5F5F5F5F5F5F5F5F5F5F5E2F5F5F5F5F5F5F5F5F5F5F5F5F5F5F5F5F5F5F5F5F5F5F5F5F5F5F5F5F5F5F5F5F5F5F5F5F5F5F5F5F5F5F5F5F5F5F5F5F5F5F5F5F5F5F5F5F5F5F5F5F5F5F5F5F5F5F5F5F5F5F5F5F5F5F5F5F5F5F5F5F5F5F5F5F5F5F5F5F5F5F5F5F5F5F5F5
310
F5F5F5F5F5F5F5F5F5F5F5F5F5F5F5F5F5F5F5F5E2F5E2E2E2E2E2F5F5F5F5F5F5F5F5F5F5F5E2E2E2F5F5F5F5F5F5F5F5F5F5F5F5E2E2E2E2F5E2E2E2E2E2F5E2E2E2E2E2F5E2E2E2E2E2E2E2E2F5E2E2E2E2E2F5F5F5F5F5F5F5F5F5F5F5F5F5F5F5F5F5F5F5F5F5F5F5F5F5F5F5F5F5F5F5F5F5F5F5F5F5F5F5F5F5F5F5
310
F5F5F5F5F5F5F5F5F5F5F5F5F5F5F5F5F5F5F5F5F5F5F5F5F5F5F5F5F5F5F5F5F5F5F5F5F5F5F5F5F5F5F5F5F5F5F5F5F5F5F5F5F5F5F5F5F5F5F5F5F5F5F5F5F5F5F5F5F5F5F5F5F5E2F5E2E2E2E2E2F5F5F5F5F5F5F5F5F5F5F5BEF5F5F5F5F5F5F5F5F5F5F5F5F5F5F5F5F5F5F5F5F5F5F5F5F5F5F5F5F5F5F5F5F5F5F5
310
F5F5F5F5F5F5F5F5F5F5F5F5F5F5F5F5F5F5F5F5F5F5F5F5F5F5F5F5F5F5F5F5F5F5F5F5F5F5F5F5F5F5F5F5F5F5F5F5F5F5F5F5F5F5F5F5F5F5F5F5F5F5F5F5F5F5F5F5F5F5F5F5F5F5F5F5F5F5F5F5F5F5F5F5F5F5F5F5F5F5F5F5F5F5F5F5F5F5F5F5F5F5F5F5F5F5F5F5F5F5F5F5F5F5F5F5F5F5F5F5F5F5F5F5F5F5E2
310
F5E2E2E2E2E2F5F5F5F5F5F5F5F5F5F5F5F5F5F5F5F5F5F5F5F5F5F5F5F5F5F5F5F5F5F5F5F5F5F5F5F5F5F5F5F5F5F5F5F5F5F5F5F5F5F5F5F5F5F5F5F5F5F5F5F5F5F5F5F5F5F5F5F5F5F5F5F5F5F5F5F5F5F5F5F5F5F5F5F5F5F5F5F5F5F5F5F5F5F5F5F5F5F5F5F5F5F5F5F5F5F5F5F5F5F5F5F5F5F5F5F5F5F5F5F5F5
310
F5F5F5F5F5F5F5F5F5F5F5F5F5F5F5F5F5F5F5F5F5F5F5F5F5F5F5F5F5F5F5F5F5F5F5F5F5F5F5F5F5F5F5F5F5F5F5F5F5F5F5F5E2F5E2E2E2E2E2F5F5F5F5F5F5F5F5F5F5F5F5F5F5F5F5F5F5F5F5F5F5F5F5F5F5F5F5F5F5F5F5F5F5F5F5F5F5F5F5F5F5F5F5F5F5F5F5F5F5F5F5F5F5F5F5F5F5F5F5F5F5F5F5F5F5F5F5
310
F5F5F5F5F5F5F5F5F5F5F5F5F5F5F5F5F5F5F5F5F5F5F5F5F5F5F5F5F5F5F5F5F5F5F5F5F5F5F5F5F5F5F5F5F5F5F5F5F5F5F5F5F5F5F5F5F5F5F5F5F5F5F5F5F5F5F5F5F5F5F5F5F5F5F5F5F5F5F5F5F5F5F5F5F5F5F5F5F5F5F5F5F5F5F5F5F5F5F5F5F5F5F5F5F5E2F5E2E2E2E2E2F5F5F5F5F5F5F5F5F5F5F5F5F5F5F5
310
F5F5F5F5F5F5F5F5F5F5F5F5F5F5F5F5F5F5F5F5F5F5F5F5F5F5F5F5F5F5F5F5F5F5F5F5F5F5F5F5F5F5F5F5F5F5F5F5F5F5F5F5F5F5F5F5F5F5F5F5F5F5F5F5F5F5F5F5F5F5F5F5F5F5F5F5F5F5F5F5F5F5F5F5F5F5F5F5F5F5F5F5F5F5F5F5F5F5F5F5F5F5F5F5F5F5F5F5F5F5F5F5F5F5F5F5F5F5F5F5F5F5F5F5F5F5F5
310
F5F5F5F5F5F5F5F5F5F5F5F5F5F5F5F5F5F5F5F5F5F5F5F5F5F5F5F5F5F5F5E2F5F5E2E2E2E2F5F5F5F5F5F5F5F5F5F5F5F5F5F5F5F5F5F5F5F5F5F5F5F5F5F5F5F5F5F5F5F5F5F5F5F5F5F5F5F5F5F5F5F5F5F5F5F5F5F5F5F5F5F5F5F5F5F5F5F5F5F5F5F5F5F5F5F5F5F5F5F5F5F5F5F5F5F5F5F5F5F5F5F5F5F5F5F5F5
310
F5F5F5F5F5F5F5F5F5F5F5F5F5F5F5F5F5F5F5F5F5F5F5F5F5F5F5F5F5F5F5F5F5F5F5F5F5F5F5F5F5F5F5F5F5F5F5F5F5F5F5F5F5F5F5F5F5F5F5F5F5F5F5F5F5F5F5F5F5F5F5F5F5F5F5F5F5F5F5F5F5F5F5F5E2F5F5E2E2E2E2F5F5F5F5F5F5F5F5F5F5F5F5F5F5F5F5F5F5F5F5F5F5F5F5F5F5F5F5F5F5F5F5F5F5F5F5
310
F5F5F5F5F5F5F5F5F5F5F5F5F5F5F5F5F5F5F5F5F5F5F5F5F5F5F5F5F5F5F5F5F5F5F5F5F5F5F5F5F5F5F5F5F5F5F5F5F5F5F5F5F5F5F5F5F5F5F5F5F5F5F5F5F5F5F5F5F5F5F5F5F5F5F5F5F5F5F5F5F5F5F5F5F5F5F5F5F5F5F5F5F5F5F5F5F5F5F5F5F5F5F5F5F5F5F5F5F5F5F5F5F5F5F5F5F5F5F5F5F5F5F5F5F5F5F5
310
F5F5F5F5F5F5F5F5F5F5E2F5F5E2E2E2E2F5F5F5F5F5F5F5F5F5F5F5F5F5F5F5F5F5F5F5F5F5F5F5BEE2F5F5F5F5F5F5F5F5F5F5F5F5F5F5F5F5F5F5F5F5F5F5F5F5F5F5F5F5F5F5F5F5F5F5F5F5F5F5F5F5F5F5F5F5F5F5F5F5F5F5F5F5F5F5F5F5F5F5F5F5F5F5F5BEE2F5F5F5F5F5F5F5F5F5F5F5F5F5F5F5F5F5F5F5F5
310
F5F5F5F5F5F5F5F5F5F5F5F5F5F5F5F5F5F5F5F5F5F5F5F5F5F5F5F5F5F5F5F5F5F5F5F5F5F5F5F5F5F5F5F5F5F5F5F5F5F5F5F5F5F5F5F5F5F5F5F5F5F5F5E2F5F5E2E2E2E2F5F5F5F5F5F5F5F5F5F5F5F5F5F5F5F5F5F5F5F5F5F5F5E2E2E2E2E2E2E2E2E2E2E2E2E2E2E2E2E2E2E2E2E2E2E2E2E2E2E2E2E2E2E2E2E2E2
310
E2E2E2E2E2E2E2E2E2E2E2E2E2E2E2E2E2E2E2E2E2E2E2E2E2E2E2E2E2E2E2E2E2E2F5F5F5F5F5F5F5F5F5F5F5F5F5F5F5F5F5F5F5F5F5F5F5F5F5F5F5F5F5F5F5F5F5F5F5F5F5F5F5F5F5F5F5F5F5F5F5F5F5F5F5F5F5F5F5F5F5F5F5F5F5F5F5F5F5F5F5F5F5F5F5F5F5F5F5F5F5F5F5F5F5F5E2F5F5E2E2E2E2F5F5F5F5
310
F5F5F5F5F5F5F5F5F5F5F5F5F5F5F5F5F5F5F5F5BEF5F5F5F5F5F5F5F5F5F5F5F5F5F5F5F5F5F5F5F5F5F5F5F5F5F5F5F5F5F5E2E2E2F5F5F5F5F5F5F5F5F5F5F5F5F5F5F5F5F5F5F5F5F5F5F5F5F5F5F5F5F5F5F5E2BEF5F5F5F5F5F5F5F5F5F5F5F5F5F5F5F5F5F5F5F5F5F5F5F5F5F5F5F5F5F5F5F5F5F5F5F5F5F5F5F5
310
F5F5F5F5F5F5F5F5F5F5F5F5F5F5F5F5F5F5F5F5F5F5F5F5F5F5F5F5F5F5F5F5F5F5F5F5F5F5F5F5F5F5E2F5F5E2E2E2E2F5F5F5F5F5F5F5F5F5F5F5F5F5F5F5F5F5F5F5F5F5F5F5F5F5F5F5F5F5F5F5F5F5F5F5F5F5F5F5F5F5F5F5F5F5F5F5F5F5F5F5F5F5F5F5E2E2E2F5F5F5F5F5F5F5F5F5F5F5F5F5F5F5F5F5F5F5F5
310
F5F5F5F5F5F5F5F5F5F5F5F5F5F5F5F5F5F5F5F5F5F5F5F5F5F5F5F5F5F5F5F5F5F5F5F5F5F5F5F5F5F5F5F5F5F5F5F5F5F5F5F5F5F5F5F5F5F5F5F5F5F5F5F5F5F5F5F5F5F5F5F5F5F5F5F5F5F5F5F5F5F5F5F5F5F5F5F5F5F5F5F5F5F5F5E2F5F5E2E2E2E2F5F5F5F5F5F5F5F5F5F5F5F5F5F5F5F5F5F5F5F5F5F5F5F5F5
310
F5F5F5F5F5F5F5F5F5F5F5F5F5F5F5F5F5F5F5F5F5F5F5F5F5F5F5F5F5F5F5F5F5F5F5F5F5F5F5F5F5F5F5F5F5F5F5F5F5F5F5F5F5F5F5F5F5F5F5F5F5F5F5F5F5F5F5F5F5F5F5F5F5F5F5F5F5F5F5F5F5F5F5F5F5F5F5F5F5F5F5F5F5F5F5F5F5F5F5F5F5F5F5F5F5F5F5F5F5F5F5F5F5F5F5F5F5F5F5F5F5F5F5F5F5F5F5
310
F5F5F5F5F5F5F5F5F5F5F5F5F5F5F5F5F5F5F5F5F5E2F5F5E2E2E2E2F5F5F5F5F5F5F5F5F5F5F5F5F5F5F5F5F5F5F5F5F5F5F5F5F5F5F5F5F5F5F5F5F5F5F5F5F5F5F5F5F5F5F5F5F5F5F5F5F5F5F5F5F5F5F5F5F5F5F5F5F5F5F5F5F5F5F5F5F5F5F5F5F5F5F5F5F5F5F5F5F5F5F5F5F5F5F5F5F5F5F5F5F5F5F5F5F5F5F5
310
F5F5F5F5F5F5F5F5F5F5F5F5F5F5F5F5F5F5F5F5F5F5F5F5F5F5F5F5F5F5F5F5F5F5F5F5F5F5F5F5F5F5F5F5F5F5F5F5F5F5F5F5F5F5F5F5F5F5F5F5F5F5F5F5F5F5F5F5F5F5F5F5F5F5E2F5F5E2E2E2E2F5F5F5F5F5F5F5F5F5F5F5F5F5F5F5F5F5F5F5F5F5F5F5F5F5F5F5F5F5F5F5F5F5F5F5F5F5F5F5F5F5F5F5F5F5F5
310
F5F5F5F5F5F5F5F5F5F5F5F5F5F5F5F5F5F5F5F5F5F5F5F5F5F5F5F5F5F5F5F5F5F5F5F5F5F5F5F5F5F5F5F5F5F5F5F5F5F5F5F5F5F5F5F5F5F5F5F5F5F5F5F5F5F5F5F5F5F5F5F5F5F5F5F5F5F5F5F5F5F5F5F5F5F5F5F5F5F5F5F5F5F5F5F5F5F5F5F5F5F5F5F5F5F5F5F5F5F5F5F5F5F5F5F5F5F5F5F5F5F5F5F5F5F5F5
310
E2F5E2E2E2E2E2F5F5F5F5F5F5F5F5F5F5F5F5F5F5F5F5F5F5F5F5F5F5F5F5F5F5F5F5F5F5F5F5F5F5F5F5F5F5F5F5F5F5F5F5F5F5F5F5F5F5F5F5F5F5F5F5F5F5F5F5F5F5F5F5F5F5F5F5F5F5F5F5F5F5F5F5F5F5F5F5F5F5F5F5F5F5F5F5F5F5F5F5F5F5F5F5F5F5F5F5F5F5F5F5F5F5F5F5F5F5F5F5F5F5F5F5F5F5F5F5
310
F5F5F5F5F5F5F5F5F5F5F5F5F5F5F5F5F5F5F5F5F5F5F5F5F5F5F5F5F5F5F5F5F5F5F5F5F5F5F5F5F5F5F5F5F5F5F5F5F5F5F5F5F5E2F5E2E2E2E2E2F5F5F5F5F5F5F5F5F5F5F5F5F5F5F5F5F5F5F5F5F5F5F5F5F5F5F5F5F5F5F5F5F5F5F5F5F5F5F5F5F5F5F5F5F5F5F5F5F5F5F5F5F5F5F5F5F5F5F5F5F5F5F5F5F5F5F5
310
F5F5F5F5F5F5F5F5F5F5F5F5F5F5F5F5F5F5F5F5F5F5F5F5F5F5F5F5F5F5F5F5F5F5F5F5F5F5F5F5F5F5F5F5F5F5F5F5F5F5F5F5F5F5F5F5F5F5F5F5F5F5F5F5F5F5F5F5F5F5F5F5F5F5F5F5F5F5F5F5F5F5F5F5F5F5F5F5F5F5F5F5F5F5F5F5F5F5F5F5F5F5F5F5F5F5E2F5E2E2E2E2E2F5F5F5F5F5F5F5F5F5F5F5F5F5F5
310
F5F5F5F5F5F5F5F5F5F5F5F5F5F5F5F5F5F5F5F5F5F5F5F5F5F5F5F5F5F5F5F5F5F5F5F5F5F5F5F5F5F5F5F5F5F5F5F5F5F5F5F5F5F5F5F5F5F5F5F5F5F5F5F5F5F5F5F5F5F5F5F5F5F5F5F5F5F5F5F5F5F5F5F5F5F5F5F5F5F5F5F5F5F5F5F5F5F5F5F5F5F5F5F5F5F5F5F5F5F5F5F5F5F5F5F5F5F5F5F5F5F5F5F5F5F5F5
310
F5F5F5F5F5F5F5F5F5F5F5F5F5F5F5F5F5F5F5F5F5F5F5F5F5F5F5F5F5F5F5F5E2F5E2E2E2E2E2F5F5F5F5F5F5F5F5F5F5F5F5F5F5F5F5F5F5F5F5F5F5F5F5F5F5F5F5F5F5F5F5F5F5F5F5F5F5F5F5F5F5F5F5F5F5F5F5F5F5F5F5F5F5F5F5F5F5F5F5F5F5F5F5F5F5F5F5F5F5F5F5F5F5F5F5F5F5F5F5F5F5F5F5F5F5F5F5
310
F5F5F5F5F5F5F5F5F5F5F5F5F5F5F5F5F5F5F5F5F5F5F5F5F5F5F5F5F5F5F5F5F5F5F5F5F5F5F5F5F5F5F5F5F5F5F5F5F5F5F5F5F5F5F5F5F5F5F5F5F5F5F5F5F5F5F5F5F5F5F5F5F5F5F5F5F5F5F5F5F5F5F5F5F5E2F5E2E2E2E2E2E2E2E2E2E2E2E2E2E2E2E2E2E2E2E2E2E2E2E2E2E2E2E2E2E2E2E2E2E2E2E2E2E2E2E2
310
E2E2E2E2E2E2E2E2E2E2E2E2E2E2E2E2E2E2E2E2E2E2E2E2E2E2E2E2E2E2E2E2E2E2E2E2E2E2E2E2E2E2E2E2E2E2E2E2E2E2E2E2E2E2E2E2E2E2E2E2E2E2E2E2E2E2E2E2E2E2E2E2E2E2E2E2E2E2E2E2E2E2E2E2E2E2E2E2E2E2E2E2E2E2E2E2E2E2E2E2E2E2E2E2E2E2E2E2E2E2E2E2E2E2E2E2E2E2E2E2E2E2E2E2E2E2E2
310
E2E2E2E2E2E2E2E2E2E2E2E2F5E2E2E2E2E2F5F5F5F5F5F5F5F5F5F5F5F5F5F5F5F5F5F5F5F5F5F5F5F5F5F5F5F5F5F5F5F5F5F5F5F5F5F5F5F5F5F5F5F5F5F5F5F5F5F5F5F5F5F5F5F5F5F5F5F5F5F5F5F5F5F5F5F5F5F5F5F5F5F5F5F5F5F5F5F5F5F5F5F5F5F5F5F5F5F5F5F5F5F5F5F5F5F5F5F5F5F5F5F5F5F5F5F5F5
310
F5F5F5F5F5F5F5F5F5F5F5F5F5F5F5F5F5F5F5F5F5F5F5F5F5F5F5F5F5F5F5F5F5F5F5F5F5F5F5F5F5F5F5F5F5F5F5F5F5F5F5F5F5F5F5F5F5F5F5F5F5F5F5F5F5F5E2E2E2E2E2E2E2E2E2E2E2E2E2F5F5F5F5F5F5F5F5F5E2E2E2E2E2E2E2E2E2E2E2E2E2E2E2E2F5F5F5F5F5F5F5F5F5E2E2E2E2E2E2E2E2E2E2E2E2E2E2
310
E2E2F5F5F5F5F5F5F5F5F5E2E2E2E2E2E2E2E2E2E2E2E2E2E2E2E2F5F5F5F5F5F5F5F5F5E2E2E2E2E2E2E2E2E2E2E2E2E2E2E2E2F5F5F5F5F5F5F5F5F5E2E2E2E2E2E2E2E2E2E2E2E2E2E2E2E2F5F5F5F5F5F5F5F5F5E2E2E2E2E2E2E2E2E2E2E2E2E2E2E2E2F5F5F5F5F5F5F5F5F5E2E2E2E2E2E2E2E2E2E2EFE2E2E2E2E2
310
E2E2E2E2E2E2E2E2E2E2E2E2E2E2E2E2E2E2E2E2E2E2E2E2E2E2E2E2E2E2E2E2E2E2E2E2E2E2E2E2E2E2E2E2E2E2E2E2E2E2E2E2E2E2E2E2E2E2E2E2E2E2E2E2E2E2E2E2E2E2E2E2E2E2E2E2E2E2E2E2E2E2E2E2E2E2E2E2E2E2E2E2E2E2E2E2E2E2E2E2E2E2E2E2E2E2E2E2E2E2E2E2E2E2E2E2E2E2E2E2E2E2E2E2E2E2E2
310
E2E2E2E2E2E2E2E2E2E2E2E2E2E2E2E2E2E2E2E2E2E2E2E2E2E2E2E2E2E2E2E2E2E2E2E2E2E2E2E2E2E2E2E2E2E2E2EF
  0
XRECORD
  5
222CA
102
{ACAD_REACTORS
330
222C9
102
}
330
222C9
100
AcDbXrecord
280
     1
102
MATERIAL
148
0.0
149
0.0
149
0.0
 93
        0
 94
      127
282
     0
 72
     1
 77
     1
171
     1
175
     1
179
     1
273
     0
  0
XRECORD
  5
222C8
102
{ACAD_REACTORS
330
222C7
102
}
330
222C7
100
AcDbXrecord
280
     1
102
MATERIAL
148
0.0
149
0.0
149
0.0
 93
        0
 94
      127
282
     0
 72
     1
 77
     1
171
     1
175
     1
179
     1
273
     0
  0
XRECORD
  5
222CC
102
{ACAD_REACTORS
330
222CB
102
}
330
222CB
100
AcDbXrecord
280
     1
102
MATERIAL
148
0.0
149
0.0
149
0.0
 93
        0
 94
      127
282
     0
 72
     1
 77
     1
171
     1
175
     1
179
     1
273
     0
  0
CELLSTYLEMAP
  5
222C6
102
{ACAD_REACTORS
330
1783B
102
}
330
1783B
100
AcDbCellStyleMap
 90
        3
300
CELLSTYLE
  1
TABLEFORMAT_BEGIN
 90
        5
170
     1
 91
        0
 92
    32768
 62
   257
 93
        1
300
CONTENTFORMAT
  1
CONTENTFORMAT_BEGIN
 90
        0
 91
        0
 92
      512
 93
        0
300

 40
0.0
140
1.0
 94
        5
 62
     0
340
11
144
0.25
309
CONTENTFORMAT_END
171
     0
 94
        6
 95
        1
302
GRIDFORMAT
  1
GRIDFORMAT_BEGIN
 90
        0
 91
        1
 62
     0
 92
       -2
340
0
 93
        0
 40
0.045
309
GRIDFORMAT_END
 95
        2
302
GRIDFORMAT
  1
GRIDFORMAT_BEGIN
 90
        0
 91
        1
 62
     0
 92
       -2
340
0
 93
        0
 40
0.045
309
GRIDFORMAT_END
 95
        4
302
GRIDFORMAT
  1
GRIDFORMAT_BEGIN
 90
        0
 91
        1
 62
     0
 92
       -2
340
0
 93
        0
 40
0.045
309
GRIDFORMAT_END
 95
        8
302
GRIDFORMAT
  1
GRIDFORMAT_BEGIN
 90
        0
 91
        1
 62
     0
 92
       -2
340
0
 93
        0
 40
0.045
309
GRIDFORMAT_END
 95
       16
302
GRIDFORMAT
  1
GRIDFORMAT_BEGIN
 90
        0
 91
        1
 62
     0
 92
       -2
340
0
 93
        0
 40
0.045
309
GRIDFORMAT_END
 95
       32
302
GRIDFORMAT
  1
GRIDFORMAT_BEGIN
 90
        0
 91
        1
 62
     0
 92
       -2
340
0
 93
        0
 40
0.045
309
GRIDFORMAT_END
309
TABLEFORMAT_END
  1
CELLSTYLE_BEGIN
 90
        1
 91
        1
300
_TITLE
309
CELLSTYLE_END
300
CELLSTYLE
  1
TABLEFORMAT_BEGIN
 90
        5
170
     1
 91
        0
 92
        0
 62
   257
 93
        1
300
CONTENTFORMAT
  1
CONTENTFORMAT_BEGIN
 90
        0
 91
        0
 92
      512
 93
        0
300

 40
0.0
140
1.0
 94
        5
 62
     0
340
11
144
0.18
309
CONTENTFORMAT_END
171
     0
 94
        6
 95
        1
302
GRIDFORMAT
  1
GRIDFORMAT_BEGIN
 90
        0
 91
        1
 62
     0
 92
       -2
340
0
 93
        0
 40
0.045
309
GRIDFORMAT_END
 95
        2
302
GRIDFORMAT
  1
GRIDFORMAT_BEGIN
 90
        0
 91
        1
 62
     0
 92
       -2
340
0
 93
        0
 40
0.045
309
GRIDFORMAT_END
 95
        4
302
GRIDFORMAT
  1
GRIDFORMAT_BEGIN
 90
        0
 91
        1
 62
     0
 92
       -2
340
0
 93
        0
 40
0.045
309
GRIDFORMAT_END
 95
        8
302
GRIDFORMAT
  1
GRIDFORMAT_BEGIN
 90
        0
 91
        1
 62
     0
 92
       -2
340
0
 93
        0
 40
0.045
309
GRIDFORMAT_END
 95
       16
302
GRIDFORMAT
  1
GRIDFORMAT_BEGIN
 90
        0
 91
        1
 62
     0
 92
       -2
340
0
 93
        0
 40
0.045
309
GRIDFORMAT_END
 95
       32
302
GRIDFORMAT
  1
GRIDFORMAT_BEGIN
 90
        0
 91
        1
 62
     0
 92
       -2
340
0
 93
        0
 40
0.045
309
GRIDFORMAT_END
309
TABLEFORMAT_END
  1
CELLSTYLE_BEGIN
 90
        2
 91
        1
300
_HEADER
309
CELLSTYLE_END
300
CELLSTYLE
  1
TABLEFORMAT_BEGIN
 90
        5
170
     1
 91
        0
 92
        0
 62
   257
 93
        1
300
CONTENTFORMAT
  1
CONTENTFORMAT_BEGIN
 90
        0
 91
        0
 92
      512
 93
        0
300

 40
0.0
140
1.0
 94
        2
 62
     0
340
11
144
0.18
309
CONTENTFORMAT_END
171
     0
 94
        6
 95
        1
302
GRIDFORMAT
  1
GRIDFORMAT_BEGIN
 90
        0
 91
        1
 62
     0
 92
       -2
340
0
 93
        0
 40
0.045
309
GRIDFORMAT_END
 95
        2
302
GRIDFORMAT
  1
GRIDFORMAT_BEGIN
 90
        0
 91
        1
 62
     0
 92
       -2
340
0
 93
        0
 40
0.045
309
GRIDFORMAT_END
 95
        4
302
GRIDFORMAT
  1
GRIDFORMAT_BEGIN
 90
        0
 91
        1
 62
     0
 92
       -2
340
0
 93
        0
 40
0.045
309
GRIDFORMAT_END
 95
        8
302
GRIDFORMAT
  1
GRIDFORMAT_BEGIN
 90
        0
 91
        1
 62
     0
 92
       -2
340
0
 93
        0
 40
0.045
309
GRIDFORMAT_END
 95
       16
302
GRIDFORMAT
  1
GRIDFORMAT_BEGIN
 90
        0
 91
        1
 62
     0
 92
       -2
340
0
 93
        0
 40
0.045
309
GRIDFORMAT_END
 95
       32
302
GRIDFORMAT
  1
GRIDFORMAT_BEGIN
 90
        0
 91
        1
 62
     0
 92
       -2
340
0
 93
        0
 40
0.045
309
GRIDFORMAT_END
309
TABLEFORMAT_END
  1
CELLSTYLE_BEGIN
 90
        3
 91
        2
300
_DATA
309
CELLSTYLE_END
  0
XRECORD
  5
222CD
102
{ACAD_REACTORS
330
1783B
102
}
330
1783B
100
AcDbXrecord
280
     1
102
ACAD_ROUNDTRIP_PRE2007_TABLESTYLE
 90
      512
 91
        0
  1

 92
      512
 93
        0
  2

 94
      512
 95
        0
  3

  0
XRECORD
  5
49B
102
{ACAD_REACTORS
330
49A
102
}
330
49A
100
AcDbXrecord
280
     1
102
RTVSPropertyOp0
 70
     1
102
RTVSPropertyOp1
 70
     1
102
RTVSPropertyOp2
 70
     1
102
RTVSPropertyOp3
 70
     1
102
RTVSPropertyOp4
 70
     1
102
RTVSPropertyOp5
 70
     1
102
RTVSPropertyOp6
 70
     1
102
RTVSPropertyOp7
 70
     1
102
RTVSPropertyOp8
 70
     1
102
RTVSPropertyOp9
 70
     1
102
RTVSPropertyOp10
 70
     1
102
RTVSPropertyOp11
 70
     1
102
RTVSPropertyOp12
 70
     1
102
RTVSPropertyOp13
 70
     1
102
RTVSPropertyOp14
 70
     1
102
RTVSPropertyOp15
 70
     1
102
RTVSPropertyOp16
 70
     1
102
RTVSPropertyOp17
 70
     1
102
RTVSPropertyOp18
 70
     1
102
RTVSPropertyOp19
 70
     1
102
RTVSPropertyOp20
 70
     1
102
RTVSPropertyOp21
 70
     1
102
RTVSPropertyOp22
 70
     1
102
RTVSPropertyOp23
 70
     1
102
RTVSPropertyOp24
 70
     1
102
RTVSPropertyOp25
 70
     1
102
RTVSPropertyOp26
 70
     1
102
RTVSPropertyOp27
 70
     1
  0
XRECORD
  5
A4A
102
{ACAD_REACTORS
330
A49
102
}
330
A49
100
AcDbXrecord
280
     1
102
RTVSPropertyOp0
 70
     1
102
RTVSPropertyOp1
 70
     1
102
RTVSPropertyOp2
 70
     1
102
RTVSPropertyOp3
 70
     1
102
RTVSPropertyOp4
 70
     1
102
RTVSPropertyOp5
 70
     1
102
RTVSPropertyOp6
 70
     1
102
RTVSPropertyOp7
 70
     1
102
RTVSPropertyOp8
 70
     1
102
RTVSPropertyOp9
 70
     1
102
RTVSPropertyOp10
 70
     1
102
RTVSPropertyOp11
 70
     1
102
RTVSPropertyOp12
 70
     1
102
RTVSPropertyOp13
 70
     1
102
RTVSPropertyOp14
 70
     1
102
RTVSPropertyOp15
 70
     1
102
RTVSPropertyOp16
 70
     1
102
RTVSPropertyOp17
 70
     1
102
RTVSPropertyOp18
 70
     1
102
RTVSPropertyOp19
 70
     1
102
RTVSPropertyOp20
 70
     1
102
RTVSPropertyOp21
 70
     1
102
RTVSPropertyOp22
 70
     1
102
RTVSPropertyOp23
 70
     1
102
RTVSPropertyOp24
 70
     1
102
RTVSPropertyOp25
 70
     1
102
RTVSPropertyOp26
 70
     1
102
RTVSPropertyOp27
 70
     1
  0
XRECORD
  5
4A1
102
{ACAD_REACTORS
330
4A0
102
}
330
4A0
100
AcDbXrecord
280
     1
102
RTVSPropertyOp0
 70
     1
102
RTVSPropertyOp1
 70
     1
102
RTVSPropertyOp2
 70
     1
102
RTVSPropertyOp3
 70
     1
102
RTVSPropertyOp4
 70
     1
102
RTVSPropertyOp5
 70
     1
102
RTVSPropertyOp6
 70
     1
102
RTVSPropertyOp7
 70
     1
102
RTVSPropertyOp8
 70
     1
102
RTVSPropertyOp9
 70
     1
102
RTVSPropertyOp10
 70
     1
102
RTVSPropertyOp11
 70
     1
102
RTVSPropertyOp12
 70
     1
102
RTVSPropertyOp13
 70
     1
102
RTVSPropertyOp14
 70
     1
102
RTVSPropertyOp15
 70
     1
102
RTVSPropertyOp16
 70
     1
102
RTVSPropertyOp17
 70
     1
102
RTVSPropertyOp18
 70
     1
102
RTVSPropertyOp19
 70
     1
102
RTVSPropertyOp20
 70
     1
102
RTVSPropertyOp21
 70
     1
102
RTVSPropertyOp22
 70
     1
102
RTVSPropertyOp23
 70
     1
102
RTVSPropertyOp24
 70
     1
102
RTVSPropertyOp25
 70
     1
102
RTVSPropertyOp26
 70
     1
102
RTVSPropertyOp27
 70
     1
  0
XRECORD
  5
4A9
102
{ACAD_REACTORS
330
4A8
102
}
330
4A8
100
AcDbXrecord
280
     1
102
RTVSPropertyOp0
 70
     1
102
RTVSPropertyOp1
 70
     1
102
RTVSPropertyOp2
 70
     1
102
RTVSPropertyOp3
 70
     1
102
RTVSPropertyOp4
 70
     1
102
RTVSPropertyOp5
 70
     1
102
RTVSPropertyOp6
 70
     1
102
RTVSPropertyOp7
 70
     1
102
RTVSPropertyOp8
 70
     1
102
RTVSPropertyOp9
 70
     1
102
RTVSPropertyOp10
 70
     1
102
RTVSPropertyOp11
 70
     1
102
RTVSPropertyOp12
 70
     1
102
RTVSPropertyOp13
 70
     1
102
RTVSPropertyOp14
 70
     1
102
RTVSPropertyOp15
 70
     1
102
RTVSPropertyOp16
 70
     1
102
RTVSPropertyOp17
 70
     1
102
RTVSPropertyOp18
 70
     1
102
RTVSPropertyOp19
 70
     1
102
RTVSPropertyOp20
 70
     1
102
RTVSPropertyOp21
 70
     1
102
RTVSPropertyOp22
 70
     1
102
RTVSPropertyOp23
 70
     1
102
RTVSPropertyOp24
 70
     1
102
RTVSPropertyOp25
 70
     1
102
RTVSPropertyOp26
 70
     1
102
RTVSPropertyOp27
 70
     1
  0
XRECORD
  5
4B1
102
{ACAD_REACTORS
330
4B0
102
}
330
4B0
100
AcDbXrecord
280
     1
102
RTVSPropertyOp0
 70
     1
102
RTVSPropertyOp1
 70
     1
102
RTVSPropertyOp2
 70
     1
102
RTVSPropertyOp3
 70
     1
102
RTVSPropertyOp4
 70
     1
102
RTVSPropertyOp5
 70
     1
102
RTVSPropertyOp6
 70
     1
102
RTVSPropertyOp7
 70
     1
102
RTVSPropertyOp8
 70
     1
102
RTVSPropertyOp9
 70
     1
102
RTVSPropertyOp10
 70
     1
102
RTVSPropertyOp11
 70
     1
102
RTVSPropertyOp12
 70
     1
102
RTVSPropertyOp13
 70
     1
102
RTVSPropertyOp14
 70
     1
102
RTVSPropertyOp15
 70
     1
102
RTVSPropertyOp16
 70
     1
102
RTVSPropertyOp17
 70
     1
102
RTVSPropertyOp18
 70
     1
102
RTVSPropertyOp19
 70
     1
102
RTVSPropertyOp20
 70
     1
102
RTVSPropertyOp21
 70
     1
102
RTVSPropertyOp22
 70
     1
102
RTVSPropertyOp23
 70
     1
102
RTVSPropertyOp24
 70
     1
102
RTVSPropertyOp25
 70
     1
102
RTVSPropertyOp26
 70
     1
102
RTVSPropertyOp27
 70
     1
  0
XRECORD
  5
4A7
102
{ACAD_REACTORS
330
4A6
102
}
330
4A6
100
AcDbXrecord
280
     1
102
RTVSPropertyOp0
 70
     1
102
RTVSPropertyOp1
 70
     1
102
RTVSPropertyOp2
 70
     1
102
RTVSPropertyOp3
 70
     1
102
RTVSPropertyOp4
 70
     1
102
RTVSPropertyOp5
 70
     1
102
RTVSPropertyOp6
 70
     1
102
RTVSPropertyOp7
 70
     1
102
RTVSPropertyOp8
 70
     1
102
RTVSPropertyOp9
 70
     1
102
RTVSPropertyOp10
 70
     1
102
RTVSPropertyOp11
 70
     1
102
RTVSPropertyOp12
 70
     1
102
RTVSPropertyOp13
 70
     1
102
RTVSPropertyOp14
 70
     1
102
RTVSPropertyOp15
 70
     1
102
RTVSPropertyOp16
 70
     1
102
RTVSPropertyOp17
 70
     1
102
RTVSPropertyOp18
 70
     1
102
RTVSPropertyOp19
 70
     1
102
RTVSPropertyOp20
 70
     1
102
RTVSPropertyOp21
 70
     1
102
RTVSPropertyOp22
 70
     1
102
RTVSPropertyOp23
 70
     1
102
RTVSPropertyOp24
 70
     1
102
RTVSPropertyOp25
 70
     1
102
RTVSPropertyOp26
 70
     1
102
RTVSPropertyOp27
 70
     1
  0
XRECORD
  5
4AF
102
{ACAD_REACTORS
330
4AE
102
}
330
4AE
100
AcDbXrecord
280
     1
102
RTVSPropertyOp0
 70
     1
102
RTVSPropertyOp1
 70
     1
102
RTVSPropertyOp2
 70
     1
102
RTVSPropertyOp3
 70
     1
102
RTVSPropertyOp4
 70
     1
102
RTVSPropertyOp5
 70
     1
102
RTVSPropertyOp6
 70
     1
102
RTVSPropertyOp7
 70
     1
102
RTVSPropertyOp8
 70
     1
102
RTVSPropertyOp9
 70
     1
102
RTVSPropertyOp10
 70
     1
102
RTVSPropertyOp11
 70
     1
102
RTVSPropertyOp12
 70
     1
102
RTVSPropertyOp13
 70
     1
102
RTVSPropertyOp14
 70
     1
102
RTVSPropertyOp15
 70
     1
102
RTVSPropertyOp16
 70
     1
102
RTVSPropertyOp17
 70
     1
102
RTVSPropertyOp18
 70
     1
102
RTVSPropertyOp19
 70
     1
102
RTVSPropertyOp20
 70
     1
102
RTVSPropertyOp21
 70
     1
102
RTVSPropertyOp22
 70
     1
102
RTVSPropertyOp23
 70
     1
102
RTVSPropertyOp24
 70
     1
102
RTVSPropertyOp25
 70
     1
102
RTVSPropertyOp26
 70
     1
102
RTVSPropertyOp27
 70
     1
  0
XRECORD
  5
493
102
{ACAD_REACTORS
330
492
102
}
330
492
100
AcDbXrecord
280
     1
102
RTVSPropertyOp0
 70
     1
102
RTVSPropertyOp1
 70
     1
102
RTVSPropertyOp2
 70
     1
102
RTVSPropertyOp3
 70
     1
102
RTVSPropertyOp4
 70
     1
102
RTVSPropertyOp5
 70
     1
102
RTVSPropertyOp6
 70
     1
102
RTVSPropertyOp7
 70
     1
102
RTVSPropertyOp8
 70
     1
102
RTVSPropertyOp9
 70
     1
102
RTVSPropertyOp10
 70
     1
102
RTVSPropertyOp11
 70
     1
102
RTVSPropertyOp12
 70
     1
102
RTVSPropertyOp13
 70
     1
102
RTVSPropertyOp14
 70
     1
102
RTVSPropertyOp15
 70
     1
102
RTVSPropertyOp16
 70
     1
102
RTVSPropertyOp17
 70
     1
102
RTVSPropertyOp18
 70
     1
102
RTVSPropertyOp19
 70
     1
102
RTVSPropertyOp20
 70
     1
102
RTVSPropertyOp21
 70
     1
102
RTVSPropertyOp22
 70
     1
102
RTVSPropertyOp23
 70
     1
102
RTVSPropertyOp24
 70
     1
102
RTVSPropertyOp25
 70
     1
102
RTVSPropertyOp26
 70
     1
102
RTVSPropertyOp27
 70
     1
  0
XRECORD
  5
495
102
{ACAD_REACTORS
330
494
102
}
330
494
100
AcDbXrecord
280
     1
102
RTVSPropertyOp0
 70
     1
102
RTVSPropertyOp1
 70
     1
102
RTVSPropertyOp2
 70
     1
102
RTVSPropertyOp3
 70
     1
102
RTVSPropertyOp4
 70
     1
102
RTVSPropertyOp5
 70
     1
102
RTVSPropertyOp6
 70
     1
102
RTVSPropertyOp7
 70
     1
102
RTVSPropertyOp8
 70
     1
102
RTVSPropertyOp9
 70
     1
102
RTVSPropertyOp10
 70
     1
102
RTVSPropertyOp11
 70
     1
102
RTVSPropertyOp12
 70
     1
102
RTVSPropertyOp13
 70
     1
102
RTVSPropertyOp14
 70
     1
102
RTVSPropertyOp15
 70
     1
102
RTVSPropertyOp16
 70
     1
102
RTVSPropertyOp17
 70
     1
102
RTVSPropertyOp18
 70
     1
102
RTVSPropertyOp19
 70
     1
102
RTVSPropertyOp20
 70
     1
102
RTVSPropertyOp21
 70
     1
102
RTVSPropertyOp22
 70
     1
102
RTVSPropertyOp23
 70
     1
102
RTVSPropertyOp24
 70
     1
102
RTVSPropertyOp25
 70
     1
102
RTVSPropertyOp26
 70
     1
102
RTVSPropertyOp27
 70
     1
  0
XRECORD
  5
497
102
{ACAD_REACTORS
330
496
102
}
330
496
100
AcDbXrecord
280
     1
102
RTVSPropertyOp0
 70
     1
102
RTVSPropertyOp1
 70
     1
102
RTVSPropertyOp2
 70
     1
102
RTVSPropertyOp3
 70
     1
102
RTVSPropertyOp4
 70
     1
102
RTVSPropertyOp5
 70
     1
102
RTVSPropertyOp6
 70
     1
102
RTVSPropertyOp7
 70
     1
102
RTVSPropertyOp8
 70
     1
102
RTVSPropertyOp9
 70
     1
102
RTVSPropertyOp10
 70
     1
102
RTVSPropertyOp11
 70
     1
102
RTVSPropertyOp12
 70
     1
102
RTVSPropertyOp13
 70
     1
102
RTVSPropertyOp14
 70
     1
102
RTVSPropertyOp15
 70
     1
102
RTVSPropertyOp16
 70
     1
102
RTVSPropertyOp17
 70
     1
102
RTVSPropertyOp18
 70
     1
102
RTVSPropertyOp19
 70
     1
102
RTVSPropertyOp20
 70
     1
102
RTVSPropertyOp21
 70
     1
102
RTVSPropertyOp22
 70
     1
102
RTVSPropertyOp23
 70
     1
102
RTVSPropertyOp24
 70
     1
102
RTVSPropertyOp25
 70
     1
102
RTVSPropertyOp26
 70
     1
102
RTVSPropertyOp27
 70
     1
  0
XRECORD
  5
499
102
{ACAD_REACTORS
330
498
102
}
330
498
100
AcDbXrecord
280
     1
102
RTVSPropertyOp0
 70
     1
102
RTVSPropertyOp1
 70
     1
102
RTVSPropertyOp2
 70
     1
102
RTVSPropertyOp3
 70
     1
102
RTVSPropertyOp4
 70
     1
102
RTVSPropertyOp5
 70
     1
102
RTVSPropertyOp6
 70
     1
102
RTVSPropertyOp7
 70
     1
102
RTVSPropertyOp8
 70
     1
102
RTVSPropertyOp9
 70
     1
102
RTVSPropertyOp10
 70
     1
102
RTVSPropertyOp11
 70
     1
102
RTVSPropertyOp12
 70
     1
102
RTVSPropertyOp13
 70
     1
102
RTVSPropertyOp14
 70
     1
102
RTVSPropertyOp15
 70
     1
102
RTVSPropertyOp16
 70
     1
102
RTVSPropertyOp17
 70
     1
102
RTVSPropertyOp18
 70
     1
102
RTVSPropertyOp19
 70
     1
102
RTVSPropertyOp20
 70
     1
102
RTVSPropertyOp21
 70
     1
102
RTVSPropertyOp22
 70
     1
102
RTVSPropertyOp23
 70
     1
102
RTVSPropertyOp24
 70
     1
102
RTVSPropertyOp25
 70
     1
102
RTVSPropertyOp26
 70
     1
102
RTVSPropertyOp27
 70
     1
  0
XRECORD
  5
4AD
102
{ACAD_REACTORS
330
4AC
102
}
330
4AC
100
AcDbXrecord
280
     1
102
RTVSPropertyOp0
 70
     1
102
RTVSPropertyOp1
 70
     1
102
RTVSPropertyOp2
 70
     1
102
RTVSPropertyOp3
 70
     1
102
RTVSPropertyOp4
 70
     1
102
RTVSPropertyOp5
 70
     1
102
RTVSPropertyOp6
 70
     1
102
RTVSPropertyOp7
 70
     1
102
RTVSPropertyOp8
 70
     1
102
RTVSPropertyOp9
 70
     1
102
RTVSPropertyOp10
 70
     1
102
RTVSPropertyOp11
 70
     1
102
RTVSPropertyOp12
 70
     1
102
RTVSPropertyOp13
 70
     1
102
RTVSPropertyOp14
 70
     1
102
RTVSPropertyOp15
 70
     1
102
RTVSPropertyOp16
 70
     1
102
RTVSPropertyOp17
 70
     1
102
RTVSPropertyOp18
 70
     1
102
RTVSPropertyOp19
 70
     1
102
RTVSPropertyOp20
 70
     1
102
RTVSPropertyOp21
 70
     1
102
RTVSPropertyOp22
 70
     1
102
RTVSPropertyOp23
 70
     1
102
RTVSPropertyOp24
 70
     1
102
RTVSPropertyOp25
 70
     1
102
RTVSPropertyOp26
 70
     1
102
RTVSPropertyOp27
 70
     1
  0
XRECORD
  5
A4E
102
{ACAD_REACTORS
330
A4D
102
}
330
A4D
100
AcDbXrecord
280
     1
102
RTVSPropertyOp0
 70
     1
102
RTVSPropertyOp1
 70
     1
102
RTVSPropertyOp2
 70
     1
102
RTVSPropertyOp3
 70
     1
102
RTVSPropertyOp4
 70
     1
102
RTVSPropertyOp5
 70
     1
102
RTVSPropertyOp6
 70
     1
102
RTVSPropertyOp7
 70
     1
102
RTVSPropertyOp8
 70
     1
102
RTVSPropertyOp9
 70
     1
102
RTVSPropertyOp10
 70
     1
102
RTVSPropertyOp11
 70
     1
102
RTVSPropertyOp12
 70
     1
102
RTVSPropertyOp13
 70
     1
102
RTVSPropertyOp14
 70
     1
102
RTVSPropertyOp15
 70
     1
102
RTVSPropertyOp16
 70
     1
102
RTVSPropertyOp17
 70
     1
102
RTVSPropertyOp18
 70
     1
102
RTVSPropertyOp19
 70
     1
102
RTVSPropertyOp20
 70
     1
102
RTVSPropertyOp21
 70
     1
102
RTVSPropertyOp22
 70
     1
102
RTVSPropertyOp23
 70
     1
102
RTVSPropertyOp24
 70
     1
102
RTVSPropertyOp25
 70
     1
102
RTVSPropertyOp26
 70
     1
102
RTVSPropertyOp27
 70
     1
  0
XRECORD
  5
4AB
102
{ACAD_REACTORS
330
4AA
102
}
330
4AA
100
AcDbXrecord
280
     1
102
RTVSPropertyOp0
 70
     1
102
RTVSPropertyOp1
 70
     1
102
RTVSPropertyOp2
 70
     1
102
RTVSPropertyOp3
 70
     1
102
RTVSPropertyOp4
 70
     1
102
RTVSPropertyOp5
 70
     1
102
RTVSPropertyOp6
 70
     1
102
RTVSPropertyOp7
 70
     1
102
RTVSPropertyOp8
 70
     1
102
RTVSPropertyOp9
 70
     1
102
RTVSPropertyOp10
 70
     1
102
RTVSPropertyOp11
 70
     1
102
RTVSPropertyOp12
 70
     1
102
RTVSPropertyOp13
 70
     1
102
RTVSPropertyOp14
 70
     1
102
RTVSPropertyOp15
 70
     1
102
RTVSPropertyOp16
 70
     1
102
RTVSPropertyOp17
 70
     1
102
RTVSPropertyOp18
 70
     1
102
RTVSPropertyOp19
 70
     1
102
RTVSPropertyOp20
 70
     1
102
RTVSPropertyOp21
 70
     1
102
RTVSPropertyOp22
 70
     1
102
RTVSPropertyOp23
 70
     1
102
RTVSPropertyOp24
 70
     1
102
RTVSPropertyOp25
 70
     1
102
RTVSPropertyOp26
 70
     1
102
RTVSPropertyOp27
 70
     1
  0
ENDSEC
  0
EOF
