  0
SECTION
  2
HEADER
  9
$ACADVER
  1
AC1018
  9
$ACADMAINTVER
 70
   104
  9
$DWGCODEPAGE
  3
ANSI_1250
  9
$LASTSAVEDBY
  1
bonzo
  9
$INSBASE
 10
0.0
 20
0.0
 30
0.0
  9
$EXTMIN
 10
2.98777233392319
 20
1.657542715714575
 30
0.0
  9
$EXTMAX
 10
11.74396424768625
 20
12.13157876164631
 30
0.0
  9
$LIMMIN
 10
0.0
 20
0.0
  9
$LIMMAX
 10
12.0
 20
9.0
  9
$ORTHOMODE
 70
     0
  9
$REGENMODE
 70
     1
  9
$FILLMODE
 70
     1
  9
$QTEXTMODE
 70
     0
  9
$MIRRTEXT
 70
     1
  9
$LTSCALE
 40
1.0
  9
$ATTMODE
 70
     1
  9
$TEXTSIZE
 40
0.2
  9
$TRACEWID
 40
0.05
  9
$TEXTSTYLE
  7
Standard
  9
$CLAYER
  8
0
  9
$CELTYPE
  6
ByLayer
  9
$CECOLOR
 62
   256
  9
$CELTSCALE
 40
1.0
  9
$DISPSILH
 70
     0
  9
$DIMSCALE
 40
0.02
  9
$DIMASZ
 40
3.0
  9
$DIMEXO
 40
20.0
  9
$DIMDLI
 40
0.0
  9
$DIMRND
 40
0.05
  9
$DIMDLE
 40
0.0
  9
$DIMEXE
 40
5.0
  9
$DIMTP
 40
0.0
  9
$DIMTM
 40
0.0
  9
$DIMTXT
 40
9.0
  9
$DIMCEN
 40
12.0
  9
$DIMTSZ
 40
0.0
  9
$DIMTOL
 70
     0
  9
$DIMLIM
 70
     0
  9
$DIMTIH
 70
     0
  9
$DIMTOH
 70
     0
  9
$DIMSE1
 70
     1
  9
$DIMSE2
 70
     1
  9
$DIMTAD
 70
     1
  9
$DIMZIN
 70
     1
  9
$DIMBLK
  1

  9
$DIMASO
 70
     1
  9
$DIMSHO
 70
     1
  9
$DIMPOST
  1

  9
$DIMAPOST
  1

  9
$DIMALT
 70
     0
  9
$DIMALTD
 70
     4
  9
$DIMALTF
 40
1.0
  9
$DIMLFAC
 40
1.0
  9
$DIMTOFL
 70
     1
  9
$DIMTVP
 40
0.0
  9
$DIMTIX
 70
     1
  9
$DIMSOXD
 70
     0
  9
$DIMSAH
 70
     1
  9
$DIMBLK1
  1
MAR-STRZ
  9
$DIMBLK2
  1
MAR-STRZ
  9
$DIMSTYLE
  2
AR SKALA 1-50
  9
$DIMCLRD
 70
   256
  9
$DIMCLRE
 70
   256
  9
$DIMCLRT
 70
   256
  9
$DIMTFAC
 40
0.01
  9
$DIMGAP
 40
6.0
  9
$DIMJUST
 70
     0
  9
$DIMSD1
 70
     0
  9
$DIMSD2
 70
     0
  9
$DIMTOLJ
 70
     1
  9
$DIMTZIN
 70
     0
  9
$DIMALTZ
 70
     0
  9
$DIMALTTZ
 70
     0
  9
$DIMUPT
 70
     0
  9
$DIMDEC
 70
     2
  9
$DIMTDEC
 70
     2
  9
$DIMALTU
 70
     2
  9
$DIMALTTD
 70
     4
  9
$DIMTXSTY
  7
AR 01 SWIS
  9
$DIMAUNIT
 70
     0
  9
$DIMADEC
 70
     1
  9
$DIMALTRND
 40
0.0
  9
$DIMAZIN
 70
     0
  9
$DIMDSEP
 70
    46
  9
$DIMATFIT
 70
     3
  9
$DIMFRAC
 70
     0
  9
$DIMLDRBLK
  1
MAR-STRZ
  9
$DIMLUNIT
 70
     2
  9
$DIMLWD
 70
    -2
  9
$DIMLWE
 70
    -2
  9
$DIMTMOVE
 70
     2
  9
$LUNITS
 70
     2
  9
$LUPREC
 70
     4
  9
$SKETCHINC
 40
0.1
  9
$FILLETRAD
 40
0.0
  9
$AUNITS
 70
     0
  9
$AUPREC
 70
     0
  9
$MENU
  1
.
  9
$ELEVATION
 40
0.0
  9
$PELEVATION
 40
0.0
  9
$THICKNESS
 40
0.0
  9
$LIMCHECK
 70
     0
  9
$CHAMFERA
 40
0.5
  9
$CHAMFERB
 40
0.5
  9
$CHAMFERC
 40
1.0
  9
$CHAMFERD
 40
0.0
  9
$SKPOLY
 70
     0
  9
$TDCREATE
 40
2455956.499359827
  9
$TDUCREATE
 40
2455956.416026493
  9
$TDUPDATE
 40
2459311.320184629
  9
$TDUUPDATE
 40
2459311.236851296
  9
$TDINDWG
 40
0.1558097106
  9
$TDUSRTIMER
 40
0.1558097106
  9
$USRTIMER
 70
     1
  9
$ANGBASE
 50
0.0
  9
$ANGDIR
 70
     0
  9
$PDMODE
 70
     0
  9
$PDSIZE
 40
0.0
  9
$PLINEWID
 40
0.0
  9
$SPLFRAME
 70
     0
  9
$SPLINETYPE
 70
     6
  9
$SPLINESEGS
 70
     8
  9
$HANDSEED
  5
6BE9
  9
$SURFTAB1
 70
     6
  9
$SURFTAB2
 70
     6
  9
$SURFTYPE
 70
     6
  9
$SURFU
 70
     6
  9
$SURFV
 70
     6
  9
$UCSBASE
  2

  9
$UCSNAME
  2

  9
$UCSORG
 10
0.0
 20
0.0
 30
0.0
  9
$UCSXDIR
 10
1.0
 20
0.0
 30
0.0
  9
$UCSYDIR
 10
0.0
 20
1.0
 30
0.0
  9
$UCSORTHOREF
  2

  9
$UCSORTHOVIEW
 70
     0
  9
$UCSORGTOP
 10
0.0
 20
0.0
 30
0.0
  9
$UCSORGBOTTOM
 10
0.0
 20
0.0
 30
0.0
  9
$UCSORGLEFT
 10
0.0
 20
0.0
 30
0.0
  9
$UCSORGRIGHT
 10
0.0
 20
0.0
 30
0.0
  9
$UCSORGFRONT
 10
0.0
 20
0.0
 30
0.0
  9
$UCSORGBACK
 10
0.0
 20
0.0
 30
0.0
  9
$PUCSBASE
  2

  9
$PUCSNAME
  2

  9
$PUCSORG
 10
0.0
 20
0.0
 30
0.0
  9
$PUCSXDIR
 10
1.0
 20
0.0
 30
0.0
  9
$PUCSYDIR
 10
0.0
 20
1.0
 30
0.0
  9
$PUCSORTHOREF
  2

  9
$PUCSORTHOVIEW
 70
     0
  9
$PUCSORGTOP
 10
0.0
 20
0.0
 30
0.0
  9
$PUCSORGBOTTOM
 10
0.0
 20
0.0
 30
0.0
  9
$PUCSORGLEFT
 10
0.0
 20
0.0
 30
0.0
  9
$PUCSORGRIGHT
 10
0.0
 20
0.0
 30
0.0
  9
$PUCSORGFRONT
 10
0.0
 20
0.0
 30
0.0
  9
$PUCSORGBACK
 10
0.0
 20
0.0
 30
0.0
  9
$USERI1
 70
     0
  9
$USERI2
 70
     0
  9
$USERI3
 70
     0
  9
$USERI4
 70
     0
  9
$USERI5
 70
     0
  9
$USERR1
 40
0.0
  9
$USERR2
 40
0.0
  9
$USERR3
 40
0.0
  9
$USERR4
 40
0.0
  9
$USERR5
 40
0.0
  9
$WORLDVIEW
 70
     1
  9
$SHADEDGE
 70
     3
  9
$SHADEDIF
 70
    70
  9
$TILEMODE
 70
     1
  9
$MAXACTVP
 70
    64
  9
$PINSBASE
 10
0.0
 20
0.0
 30
0.0
  9
$PLIMCHECK
 70
     0
  9
$PEXTMIN
 10
6.547234012028184
 20
3.270993223074697
 30
-0.0015258207003583
  9
$PEXTMAX
 10
208.4009457448023
 20
290.596894130555
 30
0.0000000349246037
  9
$PLIMMIN
 10
3.386544993038569
 20
0.1071894225185588
  9
$PLIMMAX
 10
213.2752016092495
 20
297.1601984557217
  9
$UNITMODE
 70
     0
  9
$VISRETAIN
 70
     1
  9
$PLINEGEN
 70
     0
  9
$PSLTSCALE
 70
     0
  9
$TREEDEPTH
 70
  3020
  9
$CMLSTYLE
  2
Standard
  9
$CMLJUST
 70
     0
  9
$CMLSCALE
 40
1.0
  9
$PROXYGRAPHICS
 70
     1
  9
$MEASUREMENT
 70
     0
  9
$CELWEIGHT
370
    -1
  9
$ENDCAPS
280
     0
  9
$JOINSTYLE
280
     0
  9
$LWDISPLAY
290
     0
  9
$INSUNITS
 70
     1
  9
$HYPERLINKBASE
  1

  9
$STYLESHEET
  1

  9
$XEDIT
290
     1
  9
$CEPSNTYPE
380
     0
  9
$PSTYLEMODE
290
     1
  9
$FINGERPRINTGUID
  2
{1B330B5B-CE04-4EC8-B886-8C8BFC3A02BF}
  9
$VERSIONGUID
  2
{1B8FD994-0C10-46BA-B8BB-7B1644433FFD}
  9
$EXTNAMES
290
     1
  9
$PSVPSCALE
 40
0.0
  9
$OLESTARTUP
290
     0
  9
$SORTENTS
280
   127
  9
$INDEXCTL
280
     0
  9
$HIDETEXT
280
     1
  9
$XCLIPFRAME
290
     0
  9
$HALOGAP
280
     0
  9
$OBSCOLOR
 70
   257
  9
$OBSLTYPE
280
     0
  9
$INTERSECTIONDISPLAY
280
     0
  9
$INTERSECTIONCOLOR
 70
   257
  9
$DIMASSOC
280
     2
  9
$PROJECTNAME
  1

  0
ENDSEC
  0
SECTION
  2
CLASSES
  0
CLASS
  1
ACDBDICTIONARYWDFLT
  2
AcDbDictionaryWithDefault
  3
ObjectDBX Classes
 90
        0
 91
        1
280
     0
281
     0
  0
CLASS
  1
VISUALSTYLE
  2
AcDbVisualStyle
  3
ObjectDBX Classes
 90
     4095
 91
       16
280
     0
281
     0
  0
CLASS
  1
MATERIAL
  2
AcDbMaterial
  3
ObjectDBX Classes
 90
     1153
 91
        3
280
     0
281
     0
  0
CLASS
  1
DICTIONARYVAR
  2
AcDbDictionaryVar
  3
ObjectDBX Classes
 90
        0
 91
        9
280
     0
281
     0
  0
CLASS
  1
TABLESTYLE
  2
AcDbTableStyle
  3
ObjectDBX Classes
 90
     4095
 91
        1
280
     0
281
     0
  0
CLASS
  1
SORTENTSTABLE
  2
AcDbSortentsTable
  3
ObjectDBX Classes
 90
        0
 91
        2
280
     0
281
     0
  0
CLASS
  1
DIMASSOC
  2
AcDbDimAssoc
  3
"AcDbDimAssoc|Product Desc:     AcDim ARX App For Dimension|Company:          Autodesk, Inc.|WEB Address:      www.autodesk.com"
 90
        0
 91
        2
280
     0
281
     0
  0
CLASS
  1
SCALE
  2
AcDbScale
  3
ObjectDBX Classes
 90
     1153
 91
       33
280
     0
281
     0
  0
CLASS
  1
MLEADERSTYLE
  2
AcDbMLeaderStyle
  3
ACDB_MLEADERSTYLE_CLASS
 90
     4095
 91
        1
280
     0
281
     0
  0
CLASS
  1
CELLSTYLEMAP
  2
AcDbCellStyleMap
  3
ObjectDBX Classes
 90
     1152
 91
        6
280
     0
281
     0
  0
ENDSEC
  0
SECTION
  2
TABLES
  0
TABLE
  2
VPORT
  5
8
102
{ACAD_XDICTIONARY
360
84C
102
}
330
0
100
AcDbSymbolTable
 70
     1
  0
VPORT
  5
29
330
8
100
AcDbSymbolTableRecord
100
AcDbViewportTableRecord
  2
*Active
 70
     0
 10
0.0
 20
0.0
 11
1.0
 21
1.0
 12
5.756629354137585
 22
7.408846844199166
 13
0.0
 23
0.0
 14
0.5
 24
0.5
 15
0.5
 25
0.5
 16
0.0
 26
0.0
 36
1.0
 17
0.0
 27
0.0
 37
-1000.0
 40
8.37673168238801
 41
2.060556464811783
 42
50.0
 43
4.148984367261674
 44
9.217858496371269
 50
0.0
 51
0.0
 71
     0
 72
   100
 73
     1
 74
     3
 75
     0
 76
     0
 77
     0
 78
     0
281
     0
 65
     1
110
0.0
120
0.0
130
0.0
111
1.0
121
0.0
131
0.0
112
0.0
122
1.0
132
0.0
 79
     0
146
0.0
  0
ENDTAB
  0
TABLE
  2
LTYPE
  5
5
330
0
100
AcDbSymbolTable
 70
     2
  0
LTYPE
  5
14
330
5
100
AcDbSymbolTableRecord
100
AcDbLinetypeTableRecord
  2
ByBlock
 70
     0
  3

 72
    65
 73
     0
 40
0.0
  0
LTYPE
  5
15
330
5
100
AcDbSymbolTableRecord
100
AcDbLinetypeTableRecord
  2
ByLayer
 70
     0
  3

 72
    65
 73
     0
 40
0.0
  0
LTYPE
  5
16
330
5
100
AcDbSymbolTableRecord
100
AcDbLinetypeTableRecord
  2
Continuous
 70
     0
  3
Solid line
 72
    65
 73
     0
 40
0.0
  0
LTYPE
  5
886
330
5
100
AcDbSymbolTableRecord
100
AcDbLinetypeTableRecord
  2
DASHED
 70
     0
  3
Dashed __ __ __ __ __ __ __ __ __ __ __ __ __ _
 72
    65
 73
     2
 40
0.75
 49
0.5
 74
     0
 49
-0.25
 74
     0
  0
ENDTAB
  0
TABLE
  2
LAYER
  5
2
102
{ACAD_XDICTIONARY
360
7D1
102
}
330
0
100
AcDbSymbolTable
 70
     4
  0
LAYER
  5
10
102
{ACAD_XDICTIONARY
360
6B65
102
}
330
2
100
AcDbSymbolTableRecord
100
AcDbLayerTableRecord
  2
0
 70
     0
 62
     7
  6
Continuous
370
    25
390
F
  0
LAYER
  5
87B
102
{ACAD_XDICTIONARY
360
6B67
102
}
330
2
100
AcDbSymbolTableRecord
100
AcDbLayerTableRecord
  2
STREFA BEZPIECZEŃSTWA
 70
     0
 62
     7
  6
DASHED
370
    25
390
F
1001
AcAecLayerStandard
1000

1000

  0
LAYER
  5
87D
102
{ACAD_XDICTIONARY
360
6B69
102
}
330
2
100
AcDbSymbolTableRecord
100
AcDbLayerTableRecord
  2
WYMIAR
 70
     0
 62
     7
  6
Continuous
370
    25
390
F
1001
AcAecLayerStandard
1000

1000

  0
LAYER
  5
8CC
330
2
100
AcDbSymbolTableRecord
100
AcDbLayerTableRecord
  2
Defpoints
 70
     0
 62
     7
  6
Continuous
290
     0
370
     5
390
F
1001
RAK
1000
{ACET-LAYISO
1070
     0
1070
     7
1000
Continuous
1071
        5
1071
        0
1005
F
1000
ACET-LAYISO}
  0
ENDTAB
  0
TABLE
  2
STYLE
  5
3
330
0
100
AcDbSymbolTable
 70
     2
  0
STYLE
  5
11
330
3
100
AcDbSymbolTableRecord
100
AcDbTextStyleTableRecord
  2
Standard
 70
     0
 40
0.0
 41
1.0
 50
0.0
 71
     0
 42
0.2
  3
txt
  4

  0
STYLE
  5
8CE
330
3
100
AcDbSymbolTableRecord
100
AcDbTextStyleTableRecord
  2
AR 01 SWIS
 70
     0
 40
0.0
 41
1.0
 50
0.0
 71
     0
 42
55.0
  3
swissc.ttf
  4

1001
ACAD
1000
Swis721 Cn BT
1071
       34
  0
ENDTAB
  0
TABLE
  2
VIEW
  5
6
330
0
100
AcDbSymbolTable
 70
     0
  0
ENDTAB
  0
TABLE
  2
UCS
  5
7
330
0
100
AcDbSymbolTable
 70
     0
  0
ENDTAB
  0
TABLE
  2
APPID
  5
9
330
0
100
AcDbSymbolTable
 70
     9
  0
APPID
  5
12
330
9
100
AcDbSymbolTableRecord
100
AcDbRegAppTableRecord
  2
ACAD
 70
     0
  0
APPID
  5
7CB
330
9
100
AcDbSymbolTableRecord
100
AcDbRegAppTableRecord
  2
ACAD_PSEXT
 70
     0
  0
APPID
  5
875
330
9
100
AcDbSymbolTableRecord
100
AcDbRegAppTableRecord
  2
ACAD_EXEMPT_FROM_CAD_STANDARDS
 70
     0
  0
APPID
  5
87C
330
9
100
AcDbSymbolTableRecord
100
AcDbRegAppTableRecord
  2
AcAecLayerStandard
 70
     0
  0
APPID
  5
8D4
330
9
100
AcDbSymbolTableRecord
100
AcDbRegAppTableRecord
  2
RAK
 70
     0
  0
APPID
  5
8D5
330
9
100
AcDbSymbolTableRecord
100
AcDbRegAppTableRecord
  2
ACAD_DSTYLE_DIMJOGGED_JOGANGLE_SYMBOL
 70
     0
  0
APPID
  5
8D6
330
9
100
AcDbSymbolTableRecord
100
AcDbRegAppTableRecord
  2
ACAD_DSTYLE_DIMJAG
 70
     0
  0
APPID
  5
8D7
330
9
100
AcDbSymbolTableRecord
100
AcDbRegAppTableRecord
  2
ACAD_DSTYLE_DIMTALN
 70
     0
  0
APPID
  5
6B5F
330
9
100
AcDbSymbolTableRecord
100
AcDbRegAppTableRecord
  2
ACAD_MLEADERVER
 70
     0
  0
ENDTAB
  0
TABLE
  2
DIMSTYLE
  5
A
330
0
100
AcDbSymbolTable
 70
     2
100
AcDbDimStyleTable
 71
     1
340
8CF
  0
DIMSTYLE
105
8CF
102
{ACAD_REACTORS
330
6A55
330
6A69
102
}
330
A
100
AcDbSymbolTableRecord
100
AcDbDimStyleTableRecord
  2
AR SKALA 1-50
 70
     0
 40
0.02
 41
3.0
 42
20.0
 43
0.0
 44
5.0
 45
0.05
 73
     0
 74
     0
 75
     1
 76
     1
 77
     1
 78
     1
140
9.0
141
12.0
143
1.0
146
0.01
147
6.0
171
     4
172
     1
173
     1
174
     1
176
   256
177
   256
178
   256
179
     1
271
     2
272
     2
274
     4
279
     2
340
8CE
341
8BC
343
8BC
344
8BC
  0
DIMSTYLE
105
A46
330
A
100
AcDbSymbolTableRecord
100
AcDbDimStyleTableRecord
  2
Standard
 70
     0
340
11
  0
ENDTAB
  0
TABLE
  2
BLOCK_RECORD
  5
1
330
0
100
AcDbSymbolTable
 70
     3
  0
BLOCK_RECORD
  5
1F
102
{ACAD_XDICTIONARY
360
5F8
102
}
330
1
100
AcDbSymbolTableRecord
100
AcDbBlockTableRecord
  2
*Model_Space
340
22
  0
BLOCK_RECORD
  5
1B
330
1
100
AcDbSymbolTableRecord
100
AcDbBlockTableRecord
  2
*Paper_Space
340
1E
  0
BLOCK_RECORD
  5
8BC
330
1
100
AcDbSymbolTableRecord
100
AcDbBlockTableRecord
  2
MAR-STRZ
340
0
310
2800000020000000200000000100080000000000000400000000000000000000000000000000000000000000000080000080000000808000800000008000800080800000C0C0C000C0DCC000F0CAA6000020400000206000002080000020A0000020C0000020E00000400000004020000040400000406000004080000040A0
310
000040C0000040E00000600000006020000060400000606000006080000060A0000060C0000060E00000800000008020000080400000806000008080000080A0000080C0000080E00000A0000000A0200000A0400000A0600000A0800000A0A00000A0C00000A0E00000C0000000C0200000C0400000C0600000C0800000C0
310
A00000C0C00000C0E00000E0000000E0200000E0400000E0600000E0800000E0A00000E0C00000E0E00040000000400020004000400040006000400080004000A0004000C0004000E00040200000402020004020400040206000402080004020A0004020C0004020E000404000004040200040404000404060004040800040
310
40A0004040C0004040E00040600000406020004060400040606000406080004060A0004060C0004060E00040800000408020004080400040806000408080004080A0004080C0004080E00040A0000040A0200040A0400040A0600040A0800040A0A00040A0C00040A0E00040C0000040C0200040C0400040C0600040C08000
310
40C0A00040C0C00040C0E00040E0000040E0200040E0400040E0600040E0800040E0A00040E0C00040E0E00080000000800020008000400080006000800080008000A0008000C0008000E00080200000802020008020400080206000802080008020A0008020C0008020E00080400000804020008040400080406000804080
310
008040A0008040C0008040E00080600000806020008060400080606000806080008060A0008060C0008060E00080800000808020008080400080806000808080008080A0008080C0008080E00080A0000080A0200080A0400080A0600080A0800080A0A00080A0C00080A0E00080C0000080C0200080C0400080C0600080C0
310
800080C0A00080C0C00080C0E00080E0000080E0200080E0400080E0600080E0800080E0A00080E0C00080E0E000C0000000C0002000C0004000C0006000C0008000C000A000C000C000C000E000C0200000C0202000C0204000C0206000C0208000C020A000C020C000C020E000C0400000C0402000C0404000C0406000C0
310
408000C040A000C040C000C040E000C0600000C0602000C0604000C0606000C0608000C060A000C060C000C060E000C0800000C0802000C0804000C0806000C0808000C080A000C080C000C080E000C0A00000C0A02000C0A04000C0A06000C0A08000C0A0A000C0A0C000C0A0E000C0C00000C0C02000C0C04000C0C06000
310
C0C08000C0C0A000F0FBFF00A4A0A000808080000000FF0000FF000000FFFF00FF000000FF00FF00FFFF0000FFFFFF00000000000000000000000000000000000000000000000000000000000000000000000000000000000000000000000000FF000000000000000000000000000000000000000000000000000000000000
310
00FF00000000000000000000000000000000000000000000000000000000000000FF00000000000000000000000000000000000000000000000000000000000000FF00000000000000000000000000000000000000000000000000000000000000FF000000000000000000000000000000000000000000F900000000000000
310
0000FF00000000000000000000000000000000000000000000F90000000000000000FF0000000000000000000000000000000000000000000000F900000000000000FF000000000000000000000000000000000000000000000000F9000000000000FF00000000000000000000000000000000000000000000000000F90000
310
000000FF0000000000000000000000000000000000000000000000000000F900000000FF000000000000000000000000000000000000000000000000000000F9000000FF00000000000000000000000000000000000000000000000000000000F90000FF000000000000000000000000000000000000000000000000000000
310
0000F900FF000000000000000000000000000000000000000000000000000000000000F9FF00000000000000000000000000000000000000000000FFFFFFFFFFFFFFFFFFFFFFFFFFFFFFFFFFFF0000000000000000000000000000000000000000000000FFF900000000000000000000000000000000000000000000000000
310
0000000000FF00F90000000000000000000000000000000000000000000000000000000000FF0000F900000000000000000000000000000000000000000000000000000000FF000000F9000000000000000000000000000000000000000000000000000000FF00000000F90000000000000000000000000000000000000000
310
000000000000FF0000000000F900000000000000000000000000000000000000000000000000FF000000000000F9000000000000000000000000000000000000000000000000FF00000000000000F90000000000000000000000000000000000000000000000FF0000000000000000F9000000000000000000000000000000
310
00000000000000FF00000000000000000000000000000000000000000000000000000000000000FF00000000000000000000000000000000000000000000000000000000000000FF00000000000000000000000000000000000000000000000000000000000000FF0000000000000000000000000000000000000000000000
310
0000000000000000FF0000000000000000000000000000000000000000000000000000000000000000000000000000000000000000000000
102
{BLKREFS
331
6AE1
331
6AE2
331
6B93
331
6B94
331
6BA2
331
6BA3
102
}
  0
BLOCK_RECORD
  5
6A56
330
1
100
AcDbSymbolTableRecord
100
AcDbBlockTableRecord
  2
*D1
340
0
  0
BLOCK_RECORD
  5
6A6A
330
1
100
AcDbSymbolTableRecord
100
AcDbBlockTableRecord
  2
*D2
340
0
  0
ENDTAB
  0
ENDSEC
  0
SECTION
  2
BLOCKS
  0
BLOCK
  5
20
330
1F
100
AcDbEntity
  8
0
100
AcDbBlockBegin
  2
*Model_Space
 70
     0
 10
0.0
 20
0.0
 30
0.0
  3
*Model_Space
  1

  0
ENDBLK
  5
21
330
1F
100
AcDbEntity
  8
0
100
AcDbBlockEnd
  0
BLOCK
  5
1C
330
1B
100
AcDbEntity
 67
     1
  8
0
100
AcDbBlockBegin
  2
*Paper_Space
 70
     0
 10
0.0
 20
0.0
 30
0.0
  3
*Paper_Space
  1

  0
ENDBLK
  5
1D
330
1B
100
AcDbEntity
 67
     1
  8
0
100
AcDbBlockEnd
  0
BLOCK
  5
8BD
330
8BC
100
AcDbEntity
  8
0
100
AcDbBlockBegin
  2
MAR-STRZ
 70
     0
 10
0.0
 20
0.0
 30
0.0
  3
MAR-STRZ
  1

  0
LINE
  5
8BE
330
8BC
100
AcDbEntity
  8
0
100
AcDbLine
 10
0.0
 20
2.299999999999272
 30
0.0
 11
0.0
 21
-2.299999999999272
 31
0.0
  0
LINE
  5
8BF
330
8BC
100
AcDbEntity
  8
0
 62
    10
100
AcDbLine
 10
1.5
 20
1.5
 30
0.0
 11
-1.5
 21
-1.5
 31
0.0
  0
LINE
  5
8C0
330
8BC
100
AcDbEntity
  8
0
100
AcDbLine
 10
1.399999999999636
 20
0.0
 30
0.0
 11
-1.399999999999636
 21
0.0
 31
0.0
  0
ENDBLK
  5
8C1
330
8BC
100
AcDbEntity
  8
0
100
AcDbBlockEnd
  0
BLOCK
  5
6A5E
330
6A56
100
AcDbEntity
  8
0
100
AcDbBlockBegin
  2
*D1
 70
     1
 10
0.0
 20
0.0
 30
0.0
  3
*D1
  1

  0
LINE
  5
6BA1
330
6A56
100
AcDbEntity
  8
WYMIAR
370
    -2
100
AcDbLine
 10
3.342473632624491
 20
10.98632531537885
 30
0.0
 11
3.342473632624489
 21
2.231289042329971
 31
0.0
  0
INSERT
  5
6BA2
330
6A56
100
AcDbEntity
  8
WYMIAR
370
    -2
100
AcDbBlockReference
  2
MAR-STRZ
 10
3.342473632624491
 20
11.04632531537885
 30
0.0
 41
0.06
 42
0.06
 43
0.06
 50
90.0
  0
INSERT
  5
6BA3
330
6A56
100
AcDbEntity
  8
WYMIAR
370
    -2
100
AcDbBlockReference
  2
MAR-STRZ
 10
3.342473632624489
 20
2.171289042329971
 30
0.0
 41
0.06
 42
0.06
 43
0.06
 50
270.0
  0
MTEXT
  5
6BA4
330
6A56
100
AcDbEntity
  8
WYMIAR
100
AcDbMText
 10
3.130077528728385
 20
6.608807178854411
 30
0.0
 40
0.18
 41
0.0
 71
     5
 72
     1
  1
\A1;8.90
  7
AR 01 SWIS
 11
0.0000000000000001
 21
1.0
 31
0.0
 73
     1
 44
1.0
  0
POINT
  5
6BA5
330
6A56
100
AcDbEntity
  8
Defpoints
 62
     0
100
AcDbPoint
 10
9.645608908626901
 20
11.04632531537885
 30
0.0
  0
POINT
  5
6BA6
330
6A56
100
AcDbEntity
  8
Defpoints
 62
     0
100
AcDbPoint
 10
9.299066169543056
 20
2.171289042329969
 30
0.0
  0
POINT
  5
6BA7
330
6A56
100
AcDbEntity
  8
Defpoints
 62
     0
100
AcDbPoint
 10
3.342473632624489
 20
2.171289042329971
 30
0.0
  0
ENDBLK
  5
6A5F
330
6A56
100
AcDbEntity
  8
0
100
AcDbBlockEnd
  0
BLOCK
  5
6A72
330
6A6A
100
AcDbEntity
  8
0
100
AcDbBlockBegin
  2
*D2
 70
     1
 10
0.0
 20
0.0
 30
0.0
  3
*D2
  1

  0
LINE
  5
6AE0
330
6A6A
100
AcDbEntity
  8
WYMIAR
370
    -2
100
AcDbLine
 10
3.924585487959154
 20
11.77687746294501
 30
0.0
 11
11.59396424768625
 21
11.77687746294501
 31
0.0
  0
INSERT
  5
6AE1
330
6A6A
100
AcDbEntity
  8
WYMIAR
370
    -2
100
AcDbBlockReference
  2
MAR-STRZ
 10
3.864585487959154
 20
11.77687746294501
 30
0.0
 41
0.06
 42
0.06
 43
0.06
 50
180.0
  0
INSERT
  5
6AE2
330
6A6A
100
AcDbEntity
  8
WYMIAR
370
    -2
100
AcDbBlockReference
  2
MAR-STRZ
 10
11.65396424768625
 20
11.77687746294501
 30
0.0
 41
0.06
 42
0.06
 43
0.06
  0
MTEXT
  5
6AE3
330
6A6A
100
AcDbEntity
  8
WYMIAR
100
AcDbMText
 10
7.759274867822703
 20
11.98927356684112
 30
0.0
 40
0.18
 41
0.0
 71
     5
 72
     1
  1
\A1;7.80
  7
AR 01 SWIS
 73
     1
 44
1.0
  0
POINT
  5
6AE4
330
6A6A
100
AcDbEntity
  8
Defpoints
 62
     0
100
AcDbPoint
 10
3.864585487959153
 20
7.399179471251241
 30
0.0
  0
POINT
  5
6AE5
330
6A6A
100
AcDbEntity
  8
Defpoints
 62
     0
100
AcDbPoint
 10
11.65396424768625
 20
7.567751828475919
 30
0.0
  0
POINT
  5
6AE6
330
6A6A
100
AcDbEntity
  8
Defpoints
 62
     0
100
AcDbPoint
 10
11.65396424768625
 20
11.77687746294501
 30
0.0
  0
ENDBLK
  5
6A73
330
6A6A
100
AcDbEntity
  8
0
100
AcDbBlockEnd
  0
ENDSEC
  0
SECTION
  2
ENTITIES
  0
LINE
  5
6438
330
1F
100
AcDbEntity
  8
0
100
AcDbLine
 10
7.488079313375571
 20
7.473753798932876
 30
0.0
 11
6.776070592672311
 21
6.23645969820969
 31
0.0
  0
LINE
  5
6439
330
1F
100
AcDbEntity
  8
0
100
AcDbLine
 10
6.060693355148291
 20
7.49529507673191
 30
0.0
 11
7.475633520084784
 21
7.495275545134214
 31
0.0
  0
LINE
  5
643A
330
1F
100
AcDbEntity
  8
0
100
AcDbLine
 10
7.500463941190915
 20
7.49527520237923
 30
0.0
 11
7.500463941190915
 21
7.49527520237923
 31
0.0
  0
LINE
  5
643B
330
1F
100
AcDbEntity
  8
0
100
AcDbLine
 10
6.776070592672311
 20
8.733078876270045
 30
0.0
 11
7.48376934027449
 21
7.523802021945911
 31
0.0
  0
LINE
  5
643C
330
1F
100
AcDbEntity
  8
0
100
AcDbLine
 10
8.226472630129865
 20
8.733078876270045
 30
0.0
 11
7.513026315505321
 21
7.516693338712955
 31
0.0
  0
LINE
  5
643D
330
1F
100
AcDbEntity
  8
0
100
AcDbLine
 10
7.500463941190915
 20
7.49527520237923
 30
0.0
 11
7.500463941190915
 21
7.49527520237923
 31
0.0
  0
LINE
  5
643E
330
1F
100
AcDbEntity
  8
0
100
AcDbLine
 10
7.512886264101904
 20
7.473775534802255
 30
0.0
 11
8.226472630129865
 21
6.23645969820969
 31
0.0
  0
LINE
  5
643F
330
1F
100
AcDbEntity
  8
0
100
AcDbLine
 10
8.945872630129862
 20
7.49529507673191
 30
0.0
 11
7.525294354345661
 21
7.49529507673191
 31
0.0
  0
LINE
  5
6440
330
1F
100
AcDbEntity
  8
0
100
AcDbLine
 10
7.500463941190915
 20
7.49527520237923
 30
0.0
 11
7.500475486457244
 21
7.49529507673191
 31
0.0
  0
LINE
  5
6441
330
1F
100
AcDbEntity
  8
0
100
AcDbLine
 10
7.589870661366468
 20
7.461308091181026
 30
0.0
 11
7.594356706706967
 21
7.46364305400753
 31
0.0
  0
LINE
  5
6442
330
1F
100
AcDbEntity
  8
0
100
AcDbLine
 10
7.594356706706967
 20
7.46364305400753
 30
0.0
 11
7.59916296581045
 21
7.464725382829088
 31
0.0
  0
LINE
  5
6443
330
1F
100
AcDbEntity
  8
0
100
AcDbLine
 10
7.59916296581045
 20
7.464725382829088
 30
0.0
 11
7.603961900061726
 21
7.464481318725145
 31
0.0
  0
LINE
  5
6444
330
1F
100
AcDbEntity
  8
0
100
AcDbLine
 10
7.603961900061726
 20
7.464481318725145
 30
0.0
 11
7.608426470022191
 21
7.462927494261043
 31
0.0
  0
LINE
  5
6445
330
1F
100
AcDbEntity
  8
0
100
AcDbLine
 10
7.589684493738744
 20
7.427596636322828
 30
0.0
 11
7.585858541133845
 21
7.430354330577672
 31
0.0
  0
LINE
  5
6446
330
1F
100
AcDbEntity
  8
0
100
AcDbLine
 10
7.585858541133845
 20
7.430354330577672
 30
0.0
 11
7.582931938231858
 21
7.434127962317096
 31
0.0
  0
LINE
  5
6447
330
1F
100
AcDbEntity
  8
0
100
AcDbLine
 10
7.582931938231858
 20
7.434127962317096
 30
0.0
 11
7.581104128184104
 21
7.438660364774279
 31
0.0
  0
LINE
  5
6448
330
1F
100
AcDbEntity
  8
0
100
AcDbLine
 10
7.581104128184104
 20
7.438660364774279
 30
0.0
 11
7.58049967322475
 21
7.443642662211916
 31
0.0
  0
LINE
  5
6449
330
1F
100
AcDbEntity
  8
0
100
AcDbLine
 10
7.58049967322475
 20
7.443642662211916
 30
0.0
 11
7.581159765960347
 21
7.448735319293267
 31
0.0
  0
LINE
  5
644A
330
1F
100
AcDbEntity
  8
0
100
AcDbLine
 10
7.581159765960347
 20
7.448735319293267
 30
0.0
 11
7.583039422161842
 21
7.453591279854251
 31
0.0
  0
LINE
  5
644B
330
1F
100
AcDbEntity
  8
0
100
AcDbLine
 10
7.583039422161842
 20
7.453591279854251
 30
0.0
 11
7.586010546365365
 21
7.457879618207488
 31
0.0
  0
LINE
  5
644C
330
1F
100
AcDbEntity
  8
0
100
AcDbLine
 10
7.586010546365365
 20
7.457879618207488
 30
0.0
 11
7.589870661366468
 21
7.461308091181026
 31
0.0
  0
LINE
  5
644D
330
1F
100
AcDbEntity
  8
0
100
AcDbLine
 10
8.211655775726168
 20
6.372802994829818
 30
0.0
 11
8.207795660725054
 21
6.369374521856283
 31
0.0
  0
LINE
  5
644E
330
1F
100
AcDbEntity
  8
0
100
AcDbLine
 10
8.207795660725054
 20
6.369374521856283
 30
0.0
 11
8.204824536521535
 21
6.365086183503043
 31
0.0
  0
LINE
  5
644F
330
1F
100
AcDbEntity
  8
0
100
AcDbLine
 10
8.204824536521535
 20
6.365086183503043
 30
0.0
 11
8.202944880320039
 21
6.360230222942061
 31
0.0
  0
LINE
  5
6450
330
1F
100
AcDbEntity
  8
0
100
AcDbLine
 10
8.202944880320039
 20
6.360230222942061
 30
0.0
 11
8.202284787584435
 21
6.355137565860712
 31
0.0
  0
LINE
  5
6451
330
1F
100
AcDbEntity
  8
0
100
AcDbLine
 10
8.202284787584435
 20
6.355137565860712
 30
0.0
 11
8.202889242543797
 21
6.350155268423073
 31
0.0
  0
LINE
  5
6452
330
1F
100
AcDbEntity
  8
0
100
AcDbLine
 10
8.202889242543797
 20
6.350155268423073
 30
0.0
 11
8.204717052591551
 21
6.345622865965888
 31
0.0
  0
LINE
  5
6453
330
1F
100
AcDbEntity
  8
0
100
AcDbLine
 10
8.204717052591551
 20
6.345622865965888
 30
0.0
 11
8.207643655493541
 21
6.341849234226466
 31
0.0
  0
LINE
  5
6454
330
1F
100
AcDbEntity
  8
0
100
AcDbLine
 10
8.207643655493541
 20
6.341849234226466
 30
0.0
 11
8.21146960809844
 21
6.339091539971619
 31
0.0
  0
LINE
  5
6455
330
1F
100
AcDbEntity
  8
0
100
AcDbLine
 10
8.230211584381887
 20
6.374422397909837
 30
0.0
 11
8.225747014421418
 21
6.375976222373938
 31
0.0
  0
LINE
  5
6456
330
1F
100
AcDbEntity
  8
0
100
AcDbLine
 10
8.225747014421418
 20
6.375976222373938
 30
0.0
 11
8.220948080170138
 21
6.376220286477884
 31
0.0
  0
LINE
  5
6457
330
1F
100
AcDbEntity
  8
0
100
AcDbLine
 10
8.220948080170138
 20
6.376220286477884
 30
0.0
 11
8.21614182106666
 21
6.375137957656324
 31
0.0
  0
LINE
  5
6458
330
1F
100
AcDbEntity
  8
0
100
AcDbLine
 10
8.21614182106666
 20
6.375137957656324
 30
0.0
 11
8.211655775726168
 21
6.372802994829818
 31
0.0
  0
LINE
  5
6459
330
1F
100
AcDbEntity
  8
0
100
AcDbLine
 10
8.784410602953148
 20
7.429136065272203
 30
0.0
 11
8.785745042482499
 21
7.434142545142156
 31
0.0
  0
LINE
  5
645A
330
1F
100
AcDbEntity
  8
0
100
AcDbLine
 10
8.785745042482499
 20
7.434142545142156
 30
0.0
 11
8.788239252195413
 21
7.43872885303408
 31
0.0
  0
LINE
  5
645B
330
1F
100
AcDbEntity
  8
0
100
AcDbLine
 10
8.788239252195413
 20
7.43872885303408
 30
0.0
 11
8.791723255821821
 21
7.442582439644379
 31
0.0
  0
LINE
  5
645C
330
1F
100
AcDbEntity
  8
0
100
AcDbLine
 10
8.791723255821821
 20
7.442582439644379
 30
0.0
 11
8.795959624272178
 21
7.445440689413903
 31
0.0
  0
LINE
  5
645D
330
1F
100
AcDbEntity
  8
0
100
AcDbLine
 10
8.795959624272178
 20
7.445440689413903
 30
0.0
 11
8.800659656037506
 21
7.447108817344349
 31
0.0
  0
LINE
  5
645E
330
1F
100
AcDbEntity
  8
0
100
AcDbLine
 10
8.800659656037506
 20
7.447108817344349
 30
0.0
 11
8.805503051720187
 21
7.447473143273965
 31
0.0
  0
LINE
  5
645F
330
1F
100
AcDbEntity
  8
0
100
AcDbLine
 10
8.805503051720187
 20
7.447473143273965
 30
0.0
 11
8.810159741908524
 21
7.446508838992727
 31
0.0
  0
LINE
  5
6460
330
1F
100
AcDbEntity
  8
0
100
AcDbLine
 10
8.810159741908524
 20
7.446508838992727
 30
0.0
 11
8.814312380861736
 21
7.444281620243812
 31
0.0
  0
LINE
  5
6461
330
1F
100
AcDbEntity
  8
0
100
AcDbLine
 10
8.791214338223678
 20
7.411672371960412
 30
0.0
 11
8.787848745987702
 21
7.415010723899917
 31
0.0
  0
LINE
  5
6462
330
1F
100
AcDbEntity
  8
0
100
AcDbLine
 10
8.787848745987702
 20
7.415010723899917
 30
0.0
 11
8.785499560017935
 21
7.419232705862226
 31
0.0
  0
LINE
  5
6463
330
1F
100
AcDbEntity
  8
0
100
AcDbLine
 10
8.785499560017935
 20
7.419232705862226
 30
0.0
 11
8.784326873456002
 21
7.424050596753761
 31
0.0
  0
LINE
  5
6464
330
1F
100
AcDbEntity
  8
0
100
AcDbLine
 10
8.784326873456002
 20
7.424050596753761
 30
0.0
 11
8.784410602953148
 21
7.429136065272203
 31
0.0
  0
LINE
  5
6465
330
1F
100
AcDbEntity
  8
0
100
AcDbLine
 10
7.480534028051863
 20
7.403650284823966
 30
0.0
 11
7.481455174530672
 21
7.408292614345021
 31
0.0
  0
LINE
  5
6466
330
1F
100
AcDbEntity
  8
0
100
AcDbLine
 10
7.481455174530672
 20
7.408292614345021
 30
0.0
 11
7.483675042677397
 21
7.412561512209074
 31
0.0
  0
LINE
  5
6467
330
1F
100
AcDbEntity
  8
0
100
AcDbLine
 10
7.483675042677397
 20
7.412561512209074
 30
0.0
 11
7.48704235214635
 21
7.416166060081369
 31
0.0
  0
LINE
  5
6468
330
1F
100
AcDbEntity
  8
0
100
AcDbLine
 10
7.48704235214635
 20
7.416166060081369
 30
0.0
 11
7.491327626361965
 21
7.418860613981209
 31
0.0
  0
LINE
  5
6469
330
1F
100
AcDbEntity
  8
0
100
AcDbLine
 10
7.491327626361965
 20
7.418860613981209
 30
0.0
 11
7.496238830968195
 21
7.420461544513284
 31
0.0
  0
LINE
  5
646A
330
1F
100
AcDbEntity
  8
0
100
AcDbLine
 10
7.496238830968195
 20
7.420461544513284
 30
0.0
 11
7.501441275487273
 21
7.420859750907493
 31
0.0
  0
LINE
  5
646B
330
1F
100
AcDbEntity
  8
0
100
AcDbLine
 10
7.501441275487273
 20
7.420859750907493
 30
0.0
 11
7.506580421922681
 21
7.420028096056134
 31
0.0
  0
LINE
  5
646C
330
1F
100
AcDbEntity
  8
0
100
AcDbLine
 10
7.506580421922681
 20
7.420028096056134
 30
0.0
 11
7.511306045937665
 21
7.41802325586296
 31
0.0
  0
LINE
  5
646D
330
1F
100
AcDbEntity
  8
0
100
AcDbLine
 10
7.511306045937665
 20
7.41802325586296
 30
0.0
 11
7.51529610406509
 21
7.414981856873977
 31
0.0
  0
LINE
  5
646E
330
1F
100
AcDbEntity
  8
0
100
AcDbLine
 10
7.51529610406509
 20
7.414981856873977
 30
0.0
 11
7.51827868043744
 21
7.411111165404134
 31
0.0
  0
LINE
  5
646F
330
1F
100
AcDbEntity
  8
0
100
AcDbLine
 10
7.51827868043744
 20
7.411111165404134
 30
0.0
 11
7.520050517403891
 21
7.406674962680483
 31
0.0
  0
LINE
  5
6470
330
1F
100
AcDbEntity
  8
0
100
AcDbLine
 10
7.520050517403891
 20
7.406674962680483
 30
0.0
 11
7.520490867203267
 21
7.401975568587465
 31
0.0
  0
LINE
  5
6471
330
1F
100
AcDbEntity
  8
0
100
AcDbLine
 10
8.106530487515829
 20
6.317794577143642
 30
0.0
 11
8.106205230954671
 21
6.322501624589596
 31
0.0
  0
LINE
  5
6472
330
1F
100
AcDbEntity
  8
0
100
AcDbLine
 10
8.106205230954671
 20
6.322501624589596
 30
0.0
 11
8.104542375408559
 21
6.326972127852002
 31
0.0
  0
LINE
  5
6473
330
1F
100
AcDbEntity
  8
0
100
AcDbLine
 10
8.104542375408559
 20
6.326972127852002
 30
0.0
 11
8.10165524173497
 21
6.330901429521376
 31
0.0
  0
LINE
  5
6474
330
1F
100
AcDbEntity
  8
0
100
AcDbLine
 10
8.10165524173497
 20
6.330901429521376
 30
0.0
 11
8.097740583322543
 21
6.334021754182432
 31
0.0
  0
LINE
  5
6475
330
1F
100
AcDbEntity
  8
0
100
AcDbLine
 10
8.097740583322543
 20
6.334021754182432
 30
0.0
 11
8.093065177672801
 21
6.3361204568661
 31
0.0
  0
LINE
  5
6476
330
1F
100
AcDbEntity
  8
0
100
AcDbLine
 10
8.093065177672801
 20
6.3361204568661
 30
0.0
 11
8.087947645954304
 21
6.337054514452755
 31
0.0
  0
LINE
  5
6477
330
1F
100
AcDbEntity
  8
0
100
AcDbLine
 10
8.087947645954304
 20
6.337054514452755
 30
0.0
 11
8.082736739496549
 21
6.336760272461475
 31
0.0
  0
LINE
  5
6478
330
1F
100
AcDbEntity
  8
0
100
AcDbLine
 10
8.082736739496549
 20
6.336760272461475
 30
0.0
 11
8.077787572963199
 21
6.335257782997703
 31
0.0
  0
LINE
  5
6479
330
1F
100
AcDbEntity
  8
0
100
AcDbLine
 10
8.077787572963199
 20
6.335257782997703
 30
0.0
 11
8.073437423874615
 21
6.332649438235415
 31
0.0
  0
LINE
  5
647A
330
1F
100
AcDbEntity
  8
0
100
AcDbLine
 10
8.073437423874615
 20
6.332649438235415
 30
0.0
 11
8.06998274770223
 21
6.329112992559667
 31
0.0
  0
LINE
  5
647B
330
1F
100
AcDbEntity
  8
0
100
AcDbLine
 10
8.06998274770223
 20
6.329112992559667
 30
0.0
 11
8.067658974918064
 21
6.324889448899011
 31
0.0
  0
LINE
  5
647C
330
1F
100
AcDbEntity
  8
0
100
AcDbLine
 10
8.067658974918064
 20
6.324889448899011
 30
0.0
 11
8.06662446679714
 21
6.320266634774181
 31
0.0
  0
LINE
  5
647D
330
1F
100
AcDbEntity
  8
0
100
AcDbLine
 10
6.906110085570041
 20
6.305353282106676
 30
0.0
 11
6.905426486814739
 21
6.3100288603265
 31
0.0
  0
LINE
  5
647E
330
1F
100
AcDbEntity
  8
0
100
AcDbLine
 10
6.905426486814739
 20
6.3100288603265
 30
0.0
 11
6.903426507375939
 21
6.314385189017124
 31
0.0
  0
LINE
  5
647F
330
1F
100
AcDbEntity
  8
0
100
AcDbLine
 10
6.903426507375939
 20
6.314385189017124
 30
0.0
 11
6.900246442547292
 21
6.318125391577441
 31
0.0
  0
LINE
  5
6480
330
1F
100
AcDbEntity
  8
0
100
AcDbLine
 10
6.900246442547292
 20
6.318125391577441
 30
0.0
 11
6.896103008491547
 21
6.320994579383951
 31
0.0
  0
LINE
  5
6481
330
1F
100
AcDbEntity
  8
0
100
AcDbLine
 10
6.896103008491547
 20
6.320994579383951
 30
0.0
 11
6.891278573392266
 21
6.322797222029196
 31
0.0
  0
LINE
  5
6482
330
1F
100
AcDbEntity
  8
0
100
AcDbLine
 10
6.891278573392266
 20
6.322797222029196
 30
0.0
 11
6.886101914528698
 21
6.32341047239591
 31
0.0
  0
LINE
  5
6483
330
1F
100
AcDbEntity
  8
0
100
AcDbLine
 10
6.886101914528698
 20
6.32341047239591
 30
0.0
 11
6.880925812647568
 21
6.322792538485049
 31
0.0
  0
LINE
  5
6484
330
1F
100
AcDbEntity
  8
0
100
AcDbLine
 10
6.880925812647568
 20
6.322792538485049
 30
0.0
 11
6.876103010538169
 21
6.320985531471445
 31
0.0
  0
LINE
  5
6485
330
1F
100
AcDbEntity
  8
0
100
AcDbLine
 10
6.876103010538169
 20
6.320985531471445
 30
0.0
 11
6.871962174194184
 21
6.318112595896867
 31
0.0
  0
LINE
  5
6486
330
1F
100
AcDbEntity
  8
0
100
AcDbLine
 10
6.871962174194184
 20
6.318112595896867
 30
0.0
 11
6.868785494769415
 21
6.314369517572962
 31
0.0
  0
LINE
  5
6487
330
1F
100
AcDbEntity
  8
0
100
AcDbLine
 10
6.868785494769415
 20
6.314369517572962
 30
0.0
 11
6.866789457716937
 21
6.310011381101781
 31
0.0
  0
LINE
  5
6488
330
1F
100
AcDbEntity
  8
0
100
AcDbLine
 10
6.866789457716937
 20
6.310011381101781
 30
0.0
 11
6.866110089663276
 21
6.30533518628167
 31
0.0
  0
LINE
  5
6489
330
1F
100
AcDbEntity
  8
0
100
AcDbLine
 10
7.394142204610115
 20
7.460834054648642
 30
0.0
 11
7.398121888955472
 21
7.462656111091315
 31
0.0
  0
LINE
  5
648A
330
1F
100
AcDbEntity
  8
0
100
AcDbLine
 10
7.398121888955472
 20
7.462656111091315
 30
0.0
 11
7.402506996733027
 21
7.463285546620809
 31
0.0
  0
LINE
  5
648B
330
1F
100
AcDbEntity
  8
0
100
AcDbLine
 10
7.402506996733027
 20
7.463285546620809
 30
0.0
 11
7.406998690094468
 21
7.46267946624598
 31
0.0
  0
LINE
  5
648C
330
1F
100
AcDbEntity
  8
0
100
AcDbLine
 10
7.406998690094468
 20
7.46267946624598
 30
0.0
 11
7.411290867560094
 21
7.460879173342775
 31
0.0
  0
LINE
  5
648D
330
1F
100
AcDbEntity
  8
0
100
AcDbLine
 10
7.411290867560094
 20
7.460879173342775
 30
0.0
 11
7.415091024328777
 21
7.458007354897429
 31
0.0
  0
LINE
  5
648E
330
1F
100
AcDbEntity
  8
0
100
AcDbLine
 10
7.415091024328777
 20
7.458007354897429
 30
0.0
 11
7.418140185996787
 21
7.454259720591084
 31
0.0
  0
LINE
  5
648F
330
1F
100
AcDbEntity
  8
0
100
AcDbLine
 10
7.418140185996787
 20
7.454259720591084
 30
0.0
 11
7.420230557235434
 21
7.449891665508455
 31
0.0
  0
LINE
  5
6490
330
1F
100
AcDbEntity
  8
0
100
AcDbLine
 10
7.420230557235434
 20
7.449891665508455
 30
0.0
 11
7.421219682699295
 21
7.445200865384879
 31
0.0
  0
LINE
  5
6491
330
1F
100
AcDbEntity
  8
0
100
AcDbLine
 10
7.421219682699295
 20
7.445200865384879
 30
0.0
 11
7.421040155122625
 21
7.440506990496858
 31
0.0
  0
LINE
  5
6492
330
1F
100
AcDbEntity
  8
0
100
AcDbLine
 10
7.421040155122625
 20
7.440506990496858
 30
0.0
 11
7.419704209013083
 21
7.436129920661016
 31
0.0
  0
LINE
  5
6493
330
1F
100
AcDbEntity
  8
0
100
AcDbLine
 10
7.419704209013083
 20
7.436129920661016
 30
0.0
 11
7.417302886890283
 21
7.432367945953219
 31
0.0
  0
LINE
  5
6494
330
1F
100
AcDbEntity
  8
0
100
AcDbLine
 10
7.417302886890283
 20
7.432367945953219
 30
0.0
 11
7.413999834888524
 21
7.429477438732843
 31
0.0
  0
LINE
  5
6495
330
1F
100
AcDbEntity
  8
0
100
AcDbLine
 10
6.192324824725915
 20
7.405519479663642
 30
0.0
 11
6.195627876727673
 21
7.408409986884017
 31
0.0
  0
LINE
  5
6496
330
1F
100
AcDbEntity
  8
0
100
AcDbLine
 10
6.195627876727673
 20
7.408409986884017
 30
0.0
 11
6.198029198850477
 21
7.412171961591814
 31
0.0
  0
LINE
  5
6497
330
1F
100
AcDbEntity
  8
0
100
AcDbLine
 10
6.198029198850477
 20
7.412171961591814
 30
0.0
 11
6.199365144960019
 21
7.416549031427654
 31
0.0
  0
LINE
  5
6498
330
1F
100
AcDbEntity
  8
0
100
AcDbLine
 10
6.199365144960019
 20
7.416549031427654
 30
0.0
 11
6.199544672536692
 21
7.421242906315676
 31
0.0
  0
LINE
  5
6499
330
1F
100
AcDbEntity
  8
0
100
AcDbLine
 10
6.199544672536692
 20
7.421242906315676
 30
0.0
 11
6.198555547072828
 21
7.425933706439255
 31
0.0
  0
LINE
  5
649A
330
1F
100
AcDbEntity
  8
0
100
AcDbLine
 10
6.198555547072828
 20
7.425933706439255
 30
0.0
 11
6.196465175834184
 21
7.430301761521881
 31
0.0
  0
LINE
  5
649B
330
1F
100
AcDbEntity
  8
0
100
AcDbLine
 10
6.196465175834184
 20
7.430301761521881
 30
0.0
 11
6.193416014166171
 21
7.434049395828228
 31
0.0
  0
LINE
  5
649C
330
1F
100
AcDbEntity
  8
0
100
AcDbLine
 10
6.193416014166171
 20
7.434049395828228
 30
0.0
 11
6.189615857397487
 21
7.436921214273577
 31
0.0
  0
LINE
  5
649D
330
1F
100
AcDbEntity
  8
0
100
AcDbLine
 10
6.189615857397487
 20
7.436921214273577
 30
0.0
 11
6.185323679931862
 21
7.438721507176779
 31
0.0
  0
LINE
  5
649E
330
1F
100
AcDbEntity
  8
0
100
AcDbLine
 10
6.185323679931862
 20
7.438721507176779
 30
0.0
 11
6.180831986570421
 21
7.439327587551606
 31
0.0
  0
LINE
  5
649F
330
1F
100
AcDbEntity
  8
0
100
AcDbLine
 10
6.180831986570421
 20
7.439327587551606
 30
0.0
 11
6.176446878792866
 21
7.438698152022115
 31
0.0
  0
LINE
  5
64A0
330
1F
100
AcDbEntity
  8
0
100
AcDbLine
 10
6.176446878792866
 20
7.438698152022115
 30
0.0
 11
6.172467194447506
 21
7.436876095579442
 31
0.0
  0
LINE
  5
64A1
330
1F
100
AcDbEntity
  8
0
100
AcDbLine
 10
6.778594044203899
 20
6.36966585799657
 30
0.0
 11
6.782110958704937
 21
6.37283146543156
 31
0.0
  0
LINE
  5
64A2
330
1F
100
AcDbEntity
  8
0
100
AcDbLine
 10
6.782110958704937
 20
6.37283146543156
 30
0.0
 11
6.784646053966497
 21
6.376923987371351
 31
0.0
  0
LINE
  5
64A3
330
1F
100
AcDbEntity
  8
0
100
AcDbLine
 10
6.784646053966497
 20
6.376923987371351
 30
0.0
 11
6.786026567435936
 21
6.381664525208959
 31
0.0
  0
LINE
  5
64A4
330
1F
100
AcDbEntity
  8
0
100
AcDbLine
 10
6.786026567435936
 20
6.381664525208959
 30
0.0
 11
6.786158419401719
 21
6.386730019124861
 31
0.0
  0
LINE
  5
64A5
330
1F
100
AcDbEntity
  8
0
100
AcDbLine
 10
6.786158419401719
 20
6.386730019124861
 30
0.0
 11
6.785032624370284
 21
6.391775264079814
 31
0.0
  0
LINE
  5
64A6
330
1F
100
AcDbEntity
  8
0
100
AcDbLine
 10
6.785032624370284
 20
6.391775264079814
 30
0.0
 11
6.782725903412547
 21
6.396456434967797
 31
0.0
  0
LINE
  5
64A7
330
1F
100
AcDbEntity
  8
0
100
AcDbLine
 10
6.782725903412547
 20
6.396456434967797
 30
0.0
 11
6.779395455749742
 21
6.400454517728793
 31
0.0
  0
LINE
  5
64A8
330
1F
100
AcDbEntity
  8
0
100
AcDbLine
 10
6.779395455749742
 20
6.400454517728793
 30
0.0
 11
6.77526824588627
 21
6.403497049629792
 31
0.0
  0
LINE
  5
64A9
330
1F
100
AcDbEntity
  8
0
100
AcDbLine
 10
6.77526824588627
 20
6.403497049629792
 30
0.0
 11
6.770625536353787
 21
6.405376687149751
 31
0.0
  0
LINE
  5
64AA
330
1F
100
AcDbEntity
  8
0
100
AcDbLine
 10
6.770625536353787
 20
6.405376687149751
 30
0.0
 11
6.765783720134496
 21
6.405965336097942
 31
0.0
  0
LINE
  5
64AB
330
1F
100
AcDbEntity
  8
0
100
AcDbLine
 10
6.765783720134496
 20
6.405965336097942
 30
0.0
 11
6.761072759002257
 21
6.405222881021332
 31
0.0
  0
LINE
  5
64AC
330
1F
100
AcDbEntity
  8
0
100
AcDbLine
 10
6.761072759002257
 20
6.405222881021332
 30
0.0
 11
6.756813697173001
 21
6.403199919006425
 31
0.0
  0
LINE
  5
64AD
330
1F
100
AcDbEntity
  8
0
100
AcDbLine
 10
7.428572054155928
 20
7.566229207612854
 30
0.0
 11
7.431902978336758
 21
7.563597221690771
 31
0.0
  0
LINE
  5
64AE
330
1F
100
AcDbEntity
  8
0
100
AcDbLine
 10
7.431902978336758
 20
7.563597221690771
 30
0.0
 11
7.434393000958767
 21
7.560081287335275
 31
0.0
  0
LINE
  5
64AF
330
1F
100
AcDbEntity
  8
0
100
AcDbLine
 10
7.434393000958767
 20
7.560081287335275
 30
0.0
 11
7.435872431095219
 21
7.555921009662339
 31
0.0
  0
LINE
  5
64B0
330
1F
100
AcDbEntity
  8
0
100
AcDbLine
 10
7.435872431095219
 20
7.555921009662339
 30
0.0
 11
7.436240448027199
 21
7.551399904720179
 31
0.0
  0
LINE
  5
64B1
330
1F
100
AcDbEntity
  8
0
100
AcDbLine
 10
7.436240448027199
 20
7.551399904720179
 30
0.0
 11
7.435471972008958
 21
7.546826078339135
 31
0.0
  0
LINE
  5
64B2
330
1F
100
AcDbEntity
  8
0
100
AcDbLine
 10
7.435471972008958
 20
7.546826078339135
 30
0.0
 11
7.434296704720066
 21
7.544088787583142
 31
0.0
  0
LINE
  5
64B9
330
1F
100
AcDbEntity
  8
0
100
AcDbLine
 10
6.190857270388047
 20
7.523950095553661
 30
0.0
 11
6.195058471555061
 21
7.521832455936786
 31
0.0
  0
LINE
  5
64BA
330
1F
100
AcDbEntity
  8
0
100
AcDbLine
 10
6.195058471555061
 20
7.521832455936786
 30
0.0
 11
6.199737446339948
 21
7.520986799102669
 31
0.0
  0
LINE
  5
64BB
330
1F
100
AcDbEntity
  8
0
100
AcDbLine
 10
6.199737446339948
 20
7.520986799102669
 30
0.0
 11
6.204575330343502
 21
7.521470755167046
 31
0.0
  0
LINE
  5
64BC
330
1F
100
AcDbEntity
  8
0
100
AcDbLine
 10
6.204575330343502
 20
7.521470755167046
 30
0.0
 11
6.209242429765851
 21
7.523251343323899
 31
0.0
  0
LINE
  5
64BD
330
1F
100
AcDbEntity
  8
0
100
AcDbLine
 10
6.209242429765851
 20
7.523251343323899
 30
0.0
 11
6.213420689494117
 21
7.526207219432901
 31
0.0
  0
LINE
  5
64BE
330
1F
100
AcDbEntity
  8
0
100
AcDbLine
 10
6.213420689494117
 20
7.526207219432901
 30
0.0
 11
6.216825368032711
 21
7.530136945422043
 31
0.0
  0
LINE
  5
64BF
330
1F
100
AcDbEntity
  8
0
100
AcDbLine
 10
6.216825368032711
 20
7.530136945422043
 30
0.0
 11
6.219224442165732
 21
7.53477271695934
 31
0.0
  0
LINE
  5
64C0
330
1F
100
AcDbEntity
  8
0
100
AcDbLine
 10
6.219224442165732
 20
7.53477271695934
 30
0.0
 11
6.220454418955668
 21
7.5397986138755
 31
0.0
  0
LINE
  5
64C1
330
1F
100
AcDbEntity
  8
0
100
AcDbLine
 10
6.220454418955668
 20
7.5397986138755
 30
0.0
 11
6.220431477516918
 21
7.544872129601379
 31
0.0
  0
LINE
  5
64C2
330
1F
100
AcDbEntity
  8
0
100
AcDbLine
 10
6.220431477516918
 20
7.544872129601379
 30
0.0
 11
6.219157181270624
 21
7.549647512424635
 31
0.0
  0
LINE
  5
64C3
330
1F
100
AcDbEntity
  8
0
100
AcDbLine
 10
6.219157181270624
 20
7.549647512424635
 30
0.0
 11
6.216718371400094
 21
7.553799327897557
 31
0.0
  0
LINE
  5
64C4
330
1F
100
AcDbEntity
  8
0
100
AcDbLine
 10
6.216718371400094
 20
7.553799327897557
 30
0.0
 11
6.213281248767682
 21
7.557044636656864
 31
0.0
  0
LINE
  5
64C5
330
1F
100
AcDbEntity
  8
0
100
AcDbLine
 10
6.794632659712213
 20
8.564777851758336
 30
0.0
 11
6.799011737006672
 21
8.563036499638155
 31
0.0
  0
LINE
  5
64C6
330
1F
100
AcDbEntity
  8
0
100
AcDbLine
 10
6.799011737006672
 20
8.563036499638155
 30
0.0
 11
6.803773870894499
 21
8.562594181789108
 31
0.0
  0
LINE
  5
64C7
330
1F
100
AcDbEntity
  8
0
100
AcDbLine
 10
6.803773870894499
 20
8.562594181789108
 30
0.0
 11
6.808594529821039
 21
8.563481041441644
 31
0.0
  0
LINE
  5
64C8
330
1F
100
AcDbEntity
  8
0
100
AcDbLine
 10
6.808594529821039
 20
8.563481041441644
 30
0.0
 11
6.813145193846963
 21
8.565636640576048
 31
0.0
  0
LINE
  5
64C9
330
1F
100
AcDbEntity
  8
0
100
AcDbLine
 10
6.813145193846963
 20
8.565636640576048
 30
0.0
 11
6.817115742739229
 21
8.568914078673603
 31
0.0
  0
LINE
  5
64CA
330
1F
100
AcDbEntity
  8
0
100
AcDbLine
 10
6.817115742739229
 20
8.568914078673603
 30
0.0
 11
6.820235590152474
 21
8.573090003744189
 31
0.0
  0
LINE
  5
64CB
330
1F
100
AcDbEntity
  8
0
100
AcDbLine
 10
6.820235590152474
 20
8.573090003744189
 30
0.0
 11
6.822292123641279
 21
8.577879833395284
 31
0.0
  0
LINE
  5
64CC
330
1F
100
AcDbEntity
  8
0
100
AcDbLine
 10
6.822292123641279
 20
8.577879833395284
 30
0.0
 11
6.823145193846961
 21
8.582957148651734
 31
0.0
  0
LINE
  5
64CD
330
1F
100
AcDbEntity
  8
0
100
AcDbLine
 10
6.823145193846961
 20
8.582957148651734
 30
0.0
 11
6.822736665444768
 21
8.587975938869472
 31
0.0
  0
LINE
  5
64CE
330
1F
100
AcDbEntity
  8
0
100
AcDbLine
 10
6.822736665444768
 20
8.587975938869472
 30
0.0
 11
6.82109437897019
 21
8.592594181789106
 31
0.0
  0
LINE
  5
64CF
330
1F
100
AcDbEntity
  8
0
100
AcDbLine
 10
6.82109437897019
 20
8.592594181789106
 30
0.0
 11
6.818330253532455
 21
8.596497151787669
 31
0.0
  0
LINE
  5
64D0
330
1F
100
AcDbEntity
  8
0
100
AcDbLine
 10
6.818330253532455
 20
8.596497151787669
 30
0.0
 11
6.814632659712213
 21
8.599418867909712
 31
0.0
  0
LINE
  5
64D1
330
1F
100
AcDbEntity
  8
0
100
AcDbLine
 10
7.514553033288816
 20
7.619099995720114
 30
0.0
 11
7.513782016857827
 21
7.614450004560538
 31
0.0
  0
LINE
  5
64D2
330
1F
100
AcDbEntity
  8
0
100
AcDbLine
 10
7.513782016857827
 20
7.614450004560538
 30
0.0
 11
7.511700781436548
 21
7.610137923338788
 31
0.0
  0
LINE
  5
64D3
330
1F
100
AcDbEntity
  8
0
100
AcDbLine
 10
7.511700781436548
 20
7.610137923338788
 30
0.0
 11
7.508451159779529
 21
7.606457613264073
 31
0.0
  0
LINE
  5
64D4
330
1F
100
AcDbEntity
  8
0
100
AcDbLine
 10
7.508451159779529
 20
7.606457613264073
 30
0.0
 11
7.504254608232454
 21
7.603659881385985
 31
0.0
  0
LINE
  5
64D5
330
1F
100
AcDbEntity
  8
0
100
AcDbLine
 10
7.504254608232454
 20
7.603659881385985
 30
0.0
 11
7.499397114848115
 21
7.601935388508545
 31
0.0
  0
LINE
  5
64D6
330
1F
100
AcDbEntity
  8
0
100
AcDbLine
 10
7.499397114848115
 20
7.601935388508545
 30
0.0
 11
7.494209709773272
 21
7.601401655971492
 31
0.0
  0
LINE
  5
64D7
330
1F
100
AcDbEntity
  8
0
100
AcDbLine
 10
7.494209709773272
 20
7.601401655971492
 30
0.0
 11
7.489045906091192
 21
7.602095056765188
 31
0.0
  0
LINE
  5
64D8
330
1F
100
AcDbEntity
  8
0
100
AcDbLine
 10
7.489045906091192
 20
7.602095056765188
 30
0.0
 11
7.484257608489208
 21
7.603968336771448
 31
0.0
  0
LINE
  5
64D9
330
1F
100
AcDbEntity
  8
0
100
AcDbLine
 10
7.484257608489208
 20
7.603968336771448
 30
0.0
 11
7.480171131535865
 21
7.606893835053583
 31
0.0
  0
LINE
  5
64DA
330
1F
100
AcDbEntity
  8
0
100
AcDbLine
 10
7.480171131535865
 20
7.606893835053583
 30
0.0
 11
7.477064961882305
 21
7.61067218373828
 31
0.0
  0
LINE
  5
64DB
330
1F
100
AcDbEntity
  8
0
100
AcDbLine
 10
7.477064961882305
 20
7.61067218373828
 30
0.0
 11
7.475150779857237
 21
7.615045894606694
 31
0.0
  0
LINE
  5
64DC
330
1F
100
AcDbEntity
  8
0
100
AcDbLine
 10
7.475150779857237
 20
7.615045894606694
 30
0.0
 11
7.474559033802332
 21
7.619716906491039
 31
0.0
  0
LINE
  5
64DD
330
1F
100
AcDbEntity
  8
0
100
AcDbLine
 10
6.892033924559697
 20
8.668821292101267
 30
0.0
 11
6.892093360904791
 21
8.664120200506172
 31
0.0
  0
LINE
  5
64DE
330
1F
100
AcDbEntity
  8
0
100
AcDbLine
 10
6.892093360904791
 20
8.664120200506172
 30
0.0
 11
6.8935019909153
 21
8.659593376617994
 31
0.0
  0
LINE
  5
64DF
330
1F
100
AcDbEntity
  8
0
100
AcDbLine
 10
6.8935019909153
 20
8.659593376617994
 30
0.0
 11
6.896163818783879
 21
8.655549316003785
 31
0.0
  0
LINE
  5
64E0
330
1F
100
AcDbEntity
  8
0
100
AcDbLine
 10
6.896163818783879
 20
8.655549316003785
 30
0.0
 11
6.899897445340165
 21
8.652263614711277
 31
0.0
  0
LINE
  5
64E1
330
1F
100
AcDbEntity
  8
0
100
AcDbLine
 10
6.899897445340165
 20
8.652263614711277
 30
0.0
 11
6.904448430104455
 21
8.649960187853674
 31
0.0
  0
LINE
  5
64E2
330
1F
100
AcDbEntity
  8
0
100
AcDbLine
 10
6.904448430104455
 20
8.649960187853674
 30
0.0
 11
6.909506630985926
 21
8.64879601016473
 31
0.0
  0
LINE
  5
64E3
330
1F
100
AcDbEntity
  8
0
100
AcDbLine
 10
6.909506630985926
 20
8.64879601016473
 30
0.0
 11
6.914727339953568
 21
8.648850418430054
 31
0.0
  0
LINE
  5
64E4
330
1F
100
AcDbEntity
  8
0
100
AcDbLine
 10
6.914727339953568
 20
8.648850418430054
 30
0.0
 11
6.919754774318874
 21
8.65011970481628
 31
0.0
  0
LINE
  5
64E5
330
1F
100
AcDbEntity
  8
0
100
AcDbLine
 10
6.919754774318874
 20
8.65011970481628
 30
0.0
 11
6.924246322738074
 21
8.652517369553775
 31
0.0
  0
LINE
  5
64E6
330
1F
100
AcDbEntity
  8
0
100
AcDbLine
 10
6.924246322738074
 20
8.652517369553775
 30
0.0
 11
6.927895893609033
 21
8.655880015753009
 31
0.0
  0
LINE
  5
64E7
330
1F
100
AcDbEntity
  8
0
100
AcDbLine
 10
6.927895893609033
 20
8.655880015753009
 30
0.0
 11
6.930454774708103
 21
8.65997848463254
 31
0.0
  0
LINE
  5
64E8
330
1F
100
AcDbEntity
  8
0
100
AcDbLine
 10
6.930454774708103
 20
8.65997848463254
 30
0.0
 11
6.931748582517119
 21
8.664533472311273
 31
0.0
  0
LINE
  5
64E9
330
1F
100
AcDbEntity
  8
0
100
AcDbLine
 10
8.081075855453075
 20
8.664321772073249
 30
0.0
 11
8.081761527851
 21
8.659661201623315
 31
0.0
  0
LINE
  5
64EA
330
1F
100
AcDbEntity
  8
0
100
AcDbLine
 10
8.081761527851
 20
8.659661201623315
 30
0.0
 11
8.083763439206109
 21
8.65531946630217
 31
0.0
  0
LINE
  5
64EB
330
1F
100
AcDbEntity
  8
0
100
AcDbLine
 10
8.083763439206109
 20
8.65531946630217
 30
0.0
 11
8.086945162567875
 21
8.651592448196895
 31
0.0
  0
LINE
  5
64EC
330
1F
100
AcDbEntity
  8
0
100
AcDbLine
 10
8.086945162567875
 20
8.651592448196895
 30
0.0
 11
8.091089868747229
 21
8.648734137432171
 31
0.0
  0
LINE
  5
64ED
330
1F
100
AcDbEntity
  8
0
100
AcDbLine
 10
8.091089868747229
 20
8.648734137432171
 30
0.0
 11
8.095915102867508
 21
8.646939323163032
 31
0.0
  0
LINE
  5
64EE
330
1F
100
AcDbEntity
  8
0
100
AcDbLine
 10
8.095915102867508
 20
8.646939323163032
 30
0.0
 11
8.101092033197485
 21
8.646330319015852
 31
0.0
  0
LINE
  5
64EF
330
1F
100
AcDbEntity
  8
0
100
AcDbLine
 10
8.101092033197485
 20
8.646330319015852
 30
0.0
 11
8.106267860490458
 21
8.646948627616833
 31
0.0
  0
LINE
  5
64F0
330
1F
100
AcDbEntity
  8
0
100
AcDbLine
 10
8.106267860490458
 20
8.646948627616833
 30
0.0
 11
8.111089860669867
 21
8.648752112256623
 31
0.0
  0
LINE
  5
64F1
330
1F
100
AcDbEntity
  8
0
100
AcDbLine
 10
8.111089860669867
 20
8.648752112256623
 30
0.0
 11
8.115229422392225
 21
8.651617868437419
 31
0.0
  0
LINE
  5
64F2
330
1F
100
AcDbEntity
  8
0
100
AcDbLine
 10
8.115229422392225
 20
8.651617868437419
 30
0.0
 11
8.11840444136709
 21
8.655350599611383
 31
0.0
  0
LINE
  5
64F3
330
1F
100
AcDbEntity
  8
0
100
AcDbLine
 10
8.11840444136709
 20
8.655350599611383
 30
0.0
 11
8.120398545298304
 21
8.659695926317642
 31
0.0
  0
LINE
  5
64F4
330
1F
100
AcDbEntity
  8
0
100
AcDbLine
 10
8.120398545298304
 20
8.659695926317642
 30
0.0
 11
8.121075839298356
 21
8.664357721722154
 31
0.0
  0
LINE
  5
64F5
330
1F
100
AcDbEntity
  8
0
100
AcDbLine
 10
7.603543742448188
 20
7.526045322355427
 30
0.0
 11
7.599161955142989
 21
7.524305007405232
 31
0.0
  0
LINE
  5
64F6
330
1F
100
AcDbEntity
  8
0
100
AcDbLine
 10
7.599161955142989
 20
7.524305007405232
 30
0.0
 11
7.594397866121493
 21
7.523863985063024
 31
0.0
  0
LINE
  5
64F7
330
1F
100
AcDbEntity
  8
0
100
AcDbLine
 10
7.594397866121493
 20
7.523863985063024
 30
0.0
 11
7.589576140177491
 21
7.524752310272592
 31
0.0
  0
LINE
  5
64F8
330
1F
100
AcDbEntity
  8
0
100
AcDbLine
 10
7.589576140177491
 20
7.524752310272592
 30
0.0
 11
7.585025369965787
 21
7.526909445138938
 31
0.0
  0
LINE
  5
64F9
330
1F
100
AcDbEntity
  8
0
100
AcDbLine
 10
7.585025369965787
 20
7.526909445138938
 30
0.0
 11
7.581055682955806
 21
7.530188384485754
 31
0.0
  0
LINE
  5
64FA
330
1F
100
AcDbEntity
  8
0
100
AcDbLine
 10
7.581055682955806
 20
7.530188384485754
 30
0.0
 11
7.577937606757057
 21
7.534365674015253
 31
0.0
  0
LINE
  5
64FB
330
1F
100
AcDbEntity
  8
0
100
AcDbLine
 10
7.577937606757057
 20
7.534365674015253
 30
0.0
 11
7.575883633109622
 21
7.539156638349302
 31
0.0
  0
LINE
  5
64FC
330
1F
100
AcDbEntity
  8
0
100
AcDbLine
 10
7.575883633109622
 20
7.539156638349302
 30
0.0
 11
7.57503373692322
 21
7.544234781185974
 31
0.0
  0
LINE
  5
64FD
330
1F
100
AcDbEntity
  8
0
100
AcDbLine
 10
7.57503373692322
 20
7.544234781185974
 30
0.0
 11
7.575445837218442
 21
7.549254035482983
 31
0.0
  0
LINE
  5
64FE
330
1F
100
AcDbEntity
  8
0
100
AcDbLine
 10
7.575445837218442
 20
7.549254035482983
 30
0.0
 11
7.577091850041188
 21
7.55387234735469
 31
0.0
  0
LINE
  5
64FF
330
1F
100
AcDbEntity
  8
0
100
AcDbLine
 10
7.577091850041188
 20
7.55387234735469
 30
0.0
 11
7.579859602337752
 21
7.557774986479167
 31
0.0
  0
LINE
  5
6500
330
1F
100
AcDbEntity
  8
0
100
AcDbLine
 10
7.579859602337752
 20
7.557774986479167
 30
0.0
 11
7.583560476363054
 21
7.560695994449495
 31
0.0
  0
LINE
  5
6501
330
1F
100
AcDbEntity
  8
0
100
AcDbLine
 10
8.788142237443789
 20
7.543464989543437
 30
0.0
 11
8.788839286328794
 21
7.548422796254102
 31
0.0
  0
LINE
  5
6502
330
1F
100
AcDbEntity
  8
0
100
AcDbLine
 10
8.788839286328794
 20
7.548422796254102
 30
0.0
 11
8.790752026900044
 21
7.552905191763773
 31
0.0
  0
LINE
  5
6503
330
1F
100
AcDbEntity
  8
0
100
AcDbLine
 10
8.790752026900044
 20
7.552905191763773
 30
0.0
 11
8.793750109048566
 21
7.556606708225976
 31
0.0
  0
LINE
  5
6504
330
1F
100
AcDbEntity
  8
0
100
AcDbLine
 10
8.793750109048566
 20
7.556606708225976
 30
0.0
 11
8.7976292184305
 21
7.559275093410859
 31
0.0
  0
LINE
  5
6505
330
1F
100
AcDbEntity
  8
0
100
AcDbLine
 10
8.815727158084094
 20
7.523618254648905
 30
0.0
 11
8.811231376362592
 21
7.522164846781983
 31
0.0
  0
LINE
  5
6506
330
1F
100
AcDbEntity
  8
0
100
AcDbLine
 10
8.811231376362592
 20
7.522164846781983
 30
0.0
 11
8.80642530239621
 21
7.522025463577279
 31
0.0
  0
LINE
  5
6507
330
1F
100
AcDbEntity
  8
0
100
AcDbLine
 10
8.80642530239621
 20
7.522025463577279
 30
0.0
 11
8.801636462183356
 21
7.523209603769851
 31
0.0
  0
LINE
  5
6508
330
1F
100
AcDbEntity
  8
0
100
AcDbLine
 10
8.801636462183356
 20
7.523209603769851
 30
0.0
 11
8.797191207270586
 21
7.52563657016246
 31
0.0
  0
LINE
  5
6509
330
1F
100
AcDbEntity
  8
0
100
AcDbLine
 10
8.797191207270586
 20
7.52563657016246
 30
0.0
 11
8.793392474434089
 21
7.529140969006204
 31
0.0
  0
LINE
  5
650A
330
1F
100
AcDbEntity
  8
0
100
AcDbLine
 10
8.793392474434089
 20
7.529140969006204
 30
0.0
 11
8.79049914103896
 21
7.533483981311169
 31
0.0
  0
LINE
  5
650B
330
1F
100
AcDbEntity
  8
0
100
AcDbLine
 10
8.79049914103896
 20
7.533483981311169
 30
0.0
 11
8.788708382974622
 21
7.538369637965947
 31
0.0
  0
LINE
  5
650C
330
1F
100
AcDbEntity
  8
0
100
AcDbLine
 10
8.788708382974622
 20
7.538369637965947
 30
0.0
 11
8.788142237443789
 21
7.543464989543437
 31
0.0
  0
LINE
  5
650D
330
1F
100
AcDbEntity
  8
0
100
AcDbLine
 10
8.208780678786684
 20
8.564649923312352
 30
0.0
 11
8.213603259905529
 21
8.563772145443817
 31
0.0
  0
LINE
  5
650E
330
1F
100
AcDbEntity
  8
0
100
AcDbLine
 10
8.213603259905529
 20
8.563772145443817
 30
0.0
 11
8.218365552792779
 21
8.564223835917067
 31
0.0
  0
LINE
  5
650F
330
1F
100
AcDbEntity
  8
0
100
AcDbLine
 10
8.218365552792779
 20
8.564223835917067
 30
0.0
 11
8.222743015058235
 21
8.565974212772797
 31
0.0
  0
LINE
  5
6510
330
1F
100
AcDbEntity
  8
0
100
AcDbLine
 10
8.202694181390686
 20
8.60058696970729
 30
0.0
 11
8.198999866566321
 21
8.597657191759161
 31
0.0
  0
LINE
  5
6511
330
1F
100
AcDbEntity
  8
0
100
AcDbLine
 10
8.198999866566321
 20
8.597657191759161
 30
0.0
 11
8.196240460633184
 21
8.593747672244107
 31
0.0
  0
LINE
  5
6512
330
1F
100
AcDbEntity
  8
0
100
AcDbLine
 10
8.196240460633184
 20
8.593747672244107
 30
0.0
 11
8.194604012545479
 21
8.589124838456296
 31
0.0
  0
LINE
  5
6513
330
1F
100
AcDbEntity
  8
0
100
AcDbLine
 10
8.194604012545479
 20
8.589124838456296
 30
0.0
 11
8.19420204353603
 21
8.584103728878773
 31
0.0
  0
LINE
  5
6514
330
1F
100
AcDbEntity
  8
0
100
AcDbLine
 10
8.19420204353603
 20
8.584103728878773
 30
0.0
 11
8.195061947128547
 21
8.579026523831469
 31
0.0
  0
LINE
  5
6515
330
1F
100
AcDbEntity
  8
0
100
AcDbLine
 10
8.195061947128547
 20
8.579026523831469
 30
0.0
 11
8.19712512231425
 21
8.574239226447879
 31
0.0
  0
LINE
  5
6516
330
1F
100
AcDbEntity
  8
0
100
AcDbLine
 10
8.19712512231425
 20
8.574239226447879
 30
0.0
 11
8.200250967113802
 21
8.570068083133314
 31
0.0
  0
LINE
  5
6517
330
1F
100
AcDbEntity
  8
0
100
AcDbLine
 10
8.200250967113802
 20
8.570068083133314
 30
0.0
 11
8.204226460369806
 21
8.566797350411526
 31
0.0
  0
LINE
  5
6518
330
1F
100
AcDbEntity
  8
0
100
AcDbLine
 10
8.204226460369806
 20
8.566797350411526
 30
0.0
 11
8.208780678786684
 21
8.564649923312352
 31
0.0
  0
LINE
  5
6519
330
1F
100
AcDbEntity
  8
0
100
AcDbLine
 10
8.215386406113143
 20
6.37064911437165
 30
0.0
 11
8.211526291112036
 21
6.367220641398112
 31
0.0
  0
LINE
  5
651A
330
1F
100
AcDbEntity
  8
0
100
AcDbLine
 10
8.219872451453639
 20
6.372984077198156
 30
0.0
 11
8.215386406113143
 21
6.37064911437165
 31
0.0
  0
LINE
  5
651B
330
1F
100
AcDbEntity
  8
0
100
AcDbLine
 10
8.224678710557121
 20
6.374066406019713
 30
0.0
 11
8.219872451453639
 21
6.372984077198156
 31
0.0
  0
LINE
  5
651C
330
1F
100
AcDbEntity
  8
0
100
AcDbLine
 10
8.229477644808397
 20
6.373822341915768
 30
0.0
 11
8.224678710557121
 21
6.374066406019713
 31
0.0
  0
LINE
  5
651D
330
1F
100
AcDbEntity
  8
0
100
AcDbLine
 10
8.233942214768866
 20
6.372268517451667
 30
0.0
 11
8.229477644808397
 21
6.373822341915768
 31
0.0
  0
LINE
  5
651E
330
1F
100
AcDbEntity
  8
0
100
AcDbLine
 10
8.237768167373758
 20
6.369510823196825
 30
0.0
 11
8.233942214768866
 21
6.372268517451667
 31
0.0
  0
LINE
  5
651F
330
1F
100
AcDbEntity
  8
0
100
AcDbLine
 10
8.240694770275748
 20
6.365737191457399
 30
0.0
 11
8.237768167373758
 21
6.369510823196825
 31
0.0
  0
LINE
  5
6520
330
1F
100
AcDbEntity
  8
0
100
AcDbLine
 10
8.242522580323505
 20
6.361204789000216
 30
0.0
 11
8.240694770275748
 21
6.365737191457399
 31
0.0
  0
LINE
  5
6521
330
1F
100
AcDbEntity
  8
0
100
AcDbLine
 10
8.243127035282864
 20
6.356222491562578
 30
0.0
 11
8.242522580323505
 21
6.361204789000216
 31
0.0
  0
LINE
  5
6522
330
1F
100
AcDbEntity
  8
0
100
AcDbLine
 10
8.24246694254726
 20
6.351129834481228
 30
0.0
 11
8.243127035282864
 21
6.356222491562578
 31
0.0
  0
LINE
  5
6523
330
1F
100
AcDbEntity
  8
0
100
AcDbLine
 10
8.240587286345768
 20
6.346273873920245
 30
0.0
 11
8.24246694254726
 21
6.351129834481228
 31
0.0
  0
LINE
  5
6524
330
1F
100
AcDbEntity
  8
0
100
AcDbLine
 10
8.237616162142241
 20
6.341985535567006
 30
0.0
 11
8.240587286345768
 21
6.346273873920245
 31
0.0
  0
LINE
  5
6525
330
1F
100
AcDbEntity
  8
0
100
AcDbLine
 10
8.233756047141138
 20
6.338557062593469
 30
0.0
 11
8.237616162142241
 21
6.341985535567006
 31
0.0
  0
LINE
  5
6526
330
1F
100
AcDbEntity
  8
0
100
AcDbLine
 10
8.229270001800635
 20
6.336222099766965
 30
0.0
 11
8.233756047141138
 21
6.338557062593469
 31
0.0
  0
LINE
  5
6527
330
1F
100
AcDbEntity
  8
0
100
AcDbLine
 10
8.224463742697157
 20
6.335139770945406
 30
0.0
 11
8.229270001800635
 21
6.336222099766965
 31
0.0
  0
LINE
  5
6528
330
1F
100
AcDbEntity
  8
0
100
AcDbLine
 10
8.21966480844588
 20
6.335383835049349
 30
0.0
 11
8.224463742697157
 21
6.335139770945406
 31
0.0
  0
LINE
  5
6529
330
1F
100
AcDbEntity
  8
0
100
AcDbLine
 10
8.215200238485419
 20
6.336937659513449
 30
0.0
 11
8.21966480844588
 21
6.335383835049349
 31
0.0
  0
LINE
  5
652A
330
1F
100
AcDbEntity
  8
0
100
AcDbLine
 10
8.211374285880523
 20
6.339695353768296
 30
0.0
 11
8.215200238485419
 21
6.336937659513449
 31
0.0
  0
LINE
  5
652B
330
1F
100
AcDbEntity
  8
0
100
AcDbLine
 10
8.20844768297853
 20
6.343468985507718
 30
0.0
 11
8.211374285880523
 21
6.339695353768296
 31
0.0
  0
LINE
  5
652C
330
1F
100
AcDbEntity
  8
0
100
AcDbLine
 10
8.206619872930783
 20
6.348001387964901
 30
0.0
 11
8.20844768297853
 21
6.343468985507718
 31
0.0
  0
LINE
  5
652D
330
1F
100
AcDbEntity
  8
0
100
AcDbLine
 10
8.206015417971421
 20
6.35298368540254
 30
0.0
 11
8.206619872930783
 21
6.348001387964901
 31
0.0
  0
LINE
  5
652E
330
1F
100
AcDbEntity
  8
0
100
AcDbLine
 10
8.206675510707022
 20
6.358076342483891
 30
0.0
 11
8.206015417971421
 21
6.35298368540254
 31
0.0
  0
LINE
  5
652F
330
1F
100
AcDbEntity
  8
0
100
AcDbLine
 10
8.208555166908514
 20
6.362932303044873
 30
0.0
 11
8.206675510707022
 21
6.358076342483891
 31
0.0
  0
LINE
  5
6530
330
1F
100
AcDbEntity
  8
0
100
AcDbLine
 10
8.211526291112036
 20
6.367220641398112
 30
0.0
 11
8.208555166908514
 21
6.362932303044873
 31
0.0
  0
LINE
  5
6531
330
1F
100
AcDbEntity
  8
0
100
AcDbLine
 10
8.230211584381887
 20
6.374422397909837
 30
0.0
 11
8.233942214768866
 21
6.372268517451667
 31
0.0
  0
LINE
  5
6532
330
1F
100
AcDbEntity
  8
0
100
AcDbLine
 10
8.21146960809844
 20
6.339091539971619
 30
0.0
 11
8.215200238485419
 21
6.336937659513449
 31
0.0
  0
LINE
  5
6533
330
1F
100
AcDbEntity
  8
0
100
AcDbLine
 10
8.085209249064316
 20
6.296716856110969
 30
0.0
 11
8.090420155522071
 21
6.297011098102252
 31
0.0
  0
LINE
  5
6534
330
1F
100
AcDbEntity
  8
0
100
AcDbLine
 10
8.080091717345819
 20
6.297650913697624
 30
0.0
 11
8.085209249064316
 21
6.296716856110969
 31
0.0
  0
LINE
  5
6535
330
1F
100
AcDbEntity
  8
0
100
AcDbLine
 10
8.075416311696077
 20
6.299749616381293
 30
0.0
 11
8.080091717345819
 21
6.297650913697624
 31
0.0
  0
LINE
  5
6536
330
1F
100
AcDbEntity
  8
0
100
AcDbLine
 10
8.07150165328365
 20
6.30286994104235
 30
0.0
 11
8.075416311696077
 21
6.299749616381293
 31
0.0
  0
LINE
  5
6537
330
1F
100
AcDbEntity
  8
0
100
AcDbLine
 10
8.068614519610058
 20
6.306799242711726
 30
0.0
 11
8.07150165328365
 21
6.30286994104235
 31
0.0
  0
LINE
  5
6538
330
1F
100
AcDbEntity
  8
0
100
AcDbLine
 10
8.066951664063953
 20
6.311269745974128
 30
0.0
 11
8.068614519610058
 21
6.306799242711726
 31
0.0
  0
LINE
  5
6539
330
1F
100
AcDbEntity
  8
0
100
AcDbLine
 10
8.066626407502798
 20
6.31597679342008
 30
0.0
 11
8.066951664063953
 21
6.311269745974128
 31
0.0
  0
LINE
  5
653A
330
1F
100
AcDbEntity
  8
0
100
AcDbLine
 10
8.067660915623719
 20
6.32059960754491
 30
0.0
 11
8.066626407502798
 21
6.31597679342008
 31
0.0
  0
LINE
  5
653B
330
1F
100
AcDbEntity
  8
0
100
AcDbLine
 10
8.069984688407888
 20
6.324823151205568
 30
0.0
 11
8.067660915623719
 21
6.32059960754491
 31
0.0
  0
LINE
  5
653C
330
1F
100
AcDbEntity
  8
0
100
AcDbLine
 10
8.073439364580274
 20
6.328359596881313
 30
0.0
 11
8.069984688407888
 21
6.324823151205568
 31
0.0
  0
LINE
  5
653D
330
1F
100
AcDbEntity
  8
0
100
AcDbLine
 10
8.077789513668854
 20
6.330967941643604
 30
0.0
 11
8.073439364580274
 21
6.328359596881313
 31
0.0
  0
LINE
  5
653E
330
1F
100
AcDbEntity
  8
0
100
AcDbLine
 10
8.082738680202208
 20
6.332470431107376
 30
0.0
 11
8.077789513668854
 21
6.330967941643604
 31
0.0
  0
LINE
  5
653F
330
1F
100
AcDbEntity
  8
0
100
AcDbLine
 10
8.087949586659963
 20
6.332764673098657
 30
0.0
 11
8.082738680202208
 21
6.332470431107376
 31
0.0
  0
LINE
  5
6540
330
1F
100
AcDbEntity
  8
0
100
AcDbLine
 10
8.093067118378456
 20
6.331830615512001
 30
0.0
 11
8.087949586659963
 21
6.332764673098657
 31
0.0
  0
LINE
  5
6541
330
1F
100
AcDbEntity
  8
0
100
AcDbLine
 10
8.097742524028202
 20
6.329731912828333
 30
0.0
 11
8.093067118378456
 21
6.331830615512001
 31
0.0
  0
LINE
  5
6542
330
1F
100
AcDbEntity
  8
0
100
AcDbLine
 10
8.101657182440629
 20
6.326611588167277
 30
0.0
 11
8.097742524028202
 21
6.329731912828333
 31
0.0
  0
LINE
  5
6543
330
1F
100
AcDbEntity
  8
0
100
AcDbLine
 10
8.104544316114218
 20
6.322682286497901
 30
0.0
 11
8.101657182440629
 21
6.326611588167277
 31
0.0
  0
LINE
  5
6544
330
1F
100
AcDbEntity
  8
0
100
AcDbLine
 10
8.106207171660326
 20
6.318211783235497
 30
0.0
 11
8.104544316114218
 21
6.322682286497901
 31
0.0
  0
LINE
  5
6545
330
1F
100
AcDbEntity
  8
0
100
AcDbLine
 10
8.106532428221484
 20
6.313504735789543
 30
0.0
 11
8.106207171660326
 21
6.318211783235497
 31
0.0
  0
LINE
  5
6546
330
1F
100
AcDbEntity
  8
0
100
AcDbLine
 10
8.105497920100564
 20
6.308881921664713
 30
0.0
 11
8.106532428221484
 21
6.313504735789543
 31
0.0
  0
LINE
  5
6547
330
1F
100
AcDbEntity
  8
0
100
AcDbLine
 10
8.103174147316391
 20
6.304658378004057
 30
0.0
 11
8.105497920100564
 21
6.308881921664713
 31
0.0
  0
LINE
  5
6548
330
1F
100
AcDbEntity
  8
0
100
AcDbLine
 10
8.099719471144009
 20
6.301121932328311
 30
0.0
 11
8.103174147316391
 21
6.304658378004057
 31
0.0
  0
LINE
  5
6549
330
1F
100
AcDbEntity
  8
0
100
AcDbLine
 10
8.095369322055422
 20
6.298513587566023
 30
0.0
 11
8.099719471144009
 21
6.301121932328311
 31
0.0
  0
LINE
  5
654A
330
1F
100
AcDbEntity
  8
0
100
AcDbLine
 10
8.090420155522071
 20
6.297011098102252
 30
0.0
 11
8.095369322055422
 21
6.298513587566023
 31
0.0
  0
LINE
  5
654B
330
1F
100
AcDbEntity
  8
0
100
AcDbLine
 10
8.06662446679714
 20
6.320266634774181
 30
0.0
 11
8.066626407502798
 21
6.31597679342008
 31
0.0
  0
LINE
  5
654C
330
1F
100
AcDbEntity
  8
0
100
AcDbLine
 10
8.106530487515829
 20
6.317794577143642
 30
0.0
 11
8.106532428221484
 21
6.313504735789543
 31
0.0
  0
LINE
  5
654D
330
1F
100
AcDbEntity
  8
0
100
AcDbLine
 10
6.886120201410285
 20
6.282988154638337
 30
0.0
 11
6.891296303291408
 21
6.283606088549202
 31
0.0
  0
LINE
  5
654E
330
1F
100
AcDbEntity
  8
0
100
AcDbLine
 10
6.880943542546717
 20
6.283601405005052
 30
0.0
 11
6.886120201410285
 21
6.282988154638337
 31
0.0
  0
LINE
  5
654F
330
1F
100
AcDbEntity
  8
0
100
AcDbLine
 10
6.876119107447433
 20
6.285404047650297
 30
0.0
 11
6.880943542546717
 21
6.283601405005052
 31
0.0
  0
LINE
  5
6550
330
1F
100
AcDbEntity
  8
0
100
AcDbLine
 10
6.871975673391688
 20
6.288273235456808
 30
0.0
 11
6.876119107447433
 21
6.285404047650297
 31
0.0
  0
LINE
  5
6551
330
1F
100
AcDbEntity
  8
0
100
AcDbLine
 10
6.868795608563036
 20
6.292013438017126
 30
0.0
 11
6.871975673391688
 21
6.288273235456808
 31
0.0
  0
LINE
  5
6552
330
1F
100
AcDbEntity
  8
0
100
AcDbLine
 10
6.866795629124244
 20
6.296369766707745
 30
0.0
 11
6.868795608563036
 21
6.292013438017126
 31
0.0
  0
LINE
  5
6553
330
1F
100
AcDbEntity
  8
0
100
AcDbLine
 10
6.866112030368935
 20
6.301045344927572
 30
0.0
 11
6.866795629124244
 21
6.296369766707745
 31
0.0
  0
LINE
  5
6554
330
1F
100
AcDbEntity
  8
0
100
AcDbLine
 10
6.866791398422599
 20
6.305721539747684
 30
0.0
 11
6.866112030368935
 21
6.301045344927572
 31
0.0
  0
LINE
  5
6555
330
1F
100
AcDbEntity
  8
0
100
AcDbLine
 10
6.868787435475073
 20
6.310079676218866
 30
0.0
 11
6.866791398422599
 21
6.305721539747684
 31
0.0
  0
LINE
  5
6556
330
1F
100
AcDbEntity
  8
0
100
AcDbLine
 10
6.871964114899849
 20
6.313822754542769
 30
0.0
 11
6.868787435475073
 21
6.310079676218866
 31
0.0
  0
LINE
  5
6557
330
1F
100
AcDbEntity
  8
0
100
AcDbLine
 10
6.876104951243828
 20
6.31669569011735
 30
0.0
 11
6.871964114899849
 21
6.313822754542769
 31
0.0
  0
LINE
  5
6558
330
1F
100
AcDbEntity
  8
0
100
AcDbLine
 10
6.880927753353233
 20
6.318502697130951
 30
0.0
 11
6.876104951243828
 21
6.31669569011735
 31
0.0
  0
LINE
  5
6559
330
1F
100
AcDbEntity
  8
0
100
AcDbLine
 10
6.886103855234363
 20
6.319120631041813
 30
0.0
 11
6.880927753353233
 21
6.318502697130951
 31
0.0
  0
LINE
  5
655A
330
1F
100
AcDbEntity
  8
0
100
AcDbLine
 10
6.891280514097925
 20
6.318507380675099
 30
0.0
 11
6.886103855234363
 21
6.319120631041813
 31
0.0
  0
LINE
  5
655B
330
1F
100
AcDbEntity
  8
0
100
AcDbLine
 10
6.896104949197209
 20
6.316704738029853
 30
0.0
 11
6.891280514097925
 21
6.318507380675099
 31
0.0
  0
LINE
  5
655C
330
1F
100
AcDbEntity
  8
0
100
AcDbLine
 10
6.900248383252954
 20
6.313835550223344
 30
0.0
 11
6.896104949197209
 21
6.316704738029853
 31
0.0
  0
LINE
  5
655D
330
1F
100
AcDbEntity
  8
0
100
AcDbLine
 10
6.903428448081605
 20
6.310095347663025
 30
0.0
 11
6.900248383252954
 21
6.313835550223344
 31
0.0
  0
LINE
  5
655E
330
1F
100
AcDbEntity
  8
0
100
AcDbLine
 10
6.905428427520401
 20
6.305739018972404
 30
0.0
 11
6.903428448081605
 21
6.310095347663025
 31
0.0
  0
LINE
  5
655F
330
1F
100
AcDbEntity
  8
0
100
AcDbLine
 10
6.906112026275703
 20
6.301063440752579
 30
0.0
 11
6.905428427520401
 21
6.305739018972404
 31
0.0
  0
LINE
  5
6560
330
1F
100
AcDbEntity
  8
0
100
AcDbLine
 10
6.905432658222043
 20
6.296387245932468
 30
0.0
 11
6.906112026275703
 21
6.301063440752579
 31
0.0
  0
LINE
  5
6561
330
1F
100
AcDbEntity
  8
0
100
AcDbLine
 10
6.903436621169568
 20
6.292029109461287
 30
0.0
 11
6.905432658222043
 21
6.296387245932468
 31
0.0
  0
LINE
  5
6562
330
1F
100
AcDbEntity
  8
0
100
AcDbLine
 10
6.900259941744796
 20
6.288286031137382
 30
0.0
 11
6.903436621169568
 21
6.292029109461287
 31
0.0
  0
LINE
  5
6563
330
1F
100
AcDbEntity
  8
0
100
AcDbLine
 10
6.89611910540081
 20
6.285413095562802
 30
0.0
 11
6.900259941744796
 21
6.288286031137382
 31
0.0
  0
LINE
  5
6564
330
1F
100
AcDbEntity
  8
0
100
AcDbLine
 10
6.891296303291408
 20
6.283606088549202
 30
0.0
 11
6.89611910540081
 21
6.285413095562802
 31
0.0
  0
LINE
  5
6565
330
1F
100
AcDbEntity
  8
0
100
AcDbLine
 10
6.866110089663276
 20
6.30533518628167
 30
0.0
 11
6.866112030368935
 21
6.301045344927572
 31
0.0
  0
LINE
  5
6566
330
1F
100
AcDbEntity
  8
0
100
AcDbLine
 10
6.906110085570041
 20
6.305353282106676
 30
0.0
 11
6.906112026275703
 21
6.301063440752579
 31
0.0
  0
LINE
  5
6567
330
1F
100
AcDbEntity
  8
0
100
AcDbLine
 10
6.774860994055575
 20
6.367521376457548
 30
0.0
 11
6.77837790855661
 21
6.370686983892539
 31
0.0
  0
LINE
  5
6568
330
1F
100
AcDbEntity
  8
0
100
AcDbLine
 10
6.770601932226316
 20
6.365498414442644
 30
0.0
 11
6.774860994055575
 21
6.367521376457548
 31
0.0
  0
LINE
  5
6569
330
1F
100
AcDbEntity
  8
0
100
AcDbLine
 10
6.765890971094076
 20
6.364755959366031
 30
0.0
 11
6.770601932226316
 21
6.365498414442644
 31
0.0
  0
LINE
  5
656A
330
1F
100
AcDbEntity
  8
0
100
AcDbLine
 10
6.761049154874779
 20
6.365344608314224
 30
0.0
 11
6.765890971094076
 21
6.364755959366031
 31
0.0
  0
LINE
  5
656B
330
1F
100
AcDbEntity
  8
0
100
AcDbLine
 10
6.756406445342296
 20
6.367224245834186
 30
0.0
 11
6.761049154874779
 21
6.365344608314224
 31
0.0
  0
LINE
  5
656C
330
1F
100
AcDbEntity
  8
0
100
AcDbLine
 10
6.752279235478827
 20
6.370266777735182
 30
0.0
 11
6.756406445342296
 21
6.367224245834186
 31
0.0
  0
LINE
  5
656D
330
1F
100
AcDbEntity
  8
0
100
AcDbLine
 10
6.748948787816029
 20
6.374264860496176
 30
0.0
 11
6.752279235478827
 21
6.370266777735182
 31
0.0
  0
LINE
  5
656E
330
1F
100
AcDbEntity
  8
0
100
AcDbLine
 10
6.746642066858289
 20
6.378946031384162
 30
0.0
 11
6.748948787816029
 21
6.374264860496176
 31
0.0
  0
LINE
  5
656F
330
1F
100
AcDbEntity
  8
0
100
AcDbLine
 10
6.745516271826851
 20
6.383991276339112
 30
0.0
 11
6.746642066858289
 21
6.378946031384162
 31
0.0
  0
LINE
  5
6570
330
1F
100
AcDbEntity
  8
0
100
AcDbLine
 10
6.745648123792634
 20
6.389056770255017
 30
0.0
 11
6.745516271826851
 21
6.383991276339112
 31
0.0
  0
LINE
  5
6571
330
1F
100
AcDbEntity
  8
0
100
AcDbLine
 10
6.747028637262072
 20
6.393797308092624
 30
0.0
 11
6.745648123792634
 21
6.389056770255017
 31
0.0
  0
LINE
  5
6572
330
1F
100
AcDbEntity
  8
0
100
AcDbLine
 10
6.749563732523629
 20
6.397889830032416
 30
0.0
 11
6.747028637262072
 21
6.393797308092624
 31
0.0
  0
LINE
  5
6573
330
1F
100
AcDbEntity
  8
0
100
AcDbLine
 10
6.75308064702467
 20
6.401055437467404
 30
0.0
 11
6.749563732523629
 21
6.397889830032416
 31
0.0
  0
LINE
  5
6574
330
1F
100
AcDbEntity
  8
0
100
AcDbLine
 10
6.75733970885393
 20
6.40307839948231
 30
0.0
 11
6.75308064702467
 21
6.401055437467404
 31
0.0
  0
LINE
  5
6575
330
1F
100
AcDbEntity
  8
0
100
AcDbLine
 10
6.762050669986169
 20
6.403820854558923
 30
0.0
 11
6.75733970885393
 21
6.40307839948231
 31
0.0
  0
LINE
  5
6576
330
1F
100
AcDbEntity
  8
0
100
AcDbLine
 10
6.766892486205467
 20
6.403232205610729
 30
0.0
 11
6.762050669986169
 21
6.403820854558923
 31
0.0
  0
LINE
  5
6577
330
1F
100
AcDbEntity
  8
0
100
AcDbLine
 10
6.771535195737946
 20
6.40135256809077
 30
0.0
 11
6.766892486205467
 21
6.403232205610729
 31
0.0
  0
LINE
  5
6578
330
1F
100
AcDbEntity
  8
0
100
AcDbLine
 10
6.775662405601416
 20
6.398310036189774
 30
0.0
 11
6.771535195737946
 21
6.40135256809077
 31
0.0
  0
LINE
  5
6579
330
1F
100
AcDbEntity
  8
0
100
AcDbLine
 10
6.778992853264213
 20
6.394311953428778
 30
0.0
 11
6.775662405601416
 21
6.398310036189774
 31
0.0
  0
LINE
  5
657A
330
1F
100
AcDbEntity
  8
0
100
AcDbLine
 10
6.781299574221954
 20
6.389630782540793
 30
0.0
 11
6.778992853264213
 21
6.394311953428778
 31
0.0
  0
LINE
  5
657B
330
1F
100
AcDbEntity
  8
0
100
AcDbLine
 10
6.782425369253395
 20
6.384585537585841
 30
0.0
 11
6.781299574221954
 21
6.389630782540793
 31
0.0
  0
LINE
  5
657C
330
1F
100
AcDbEntity
  8
0
100
AcDbLine
 10
6.782293517287609
 20
6.379520043669937
 30
0.0
 11
6.782425369253395
 21
6.384585537585841
 31
0.0
  0
LINE
  5
657D
330
1F
100
AcDbEntity
  8
0
100
AcDbLine
 10
6.780913003818167
 20
6.37477950583233
 30
0.0
 11
6.782293517287609
 21
6.379520043669937
 31
0.0
  0
LINE
  5
657E
330
1F
100
AcDbEntity
  8
0
100
AcDbLine
 10
6.77837790855661
 20
6.370686983892539
 30
0.0
 11
6.780913003818167
 21
6.37477950583233
 31
0.0
  0
LINE
  5
657F
330
1F
100
AcDbEntity
  8
0
100
AcDbLine
 10
6.778594044203899
 20
6.36966585799657
 30
0.0
 11
6.774860994055575
 21
6.367521376457548
 31
0.0
  0
LINE
  5
6580
330
1F
100
AcDbEntity
  8
0
100
AcDbLine
 10
6.756813697173001
 20
6.403199919006425
 30
0.0
 11
6.75308064702467
 21
6.401055437467404
 31
0.0
  0
LINE
  5
6581
330
1F
100
AcDbEntity
  8
0
100
AcDbLine
 10
6.17144311162761
 20
7.403329879430486
 30
0.0
 11
6.175735289093232
 21
7.401529586527283
 31
0.0
  0
LINE
  5
6582
330
1F
100
AcDbEntity
  8
0
100
AcDbLine
 10
6.167642954858926
 20
7.406201697875832
 30
0.0
 11
6.17144311162761
 21
7.403329879430486
 31
0.0
  0
LINE
  5
6583
330
1F
100
AcDbEntity
  8
0
100
AcDbLine
 10
6.164593793190913
 20
7.40994933218218
 30
0.0
 11
6.167642954858926
 21
7.406201697875832
 31
0.0
  0
LINE
  5
6584
330
1F
100
AcDbEntity
  8
0
100
AcDbLine
 10
6.162503421952269
 20
7.414317387264806
 30
0.0
 11
6.164593793190913
 21
7.40994933218218
 31
0.0
  0
LINE
  5
6585
330
1F
100
AcDbEntity
  8
0
100
AcDbLine
 10
6.161514296488409
 20
7.419008187388384
 30
0.0
 11
6.162503421952269
 21
7.414317387264806
 31
0.0
  0
LINE
  5
6586
330
1F
100
AcDbEntity
  8
0
100
AcDbLine
 10
6.161693824065078
 20
7.423702062276407
 30
0.0
 11
6.161514296488409
 21
7.419008187388384
 31
0.0
  0
LINE
  5
6587
330
1F
100
AcDbEntity
  8
0
100
AcDbLine
 10
6.16302977017462
 20
7.428079132112246
 30
0.0
 11
6.161693824065078
 21
7.423702062276407
 31
0.0
  0
LINE
  5
6588
330
1F
100
AcDbEntity
  8
0
100
AcDbLine
 10
6.165431092297424
 20
7.431841106820045
 30
0.0
 11
6.16302977017462
 21
7.428079132112246
 31
0.0
  0
LINE
  5
6589
330
1F
100
AcDbEntity
  8
0
100
AcDbLine
 10
6.168734144299182
 20
7.434731614040421
 30
0.0
 11
6.165431092297424
 21
7.431841106820045
 31
0.0
  0
LINE
  5
658A
330
1F
100
AcDbEntity
  8
0
100
AcDbLine
 10
6.172713828644543
 20
7.436553670483094
 30
0.0
 11
6.168734144299182
 21
7.434731614040421
 31
0.0
  0
LINE
  5
658B
330
1F
100
AcDbEntity
  8
0
100
AcDbLine
 10
6.177098936422094
 20
7.437183106012586
 30
0.0
 11
6.172713828644543
 21
7.436553670483094
 31
0.0
  0
LINE
  5
658C
330
1F
100
AcDbEntity
  8
0
100
AcDbLine
 10
6.181590629783539
 20
7.436577025637759
 30
0.0
 11
6.177098936422094
 21
7.437183106012586
 31
0.0
  0
LINE
  5
658D
330
1F
100
AcDbEntity
  8
0
100
AcDbLine
 10
6.185882807249161
 20
7.434776732734556
 30
0.0
 11
6.181590629783539
 21
7.436577025637759
 31
0.0
  0
LINE
  5
658E
330
1F
100
AcDbEntity
  8
0
100
AcDbLine
 10
6.189682964017848
 20
7.431904914289208
 30
0.0
 11
6.185882807249161
 21
7.434776732734556
 31
0.0
  0
LINE
  5
658F
330
1F
100
AcDbEntity
  8
0
100
AcDbLine
 10
6.192732125685861
 20
7.42815727998286
 30
0.0
 11
6.189682964017848
 21
7.431904914289208
 31
0.0
  0
LINE
  5
6590
330
1F
100
AcDbEntity
  8
0
100
AcDbLine
 10
6.194822496924505
 20
7.423789224900234
 30
0.0
 11
6.192732125685861
 21
7.42815727998286
 31
0.0
  0
LINE
  5
6591
330
1F
100
AcDbEntity
  8
0
100
AcDbLine
 10
6.195811622388369
 20
7.419098424776654
 30
0.0
 11
6.194822496924505
 21
7.423789224900234
 31
0.0
  0
LINE
  5
6592
330
1F
100
AcDbEntity
  8
0
100
AcDbLine
 10
6.195632094811696
 20
7.414404549888634
 30
0.0
 11
6.195811622388369
 21
7.419098424776654
 31
0.0
  0
LINE
  5
6593
330
1F
100
AcDbEntity
  8
0
100
AcDbLine
 10
6.194296148702154
 20
7.410027480052793
 30
0.0
 11
6.195632094811696
 21
7.414404549888634
 31
0.0
  0
LINE
  5
6594
330
1F
100
AcDbEntity
  8
0
100
AcDbLine
 10
6.191894826579346
 20
7.406265505344998
 30
0.0
 11
6.194296148702154
 21
7.410027480052793
 31
0.0
  0
LINE
  5
6595
330
1F
100
AcDbEntity
  8
0
100
AcDbLine
 10
6.188591774577588
 20
7.403374998124621
 30
0.0
 11
6.191894826579346
 21
7.406265505344998
 31
0.0
  0
LINE
  5
6596
330
1F
100
AcDbEntity
  8
0
100
AcDbLine
 10
6.184612090232231
 20
7.401552941681946
 30
0.0
 11
6.188591774577588
 21
7.403374998124621
 31
0.0
  0
LINE
  5
6597
330
1F
100
AcDbEntity
  8
0
100
AcDbLine
 10
6.18022698245468
 20
7.400923506152454
 30
0.0
 11
6.184612090232231
 21
7.401552941681946
 31
0.0
  0
LINE
  5
6598
330
1F
100
AcDbEntity
  8
0
100
AcDbLine
 10
6.175735289093232
 20
7.401529586527283
 30
0.0
 11
6.18022698245468
 21
7.400923506152454
 31
0.0
  0
LINE
  5
6599
330
1F
100
AcDbEntity
  8
0
100
AcDbLine
 10
6.172467194447506
 20
7.436876095579442
 30
0.0
 11
6.168734144299182
 21
7.434731614040421
 31
0.0
  0
LINE
  5
659A
330
1F
100
AcDbEntity
  8
0
100
AcDbLine
 10
6.192324824725915
 20
7.405519479663642
 30
0.0
 11
6.188591774577588
 21
7.403374998124621
 31
0.0
  0
LINE
  5
659B
330
1F
100
AcDbEntity
  8
0
100
AcDbLine
 10
6.181154138104982
 20
7.548392816978588
 30
0.0
 11
6.179924161315046
 21
7.543366920062425
 31
0.0
  0
LINE
  5
659C
330
1F
100
AcDbEntity
  8
0
100
AcDbLine
 10
6.183553212237999
 20
7.553028588515886
 30
0.0
 11
6.181154138104982
 21
7.548392816978588
 31
0.0
  0
LINE
  5
659D
330
1F
100
AcDbEntity
  8
0
100
AcDbLine
 10
6.186957890776596
 20
7.556958314505025
 30
0.0
 11
6.183553212237999
 21
7.553028588515886
 31
0.0
  0
LINE
  5
659E
330
1F
100
AcDbEntity
  8
0
100
AcDbLine
 10
6.191136150504856
 20
7.559914190614028
 30
0.0
 11
6.186957890776596
 21
7.556958314505025
 31
0.0
  0
LINE
  5
659F
330
1F
100
AcDbEntity
  8
0
100
AcDbLine
 10
6.195803249927212
 20
7.561694778770881
 30
0.0
 11
6.191136150504856
 21
7.559914190614028
 31
0.0
  0
LINE
  5
65A0
330
1F
100
AcDbEntity
  8
0
100
AcDbLine
 10
6.200641133930762
 20
7.562178734835257
 30
0.0
 11
6.195803249927212
 21
7.561694778770881
 31
0.0
  0
LINE
  5
65A1
330
1F
100
AcDbEntity
  8
0
100
AcDbLine
 10
6.205320108715653
 20
7.561333078001141
 30
0.0
 11
6.200641133930762
 21
7.562178734835257
 31
0.0
  0
LINE
  5
65A2
330
1F
100
AcDbEntity
  8
0
100
AcDbLine
 10
6.209521309882664
 20
7.559215438384264
 30
0.0
 11
6.205320108715653
 21
7.561333078001141
 31
0.0
  0
LINE
  5
65A3
330
1F
100
AcDbEntity
  8
0
100
AcDbLine
 10
6.212958432515076
 20
7.555970129624958
 30
0.0
 11
6.209521309882664
 21
7.559215438384264
 31
0.0
  0
LINE
  5
65A4
330
1F
100
AcDbEntity
  8
0
100
AcDbLine
 10
6.215397242385609
 20
7.551818314152035
 30
0.0
 11
6.212958432515076
 21
7.555970129624958
 31
0.0
  0
LINE
  5
65A5
330
1F
100
AcDbEntity
  8
0
100
AcDbLine
 10
6.216671538631899
 20
7.547042931328781
 30
0.0
 11
6.215397242385609
 21
7.551818314152035
 31
0.0
  0
LINE
  5
65A6
330
1F
100
AcDbEntity
  8
0
100
AcDbLine
 10
6.21669448007065
 20
7.541969415602903
 30
0.0
 11
6.216671538631899
 21
7.547042931328781
 31
0.0
  0
LINE
  5
65A7
330
1F
100
AcDbEntity
  8
0
100
AcDbLine
 10
6.215464503280713
 20
7.536943518686742
 30
0.0
 11
6.21669448007065
 21
7.541969415602903
 31
0.0
  0
LINE
  5
65A8
330
1F
100
AcDbEntity
  8
0
100
AcDbLine
 10
6.213065429147693
 20
7.532307747149445
 30
0.0
 11
6.215464503280713
 21
7.536943518686742
 31
0.0
  0
LINE
  5
65A9
330
1F
100
AcDbEntity
  8
0
100
AcDbLine
 10
6.209660750609099
 20
7.528378021160303
 30
0.0
 11
6.213065429147693
 21
7.532307747149445
 31
0.0
  0
LINE
  5
65AA
330
1F
100
AcDbEntity
  8
0
100
AcDbLine
 10
6.205482490880832
 20
7.525422145051301
 30
0.0
 11
6.209660750609099
 21
7.528378021160303
 31
0.0
  0
LINE
  5
65AB
330
1F
100
AcDbEntity
  8
0
100
AcDbLine
 10
6.200815391458487
 20
7.523641556894447
 30
0.0
 11
6.205482490880832
 21
7.525422145051301
 31
0.0
  0
LINE
  5
65AC
330
1F
100
AcDbEntity
  8
0
100
AcDbLine
 10
6.195977507454934
 20
7.52315760083007
 30
0.0
 11
6.200815391458487
 21
7.523641556894447
 31
0.0
  0
LINE
  5
65AD
330
1F
100
AcDbEntity
  8
0
100
AcDbLine
 10
6.191298532670042
 20
7.524003257664189
 30
0.0
 11
6.195977507454934
 21
7.52315760083007
 31
0.0
  0
LINE
  5
65AE
330
1F
100
AcDbEntity
  8
0
100
AcDbLine
 10
6.187097331503032
 20
7.526120897281061
 30
0.0
 11
6.191298532670042
 21
7.524003257664189
 31
0.0
  0
LINE
  5
65AF
330
1F
100
AcDbEntity
  8
0
100
AcDbLine
 10
6.18366020887062
 20
7.52936620604037
 30
0.0
 11
6.187097331503032
 21
7.526120897281061
 31
0.0
  0
LINE
  5
65B0
330
1F
100
AcDbEntity
  8
0
100
AcDbLine
 10
6.181221399000087
 20
7.533518021513293
 30
0.0
 11
6.18366020887062
 21
7.52936620604037
 31
0.0
  0
LINE
  5
65B1
330
1F
100
AcDbEntity
  8
0
100
AcDbLine
 10
6.179947102753793
 20
7.538293404336548
 30
0.0
 11
6.181221399000087
 21
7.533518021513293
 31
0.0
  0
LINE
  5
65B2
330
1F
100
AcDbEntity
  8
0
100
AcDbLine
 10
6.179924161315046
 20
7.543366920062425
 30
0.0
 11
6.179947102753793
 21
7.538293404336548
 31
0.0
  0
LINE
  5
65B3
330
1F
100
AcDbEntity
  8
0
100
AcDbLine
 10
6.213281248767682
 20
7.557044636656864
 30
0.0
 11
6.209521309882664
 21
7.559215438384264
 31
0.0
  0
LINE
  5
65B4
330
1F
100
AcDbEntity
  8
0
100
AcDbLine
 10
6.190857270388047
 20
7.523950095553661
 30
0.0
 11
6.187097331503032
 21
7.526120897281061
 31
0.0
  0
LINE
  5
65B5
330
1F
100
AcDbEntity
  8
0
100
AcDbLine
 10
6.78526979038693
 20
8.593277517651257
 30
0.0
 11
6.783213256898129
 21
8.588487688000164
 31
0.0
  0
LINE
  5
65B6
330
1F
100
AcDbEntity
  8
0
100
AcDbLine
 10
6.788389637800179
 20
8.597453442721842
 30
0.0
 11
6.78526979038693
 21
8.593277517651257
 31
0.0
  0
LINE
  5
65B7
330
1F
100
AcDbEntity
  8
0
100
AcDbLine
 10
6.792360186692441
 20
8.6007308808194
 30
0.0
 11
6.788389637800179
 21
8.597453442721842
 31
0.0
  0
LINE
  5
65B8
330
1F
100
AcDbEntity
  8
0
100
AcDbLine
 10
6.796910850718365
 20
8.602886479953802
 30
0.0
 11
6.792360186692441
 21
8.6007308808194
 31
0.0
  0
LINE
  5
65B9
330
1F
100
AcDbEntity
  8
0
100
AcDbLine
 10
6.801731509644906
 20
8.603773339606339
 30
0.0
 11
6.796910850718365
 21
8.602886479953802
 31
0.0
  0
LINE
  5
65BA
330
1F
100
AcDbEntity
  8
0
100
AcDbLine
 10
6.806493643532736
 20
8.603331021757298
 30
0.0
 11
6.801731509644906
 21
8.603773339606339
 31
0.0
  0
LINE
  5
65BB
330
1F
100
AcDbEntity
  8
0
100
AcDbLine
 10
6.810872720827195
 20
8.601589669637112
 30
0.0
 11
6.806493643532736
 21
8.603331021757298
 31
0.0
  0
LINE
  5
65BC
330
1F
100
AcDbEntity
  8
0
100
AcDbLine
 10
6.814570314647436
 20
8.598667953515072
 30
0.0
 11
6.810872720827195
 21
8.601589669637112
 31
0.0
  0
LINE
  5
65BD
330
1F
100
AcDbEntity
  8
0
100
AcDbLine
 10
6.817334440085172
 20
8.594764983516506
 30
0.0
 11
6.814570314647436
 21
8.598667953515072
 31
0.0
  0
LINE
  5
65BE
330
1F
100
AcDbEntity
  8
0
100
AcDbLine
 10
6.81897672655975
 20
8.590146740596875
 30
0.0
 11
6.817334440085172
 21
8.594764983516506
 31
0.0
  0
LINE
  5
65BF
330
1F
100
AcDbEntity
  8
0
100
AcDbLine
 10
6.81938525496194
 20
8.585127950379137
 30
0.0
 11
6.81897672655975
 21
8.590146740596875
 31
0.0
  0
LINE
  5
65C0
330
1F
100
AcDbEntity
  8
0
100
AcDbLine
 10
6.818532184756261
 20
8.580050635122686
 30
0.0
 11
6.81938525496194
 21
8.585127950379137
 31
0.0
  0
LINE
  5
65C1
330
1F
100
AcDbEntity
  8
0
100
AcDbLine
 10
6.81647565126746
 20
8.575260805471589
 30
0.0
 11
6.818532184756261
 21
8.580050635122686
 31
0.0
  0
LINE
  5
65C2
330
1F
100
AcDbEntity
  8
0
100
AcDbLine
 10
6.813355803854211
 20
8.571084880401006
 30
0.0
 11
6.81647565126746
 21
8.575260805471589
 31
0.0
  0
LINE
  5
65C3
330
1F
100
AcDbEntity
  8
0
100
AcDbLine
 10
6.809385254961942
 20
8.56780744230345
 30
0.0
 11
6.813355803854211
 21
8.571084880401006
 31
0.0
  0
LINE
  5
65C4
330
1F
100
AcDbEntity
  8
0
100
AcDbLine
 10
6.804834590936021
 20
8.565651843169046
 30
0.0
 11
6.809385254961942
 21
8.56780744230345
 31
0.0
  0
LINE
  5
65C5
330
1F
100
AcDbEntity
  8
0
100
AcDbLine
 10
6.800013932009481
 20
8.564764983516507
 30
0.0
 11
6.804834590936021
 21
8.565651843169046
 31
0.0
  0
LINE
  5
65C6
330
1F
100
AcDbEntity
  8
0
100
AcDbLine
 10
6.795251798121654
 20
8.565207301365557
 30
0.0
 11
6.800013932009481
 21
8.564764983516507
 31
0.0
  0
LINE
  5
65C7
330
1F
100
AcDbEntity
  8
0
100
AcDbLine
 10
6.790872720827199
 20
8.566948653485738
 30
0.0
 11
6.795251798121654
 21
8.565207301365557
 31
0.0
  0
LINE
  5
65C8
330
1F
100
AcDbEntity
  8
0
100
AcDbLine
 10
6.787175127006953
 20
8.569870369607784
 30
0.0
 11
6.790872720827199
 21
8.566948653485738
 31
0.0
  0
LINE
  5
65C9
330
1F
100
AcDbEntity
  8
0
100
AcDbLine
 10
6.784411001569214
 20
8.573773339606344
 30
0.0
 11
6.787175127006953
 21
8.569870369607784
 31
0.0
  0
LINE
  5
65CA
330
1F
100
AcDbEntity
  8
0
100
AcDbLine
 10
6.782768715094636
 20
8.578391582525974
 30
0.0
 11
6.784411001569214
 21
8.573773339606344
 31
0.0
  0
LINE
  5
65CB
330
1F
100
AcDbEntity
  8
0
100
AcDbLine
 10
6.782360186692443
 20
8.583410372743713
 30
0.0
 11
6.782768715094636
 21
8.578391582525974
 31
0.0
  0
LINE
  5
65CC
330
1F
100
AcDbEntity
  8
0
100
AcDbLine
 10
6.783213256898129
 20
8.588487688000164
 30
0.0
 11
6.782360186692443
 21
8.583410372743713
 31
0.0
  0
LINE
  5
65CD
330
1F
100
AcDbEntity
  8
0
100
AcDbLine
 10
6.814632659712213
 20
8.599418867909712
 30
0.0
 11
6.810872720827195
 21
8.601589669637112
 31
0.0
  0
LINE
  5
65CE
330
1F
100
AcDbEntity
  8
0
100
AcDbLine
 10
6.794632659712213
 20
8.564777851758336
 30
0.0
 11
6.790872720827199
 21
8.566948653485738
 31
0.0
  0
LINE
  5
65CF
330
1F
100
AcDbEntity
  8
0
100
AcDbLine
 10
6.899532275582945
 20
8.685186538000646
 30
0.0
 11
6.895882704711986
 21
8.681823891801411
 31
0.0
  0
LINE
  5
65D0
330
1F
100
AcDbEntity
  8
0
100
AcDbLine
 10
6.904023824002145
 20
8.68758420273814
 30
0.0
 11
6.899532275582945
 21
8.685186538000646
 31
0.0
  0
LINE
  5
65D1
330
1F
100
AcDbEntity
  8
0
100
AcDbLine
 10
6.909051258367455
 20
8.688853489124365
 30
0.0
 11
6.904023824002145
 21
8.68758420273814
 31
0.0
  0
LINE
  5
65D2
330
1F
100
AcDbEntity
  8
0
100
AcDbLine
 10
6.914271967335096
 20
8.68890789738969
 30
0.0
 11
6.909051258367455
 21
8.688853489124365
 31
0.0
  0
LINE
  5
65D3
330
1F
100
AcDbEntity
  8
0
100
AcDbLine
 10
6.919330168216564
 20
8.687743719700748
 30
0.0
 11
6.914271967335096
 21
8.68890789738969
 31
0.0
  0
LINE
  5
65D4
330
1F
100
AcDbEntity
  8
0
100
AcDbLine
 10
6.923881152980854
 20
8.685440292843143
 30
0.0
 11
6.919330168216564
 21
8.687743719700748
 31
0.0
  0
LINE
  5
65D5
330
1F
100
AcDbEntity
  8
0
100
AcDbLine
 10
6.92761477953714
 20
8.682154591550634
 30
0.0
 11
6.923881152980854
 21
8.685440292843143
 31
0.0
  0
LINE
  5
65D6
330
1F
100
AcDbEntity
  8
0
100
AcDbLine
 10
6.930276607405719
 20
8.678110530936425
 30
0.0
 11
6.92761477953714
 21
8.682154591550634
 31
0.0
  0
LINE
  5
65D7
330
1F
100
AcDbEntity
  8
0
100
AcDbLine
 10
6.931685237416225
 20
8.673583707048251
 30
0.0
 11
6.930276607405719
 21
8.678110530936425
 31
0.0
  0
LINE
  5
65D8
330
1F
100
AcDbEntity
  8
0
100
AcDbLine
 10
6.931744673761318
 20
8.668882615453153
 30
0.0
 11
6.931685237416225
 21
8.673583707048251
 31
0.0
  0
LINE
  5
65D9
330
1F
100
AcDbEntity
  8
0
100
AcDbLine
 10
6.930450865952295
 20
8.664327627774422
 30
0.0
 11
6.931744673761318
 21
8.668882615453153
 31
0.0
  0
LINE
  5
65DA
330
1F
100
AcDbEntity
  8
0
100
AcDbLine
 10
6.927891984853232
 20
8.660229158894889
 30
0.0
 11
6.930450865952295
 21
8.664327627774422
 31
0.0
  0
LINE
  5
65DB
330
1F
100
AcDbEntity
  8
0
100
AcDbLine
 10
6.924242413982273
 20
8.656866512695653
 30
0.0
 11
6.927891984853232
 21
8.660229158894889
 31
0.0
  0
LINE
  5
65DC
330
1F
100
AcDbEntity
  8
0
100
AcDbLine
 10
6.919750865563074
 20
8.654468847958156
 30
0.0
 11
6.924242413982273
 21
8.656866512695653
 31
0.0
  0
LINE
  5
65DD
330
1F
100
AcDbEntity
  8
0
100
AcDbLine
 10
6.914723431197767
 20
8.653199561571934
 30
0.0
 11
6.919750865563074
 21
8.654468847958156
 31
0.0
  0
LINE
  5
65DE
330
1F
100
AcDbEntity
  8
0
100
AcDbLine
 10
6.909502722230122
 20
8.65314515330661
 30
0.0
 11
6.914723431197767
 21
8.653199561571934
 31
0.0
  0
LINE
  5
65DF
330
1F
100
AcDbEntity
  8
0
100
AcDbLine
 10
6.904444521348654
 20
8.654309330995554
 30
0.0
 11
6.909502722230122
 21
8.65314515330661
 31
0.0
  0
LINE
  5
65E0
330
1F
100
AcDbEntity
  8
0
100
AcDbLine
 10
6.899893536584364
 20
8.656612757853155
 30
0.0
 11
6.904444521348654
 21
8.654309330995554
 31
0.0
  0
LINE
  5
65E1
330
1F
100
AcDbEntity
  8
0
100
AcDbLine
 10
6.896159910028078
 20
8.659898459145665
 30
0.0
 11
6.899893536584364
 21
8.656612757853155
 31
0.0
  0
LINE
  5
65E2
330
1F
100
AcDbEntity
  8
0
100
AcDbLine
 10
6.893498082159499
 20
8.663942519759871
 30
0.0
 11
6.896159910028078
 21
8.659898459145665
 31
0.0
  0
LINE
  5
65E3
330
1F
100
AcDbEntity
  8
0
100
AcDbLine
 10
6.892089452148994
 20
8.66846934364805
 30
0.0
 11
6.893498082159499
 21
8.663942519759871
 31
0.0
  0
LINE
  5
65E4
330
1F
100
AcDbEntity
  8
0
100
AcDbLine
 10
6.8920300158039
 20
8.673170435243147
 30
0.0
 11
6.892089452148994
 21
8.66846934364805
 31
0.0
  0
LINE
  5
65E5
330
1F
100
AcDbEntity
  8
0
100
AcDbLine
 10
6.89332382361292
 20
8.677725422921879
 30
0.0
 11
6.8920300158039
 21
8.673170435243147
 31
0.0
  0
LINE
  5
65E6
330
1F
100
AcDbEntity
  8
0
100
AcDbLine
 10
6.895882704711986
 20
8.681823891801411
 30
0.0
 11
6.89332382361292
 21
8.677725422921879
 31
0.0
  0
LINE
  5
65E7
330
1F
100
AcDbEntity
  8
0
100
AcDbLine
 10
6.931748582517119
 20
8.664533472311273
 30
0.0
 11
6.931744673761318
 21
8.668882615453153
 31
0.0
  0
LINE
  5
65E8
330
1F
100
AcDbEntity
  8
0
100
AcDbLine
 10
6.892033924559697
 20
8.668821292101267
 30
0.0
 11
6.8920300158039
 21
8.673170435243147
 31
0.0
  0
LINE
  5
65E9
330
1F
100
AcDbEntity
  8
0
100
AcDbLine
 10
8.101055752798142
 20
8.686698317921425
 30
0.0
 11
8.095879925505169
 21
8.686080009320445
 31
0.0
  0
LINE
  5
65EA
330
1F
100
AcDbEntity
  8
0
100
AcDbLine
 10
8.106232683128119
 20
8.686089313774246
 30
0.0
 11
8.101055752798142
 21
8.686698317921425
 31
0.0
  0
LINE
  5
65EB
330
1F
100
AcDbEntity
  8
0
100
AcDbLine
 10
8.111057917248398
 20
8.684294499505108
 30
0.0
 11
8.106232683128119
 21
8.686089313774246
 31
0.0
  0
LINE
  5
65EC
330
1F
100
AcDbEntity
  8
0
100
AcDbLine
 10
8.115202623427755
 20
8.681436188740384
 30
0.0
 11
8.111057917248398
 21
8.684294499505108
 31
0.0
  0
LINE
  5
65ED
330
1F
100
AcDbEntity
  8
0
100
AcDbLine
 10
8.118384346789515
 20
8.677709170635107
 30
0.0
 11
8.115202623427755
 21
8.681436188740384
 31
0.0
  0
LINE
  5
65EE
330
1F
100
AcDbEntity
  8
0
100
AcDbLine
 10
8.120386258144627
 20
8.673367435313968
 30
0.0
 11
8.118384346789515
 21
8.677709170635107
 31
0.0
  0
LINE
  5
65EF
330
1F
100
AcDbEntity
  8
0
100
AcDbLine
 10
8.121071930542552
 20
8.668706864864031
 30
0.0
 11
8.120386258144627
 21
8.673367435313968
 31
0.0
  0
LINE
  5
65F0
330
1F
100
AcDbEntity
  8
0
100
AcDbLine
 10
8.120394636542496
 20
8.664045069459522
 30
0.0
 11
8.121071930542552
 21
8.668706864864031
 31
0.0
  0
LINE
  5
65F1
330
1F
100
AcDbEntity
  8
0
100
AcDbLine
 10
8.118400532611286
 20
8.659699742753261
 30
0.0
 11
8.120394636542496
 21
8.664045069459522
 31
0.0
  0
LINE
  5
65F2
330
1F
100
AcDbEntity
  8
0
100
AcDbLine
 10
8.115225513636421
 20
8.655967011579299
 30
0.0
 11
8.118400532611286
 21
8.659699742753261
 31
0.0
  0
LINE
  5
65F3
330
1F
100
AcDbEntity
  8
0
100
AcDbLine
 10
8.111085951914066
 20
8.653101255398503
 30
0.0
 11
8.115225513636421
 21
8.655967011579299
 31
0.0
  0
LINE
  5
65F4
330
1F
100
AcDbEntity
  8
0
100
AcDbLine
 10
8.106263951734657
 20
8.651297770758716
 30
0.0
 11
8.111085951914066
 21
8.653101255398503
 31
0.0
  0
LINE
  5
65F5
330
1F
100
AcDbEntity
  8
0
100
AcDbLine
 10
8.101088124441684
 20
8.650679462157732
 30
0.0
 11
8.106263951734657
 21
8.651297770758716
 31
0.0
  0
LINE
  5
65F6
330
1F
100
AcDbEntity
  8
0
100
AcDbLine
 10
8.095911194111703
 20
8.651288466304912
 30
0.0
 11
8.101088124441684
 21
8.650679462157732
 31
0.0
  0
LINE
  5
65F7
330
1F
100
AcDbEntity
  8
0
100
AcDbLine
 10
8.091085959991428
 20
8.653083280574051
 30
0.0
 11
8.095911194111703
 21
8.651288466304912
 31
0.0
  0
LINE
  5
65F8
330
1F
100
AcDbEntity
  8
0
100
AcDbLine
 10
8.086941253812067
 20
8.655941591338773
 30
0.0
 11
8.091085959991428
 21
8.653083280574051
 31
0.0
  0
LINE
  5
65F9
330
1F
100
AcDbEntity
  8
0
100
AcDbLine
 10
8.083759530450308
 20
8.65966860944405
 30
0.0
 11
8.086941253812067
 21
8.655941591338773
 31
0.0
  0
LINE
  5
65FA
330
1F
100
AcDbEntity
  8
0
100
AcDbLine
 10
8.081757619095196
 20
8.664010344765195
 30
0.0
 11
8.083759530450308
 21
8.65966860944405
 31
0.0
  0
LINE
  5
65FB
330
1F
100
AcDbEntity
  8
0
100
AcDbLine
 10
8.081071946697274
 20
8.668670915215127
 30
0.0
 11
8.081757619095196
 21
8.664010344765195
 31
0.0
  0
LINE
  5
65FC
330
1F
100
AcDbEntity
  8
0
100
AcDbLine
 10
8.081749240697323
 20
8.673332710619639
 30
0.0
 11
8.081071946697274
 21
8.668670915215127
 31
0.0
  0
LINE
  5
65FD
330
1F
100
AcDbEntity
  8
0
100
AcDbLine
 10
8.083743344628537
 20
8.677678037325899
 30
0.0
 11
8.081749240697323
 21
8.673332710619639
 31
0.0
  0
LINE
  5
65FE
330
1F
100
AcDbEntity
  8
0
100
AcDbLine
 10
8.086918363603405
 20
8.68141076849986
 30
0.0
 11
8.083743344628537
 21
8.677678037325899
 31
0.0
  0
LINE
  5
65FF
330
1F
100
AcDbEntity
  8
0
100
AcDbLine
 10
8.091057925325756
 20
8.684276524680658
 30
0.0
 11
8.086918363603405
 21
8.68141076849986
 31
0.0
  0
LINE
  5
6600
330
1F
100
AcDbEntity
  8
0
100
AcDbLine
 10
8.095879925505169
 20
8.686080009320445
 30
0.0
 11
8.091057925325756
 21
8.684276524680658
 31
0.0
  0
LINE
  5
6601
330
1F
100
AcDbEntity
  8
0
100
AcDbLine
 10
8.121075839298356
 20
8.664357721722154
 30
0.0
 11
8.121071930542552
 21
8.668706864864031
 31
0.0
  0
LINE
  5
6602
330
1F
100
AcDbEntity
  8
0
100
AcDbLine
 10
8.081075855453075
 20
8.664321772073249
 30
0.0
 11
8.081071946697274
 21
8.668670915215127
 31
0.0
  0
LINE
  5
6603
330
1F
100
AcDbEntity
  8
0
100
AcDbLine
 10
8.212534163040704
 20
8.566814581890707
 30
0.0
 11
8.217356744159548
 21
8.565936804022172
 31
0.0
  0
LINE
  5
6604
330
1F
100
AcDbEntity
  8
0
100
AcDbLine
 10
8.207979944623829
 20
8.568962008989879
 30
0.0
 11
8.212534163040704
 21
8.566814581890707
 31
0.0
  0
LINE
  5
6605
330
1F
100
AcDbEntity
  8
0
100
AcDbLine
 10
8.204004451367818
 20
8.572232741711671
 30
0.0
 11
8.207979944623829
 21
8.568962008989879
 31
0.0
  0
LINE
  5
6606
330
1F
100
AcDbEntity
  8
0
100
AcDbLine
 10
8.20087860656827
 20
8.576403885026234
 30
0.0
 11
8.204004451367818
 21
8.572232741711671
 31
0.0
  0
LINE
  5
6607
330
1F
100
AcDbEntity
  8
0
100
AcDbLine
 10
8.19881543138257
 20
8.581191182409821
 30
0.0
 11
8.20087860656827
 21
8.576403885026234
 31
0.0
  0
LINE
  5
6608
330
1F
100
AcDbEntity
  8
0
100
AcDbLine
 10
8.19795552779005
 20
8.586268387457128
 30
0.0
 11
8.19881543138257
 21
8.581191182409821
 31
0.0
  0
LINE
  5
6609
330
1F
100
AcDbEntity
  8
0
100
AcDbLine
 10
8.198357496799502
 20
8.591289497034654
 30
0.0
 11
8.19795552779005
 21
8.586268387457128
 31
0.0
  0
LINE
  5
660A
330
1F
100
AcDbEntity
  8
0
100
AcDbLine
 10
8.199993944887204
 20
8.595912330822464
 30
0.0
 11
8.198357496799502
 21
8.591289497034654
 31
0.0
  0
LINE
  5
660B
330
1F
100
AcDbEntity
  8
0
100
AcDbLine
 10
8.202753350820341
 20
8.599821850337516
 30
0.0
 11
8.199993944887204
 21
8.595912330822464
 31
0.0
  0
LINE
  5
660C
330
1F
100
AcDbEntity
  8
0
100
AcDbLine
 10
8.206447665644706
 20
8.602751628285648
 30
0.0
 11
8.202753350820341
 21
8.599821850337516
 31
0.0
  0
LINE
  5
660D
330
1F
100
AcDbEntity
  8
0
100
AcDbLine
 10
8.210825127910162
 20
8.60450200514138
 30
0.0
 11
8.206447665644706
 21
8.602751628285648
 31
0.0
  0
LINE
  5
660E
330
1F
100
AcDbEntity
  8
0
100
AcDbLine
 10
8.215587420797408
 20
8.604953695614627
 30
0.0
 11
8.210825127910162
 21
8.60450200514138
 31
0.0
  0
LINE
  5
660F
330
1F
100
AcDbEntity
  8
0
100
AcDbLine
 10
8.220410001916253
 20
8.604075917746094
 30
0.0
 11
8.215587420797408
 21
8.604953695614627
 31
0.0
  0
LINE
  5
6610
330
1F
100
AcDbEntity
  8
0
100
AcDbLine
 10
8.224964220333138
 20
8.601928490646919
 30
0.0
 11
8.220410001916253
 21
8.604075917746094
 31
0.0
  0
LINE
  5
6611
330
1F
100
AcDbEntity
  8
0
100
AcDbLine
 10
8.228939713589138
 20
8.598657757925128
 30
0.0
 11
8.224964220333138
 21
8.601928490646919
 31
0.0
  0
LINE
  5
6612
330
1F
100
AcDbEntity
  8
0
100
AcDbLine
 10
8.23206555838869
 20
8.594486614610563
 30
0.0
 11
8.228939713589138
 21
8.598657757925128
 31
0.0
  0
LINE
  5
6613
330
1F
100
AcDbEntity
  8
0
100
AcDbLine
 10
8.23412873357439
 20
8.589699317226974
 30
0.0
 11
8.23206555838869
 21
8.594486614610563
 31
0.0
  0
LINE
  5
6614
330
1F
100
AcDbEntity
  8
0
100
AcDbLine
 10
8.234988637166903
 20
8.584622112179673
 30
0.0
 11
8.23412873357439
 21
8.589699317226974
 31
0.0
  0
LINE
  5
6615
330
1F
100
AcDbEntity
  8
0
100
AcDbLine
 10
8.234586668157461
 20
8.579601002602149
 30
0.0
 11
8.234988637166903
 21
8.584622112179673
 31
0.0
  0
LINE
  5
6616
330
1F
100
AcDbEntity
  8
0
100
AcDbLine
 10
8.232950220069756
 20
8.574978168814338
 30
0.0
 11
8.234586668157461
 21
8.579601002602149
 31
0.0
  0
LINE
  5
6617
330
1F
100
AcDbEntity
  8
0
100
AcDbLine
 10
8.230190814136616
 20
8.571068649299284
 30
0.0
 11
8.232950220069756
 21
8.574978168814338
 31
0.0
  0
LINE
  5
6618
330
1F
100
AcDbEntity
  8
0
100
AcDbLine
 10
8.226496499312251
 20
8.568138871351148
 30
0.0
 11
8.230190814136616
 21
8.571068649299284
 31
0.0
  0
LINE
  5
6619
330
1F
100
AcDbEntity
  8
0
100
AcDbLine
 10
8.222119037046798
 20
8.56638849449542
 30
0.0
 11
8.226496499312251
 21
8.568138871351148
 31
0.0
  0
LINE
  5
661A
330
1F
100
AcDbEntity
  8
0
100
AcDbLine
 10
8.217356744159548
 20
8.565936804022172
 30
0.0
 11
8.222119037046798
 21
8.56638849449542
 31
0.0
  0
LINE
  5
661B
330
1F
100
AcDbEntity
  8
0
100
AcDbLine
 10
8.202694181390686
 20
8.60058696970729
 30
0.0
 11
8.206447665644706
 21
8.602751628285648
 31
0.0
  0
LINE
  5
661C
330
1F
100
AcDbEntity
  8
0
100
AcDbLine
 10
8.222743015058235
 20
8.565974212772797
 30
0.0
 11
8.226496499312251
 21
8.568138871351148
 31
0.0
  0
LINE
  5
661D
330
1F
100
AcDbEntity
  8
0
100
AcDbLine
 10
8.791895721697809
 20
7.545629648121797
 30
0.0
 11
8.79259277058281
 21
7.550587454832462
 31
0.0
  0
LINE
  5
661E
330
1F
100
AcDbEntity
  8
0
100
AcDbLine
 10
8.79259277058281
 20
7.550587454832462
 30
0.0
 11
8.79450551115406
 21
7.555069850342135
 31
0.0
  0
LINE
  5
661F
330
1F
100
AcDbEntity
  8
0
100
AcDbLine
 10
8.79450551115406
 20
7.555069850342135
 30
0.0
 11
8.797503593302582
 21
7.558771366804339
 31
0.0
  0
LINE
  5
6620
330
1F
100
AcDbEntity
  8
0
100
AcDbLine
 10
8.797503593302582
 20
7.558771366804339
 30
0.0
 11
8.80138270268452
 21
7.561439751989218
 31
0.0
  0
LINE
  5
6621
330
1F
100
AcDbEntity
  8
0
100
AcDbLine
 10
8.80138270268452
 20
7.561439751989218
 30
0.0
 11
8.805878484406015
 21
7.562893159856141
 31
0.0
  0
LINE
  5
6622
330
1F
100
AcDbEntity
  8
0
100
AcDbLine
 10
8.805878484406015
 20
7.562893159856141
 30
0.0
 11
8.810684558372404
 21
7.563032543060844
 31
0.0
  0
LINE
  5
6623
330
1F
100
AcDbEntity
  8
0
100
AcDbLine
 10
8.810684558372404
 20
7.563032543060844
 30
0.0
 11
8.815473398585258
 21
7.561848402868273
 31
0.0
  0
LINE
  5
6624
330
1F
100
AcDbEntity
  8
0
100
AcDbLine
 10
8.815473398585258
 20
7.561848402868273
 30
0.0
 11
8.819918653498024
 21
7.559421436475664
 31
0.0
  0
LINE
  5
6625
330
1F
100
AcDbEntity
  8
0
100
AcDbLine
 10
8.819918653498024
 20
7.559421436475664
 30
0.0
 11
8.823717386334525
 21
7.555917037631921
 31
0.0
  0
LINE
  5
6626
330
1F
100
AcDbEntity
  8
0
100
AcDbLine
 10
8.823717386334525
 20
7.555917037631921
 30
0.0
 11
8.82661071972965
 21
7.551574025326953
 31
0.0
  0
LINE
  5
6627
330
1F
100
AcDbEntity
  8
0
100
AcDbLine
 10
8.82661071972965
 20
7.551574025326953
 30
0.0
 11
8.828401477793985
 21
7.546688368672176
 31
0.0
  0
LINE
  5
6628
330
1F
100
AcDbEntity
  8
0
100
AcDbLine
 10
8.828401477793985
 20
7.546688368672176
 30
0.0
 11
8.828967623324817
 21
7.541593017094687
 31
0.0
  0
LINE
  5
6629
330
1F
100
AcDbEntity
  8
0
100
AcDbLine
 10
8.828967623324817
 20
7.541593017094687
 30
0.0
 11
8.828270574439816
 21
7.536635210384019
 31
0.0
  0
LINE
  5
662A
330
1F
100
AcDbEntity
  8
0
100
AcDbLine
 10
8.828270574439816
 20
7.536635210384019
 30
0.0
 11
8.826357833868563
 21
7.532152814874349
 31
0.0
  0
LINE
  5
662B
330
1F
100
AcDbEntity
  8
0
100
AcDbLine
 10
8.826357833868563
 20
7.532152814874349
 30
0.0
 11
8.823359751720044
 21
7.528451298412148
 31
0.0
  0
LINE
  5
662C
330
1F
100
AcDbEntity
  8
0
100
AcDbLine
 10
8.823359751720044
 20
7.528451298412148
 30
0.0
 11
8.81948064233811
 21
7.525782913227266
 31
0.0
  0
LINE
  5
662D
330
1F
100
AcDbEntity
  8
0
100
AcDbLine
 10
8.81948064233811
 20
7.525782913227266
 30
0.0
 11
8.814984860616608
 21
7.524329505360343
 31
0.0
  0
LINE
  5
662E
330
1F
100
AcDbEntity
  8
0
100
AcDbLine
 10
8.814984860616608
 20
7.524329505360343
 30
0.0
 11
8.810178786650229
 21
7.52419012215564
 31
0.0
  0
LINE
  5
662F
330
1F
100
AcDbEntity
  8
0
100
AcDbLine
 10
8.810178786650229
 20
7.52419012215564
 30
0.0
 11
8.805389946437369
 21
7.525374262348211
 31
0.0
  0
LINE
  5
6630
330
1F
100
AcDbEntity
  8
0
100
AcDbLine
 10
8.805389946437369
 20
7.525374262348211
 30
0.0
 11
8.800944691524602
 21
7.527801228740821
 31
0.0
  0
LINE
  5
6631
330
1F
100
AcDbEntity
  8
0
100
AcDbLine
 10
8.800944691524602
 20
7.527801228740821
 30
0.0
 11
8.797145958688105
 21
7.531305627584564
 31
0.0
  0
LINE
  5
6632
330
1F
100
AcDbEntity
  8
0
100
AcDbLine
 10
8.797145958688105
 20
7.531305627584564
 30
0.0
 11
8.794252625292973
 21
7.535648639889531
 31
0.0
  0
LINE
  5
6633
330
1F
100
AcDbEntity
  8
0
100
AcDbLine
 10
8.794252625292973
 20
7.535648639889531
 30
0.0
 11
8.792461867228634
 21
7.540534296544308
 31
0.0
  0
LINE
  5
6634
330
1F
100
AcDbEntity
  8
0
100
AcDbLine
 10
8.792461867228634
 20
7.540534296544308
 30
0.0
 11
8.791895721697809
 21
7.545629648121797
 31
0.0
  0
LINE
  5
6635
330
1F
100
AcDbEntity
  8
0
100
AcDbLine
 10
8.7976292184305
 20
7.559275093410859
 30
0.0
 11
8.80138270268452
 21
7.561439751989218
 31
0.0
  0
LINE
  5
6636
330
1F
100
AcDbEntity
  8
0
100
AcDbLine
 10
8.815727158084094
 20
7.523618254648905
 30
0.0
 11
8.81948064233811
 21
7.525782913227266
 31
0.0
  0
LINE
  5
6637
330
1F
100
AcDbEntity
  8
0
100
AcDbLine
 10
8.788141233340127
 20
7.426982184814033
 30
0.0
 11
8.789475672869489
 21
7.431988664683984
 31
0.0
  0
LINE
  5
6638
330
1F
100
AcDbEntity
  8
0
100
AcDbLine
 10
8.789475672869489
 20
7.431988664683984
 30
0.0
 11
8.791969882582396
 21
7.436574972575908
 31
0.0
  0
LINE
  5
6639
330
1F
100
AcDbEntity
  8
0
100
AcDbLine
 10
8.791969882582396
 20
7.436574972575908
 30
0.0
 11
8.795453886208807
 21
7.440428559186207
 31
0.0
  0
LINE
  5
663A
330
1F
100
AcDbEntity
  8
0
100
AcDbLine
 10
8.795453886208807
 20
7.440428559186207
 30
0.0
 11
8.799690254659157
 21
7.443286808955733
 31
0.0
  0
LINE
  5
663B
330
1F
100
AcDbEntity
  8
0
100
AcDbLine
 10
8.799690254659157
 20
7.443286808955733
 30
0.0
 11
8.804390286424492
 21
7.444954936886177
 31
0.0
  0
LINE
  5
663C
330
1F
100
AcDbEntity
  8
0
100
AcDbLine
 10
8.804390286424492
 20
7.444954936886177
 30
0.0
 11
8.809233682107169
 21
7.445319262815793
 31
0.0
  0
LINE
  5
663D
330
1F
100
AcDbEntity
  8
0
100
AcDbLine
 10
8.809233682107169
 20
7.445319262815793
 30
0.0
 11
8.81389037229551
 21
7.444354958534555
 31
0.0
  0
LINE
  5
663E
330
1F
100
AcDbEntity
  8
0
100
AcDbLine
 10
8.81389037229551
 20
7.444354958534555
 30
0.0
 11
8.818043011248715
 21
7.442127739785641
 31
0.0
  0
LINE
  5
663F
330
1F
100
AcDbEntity
  8
0
100
AcDbLine
 10
8.818043011248715
 20
7.442127739785641
 30
0.0
 11
8.821408603484695
 21
7.438789387846133
 31
0.0
  0
LINE
  5
6640
330
1F
100
AcDbEntity
  8
0
100
AcDbLine
 10
8.821408603484695
 20
7.438789387846133
 30
0.0
 11
8.823757789454457
 21
7.434567405883825
 31
0.0
  0
LINE
  5
6641
330
1F
100
AcDbEntity
  8
0
100
AcDbLine
 10
8.823757789454457
 20
7.434567405883825
 30
0.0
 11
8.82493047601639
 21
7.429749514992294
 31
0.0
  0
LINE
  5
6642
330
1F
100
AcDbEntity
  8
0
100
AcDbLine
 10
8.82493047601639
 20
7.429749514992294
 30
0.0
 11
8.824846746519245
 21
7.424664046473853
 31
0.0
  0
LINE
  5
6643
330
1F
100
AcDbEntity
  8
0
100
AcDbLine
 10
8.824846746519245
 20
7.424664046473853
 30
0.0
 11
8.823512306989886
 21
7.419657566603897
 31
0.0
  0
LINE
  5
6644
330
1F
100
AcDbEntity
  8
0
100
AcDbLine
 10
8.823512306989886
 20
7.419657566603897
 30
0.0
 11
8.821018097276972
 21
7.415071258711975
 31
0.0
  0
LINE
  5
6645
330
1F
100
AcDbEntity
  8
0
100
AcDbLine
 10
8.821018097276972
 20
7.415071258711975
 30
0.0
 11
8.817534093650568
 21
7.411217672101677
 31
0.0
  0
LINE
  5
6646
330
1F
100
AcDbEntity
  8
0
100
AcDbLine
 10
8.817534093650568
 20
7.411217672101677
 30
0.0
 11
8.813297725200211
 21
7.408359422332153
 31
0.0
  0
LINE
  5
6647
330
1F
100
AcDbEntity
  8
0
100
AcDbLine
 10
8.813297725200211
 20
7.408359422332153
 30
0.0
 11
8.808597693434879
 21
7.406691294401706
 31
0.0
  0
LINE
  5
6648
330
1F
100
AcDbEntity
  8
0
100
AcDbLine
 10
8.808597693434879
 20
7.406691294401706
 30
0.0
 11
8.803754297752199
 21
7.406326968472089
 31
0.0
  0
LINE
  5
6649
330
1F
100
AcDbEntity
  8
0
100
AcDbLine
 10
8.803754297752199
 20
7.406326968472089
 30
0.0
 11
8.799097607563862
 21
7.407291272753325
 31
0.0
  0
LINE
  5
664A
330
1F
100
AcDbEntity
  8
0
100
AcDbLine
 10
8.799097607563862
 20
7.407291272753325
 30
0.0
 11
8.794944968610657
 21
7.409518491502242
 31
0.0
  0
LINE
  5
664B
330
1F
100
AcDbEntity
  8
0
100
AcDbLine
 10
8.794944968610657
 20
7.409518491502242
 30
0.0
 11
8.791579376374681
 21
7.412856843441747
 31
0.0
  0
LINE
  5
664C
330
1F
100
AcDbEntity
  8
0
100
AcDbLine
 10
8.791579376374681
 20
7.412856843441747
 30
0.0
 11
8.789230190404918
 21
7.417078825404056
 31
0.0
  0
LINE
  5
664D
330
1F
100
AcDbEntity
  8
0
100
AcDbLine
 10
8.789230190404918
 20
7.417078825404056
 30
0.0
 11
8.788057503842985
 21
7.421896716295589
 31
0.0
  0
LINE
  5
664E
330
1F
100
AcDbEntity
  8
0
100
AcDbLine
 10
8.788057503842985
 20
7.421896716295589
 30
0.0
 11
8.788141233340127
 21
7.426982184814033
 31
0.0
  0
LINE
  5
664F
330
1F
100
AcDbEntity
  8
0
100
AcDbLine
 10
8.814312380861736
 20
7.444281620243812
 30
0.0
 11
8.818043011248715
 21
7.442127739785641
 31
0.0
  0
LINE
  5
6650
330
1F
100
AcDbEntity
  8
0
100
AcDbLine
 10
8.791214338223678
 20
7.411672371960412
 30
0.0
 11
8.794944968610657
 21
7.409518491502242
 31
0.0
  0
LINE
  5
6651
330
1F
100
AcDbEntity
  8
0
100
AcDbLine
 10
7.509699209598831
 20
7.382475398076123
 30
0.0
 11
7.504788004992597
 21
7.380874467544047
 31
0.0
  0
LINE
  5
6652
330
1F
100
AcDbEntity
  8
0
100
AcDbLine
 10
7.504788004992597
 20
7.380874467544047
 30
0.0
 11
7.499585560473519
 21
7.380476261149839
 31
0.0
  0
LINE
  5
6653
330
1F
100
AcDbEntity
  8
0
100
AcDbLine
 10
7.499585560473519
 20
7.380476261149839
 30
0.0
 11
7.494446414038115
 21
7.381307916001199
 31
0.0
  0
LINE
  5
6654
330
1F
100
AcDbEntity
  8
0
100
AcDbLine
 10
7.494446414038115
 20
7.381307916001199
 30
0.0
 11
7.489720790023127
 21
7.383312756194372
 31
0.0
  0
LINE
  5
6655
330
1F
100
AcDbEntity
  8
0
100
AcDbLine
 10
7.489720790023127
 20
7.383312756194372
 30
0.0
 11
7.485730731895706
 21
7.386354155183357
 31
0.0
  0
LINE
  5
6656
330
1F
100
AcDbEntity
  8
0
100
AcDbLine
 10
7.485730731895706
 20
7.386354155183357
 30
0.0
 11
7.482748155523349
 21
7.3902248466532
 31
0.0
  0
LINE
  5
6657
330
1F
100
AcDbEntity
  8
0
100
AcDbLine
 10
7.482748155523349
 20
7.3902248466532
 30
0.0
 11
7.480976318556901
 21
7.394661049376851
 31
0.0
  0
LINE
  5
6658
330
1F
100
AcDbEntity
  8
0
100
AcDbLine
 10
7.480976318556901
 20
7.394661049376851
 30
0.0
 11
7.480535968757525
 21
7.399360443469865
 31
0.0
  0
LINE
  5
6659
330
1F
100
AcDbEntity
  8
0
100
AcDbLine
 10
7.480535968757525
 20
7.399360443469865
 30
0.0
 11
7.481457115236331
 21
7.404002772990925
 31
0.0
  0
LINE
  5
665A
330
1F
100
AcDbEntity
  8
0
100
AcDbLine
 10
7.481457115236331
 20
7.404002772990925
 30
0.0
 11
7.483676983383055
 21
7.408271670854974
 31
0.0
  0
LINE
  5
665B
330
1F
100
AcDbEntity
  8
0
100
AcDbLine
 10
7.483676983383055
 20
7.408271670854974
 30
0.0
 11
7.487044292852012
 21
7.411876218727273
 31
0.0
  0
LINE
  5
665C
330
1F
100
AcDbEntity
  8
0
100
AcDbLine
 10
7.487044292852012
 20
7.411876218727273
 30
0.0
 11
7.491329567067623
 21
7.414570772627113
 31
0.0
  0
LINE
  5
665D
330
1F
100
AcDbEntity
  8
0
100
AcDbLine
 10
7.491329567067623
 20
7.414570772627113
 30
0.0
 11
7.496240771673857
 21
7.416171703159187
 31
0.0
  0
LINE
  5
665E
330
1F
100
AcDbEntity
  8
0
100
AcDbLine
 10
7.496240771673857
 20
7.416171703159187
 30
0.0
 11
7.501443216192932
 21
7.416569909553395
 31
0.0
  0
LINE
  5
665F
330
1F
100
AcDbEntity
  8
0
100
AcDbLine
 10
7.501443216192932
 20
7.416569909553395
 30
0.0
 11
7.506582362628336
 21
7.415738254702038
 31
0.0
  0
LINE
  5
6660
330
1F
100
AcDbEntity
  8
0
100
AcDbLine
 10
7.506582362628336
 20
7.415738254702038
 30
0.0
 11
7.51130798664333
 21
7.413733414508863
 31
0.0
  0
LINE
  5
6661
330
1F
100
AcDbEntity
  8
0
100
AcDbLine
 10
7.51130798664333
 20
7.413733414508863
 30
0.0
 11
7.515298044770752
 21
7.41069201551988
 31
0.0
  0
LINE
  5
6662
330
1F
100
AcDbEntity
  8
0
100
AcDbLine
 10
7.515298044770752
 20
7.41069201551988
 30
0.0
 11
7.518280621143105
 21
7.406821324050037
 31
0.0
  0
LINE
  5
6663
330
1F
100
AcDbEntity
  8
0
100
AcDbLine
 10
7.518280621143105
 20
7.406821324050037
 30
0.0
 11
7.52005245810955
 21
7.402385121326386
 31
0.0
  0
LINE
  5
6664
330
1F
100
AcDbEntity
  8
0
100
AcDbLine
 10
7.52005245810955
 20
7.402385121326386
 30
0.0
 11
7.520492807908926
 21
7.397685727233368
 31
0.0
  0
LINE
  5
6665
330
1F
100
AcDbEntity
  8
0
100
AcDbLine
 10
7.520492807908926
 20
7.397685727233368
 30
0.0
 11
7.51957166143012
 21
7.393043397712312
 31
0.0
  0
LINE
  5
6666
330
1F
100
AcDbEntity
  8
0
100
AcDbLine
 10
7.51957166143012
 20
7.393043397712312
 30
0.0
 11
7.517351793283392
 21
7.388774499848262
 31
0.0
  0
LINE
  5
6667
330
1F
100
AcDbEntity
  8
0
100
AcDbLine
 10
7.517351793283392
 20
7.388774499848262
 30
0.0
 11
7.513984483814439
 21
7.385169951975965
 31
0.0
  0
LINE
  5
6668
330
1F
100
AcDbEntity
  8
0
100
AcDbLine
 10
7.513984483814439
 20
7.385169951975965
 30
0.0
 11
7.509699209598831
 21
7.382475398076123
 31
0.0
  0
LINE
  5
6669
330
1F
100
AcDbEntity
  8
0
100
AcDbLine
 10
7.480534028051863
 20
7.403650284823966
 30
0.0
 11
7.480535968757525
 21
7.399360443469865
 31
0.0
  0
LINE
  5
666A
330
1F
100
AcDbEntity
  8
0
100
AcDbLine
 10
7.520490867203267
 20
7.401975568587465
 30
0.0
 11
7.520492807908926
 21
7.397685727233368
 31
0.0
  0
LINE
  5
666B
330
1F
100
AcDbEntity
  8
0
100
AcDbLine
 10
7.393118121790216
 20
7.427287838499688
 30
0.0
 11
7.389317965021536
 21
7.430159656945037
 31
0.0
  0
LINE
  5
666C
330
1F
100
AcDbEntity
  8
0
100
AcDbLine
 10
7.389317965021536
 20
7.430159656945037
 30
0.0
 11
7.386268803353523
 21
7.433907291251381
 31
0.0
  0
LINE
  5
666D
330
1F
100
AcDbEntity
  8
0
100
AcDbLine
 10
7.386268803353523
 20
7.433907291251381
 30
0.0
 11
7.384178432114879
 21
7.438275346334009
 31
0.0
  0
LINE
  5
666E
330
1F
100
AcDbEntity
  8
0
100
AcDbLine
 10
7.384178432114879
 20
7.438275346334009
 30
0.0
 11
7.383189306651015
 21
7.44296614645759
 31
0.0
  0
LINE
  5
666F
330
1F
100
AcDbEntity
  8
0
100
AcDbLine
 10
7.383189306651015
 20
7.44296614645759
 30
0.0
 11
7.383368834227685
 21
7.447660021345608
 31
0.0
  0
LINE
  5
6670
330
1F
100
AcDbEntity
  8
0
100
AcDbLine
 10
7.383368834227685
 20
7.447660021345608
 30
0.0
 11
7.38470478033723
 21
7.452037091181448
 31
0.0
  0
LINE
  5
6671
330
1F
100
AcDbEntity
  8
0
100
AcDbLine
 10
7.38470478033723
 20
7.452037091181448
 30
0.0
 11
7.38710610246003
 21
7.455799065889245
 31
0.0
  0
LINE
  5
6672
330
1F
100
AcDbEntity
  8
0
100
AcDbLine
 10
7.38710610246003
 20
7.455799065889245
 30
0.0
 11
7.390409154461792
 21
7.458689573109621
 31
0.0
  0
LINE
  5
6673
330
1F
100
AcDbEntity
  8
0
100
AcDbLine
 10
7.390409154461792
 20
7.458689573109621
 30
0.0
 11
7.394388838807145
 21
7.460511629552297
 31
0.0
  0
LINE
  5
6674
330
1F
100
AcDbEntity
  8
0
100
AcDbLine
 10
7.394388838807145
 20
7.460511629552297
 30
0.0
 11
7.398773946584697
 21
7.461141065081789
 31
0.0
  0
LINE
  5
6675
330
1F
100
AcDbEntity
  8
0
100
AcDbLine
 10
7.398773946584697
 20
7.461141065081789
 30
0.0
 11
7.403265639946141
 21
7.460534984706962
 31
0.0
  0
LINE
  5
6676
330
1F
100
AcDbEntity
  8
0
100
AcDbLine
 10
7.403265639946141
 20
7.460534984706962
 30
0.0
 11
7.407557817411767
 21
7.458734691803758
 31
0.0
  0
LINE
  5
6677
330
1F
100
AcDbEntity
  8
0
100
AcDbLine
 10
7.407557817411767
 20
7.458734691803758
 30
0.0
 11
7.41135797418045
 21
7.455862873358411
 31
0.0
  0
LINE
  5
6678
330
1F
100
AcDbEntity
  8
0
100
AcDbLine
 10
7.41135797418045
 20
7.455862873358411
 30
0.0
 11
7.414407135848467
 21
7.452115239052065
 31
0.0
  0
LINE
  5
6679
330
1F
100
AcDbEntity
  8
0
100
AcDbLine
 10
7.414407135848467
 20
7.452115239052065
 30
0.0
 11
7.416497507087107
 21
7.447747183969437
 31
0.0
  0
LINE
  5
667A
330
1F
100
AcDbEntity
  8
0
100
AcDbLine
 10
7.416497507087107
 20
7.447747183969437
 30
0.0
 11
7.417486632550971
 21
7.443056383845858
 31
0.0
  0
LINE
  5
667B
330
1F
100
AcDbEntity
  8
0
100
AcDbLine
 10
7.417486632550971
 20
7.443056383845858
 30
0.0
 11
7.417307104974298
 21
7.438362508957839
 31
0.0
  0
LINE
  5
667C
330
1F
100
AcDbEntity
  8
0
100
AcDbLine
 10
7.417307104974298
 20
7.438362508957839
 30
0.0
 11
7.415971158864756
 21
7.433985439121997
 31
0.0
  0
LINE
  5
667D
330
1F
100
AcDbEntity
  8
0
100
AcDbLine
 10
7.415971158864756
 20
7.433985439121997
 30
0.0
 11
7.413569836741952
 21
7.430223464414199
 31
0.0
  0
LINE
  5
667E
330
1F
100
AcDbEntity
  8
0
100
AcDbLine
 10
7.413569836741952
 20
7.430223464414199
 30
0.0
 11
7.410266784740198
 21
7.427332957193825
 31
0.0
  0
LINE
  5
667F
330
1F
100
AcDbEntity
  8
0
100
AcDbLine
 10
7.410266784740198
 20
7.427332957193825
 30
0.0
 11
7.406287100394841
 21
7.425510900751149
 31
0.0
  0
LINE
  5
6680
330
1F
100
AcDbEntity
  8
0
100
AcDbLine
 10
7.406287100394841
 20
7.425510900751149
 30
0.0
 11
7.401901992617286
 21
7.424881465221655
 31
0.0
  0
LINE
  5
6681
330
1F
100
AcDbEntity
  8
0
100
AcDbLine
 10
7.401901992617286
 20
7.424881465221655
 30
0.0
 11
7.397410299255842
 21
7.425487545596488
 31
0.0
  0
LINE
  5
6682
330
1F
100
AcDbEntity
  8
0
100
AcDbLine
 10
7.397410299255842
 20
7.425487545596488
 30
0.0
 11
7.393118121790216
 21
7.427287838499688
 31
0.0
  0
LINE
  5
6683
330
1F
100
AcDbEntity
  8
0
100
AcDbLine
 10
7.394142204610115
 20
7.460834054648642
 30
0.0
 11
7.390409154461792
 21
7.458689573109621
 31
0.0
  0
LINE
  5
6684
330
1F
100
AcDbEntity
  8
0
100
AcDbLine
 10
7.413999834888524
 20
7.429477438732843
 30
0.0
 11
7.410266784740198
 21
7.427332957193825
 31
0.0
  0
LINE
  5
6685
330
1F
100
AcDbEntity
  8
0
100
AcDbLine
 10
7.401748083835997
 20
7.560912126844112
 30
0.0
 11
7.404558553480441
 21
7.564673948848145
 31
0.0
  0
LINE
  5
6686
330
1F
100
AcDbEntity
  8
0
100
AcDbLine
 10
7.404558553480441
 20
7.564673948848145
 30
0.0
 11
7.408135365309803
 21
7.567626381792663
 31
0.0
  0
LINE
  5
6687
330
1F
100
AcDbEntity
  8
0
100
AcDbLine
 10
7.408135365309803
 20
7.567626381792663
 30
0.0
 11
7.412234765508877
 21
7.569568222251628
 31
0.0
  0
LINE
  5
6688
330
1F
100
AcDbEntity
  8
0
100
AcDbLine
 10
7.412234765508877
 20
7.569568222251628
 30
0.0
 11
7.416577386728665
 21
7.570367137006803
 31
0.0
  0
LINE
  5
6689
330
1F
100
AcDbEntity
  8
0
100
AcDbLine
 10
7.416577386728665
 20
7.570367137006803
 30
0.0
 11
7.420867286509572
 21
7.569968681337891
 31
0.0
  0
LINE
  5
668A
330
1F
100
AcDbEntity
  8
0
100
AcDbLine
 10
7.420867286509572
 20
7.569968681337891
 30
0.0
 11
7.42481211527091
 21
7.568400009340255
 31
0.0
  0
LINE
  5
668B
330
1F
100
AcDbEntity
  8
0
100
AcDbLine
 10
7.42481211527091
 20
7.568400009340255
 30
0.0
 11
7.42814303945174
 21
7.565768023418173
 31
0.0
  0
LINE
  5
668C
330
1F
100
AcDbEntity
  8
0
100
AcDbLine
 10
7.42814303945174
 20
7.565768023418173
 30
0.0
 11
7.430633062073749
 21
7.562252089062678
 31
0.0
  0
LINE
  5
668D
330
1F
100
AcDbEntity
  8
0
100
AcDbLine
 10
7.430633062073749
 20
7.562252089062678
 30
0.0
 11
7.432112492210205
 21
7.558091811389739
 31
0.0
  0
LINE
  5
668E
330
1F
100
AcDbEntity
  8
0
100
AcDbLine
 10
7.432112492210205
 20
7.558091811389739
 30
0.0
 11
7.43248050914218
 21
7.553570706447581
 31
0.0
  0
LINE
  5
668F
330
1F
100
AcDbEntity
  8
0
100
AcDbLine
 10
7.43248050914218
 20
7.553570706447581
 30
0.0
 11
7.431712033123936
 21
7.548996880066537
 31
0.0
  0
LINE
  5
6690
330
1F
100
AcDbEntity
  8
0
100
AcDbLine
 10
7.431712033123936
 20
7.548996880066537
 30
0.0
 11
7.430341852138498
 21
7.545805619847754
 31
0.0
  0
LINE
  5
669C
330
1F
100
AcDbEntity
  8
0
100
AcDbLine
 10
7.400937427389526
 20
7.559024043666623
 30
0.0
 11
7.401748083835997
 21
7.560912126844112
 31
0.0
  0
LINE
  5
669D
330
1F
100
AcDbEntity
  8
0
100
AcDbLine
 10
7.428572054155928
 20
7.566229207612854
 30
0.0
 11
7.42481211527091
 21
7.568400009340255
 31
0.0
  0
LINE
  5
669F
330
1F
100
AcDbEntity
  8
0
100
AcDbLine
 10
7.494898448562068
 20
7.641764389381537
 30
0.0
 11
7.500062252244148
 21
7.64107098858784
 31
0.0
  0
LINE
  5
66A0
330
1F
100
AcDbEntity
  8
0
100
AcDbLine
 10
7.500062252244148
 20
7.64107098858784
 30
0.0
 11
7.504850549846135
 21
7.639197708581582
 31
0.0
  0
LINE
  5
66A1
330
1F
100
AcDbEntity
  8
0
100
AcDbLine
 10
7.504850549846135
 20
7.639197708581582
 30
0.0
 11
7.508937026799479
 21
7.636272210299448
 31
0.0
  0
LINE
  5
66A2
330
1F
100
AcDbEntity
  8
0
100
AcDbLine
 10
7.508937026799479
 20
7.636272210299448
 30
0.0
 11
7.512043196453035
 21
7.632493861614751
 31
0.0
  0
LINE
  5
66A3
330
1F
100
AcDbEntity
  8
0
100
AcDbLine
 10
7.512043196453035
 20
7.632493861614751
 30
0.0
 11
7.513957378478107
 21
7.628120150746337
 31
0.0
  0
LINE
  5
66A4
330
1F
100
AcDbEntity
  8
0
100
AcDbLine
 10
7.513957378478107
 20
7.628120150746337
 30
0.0
 11
7.514549124533008
 21
7.623449138861988
 31
0.0
  0
LINE
  5
66A5
330
1F
100
AcDbEntity
  8
0
100
AcDbLine
 10
7.514549124533008
 20
7.623449138861988
 30
0.0
 11
7.51377810810202
 21
7.618799147702415
 31
0.0
  0
LINE
  5
66A6
330
1F
100
AcDbEntity
  8
0
100
AcDbLine
 10
7.51377810810202
 20
7.618799147702415
 30
0.0
 11
7.511696872680733
 21
7.614487066480664
 31
0.0
  0
LINE
  5
66A7
330
1F
100
AcDbEntity
  8
0
100
AcDbLine
 10
7.511696872680733
 20
7.614487066480664
 30
0.0
 11
7.508447251023721
 21
7.610806756405948
 31
0.0
  0
LINE
  5
66A8
330
1F
100
AcDbEntity
  8
0
100
AcDbLine
 10
7.508447251023721
 20
7.610806756405948
 30
0.0
 11
7.504250699476639
 21
7.608009024527862
 31
0.0
  0
LINE
  5
66A9
330
1F
100
AcDbEntity
  8
0
100
AcDbLine
 10
7.504250699476639
 20
7.608009024527862
 30
0.0
 11
7.499393206092303
 21
7.606284531650421
 31
0.0
  0
LINE
  5
66AA
330
1F
100
AcDbEntity
  8
0
100
AcDbLine
 10
7.499393206092303
 20
7.606284531650421
 30
0.0
 11
7.494205801017464
 21
7.605750799113367
 31
0.0
  0
LINE
  5
66AB
330
1F
100
AcDbEntity
  8
0
100
AcDbLine
 10
7.494205801017464
 20
7.605750799113367
 30
0.0
 11
7.489041997335384
 21
7.606444199907063
 31
0.0
  0
LINE
  5
66AC
330
1F
100
AcDbEntity
  8
0
100
AcDbLine
 10
7.489041997335384
 20
7.606444199907063
 30
0.0
 11
7.4842536997334
 21
7.608317479913323
 31
0.0
  0
LINE
  5
66AD
330
1F
100
AcDbEntity
  8
0
100
AcDbLine
 10
7.4842536997334
 20
7.608317479913323
 30
0.0
 11
7.480167222780053
 21
7.611242978195457
 31
0.0
  0
LINE
  5
66AE
330
1F
100
AcDbEntity
  8
0
100
AcDbLine
 10
7.480167222780053
 20
7.611242978195457
 30
0.0
 11
7.477061053126497
 21
7.615021326880154
 31
0.0
  0
LINE
  5
66AF
330
1F
100
AcDbEntity
  8
0
100
AcDbLine
 10
7.477061053126497
 20
7.615021326880154
 30
0.0
 11
7.475146871101429
 21
7.619395037748568
 31
0.0
  0
LINE
  5
66B0
330
1F
100
AcDbEntity
  8
0
100
AcDbLine
 10
7.475146871101429
 20
7.619395037748568
 30
0.0
 11
7.474555125046524
 21
7.624066049632913
 31
0.0
  0
LINE
  5
66B1
330
1F
100
AcDbEntity
  8
0
100
AcDbLine
 10
7.474555125046524
 20
7.624066049632913
 30
0.0
 11
7.475326141477513
 21
7.62871604079249
 31
0.0
  0
LINE
  5
66B2
330
1F
100
AcDbEntity
  8
0
100
AcDbLine
 10
7.475326141477513
 20
7.62871604079249
 30
0.0
 11
7.477407376898799
 21
7.633028122014239
 31
0.0
  0
LINE
  5
66B3
330
1F
100
AcDbEntity
  8
0
100
AcDbLine
 10
7.477407376898799
 20
7.633028122014239
 30
0.0
 11
7.480656998555812
 21
7.636708432088957
 31
0.0
  0
LINE
  5
66B4
330
1F
100
AcDbEntity
  8
0
100
AcDbLine
 10
7.480656998555812
 20
7.636708432088957
 30
0.0
 11
7.48485355010289
 21
7.639506163967045
 31
0.0
  0
LINE
  5
66B5
330
1F
100
AcDbEntity
  8
0
100
AcDbLine
 10
7.48485355010289
 20
7.639506163967045
 30
0.0
 11
7.489711043487229
 21
7.641230656844484
 31
0.0
  0
LINE
  5
66B6
330
1F
100
AcDbEntity
  8
0
100
AcDbLine
 10
7.489711043487229
 20
7.641230656844484
 30
0.0
 11
7.494898448562068
 21
7.641764389381537
 31
0.0
  0
LINE
  5
66B7
330
1F
100
AcDbEntity
  8
0
100
AcDbLine
 10
7.514553033288816
 20
7.619099995720114
 30
0.0
 11
7.514549124533008
 21
7.623449138861988
 31
0.0
  0
LINE
  5
66B8
330
1F
100
AcDbEntity
  8
0
100
AcDbLine
 10
7.474559033802332
 20
7.619716906491039
 30
0.0
 11
7.474555125046524
 21
7.624066049632913
 31
0.0
  0
LINE
  5
66B9
330
1F
100
AcDbEntity
  8
0
100
AcDbLine
 10
7.612920096308204
 20
7.554540301368026
 30
0.0
 11
7.614974069955639
 21
7.549749337033978
 31
0.0
  0
LINE
  5
66BA
330
1F
100
AcDbEntity
  8
0
100
AcDbLine
 10
7.614974069955639
 20
7.549749337033978
 30
0.0
 11
7.615823966142041
 21
7.544671194197307
 31
0.0
  0
LINE
  5
66BB
330
1F
100
AcDbEntity
  8
0
100
AcDbLine
 10
7.615823966142041
 20
7.544671194197307
 30
0.0
 11
7.615411865846819
 21
7.539651939900299
 31
0.0
  0
LINE
  5
66BC
330
1F
100
AcDbEntity
  8
0
100
AcDbLine
 10
7.615411865846819
 20
7.539651939900299
 30
0.0
 11
7.613765853024073
 21
7.53503362802859
 31
0.0
  0
LINE
  5
66BD
330
1F
100
AcDbEntity
  8
0
100
AcDbLine
 10
7.613765853024073
 20
7.53503362802859
 30
0.0
 11
7.61099810072751
 21
7.531130988904111
 31
0.0
  0
LINE
  5
66BE
330
1F
100
AcDbEntity
  8
0
100
AcDbLine
 10
7.61099810072751
 20
7.531130988904111
 30
0.0
 11
7.6072972267022
 21
7.528209980933786
 31
0.0
  0
LINE
  5
66BF
330
1F
100
AcDbEntity
  8
0
100
AcDbLine
 10
7.6072972267022
 20
7.528209980933786
 30
0.0
 11
7.602915439397005
 21
7.526469665983592
 31
0.0
  0
LINE
  5
66C0
330
1F
100
AcDbEntity
  8
0
100
AcDbLine
 10
7.602915439397005
 20
7.526469665983592
 30
0.0
 11
7.598151350375509
 21
7.526028643641381
 31
0.0
  0
LINE
  5
66C1
330
1F
100
AcDbEntity
  8
0
100
AcDbLine
 10
7.598151350375509
 20
7.526028643641381
 30
0.0
 11
7.593329624431508
 21
7.526916968850952
 31
0.0
  0
LINE
  5
66C2
330
1F
100
AcDbEntity
  8
0
100
AcDbLine
 10
7.593329624431508
 20
7.526916968850952
 30
0.0
 11
7.588778854219803
 21
7.529074103717298
 31
0.0
  0
LINE
  5
66C3
330
1F
100
AcDbEntity
  8
0
100
AcDbLine
 10
7.588778854219803
 20
7.529074103717298
 30
0.0
 11
7.584809167209822
 21
7.532353043064111
 31
0.0
  0
LINE
  5
66C4
330
1F
100
AcDbEntity
  8
0
100
AcDbLine
 10
7.584809167209822
 20
7.532353043064111
 30
0.0
 11
7.581691091011069
 21
7.536530332593612
 31
0.0
  0
LINE
  5
66C5
330
1F
100
AcDbEntity
  8
0
100
AcDbLine
 10
7.581691091011069
 20
7.536530332593612
 30
0.0
 11
7.579637117363638
 21
7.54132129692766
 31
0.0
  0
LINE
  5
66C6
330
1F
100
AcDbEntity
  8
0
100
AcDbLine
 10
7.579637117363638
 20
7.54132129692766
 30
0.0
 11
7.57878722117724
 21
7.546399439764331
 31
0.0
  0
LINE
  5
66C7
330
1F
100
AcDbEntity
  8
0
100
AcDbLine
 10
7.57878722117724
 20
7.546399439764331
 30
0.0
 11
7.579199321472454
 21
7.551418694061339
 31
0.0
  0
LINE
  5
66C8
330
1F
100
AcDbEntity
  8
0
100
AcDbLine
 10
7.579199321472454
 20
7.551418694061339
 30
0.0
 11
7.580845334295201
 21
7.556037005933048
 31
0.0
  0
LINE
  5
66C9
330
1F
100
AcDbEntity
  8
0
100
AcDbLine
 10
7.580845334295201
 20
7.556037005933048
 30
0.0
 11
7.583613086591764
 21
7.559939645057527
 31
0.0
  0
LINE
  5
66CA
330
1F
100
AcDbEntity
  8
0
100
AcDbLine
 10
7.583613086591764
 20
7.559939645057527
 30
0.0
 11
7.587313960617073
 21
7.562860653027854
 31
0.0
  0
LINE
  5
66CB
330
1F
100
AcDbEntity
  8
0
100
AcDbLine
 10
7.587313960617073
 20
7.562860653027854
 30
0.0
 11
7.591695747922269
 21
7.564600967978046
 31
0.0
  0
LINE
  5
66CC
330
1F
100
AcDbEntity
  8
0
100
AcDbLine
 10
7.591695747922269
 20
7.564600967978046
 30
0.0
 11
7.596459836943768
 21
7.565041990320257
 31
0.0
  0
LINE
  5
66CD
330
1F
100
AcDbEntity
  8
0
100
AcDbLine
 10
7.596459836943768
 20
7.565041990320257
 30
0.0
 11
7.60128156288777
 21
7.564153665110686
 31
0.0
  0
LINE
  5
66CE
330
1F
100
AcDbEntity
  8
0
100
AcDbLine
 10
7.60128156288777
 20
7.564153665110686
 30
0.0
 11
7.605832333099474
 21
7.561996530244342
 31
0.0
  0
LINE
  5
66CF
330
1F
100
AcDbEntity
  8
0
100
AcDbLine
 10
7.605832333099474
 20
7.561996530244342
 30
0.0
 11
7.609802020109455
 21
7.558717590897528
 31
0.0
  0
LINE
  5
66D0
330
1F
100
AcDbEntity
  8
0
100
AcDbLine
 10
7.609802020109455
 20
7.558717590897528
 30
0.0
 11
7.612920096308204
 21
7.554540301368026
 31
0.0
  0
LINE
  5
66D1
330
1F
100
AcDbEntity
  8
0
100
AcDbLine
 10
7.603543742448188
 20
7.526045322355427
 30
0.0
 11
7.6072972267022
 21
7.528209980933786
 31
0.0
  0
LINE
  5
66D2
330
1F
100
AcDbEntity
  8
0
100
AcDbLine
 10
7.583560476363054
 20
7.560695994449495
 30
0.0
 11
7.587313960617073
 21
7.562860653027854
 31
0.0
  0
LINE
  5
66D3
330
1F
100
AcDbEntity
  8
0
100
AcDbLine
 10
7.593601291753447
 20
7.459154210722855
 30
0.0
 11
7.59808733709395
 21
7.46148917354936
 31
0.0
  0
LINE
  5
66D4
330
1F
100
AcDbEntity
  8
0
100
AcDbLine
 10
7.59808733709395
 20
7.46148917354936
 30
0.0
 11
7.602893596197432
 21
7.462571502370917
 31
0.0
  0
LINE
  5
66D5
330
1F
100
AcDbEntity
  8
0
100
AcDbLine
 10
7.602893596197432
 20
7.462571502370917
 30
0.0
 11
7.607692530448705
 21
7.462327438266975
 31
0.0
  0
LINE
  5
66D6
330
1F
100
AcDbEntity
  8
0
100
AcDbLine
 10
7.607692530448705
 20
7.462327438266975
 30
0.0
 11
7.612157100409167
 21
7.460773613802874
 31
0.0
  0
LINE
  5
66D7
330
1F
100
AcDbEntity
  8
0
100
AcDbLine
 10
7.612157100409167
 20
7.460773613802874
 30
0.0
 11
7.615983053014069
 21
7.45801591954803
 31
0.0
  0
LINE
  5
66D8
330
1F
100
AcDbEntity
  8
0
100
AcDbLine
 10
7.615983053014069
 20
7.45801591954803
 30
0.0
 11
7.618909655916056
 21
7.454242287808605
 31
0.0
  0
LINE
  5
66D9
330
1F
100
AcDbEntity
  8
0
100
AcDbLine
 10
7.618909655916056
 20
7.454242287808605
 30
0.0
 11
7.620737465963809
 21
7.449709885351421
 31
0.0
  0
LINE
  5
66DA
330
1F
100
AcDbEntity
  8
0
100
AcDbLine
 10
7.620737465963809
 20
7.449709885351421
 30
0.0
 11
7.621341920923171
 21
7.444727587913783
 31
0.0
  0
LINE
  5
66DB
330
1F
100
AcDbEntity
  8
0
100
AcDbLine
 10
7.621341920923171
 20
7.444727587913783
 30
0.0
 11
7.620681828187564
 21
7.439634930832434
 31
0.0
  0
LINE
  5
66DC
330
1F
100
AcDbEntity
  8
0
100
AcDbLine
 10
7.620681828187564
 20
7.439634930832434
 30
0.0
 11
7.618802171986075
 21
7.434778970271451
 31
0.0
  0
LINE
  5
66DD
330
1F
100
AcDbEntity
  8
0
100
AcDbLine
 10
7.618802171986075
 20
7.434778970271451
 30
0.0
 11
7.615831047782549
 21
7.430490631918212
 31
0.0
  0
LINE
  5
66DE
330
1F
100
AcDbEntity
  8
0
100
AcDbLine
 10
7.615831047782549
 20
7.430490631918212
 30
0.0
 11
7.611970932781446
 21
7.427062158944674
 31
0.0
  0
LINE
  5
66DF
330
1F
100
AcDbEntity
  8
0
100
AcDbLine
 10
7.611970932781446
 20
7.427062158944674
 30
0.0
 11
7.607484887440943
 21
7.424727196118171
 31
0.0
  0
LINE
  5
66E0
330
1F
100
AcDbEntity
  8
0
100
AcDbLine
 10
7.607484887440943
 20
7.424727196118171
 30
0.0
 11
7.602678628337464
 21
7.42364486729661
 31
0.0
  0
LINE
  5
66E1
330
1F
100
AcDbEntity
  8
0
100
AcDbLine
 10
7.602678628337464
 20
7.42364486729661
 30
0.0
 11
7.597879694086184
 21
7.423888931400557
 31
0.0
  0
LINE
  5
66E2
330
1F
100
AcDbEntity
  8
0
100
AcDbLine
 10
7.597879694086184
 20
7.423888931400557
 30
0.0
 11
7.593415124125723
 21
7.425442755864658
 31
0.0
  0
LINE
  5
66E3
330
1F
100
AcDbEntity
  8
0
100
AcDbLine
 10
7.593415124125723
 20
7.425442755864658
 30
0.0
 11
7.589589171520827
 21
7.428200450119502
 31
0.0
  0
LINE
  5
66E4
330
1F
100
AcDbEntity
  8
0
100
AcDbLine
 10
7.589589171520827
 20
7.428200450119502
 30
0.0
 11
7.586662568618837
 21
7.431974081858926
 31
0.0
  0
LINE
  5
66E5
330
1F
100
AcDbEntity
  8
0
100
AcDbLine
 10
7.586662568618837
 20
7.431974081858926
 30
0.0
 11
7.584834758571087
 21
7.436506484316109
 31
0.0
  0
LINE
  5
66E6
330
1F
100
AcDbEntity
  8
0
100
AcDbLine
 10
7.584834758571087
 20
7.436506484316109
 30
0.0
 11
7.584230303611725
 21
7.441488781753749
 31
0.0
  0
LINE
  5
66E7
330
1F
100
AcDbEntity
  8
0
100
AcDbLine
 10
7.584230303611725
 20
7.441488781753749
 30
0.0
 11
7.584890396347329
 21
7.446581438835097
 31
0.0
  0
LINE
  5
66E8
330
1F
100
AcDbEntity
  8
0
100
AcDbLine
 10
7.584890396347329
 20
7.446581438835097
 30
0.0
 11
7.586770052548821
 21
7.45143739939608
 31
0.0
  0
LINE
  5
66E9
330
1F
100
AcDbEntity
  8
0
100
AcDbLine
 10
7.586770052548821
 20
7.45143739939608
 30
0.0
 11
7.589741176752344
 21
7.455725737749318
 31
0.0
  0
LINE
  5
66EA
330
1F
100
AcDbEntity
  8
0
100
AcDbLine
 10
7.589741176752344
 20
7.455725737749318
 30
0.0
 11
7.593601291753447
 21
7.459154210722855
 31
0.0
  0
LINE
  5
66EB
330
1F
100
AcDbEntity
  8
0
100
AcDbLine
 10
7.608426470022191
 20
7.462927494261043
 30
0.0
 11
7.612157100409167
 21
7.460773613802874
 31
0.0
  0
LINE
  5
66EC
330
1F
100
AcDbEntity
  8
0
100
AcDbLine
 10
7.589684493738744
 20
7.427596636322828
 30
0.0
 11
7.593415124125723
 21
7.425442755864658
 31
0.0
  0
LINE
  5
671B
330
1F
100
AcDbEntity
  8
0
100
AcDbLine
 10
9.330118520874272
 20
7.992770696266073
 30
0.0
 11
8.851763181814945
 21
8.821306447588662
 31
0.0
  0
LINE
  5
671C
330
1F
100
AcDbEntity
  8
0
100
AcDbLine
 10
8.678558101058055
 20
8.721306447588659
 30
0.0
 11
9.156913440117381
 21
7.892770696266073
 31
0.0
  0
LINE
  5
671D
330
1F
100
AcDbEntity
  8
0
100
AcDbLine
 10
9.503323601631155
 20
8.092770696266075
 30
0.0
 11
9.024968262571832
 21
8.921306447588662
 31
0.0
  0
LINE
  5
671E
330
1F
100
AcDbEntity
  8
0
100
AcDbLine
 10
8.505353020301168
 20
8.621306447588658
 30
0.0
 11
8.983708359360498
 21
7.792770696266069
 31
0.0
  0
LINE
  5
671F
330
1F
100
AcDbEntity
  8
0
100
AcDbLine
 10
8.330106449352243
 20
8.554768808828116
 30
0.0
 11
8.935655778041642
 21
8.904382876754542
 31
0.0
  0
LINE
  5
6720
330
1F
100
AcDbEntity
  8
0
100
AcDbLine
 10
9.022258318420085
 20
8.954382876754543
 30
0.0
 11
9.025137113140107
 21
8.956044949661087
 31
0.0
  0
LINE
  5
6721
330
1F
100
AcDbEntity
  8
0
100
AcDbLine
 10
9.025137113140107
 20
8.956044949661087
 30
0.0
 11
9.084677699726718
 21
8.990420723354576
 31
0.0
  0
LINE
  5
6722
330
1F
100
AcDbEntity
  8
0
100
AcDbLine
 10
9.040137113140108
 20
8.930064187547554
 30
0.0
 11
9.099677699726715
 21
8.964439961241044
 31
0.0
  0
LINE
  5
6723
330
1F
100
AcDbEntity
  8
0
100
AcDbLine
 10
9.084677699726718
 20
8.990420723354576
 30
0.0
 11
9.099677699726715
 21
8.964439961241044
 31
0.0
  0
LINE
  5
6724
330
1F
100
AcDbEntity
  8
0
100
AcDbLine
 10
9.025137113140107
 20
8.956044949661087
 30
0.0
 11
9.040137113140108
 21
8.930064187547554
 31
0.0
  0
LINE
  5
6725
330
1F
100
AcDbEntity
  8
0
100
AcDbLine
 10
9.533492452199435
 20
8.075547674111431
 30
0.0
 11
9.593033038786042
 21
8.10992344780492
 31
0.0
  0
LINE
  5
6726
330
1F
100
AcDbEntity
  8
0
100
AcDbLine
 10
9.518492452199435
 20
8.101528436224965
 30
0.0
 11
9.578033038786045
 21
8.135904209918452
 31
0.0
  0
LINE
  5
6727
330
1F
100
AcDbEntity
  8
0
100
AcDbLine
 10
9.578033038786045
 20
8.135904209918452
 30
0.0
 11
9.593033038786042
 21
8.10992344780492
 31
0.0
  0
LINE
  5
6728
330
1F
100
AcDbEntity
  8
0
100
AcDbLine
 10
9.518492452199435
 20
8.101528436224965
 30
0.0
 11
9.533492452199435
 21
8.075547674111431
 31
0.0
  0
LINE
  5
672C
330
1F
100
AcDbEntity
  8
0
100
AcDbLine
 10
9.022258318420085
 20
8.954382876754543
 30
0.0
 11
8.935655778041642
 21
8.904382876754542
 31
0.0
  0
LINE
  5
6730
330
1F
100
AcDbEntity
  8
0
100
AcDbLine
 10
9.444011117100966
 20
8.023885601204886
 30
0.0
 11
9.53061365747941
 21
8.073885601204889
 31
0.0
  0
LINE
  5
6731
330
1F
100
AcDbEntity
  8
0
100
AcDbLine
 10
6.23235253853743
 20
8.190108984851434
 30
0.0
 11
6.234940728988458
 21
8.189768243114325
 31
0.0
  0
LINE
  5
6732
330
1F
100
AcDbEntity
  8
0
100
AcDbLine
 10
6.376219623967241
 20
8.105212250160283
 30
0.0
 11
6.377271404549095
 21
8.106440038548942
 31
0.0
  0
LINE
  5
6733
330
1F
100
AcDbEntity
  8
0
100
AcDbLine
 10
6.373656780962335
 20
8.101515527357008
 30
0.0
 11
6.374986743175476
 21
8.103532591099908
 31
0.0
  0
LINE
  5
6734
330
1F
100
AcDbEntity
  8
0
100
AcDbLine
 10
6.229764348086405
 20
8.189768243114324
 30
0.0
 11
6.23235253853743
 21
8.190108984851434
 31
0.0
  0
LINE
  5
6735
330
1F
100
AcDbEntity
  8
0
100
AcDbLine
 10
6.374986743175476
 20
8.103532591099908
 30
0.0
 11
6.376219623967241
 21
8.105212250160283
 31
0.0
  0
LINE
  5
6736
330
1F
100
AcDbEntity
  8
0
100
AcDbLine
 10
6.234940728988458
 20
8.189768243114325
 30
0.0
 11
6.237352538537429
 21
8.188769238889278
 31
0.0
  0
LINE
  5
6737
330
1F
100
AcDbEntity
  8
0
100
AcDbLine
 10
6.377271404549095
 20
8.106440038548942
 30
0.0
 11
6.378070407812543
 21
8.107132284516215
 31
0.0
  0
LINE
  5
6738
330
1F
100
AcDbEntity
  8
0
100
AcDbLine
 10
6.225281470725565
 20
8.173037917039568
 30
0.0
 11
6.223692284499588
 21
8.175108984851434
 31
0.0
  0
LINE
  5
6739
330
1F
100
AcDbEntity
  8
0
100
AcDbLine
 10
6.223692284499588
 20
8.175108984851434
 30
0.0
 11
6.22269328027454
 21
8.177520794400409
 31
0.0
  0
LINE
  5
673A
330
1F
100
AcDbEntity
  8
0
100
AcDbLine
 10
6.36841114954965
 20
8.090401958441457
 30
0.0
 11
6.368611150511252
 21
8.091440038548945
 31
0.0
  0
LINE
  5
673B
330
1F
100
AcDbEntity
  8
0
100
AcDbLine
 10
6.223692284499588
 20
8.185108984851433
 30
0.0
 11
6.225281470725569
 21
8.187180052663299
 31
0.0
  0
LINE
  5
673C
330
1F
100
AcDbEntity
  8
0
100
AcDbLine
 10
6.22269328027454
 20
8.177520794400409
 30
0.0
 11
6.222352538537432
 21
8.180108984851433
 31
0.0
  0
LINE
  5
673D
330
1F
100
AcDbEntity
  8
0
100
AcDbLine
 10
6.227352538537434
 20
8.188769238889278
 30
0.0
 11
6.229764348086405
 21
8.189768243114324
 31
0.0
  0
LINE
  5
673E
330
1F
100
AcDbEntity
  8
0
100
AcDbLine
 10
6.369148556155376
 20
8.092964801446369
 30
0.0
 11
6.369986743175473
 21
8.094872337062062
 31
0.0
  0
LINE
  5
673F
330
1F
100
AcDbEntity
  8
0
100
AcDbLine
 10
6.36856218300559
 20
8.089921304567729
 30
0.0
 11
6.36841114954965
 21
8.090401958441457
 31
0.0
  0
LINE
  5
6740
330
1F
100
AcDbEntity
  8
0
100
AcDbLine
 10
6.378070407812543
 20
8.107132284516215
 30
0.0
 11
6.378562183005588
 21
8.107241812643417
 31
0.0
  0
LINE
  5
6741
330
1F
100
AcDbEntity
  8
0
100
AcDbLine
 10
6.227352538537431
 20
8.17144873081359
 30
0.0
 11
6.225281470725565
 21
8.173037917039568
 31
0.0
  0
LINE
  5
6742
330
1F
100
AcDbEntity
  8
0
100
AcDbLine
 10
6.37106859051131
 20
8.097032649996169
 30
0.0
 11
6.372320372054765
 21
8.099298518492313
 31
0.0
  0
LINE
  5
6743
330
1F
100
AcDbEntity
  8
0
100
AcDbLine
 10
6.222352538537432
 20
8.180108984851433
 30
0.0
 11
6.222693280274544
 21
8.182697175302459
 31
0.0
  0
LINE
  5
6744
330
1F
100
AcDbEntity
  8
0
100
AcDbLine
 10
6.369986743175473
 20
8.094872337062062
 30
0.0
 11
6.37106859051131
 21
8.097032649996169
 31
0.0
  0
LINE
  5
6745
330
1F
100
AcDbEntity
  8
0
100
AcDbLine
 10
6.368611150511252
 20
8.091440038548945
 30
0.0
 11
6.369148556155376
 21
8.092964801446369
 31
0.0
  0
LINE
  5
6746
330
1F
100
AcDbEntity
  8
0
100
AcDbLine
 10
6.372320372054765
 20
8.099298518492313
 30
0.0
 11
6.373656780962335
 21
8.101515527357008
 31
0.0
  0
LINE
  5
6747
330
1F
100
AcDbEntity
  8
0
100
AcDbLine
 10
6.405409584833396
 20
8.091741457971091
 30
0.0
 11
6.378562183005588
 21
8.107241812643417
 31
0.0
  0
LINE
  5
6748
330
1F
100
AcDbEntity
  8
0
100
AcDbLine
 10
6.395401795174151
 20
8.074425447257263
 30
0.0
 11
6.36856218300559
 21
8.089921304567729
 31
0.0
  0
LINE
  5
6749
330
1F
100
AcDbEntity
  8
0
100
AcDbLine
 10
6.225281470725569
 20
8.187180052663299
 30
0.0
 11
6.227352538537434
 21
8.188769238889278
 31
0.0
  0
LINE
  5
674A
330
1F
100
AcDbEntity
  8
0
100
AcDbLine
 10
6.223154185878733
 20
8.184340319528899
 30
0.0
 11
6.218370011690382
 21
8.17605388676241
 31
0.0
  0
LINE
  5
674B
330
1F
100
AcDbEntity
  8
0
100
AcDbLine
 10
6.047155181654957
 20
7.87881961865757
 30
0.0
 11
6.048154185878736
 21
7.881231428204346
 31
0.0
  0
LINE
  5
674C
330
1F
100
AcDbEntity
  8
0
100
AcDbLine
 10
6.046814439919032
 20
7.876231428208591
 30
0.0
 11
6.047155181654957
 21
7.87881961865757
 31
0.0
  0
LINE
  5
674D
330
1F
100
AcDbEntity
  8
0
100
AcDbLine
 10
6.047155181657153
 20
7.873643237759326
 30
0.0
 11
6.046814439919032
 21
7.876231428208591
 31
0.0
  0
LINE
  5
674E
330
1F
100
AcDbEntity
  8
0
100
AcDbLine
 10
6.048154185882982
 20
7.871231428211702
 30
0.0
 11
6.047155181657153
 21
7.873643237759326
 31
0.0
  0
LINE
  5
674F
330
1F
100
AcDbEntity
  8
0
100
AcDbLine
 10
6.049743372109453
 20
7.869160360400683
 30
0.0
 11
6.048154185882982
 21
7.871231428211702
 31
0.0
  0
LINE
  5
6750
330
1F
100
AcDbEntity
  8
0
100
AcDbLine
 10
6.051814439921482
 20
7.867571174174997
 30
0.0
 11
6.049743372109453
 21
7.869160360400683
 31
0.0
  0
LINE
  5
6751
330
1F
100
AcDbEntity
  8
0
100
AcDbLine
 10
6.054226249470293
 20
7.866572169949658
 30
0.0
 11
6.051814439921482
 21
7.867571174174997
 31
0.0
  0
LINE
  5
6752
330
1F
100
AcDbEntity
  8
0
100
AcDbLine
 10
6.056814439920827
 20
7.866231428211701
 30
0.0
 11
6.054226249470293
 21
7.866572169949658
 31
0.0
  0
LINE
  5
6753
330
1F
100
AcDbEntity
  8
0
100
AcDbLine
 10
6.059402630371071
 20
7.86657216994746
 30
0.0
 11
6.056814439920827
 21
7.866231428211701
 31
0.0
  0
LINE
  5
6754
330
1F
100
AcDbEntity
  8
0
100
AcDbLine
 10
6.061814439919032
 20
7.867571174170747
 30
0.0
 11
6.059402630371071
 21
7.86657216994746
 31
0.0
  0
LINE
  5
6755
330
1F
100
AcDbEntity
  8
0
100
AcDbLine
 10
6.063885507729715
 20
7.869160360394679
 30
0.0
 11
6.061814439919032
 21
7.867571174170747
 31
0.0
  0
LINE
  5
6756
330
1F
100
AcDbEntity
  8
0
100
AcDbLine
 10
6.065474693954424
 20
7.871231428204346
 30
0.0
 11
6.063885507729715
 21
7.869160360394679
 31
0.0
  0
LINE
  5
6757
330
1F
100
AcDbEntity
  8
0
100
AcDbLine
 10
6.384402630363265
 20
8.448807198919599
 30
0.0
 11
6.386814439912082
 21
8.447808194694289
 31
0.0
  0
LINE
  5
6758
330
1F
100
AcDbEntity
  8
0
100
AcDbLine
 10
6.381814439912684
 20
8.449147940657486
 30
0.0
 11
6.384402630363265
 21
8.448807198919599
 31
0.0
  0
LINE
  5
6759
330
1F
100
AcDbEntity
  8
0
100
AcDbLine
 10
6.379226249462373
 20
8.448807198921617
 30
0.0
 11
6.381814439912684
 21
8.449147940657486
 31
0.0
  0
LINE
  5
675A
330
1F
100
AcDbEntity
  8
0
100
AcDbLine
 10
6.37681443991433
 20
8.447808194698181
 30
0.0
 11
6.379226249462373
 21
8.448807198921617
 31
0.0
  0
LINE
  5
675B
330
1F
100
AcDbEntity
  8
0
100
AcDbLine
 10
6.374743372103548
 20
8.446219008474081
 30
0.0
 11
6.37681443991433
 21
8.447808194698181
 31
0.0
  0
LINE
  5
675C
330
1F
100
AcDbEntity
  8
0
100
AcDbLine
 10
6.373154185878735
 20
8.44414794066423
 30
0.0
 11
6.374743372103548
 21
8.446219008474081
 31
0.0
  0
LINE
  5
675D
330
1F
100
AcDbEntity
  8
0
100
AcDbLine
 10
6.391473698178305
 20
8.436559750211189
 30
0.0
 11
6.39047469395442
 21
8.43414794066423
 31
0.0
  0
LINE
  5
675E
330
1F
100
AcDbEntity
  8
0
100
AcDbLine
 10
6.391814439914334
 20
8.439147940660339
 30
0.0
 11
6.391473698178305
 21
8.436559750211189
 31
0.0
  0
LINE
  5
675F
330
1F
100
AcDbEntity
  8
0
100
AcDbLine
 10
6.391473698176291
 20
8.441736131109749
 30
0.0
 11
6.391814439914334
 21
8.439147940660339
 31
0.0
  0
LINE
  5
6760
330
1F
100
AcDbEntity
  8
0
100
AcDbLine
 10
6.39047469395053
 20
8.444147940657485
 30
0.0
 11
6.391473698176291
 21
8.441736131109749
 31
0.0
  0
LINE
  5
6761
330
1F
100
AcDbEntity
  8
0
100
AcDbLine
 10
6.388885507724104
 20
8.446219008468574
 30
0.0
 11
6.39047469395053
 21
8.444147940657485
 31
0.0
  0
LINE
  5
6762
330
1F
100
AcDbEntity
  8
0
100
AcDbLine
 10
6.386814439912082
 20
8.447808194694289
 30
0.0
 11
6.388885507724104
 21
8.446219008468574
 31
0.0
  0
LINE
  5
676F
330
1F
100
AcDbEntity
  8
0
100
AcDbLine
 10
6.223154185878733
 20
8.184340319528899
 30
0.0
 11
6.22340026870146
 21
8.184403996351168
 31
0.0
  0
LINE
  5
6770
330
1F
100
AcDbEntity
  8
0
100
AcDbLine
 10
6.223242266340545
 20
8.184022544908561
 30
0.0
 11
6.223154185878733
 21
8.184340319528899
 31
0.0
  0
LINE
  5
6787
330
1F
100
AcDbEntity
  8
0
100
AcDbLine
 10
9.533492452199435
 20
8.075547674111431
 30
0.0
 11
9.53061365747941
 21
8.073885601204889
 31
0.0
  0
LINE
  5
6788
330
1F
100
AcDbEntity
  8
0
100
AcDbLine
 10
9.040137113140108
 20
8.930064187547554
 30
0.0
 11
9.024968262571832
 21
8.921306447588662
 31
0.0
  0
LINE
  5
6789
330
1F
100
AcDbEntity
  8
0
100
AcDbLine
 10
8.840999845304828
 20
7.675736881108992
 30
0.0
 11
9.444011117100966
 21
8.023885601204886
 31
0.0
  0
LINE
  5
678A
330
1F
100
AcDbEntity
  8
0
100
AcDbLine
 10
6.22340026870146
 20
8.184403996351168
 30
0.0
 11
6.223692284499588
 21
8.185108984851433
 31
0.0
  0
LINE
  5
678D
330
1F
100
AcDbEntity
  8
0
100
AcDbLine
 10
8.825924955064728
 20
7.701674405322247
 30
0.0
 11
8.983708359360498
 21
7.792770696266069
 31
0.0
  0
LINE
  5
678E
330
1F
100
AcDbEntity
  8
0
100
AcDbLine
 10
8.983708359360498
 20
7.792770696266069
 30
0.0
 11
9.156913440117381
 21
7.892770696266073
 31
0.0
  0
LINE
  5
678F
330
1F
100
AcDbEntity
  8
0
100
AcDbLine
 10
9.156913440117381
 20
7.892770696266073
 30
0.0
 11
9.330118520874272
 21
7.992770696266073
 31
0.0
  0
LINE
  5
6790
330
1F
100
AcDbEntity
  8
0
100
AcDbLine
 10
8.678558101058055
 20
8.721306447588659
 30
0.0
 11
8.851763181814945
 21
8.821306447588662
 31
0.0
  0
LINE
  5
6791
330
1F
100
AcDbEntity
  8
0
100
AcDbLine
 10
8.851763181814945
 20
8.821306447588662
 30
0.0
 11
9.024968262571832
 21
8.921306447588662
 31
0.0
  0
LINE
  5
6792
330
1F
100
AcDbEntity
  8
0
100
AcDbLine
 10
6.222693280274544
 20
8.182697175302459
 30
0.0
 11
6.223242266340545
 21
8.184022544908561
 31
0.0
  0
LINE
  5
6793
330
1F
100
AcDbEntity
  8
0
100
AcDbLine
 10
6.223242266340545
 20
8.184022544908561
 30
0.0
 11
6.22340026870146
 21
8.184403996351168
 31
0.0
  0
LINE
  5
6794
330
1F
100
AcDbEntity
  8
0
100
AcDbLine
 10
8.34518133959235
 20
8.528831284614856
 30
0.0
 11
8.505353020301168
 21
8.621306447588658
 31
0.0
  0
LINE
  5
6795
330
1F
100
AcDbEntity
  8
0
100
AcDbLine
 10
8.505353020301168
 20
8.621306447588658
 30
0.0
 11
8.678558101058055
 21
8.721306447588659
 31
0.0
  0
LINE
  5
6796
330
1F
100
AcDbEntity
  8
0
100
AcDbLine
 10
9.503323601631155
 20
8.092770696266075
 30
0.0
 11
9.518492452199435
 21
8.101528436224965
 31
0.0
  0
LINE
  5
67A1
330
1F
100
AcDbEntity
  8
0
100
AcDbLine
 10
9.503323601631155
 20
8.092770696266075
 30
0.0
 11
9.330118520874272
 21
7.992770696266073
 31
0.0
  0
LINE
  5
67A2
330
1F
100
AcDbEntity
  8
0
100
AcDbLine
 10
6.227352538537431
 20
8.17144873081359
 30
0.0
 11
6.235942060457798
 21
8.166489568020656
 31
0.0
  0
LINE
  5
67A3
330
1F
100
AcDbEntity
  8
0
100
AcDbLine
 10
6.237352538537429
 20
8.188769238889278
 30
0.0
 11
6.245942060457796
 21
8.183810076096344
 31
0.0
  0
LINE
  5
67A4
330
1F
100
AcDbEntity
  8
0
100
AcDbLine
 10
6.36856218300559
 20
8.089921304567729
 30
0.0
 11
6.235942060457798
 21
8.166489568020656
 31
0.0
  0
LINE
  5
67A5
330
1F
100
AcDbEntity
  8
0
100
AcDbLine
 10
6.378562183005588
 20
8.107241812643417
 30
0.0
 11
6.245942060457796
 21
8.183810076096344
 31
0.0
  0
LINE
  5
67A6
330
1F
100
AcDbEntity
  8
0
100
AcDbLine
 10
6.048154185878736
 20
7.881231428204346
 30
0.0
 11
6.098154185878733
 21
7.967833968582789
 31
0.0
  0
LINE
  5
67A7
330
1F
100
AcDbEntity
  8
0
100
AcDbLine
 10
6.065474693954424
 20
7.871231428204346
 30
0.0
 11
6.115474693954421
 21
7.957833968582789
 31
0.0
  0
LINE
  5
67A8
330
1F
100
AcDbEntity
  8
0
100
AcDbLine
 10
6.373154185878735
 20
8.44414794066423
 30
0.0
 11
6.223154185878733
 21
8.184340319528899
 31
0.0
  0
LINE
  5
67A9
330
1F
100
AcDbEntity
  8
0
100
AcDbLine
 10
6.39047469395442
 20
8.43414794066423
 30
0.0
 11
6.245942060457796
 21
8.183810076096344
 31
0.0
  0
LINE
  5
67AA
330
1F
100
AcDbEntity
  8
0
100
AcDbLine
 10
6.098154185878733
 20
7.967833968582789
 30
0.0
 11
6.218370011690382
 21
8.17605388676241
 31
0.0
  0
LINE
  5
67AB
330
1F
100
AcDbEntity
  8
0
100
AcDbLine
 10
6.115474693954421
 20
7.957833968582789
 30
0.0
 11
6.235942060457798
 21
8.166489568020656
 31
0.0
  0
LINE
  5
6998
330
1F
100
AcDbEntity
  8
0
100
AcDbLine
 10
6.776070592672311
 20
8.733078876270045
 30
0.0
 11
6.060693355148291
 21
7.49529507673191
 31
0.0
  0
LINE
  5
6999
330
1F
100
AcDbEntity
  8
0
100
AcDbLine
 10
6.060693355148291
 20
7.49529507673191
 30
0.0
 11
6.776070592672311
 21
6.23645969820969
 31
0.0
  0
LINE
  5
699B
330
1F
100
AcDbEntity
  8
0
100
AcDbLine
 10
8.226472630129865
 20
6.23645969820969
 30
0.0
 11
8.945872630129862
 21
7.49529507673191
 31
0.0
  0
LINE
  5
699C
330
1F
100
AcDbEntity
  8
0
100
AcDbLine
 10
8.945872630129862
 20
7.49529507673191
 30
0.0
 11
8.226472630129865
 21
8.733078876270045
 31
0.0
  0
LINE
  5
699D
330
1F
100
AcDbEntity
  8
0
100
AcDbLine
 10
8.226472630129865
 20
8.733078876270045
 30
0.0
 11
6.776070592672311
 21
8.733078876270045
 31
0.0
  0
LINE
  5
69C0
330
1F
100
AcDbEntity
  8
0
100
AcDbLine
 10
6.776070592672311
 20
6.23645969820969
 30
0.0
 11
8.226472630129865
 21
6.23645969820969
 31
0.0
  0
LINE
  5
69C1
330
1F
100
AcDbEntity
  8
0
100
AcDbLine
 10
7.7982824635477
 20
4.787753672023552
 30
0.0
 11
7.799066169543056
 21
4.793447344965771
 31
0.0
  0
LINE
  5
69C2
330
1F
100
AcDbEntity
  8
0
100
AcDbLine
 10
7.795984753830094
 20
4.782448013483098
 30
0.0
 11
7.7982824635477
 21
4.787753672023552
 31
0.0
  0
LINE
  5
69C3
330
1F
100
AcDbEntity
  8
0
100
AcDbLine
 10
7.792329625510344
 20
4.777891941205944
 30
0.0
 11
7.795984753830094
 21
4.782448013483098
 31
0.0
  0
LINE
  5
69C4
330
1F
100
AcDbEntity
  8
0
100
AcDbLine
 10
7.787566169543055
 20
4.774395943988495
 30
0.0
 11
7.792329625510344
 21
4.777891941205944
 31
0.0
  0
LINE
  5
69C5
330
1F
100
AcDbEntity
  8
0
100
AcDbLine
 10
7.782019007580412
 20
4.772198268263719
 30
0.0
 11
7.787566169543055
 21
4.774395943988495
 31
0.0
  0
LINE
  5
69C6
330
1F
100
AcDbEntity
  8
0
100
AcDbLine
 10
7.776066169543053
 20
4.771448682000433
 30
0.0
 11
7.782019007580412
 21
4.772198268263719
 31
0.0
  0
LINE
  5
69C7
330
1F
100
AcDbEntity
  8
0
100
AcDbLine
 10
7.770113331505697
 20
4.772198268263719
 30
0.0
 11
7.776066169543053
 21
4.771448682000433
 31
0.0
  0
LINE
  5
69C8
330
1F
100
AcDbEntity
  8
0
100
AcDbLine
 10
7.764566169543055
 20
4.774395943988495
 30
0.0
 11
7.770113331505697
 21
4.772198268263719
 31
0.0
  0
LINE
  5
69C9
330
1F
100
AcDbEntity
  8
0
100
AcDbLine
 10
7.759802713575762
 20
4.777891941205944
 30
0.0
 11
7.764566169543055
 21
4.774395943988495
 31
0.0
  0
LINE
  5
69CA
330
1F
100
AcDbEntity
  8
0
100
AcDbLine
 10
7.756147585256009
 20
4.782448013483098
 30
0.0
 11
7.759802713575762
 21
4.777891941205944
 31
0.0
  0
LINE
  5
69CB
330
1F
100
AcDbEntity
  8
0
100
AcDbLine
 10
7.753849875538403
 20
4.787753672023552
 30
0.0
 11
7.756147585256009
 21
4.782448013483098
 31
0.0
  0
LINE
  5
69CC
330
1F
100
AcDbEntity
  8
0
100
AcDbLine
 10
7.753066169543053
 20
4.793447344965771
 30
0.0
 11
7.753849875538403
 21
4.787753672023552
 31
0.0
  0
LINE
  5
69CD
330
1F
100
AcDbEntity
  8
0
100
AcDbLine
 10
7.279057083025175
 20
4.812189042329969
 30
0.0
 11
7.753066169543053
 21
4.812491410155417
 31
0.0
  0
LINE
  5
69CE
330
1F
100
AcDbEntity
  8
0
100
AcDbLine
 10
7.7982824635477
 20
5.092696372815511
 30
0.0
 11
7.799066169543056
 21
5.093287718898914
 31
0.0
  0
LINE
  5
69CF
330
1F
100
AcDbEntity
  8
0
100
AcDbLine
 10
7.795984753830094
 20
5.092145325990441
 30
0.0
 11
7.7982824635477
 21
5.092696372815511
 31
0.0
  0
LINE
  5
69D0
330
1F
100
AcDbEntity
  8
0
100
AcDbLine
 10
7.792726348101144
 20
5.091723491247912
 30
0.0
 11
7.795984753830094
 21
5.092145325990441
 31
0.0
  0
LINE
  5
69D1
330
1F
100
AcDbEntity
  8
0
100
AcDbLine
 10
7.756147585256009
 20
5.092145325990441
 30
0.0
 11
7.759405990984962
 21
5.091723491247912
 31
0.0
  0
LINE
  5
69D2
330
1F
100
AcDbEntity
  8
0
100
AcDbLine
 10
7.753849875538403
 20
5.092696372815511
 30
0.0
 11
7.756147585256009
 21
5.092145325990441
 31
0.0
  0
LINE
  5
69D3
330
1F
100
AcDbEntity
  8
0
100
AcDbLine
 10
7.753066169543053
 20
5.093287718898914
 30
0.0
 11
7.753849875538403
 21
5.092696372815511
 31
0.0
  0
LINE
  5
69D4
330
1F
100
AcDbEntity
  8
0
100
AcDbLine
 10
7.279057083025179
 20
5.09523423557544
 30
0.0
 11
7.753066169543053
 21
5.095265639562136
 31
0.0
  0
LINE
  5
69F2
330
1F
100
AcDbEntity
  8
0
100
AcDbLine
 10
7.753066169543053
 20
5.093287718898914
 30
0.0
 11
7.753066169543053
 21
5.095265639562136
 31
0.0
  0
LINE
  5
69FB
330
1F
100
AcDbEntity
  8
0
100
AcDbLine
 10
7.792726348101144
 20
5.091723491247912
 30
0.0
 11
7.792726348101144
 21
4.793447344965771
 31
0.0
  0
LINE
  5
69FE
330
1F
100
AcDbEntity
  8
0
100
AcDbLine
 10
7.79272634810114
 20
6.23645969820969
 30
0.0
 11
7.792726348101144
 21
5.091723491247912
 31
0.0
  0
LINE
  5
69FF
330
1F
100
AcDbEntity
  8
0
100
AcDbLine
 10
7.759405990984962
 20
4.792394884953339
 30
0.0
 11
7.759405990984962
 21
5.091723491247912
 31
0.0
  0
LINE
  5
6A00
330
1F
100
AcDbEntity
  8
0
100
AcDbLine
 10
7.759405990984962
 20
5.091723491247912
 30
0.0
 11
7.759405990984962
 21
6.23645969820969
 31
0.0
  0
LINE
  5
6A01
330
1F
100
AcDbEntity
  8
0
100
AcDbLine
 10
7.753066169543053
 20
4.812491410155417
 30
0.0
 11
7.753066169543053
 21
4.793447344965771
 31
0.0
  0
LINE
  5
6A02
330
1F
100
AcDbEntity
  8
0
100
AcDbLine
 10
7.799066169543056
 20
5.093287718898914
 30
0.0
 11
7.799066169543056
 21
4.793447344965771
 31
0.0
  0
LINE
  5
6A03
330
1F
100
AcDbEntity
  8
0
100
AcDbLine
 10
7.753066169543053
 20
5.093287718898914
 30
0.0
 11
7.753066169543053
 21
4.812491410155417
 31
0.0
  0
LINE
  5
6A04
330
1F
100
AcDbEntity
  8
0
100
AcDbLine
 10
7.75306616954306
 20
6.23645969820969
 30
0.0
 11
7.753066169543053
 21
5.095265639562136
 31
0.0
  0
LINE
  5
6A05
330
1F
100
AcDbEntity
  8
0
100
AcDbLine
 10
7.799066169543049
 20
6.23645969820969
 30
0.0
 11
7.799066169543056
 21
5.093287718898914
 31
0.0
  0
ARC
  5
6A08
330
1F
100
AcDbEntity
  8
0
100
AcDbCircle
 10
7.775983031530071
 20
4.795553222830393
 30
0.0
 40
0.0168752295208051
100
AcDbArc
 50
190.7869872641432
 51
352.8313097848344
  0
LINE
  5
6A09
330
1F
100
AcDbEntity
  8
0
100
AcDbLine
 10
7.278273377029826
 20
4.787753672023556
 30
0.0
 11
7.279057083025179
 21
4.793447344965771
 31
0.0
  0
LINE
  5
6A0A
330
1F
100
AcDbEntity
  8
0
100
AcDbLine
 10
7.27597566731222
 20
4.782448013483098
 30
0.0
 11
7.278273377029826
 21
4.787753672023556
 31
0.0
  0
LINE
  5
6A0B
330
1F
100
AcDbEntity
  8
0
100
AcDbLine
 10
7.272320538992467
 20
4.777891941205944
 30
0.0
 11
7.27597566731222
 21
4.782448013483098
 31
0.0
  0
LINE
  5
6A0C
330
1F
100
AcDbEntity
  8
0
100
AcDbLine
 10
7.267557083025181
 20
4.774395943988495
 30
0.0
 11
7.272320538992467
 21
4.777891941205944
 31
0.0
  0
LINE
  5
6A0D
330
1F
100
AcDbEntity
  8
0
100
AcDbLine
 10
7.262009921062539
 20
4.772198268263722
 30
0.0
 11
7.267557083025181
 21
4.774395943988495
 31
0.0
  0
LINE
  5
6A0E
330
1F
100
AcDbEntity
  8
0
100
AcDbLine
 10
7.256057083025179
 20
4.771448682000433
 30
0.0
 11
7.262009921062539
 21
4.772198268263722
 31
0.0
  0
LINE
  5
6A0F
330
1F
100
AcDbEntity
  8
0
100
AcDbLine
 10
7.25010424498782
 20
4.772198268263722
 30
0.0
 11
7.256057083025179
 21
4.771448682000433
 31
0.0
  0
LINE
  5
6A10
330
1F
100
AcDbEntity
  8
0
100
AcDbLine
 10
7.244557083025181
 20
4.774395943988495
 30
0.0
 11
7.25010424498782
 21
4.772198268263722
 31
0.0
  0
LINE
  5
6A11
330
1F
100
AcDbEntity
  8
0
100
AcDbLine
 10
7.239793627057888
 20
4.777891941205944
 30
0.0
 11
7.244557083025181
 21
4.774395943988495
 31
0.0
  0
LINE
  5
6A12
330
1F
100
AcDbEntity
  8
0
100
AcDbLine
 10
7.236138498738135
 20
4.782448013483098
 30
0.0
 11
7.239793627057888
 21
4.777891941205944
 31
0.0
  0
LINE
  5
6A13
330
1F
100
AcDbEntity
  8
0
100
AcDbLine
 10
7.233840789020529
 20
4.787753672023556
 30
0.0
 11
7.236138498738135
 21
4.782448013483098
 31
0.0
  0
LINE
  5
6A14
330
1F
100
AcDbEntity
  8
0
100
AcDbLine
 10
7.23305708302518
 20
4.793447344965771
 30
0.0
 11
7.233840789020529
 21
4.787753672023556
 31
0.0
  0
LINE
  5
6A15
330
1F
100
AcDbEntity
  8
0
100
AcDbLine
 10
7.278273377029826
 20
5.092696372815511
 30
0.0
 11
7.279057083025179
 21
5.093287718898914
 31
0.0
  0
LINE
  5
6A16
330
1F
100
AcDbEntity
  8
0
100
AcDbLine
 10
7.27597566731222
 20
5.092145325990444
 30
0.0
 11
7.278273377029826
 21
5.092696372815511
 31
0.0
  0
LINE
  5
6A17
330
1F
100
AcDbEntity
  8
0
100
AcDbLine
 10
7.272717261583267
 20
5.091723491247919
 30
0.0
 11
7.27597566731222
 21
5.092145325990444
 31
0.0
  0
LINE
  5
6A18
330
1F
100
AcDbEntity
  8
0
100
AcDbLine
 10
7.236138498738135
 20
5.092145325990444
 30
0.0
 11
7.239396904467085
 21
5.091723491247919
 31
0.0
  0
LINE
  5
6A19
330
1F
100
AcDbEntity
  8
0
100
AcDbLine
 10
7.233840789020529
 20
5.092696372815511
 30
0.0
 11
7.236138498738135
 21
5.092145325990444
 31
0.0
  0
LINE
  5
6A1A
330
1F
100
AcDbEntity
  8
0
100
AcDbLine
 10
7.23305708302518
 20
5.093287718898914
 30
0.0
 11
7.233840789020529
 21
5.092696372815511
 31
0.0
  0
LINE
  5
6A37
330
1F
100
AcDbEntity
  8
0
100
AcDbLine
 10
7.23305708302518
 20
5.093287718898914
 30
0.0
 11
7.23305708302518
 21
5.095265639562136
 31
0.0
  0
LINE
  5
6A40
330
1F
100
AcDbEntity
  8
0
100
AcDbLine
 10
7.272717261583267
 20
5.091723491247919
 30
0.0
 11
7.272717261583267
 21
4.793447344965771
 31
0.0
  0
LINE
  5
6A43
330
1F
100
AcDbEntity
  8
0
100
AcDbLine
 10
7.272717261583274
 20
6.23645969820969
 30
0.0
 11
7.272717261583267
 21
5.091723491247919
 31
0.0
  0
LINE
  5
6A44
330
1F
100
AcDbEntity
  8
0
100
AcDbLine
 10
7.239396904467085
 20
4.792394884953339
 30
0.0
 11
7.239396904467085
 21
5.091723491247919
 31
0.0
  0
LINE
  5
6A45
330
1F
100
AcDbEntity
  8
0
100
AcDbLine
 10
7.239396904467085
 20
5.091723491247919
 30
0.0
 11
7.239396904467088
 21
6.23645969820969
 31
0.0
  0
LINE
  5
6A46
330
1F
100
AcDbEntity
  8
0
100
AcDbLine
 10
7.23305708302518
 20
4.812491410155417
 30
0.0
 11
7.23305708302518
 21
4.793447344965771
 31
0.0
  0
LINE
  5
6A47
330
1F
100
AcDbEntity
  8
0
100
AcDbLine
 10
7.279057083025179
 20
5.093287718898914
 30
0.0
 11
7.279057083025179
 21
4.793447344965771
 31
0.0
  0
LINE
  5
6A48
330
1F
100
AcDbEntity
  8
0
100
AcDbLine
 10
7.23305708302518
 20
5.093287718898914
 30
0.0
 11
7.23305708302518
 21
4.812491410155417
 31
0.0
  0
LINE
  5
6A49
330
1F
100
AcDbEntity
  8
0
100
AcDbLine
 10
7.23305708302518
 20
6.23645969820969
 30
0.0
 11
7.23305708302518
 21
5.095265639562136
 31
0.0
  0
LINE
  5
6A4A
330
1F
100
AcDbEntity
  8
0
100
AcDbLine
 10
7.279057083025179
 20
6.23645969820969
 30
0.0
 11
7.279057083025179
 21
5.093287718898914
 31
0.0
  0
ARC
  5
6A4D
330
1F
100
AcDbEntity
  8
0
100
AcDbCircle
 10
7.255973945012197
 20
4.795553222830393
 30
0.0
 40
0.0168752295208051
100
AcDbArc
 50
190.7869872641432
 51
352.8313097848344
  0
LWPOLYLINE
  5
6A54
102
{ACAD_REACTORS
330
6A68
330
6A7C
102
}
330
1F
100
AcDbEntity
  8
STREFA BEZPIECZEŃSTWA
 48
0.5
100
AcDbPolyline
 90
       12
 70
     1
 43
0.0
 10
3.864585487959153
 20
7.399179471251241
 10
4.646998320628377
 20
6.946983917353132
 10
5.73305708302518
 20
5.035867485984644
 10
5.73305708302518
 20
2.171289042329969
 10
9.299066169543056
 20
2.171289042329969
 10
9.299066169543056
 20
5.090188343519133
 10
10.25256006950091
 20
6.75865074895711
 10
11.65396424768625
 20
7.567751828475919
 10
9.645608908626901
 20
11.04632531537885
 10
8.237024757016005
 20
10.23307887627004
 10
6.289019660681006
 20
10.23307887627004
 10
5.696936676335376
 20
10.57290387776344
  0
DIMENSION
  5
6A55
102
{ACAD_XDICTIONARY
360
6A60
102
}
102
{ACAD_REACTORS
330
6A68
102
}
330
1F
100
AcDbEntity
  8
WYMIAR
100
AcDbDimension
  2
*D1
 10
3.342473632624489
 20
2.171289042329971
 30
0.0
 11
3.130077528728385
 21
6.608807178854411
 31
0.0
 70
    32
 71
     5
 42
8.875036273048879
  3
AR SKALA 1-50
100
AcDbAlignedDimension
 13
9.645608908626901
 23
11.04632531537885
 33
0.0
 14
9.299066169543056
 24
2.171289042329969
 34
0.0
 50
90.0
100
AcDbRotatedDimension
  0
DIMENSION
  5
6A69
102
{ACAD_XDICTIONARY
360
6A74
102
}
102
{ACAD_REACTORS
330
6A7C
102
}
330
1F
100
AcDbEntity
  8
WYMIAR
100
AcDbDimension
  2
*D2
 10
11.65396424768625
 20
11.77687746294501
 30
0.0
 11
7.759274867822703
 21
11.98927356684112
 31
0.0
 70
    32
 71
     5
 42
7.7893787597271
  3
AR SKALA 1-50
100
AcDbAlignedDimension
 13
3.864585487959153
 23
7.399179471251241
 33
0.0
 14
11.65396424768625
 24
7.567751828475919
 34
0.0
100
AcDbRotatedDimension
  0
CIRCLE
  5
6B88
330
1F
100
AcDbEntity
  8
0
100
AcDbCircle
 10
7.500463941190915
 20
7.49527520237923
 30
0.0
 40
0.0248304211084971
  0
ARC
  5
6B89
330
1F
100
AcDbEntity
  8
0
100
AcDbCircle
 10
7.524241160652758
 20
8.086406290831007
 30
0.0
 40
0.532935279234085
100
AcDbArc
 50
235.7575651214987
 51
251.6565961607154
  0
ARC
  5
6B8A
330
1F
100
AcDbEntity
  8
0
100
AcDbCircle
 10
7.996000008692835
 20
8.843428270976417
 30
0.0
 40
1.415554200586691
100
AcDbArc
 50
243.1438394529791
 51
249.2724623201239
  0
ARC
  5
6B8B
330
1F
100
AcDbEntity
  8
0
100
AcDbCircle
 10
7.68974362838133
 20
8.479262050510373
 30
0.0
 40
0.9800103257468235
100
AcDbArc
 50
240.8958319842062
 51
249.6452101354938
  0
ARC
  5
6B8C
330
1F
100
AcDbEntity
  8
0
100
AcDbCircle
 10
7.920786933892985
 20
8.681923121039693
 30
0.0
 40
1.258890265692462
100
AcDbArc
 50
242.9796482128097
 51
249.3652033928563
  0
LINE
  5
6B8D
330
1F
100
AcDbEntity
  8
0
100
AcDbLine
 10
7.224360726439666
 20
7.645847853131217
 30
0.0
 11
7.213067642573147
 21
7.622990923399227
 31
0.0
  0
VIEWPORT
  5
7CA
330
1B
100
AcDbEntity
 67
     1
  8
0
100
AcDbViewport
 10
132.7143311207563
 20
130.0081252138006
 30
0.0
 40
854.309723853655
 41
353.4592970318474
 68
     1
 69
     1
 12
132.7143311207563
 22
130.0081252138006
 13
0.0
 23
0.0
 14
10.0
 24
10.0
 15
10.0
 25
10.0
 16
0.0
 26
0.0
 36
1.0
 17
0.0
 27
0.0
 37
0.0
 42
50.0
 43
0.0
 44
0.0
 45
353.4592970318474
 50
0.0
 51
0.0
 72
   100
 90
   819232
  1

281
     0
 71
     1
 74
     0
110
0.0
120
0.0
130
0.0
111
1.0
121
0.0
131
0.0
112
0.0
122
1.0
132
0.0
 79
     0
146
0.0
170
     0
  0
VIEWPORT
  5
99A
330
1B
100
AcDbEntity
 67
     1
  8
Defpoints
100
AcDbViewport
 10
107.4719745562062
 20
146.9348621411756
 30
0.0
 40
201.8208592217027
 41
287.3053455326816
 68
     2
 69
     2
 12
7.410042970365947
 22
7.146357854399769
 13
0.0
 23
0.0
 14
0.5
 24
0.5
 15
0.5
 25
0.5
 16
0.0
 26
0.0
 36
1.0
 17
0.0
 27
0.0
 37
-1000.0
 42
50.0
 43
4.148984367261674
 44
9.217858496371269
 45
14.3652687138674
 50
0.0
 51
0.0
 72
   100
 90
   819296
  1

281
     0
 71
     1
 74
     0
110
0.0
120
0.0
130
0.0
111
1.0
121
0.0
131
0.0
112
0.0
122
1.0
132
0.0
 79
     0
146
0.0
170
     0
  0
ENDSEC
  0
SECTION
  2
OBJECTS
  0
DICTIONARY
  5
C
330
0
100
AcDbDictionary
281
     1
  3
ACAD_COLOR
350
4B9
  3
ACAD_GROUP
350
D
  3
ACAD_LAYOUT
350
1A
  3
ACAD_MATERIAL
350
3B
  3
ACAD_MLEADERSTYLE
350
489
  3
ACAD_MLINESTYLE
350
17
  3
ACAD_PLOTSETTINGS
350
19
  3
ACAD_PLOTSTYLENAME
350
E
  3
ACAD_SCALELIST
350
6B3C
  3
ACAD_TABLESTYLE
350
4BA
  3
ACAD_VISUALSTYLE
350
2A
  3
ACDB_RECOMPOSE_DATA
350
6B6D
  3
AcDbVariableDictionary
350
487
  0
DICTIONARY
  5
84C
330
8
100
AcDbDictionary
280
     1
281
     1
  0
DICTIONARY
  5
7D1
330
2
100
AcDbDictionary
280
     1
281
     1
  3
ACAD_LAYERFILTERS
360
6BC5
  3
ACAD_LAYERSTATES
360
7D2
  3
ACLYDICTIONARY
360
6BC4
  0
DICTIONARY
  5
6B65
330
10
100
AcDbDictionary
280
     1
281
     1
  3
ADSK_XREC_LAYER_RECONCILED
360
6B66
  0
DICTIONARY
  5
6B67
330
87B
100
AcDbDictionary
280
     1
281
     1
  3
ADSK_XREC_LAYER_RECONCILED
360
6B68
  0
DICTIONARY
  5
6B69
330
87D
100
AcDbDictionary
280
     1
281
     1
  3
ADSK_XREC_LAYER_RECONCILED
360
6B6A
  0
DICTIONARY
  5
5F8
330
1F
100
AcDbDictionary
280
     1
281
     1
  3
ACAD_SORTENTS
360
5F9
  0
DICTIONARY
  5
6A60
330
6A55
100
AcDbDictionary
280
     1
281
     1
  3
ACAD_DIMASSOC
360
6A68
  0
DICTIONARY
  5
6A74
330
6A69
100
AcDbDictionary
280
     1
281
     1
  3
ACAD_DIMASSOC
360
6A7C
  0
DICTIONARY
  5
4B9
102
{ACAD_REACTORS
330
C
102
}
330
C
100
AcDbDictionary
281
     1
  0
DICTIONARY
  5
D
102
{ACAD_REACTORS
330
C
102
}
330
C
100
AcDbDictionary
281
     1
  0
DICTIONARY
  5
1A
102
{ACAD_REACTORS
330
C
102
}
330
C
100
AcDbDictionary
281
     1
  3
Layout1
350
1E
  3
Model
350
22
  0
DICTIONARY
  5
3B
102
{ACAD_REACTORS
330
C
102
}
330
C
100
AcDbDictionary
281
     1
  3
ByBlock
350
3D
  3
ByLayer
350
3C
  3
Global
350
3E
  0
DICTIONARY
  5
489
102
{ACAD_REACTORS
330
C
102
}
330
C
100
AcDbDictionary
281
     1
  3
Standard
350
6B5E
  0
DICTIONARY
  5
17
102
{ACAD_REACTORS
330
C
102
}
330
C
100
AcDbDictionary
281
     1
  3
Standard
350
18
  0
DICTIONARY
  5
19
102
{ACAD_REACTORS
330
C
102
}
330
C
100
AcDbDictionary
281
     1
  0
ACDBDICTIONARYWDFLT
  5
E
102
{ACAD_REACTORS
330
C
102
}
330
C
100
AcDbDictionary
281
     1
  3
Normal
350
F
100
AcDbDictionaryWithDefault
340
F
  0
DICTIONARY
  5
6B3C
102
{ACAD_REACTORS
330
C
102
}
330
C
100
AcDbDictionary
281
     1
  3
A0
350
6B3D
  3
A1
350
6B3E
  3
A2
350
6B3F
  3
A3
350
6B40
  3
A4
350
6B41
  3
A5
350
6B42
  3
A6
350
6B43
  3
A7
350
6B44
  3
A8
350
6B45
  3
A9
350
6B46
  3
B0
350
6B47
  3
B1
350
6B48
  3
B2
350
6B49
  3
B3
350
6B4A
  3
B4
350
6B4B
  3
B5
350
6B4C
  3
B6
350
6B4D
  3
B7
350
6B4E
  3
B8
350
6B4F
  3
B9
350
6B50
  3
C0
350
6B51
  3
C1
350
6B52
  3
C2
350
6B53
  3
C3
350
6B54
  3
C4
350
6B55
  3
C5
350
6B56
  3
C6
350
6B57
  3
C7
350
6B58
  3
C8
350
6B59
  3
C9
350
6B5A
  3
D0
350
6B5B
  3
D1
350
6B5C
  3
D2
350
6B5D
  0
DICTIONARY
  5
4BA
102
{ACAD_REACTORS
330
C
102
}
330
C
100
AcDbDictionary
281
     1
  3
Standard
350
4BB
  0
DICTIONARY
  5
2A
102
{ACAD_REACTORS
330
C
102
}
330
C
100
AcDbDictionary
281
     1
  3
2dWireframe
350
2F
  3
3D Hidden
350
A47
  3
3dWireframe
350
A48
  3
Basic
350
32
  3
Brighten
350
36
  3
ColorChange
350
3A
  3
Conceptual
350
A4B
  3
Dim
350
35
  3
Facepattern
350
39
  3
Flat
350
2B
  3
FlatWithEdges
350
2C
  3
Gouraud
350
2D
  3
GouraudWithEdges
350
2E
  3
Linepattern
350
38
  3
Realistic
350
A4C
  3
Thicken
350
37
  0
XRECORD
  5
6B6D
102
{ACAD_REACTORS
330
C
102
}
330
C
100
AcDbXrecord
280
     1
 90
        1
330
4BB
  0
DICTIONARY
  5
487
102
{ACAD_REACTORS
330
C
102
}
330
C
100
AcDbDictionary
281
     1
  3
CANNOSCALE
350
6B70
  3
CMLEADERSTYLE
350
6B6E
  3
CTABLESTYLE
350
5FE
  3
DIMASSOC
350
48A
  3
HIDETEXT
350
48B
  3
INDEXCTL
350
86B
  3
LIGHTINGUNITS
350
6B71
  3
MSLTSCALE
350
6B6F
  3
SORTENTS
350
86A
  0
DICTIONARY
  5
6BC5
102
{ACAD_REACTORS
330
7D1
102
}
330
7D1
100
AcDbDictionary
281
     1
  0
DICTIONARY
  5
7D2
102
{ACAD_REACTORS
330
7D1
102
}
330
7D1
100
AcDbDictionary
281
     1
  0
DICTIONARY
  5
6BC4
102
{ACAD_REACTORS
330
7D1
102
}
330
7D1
100
AcDbDictionary
281
     1
1001
ACAD
1000
<All
  0
XRECORD
  5
6B66
102
{ACAD_REACTORS
330
6B65
102
}
330
6B65
100
AcDbXrecord
280
     1
290
     1
  0
XRECORD
  5
6B68
102
{ACAD_REACTORS
330
6B67
102
}
330
6B67
100
AcDbXrecord
280
     1
290
     1
  0
XRECORD
  5
6B6A
102
{ACAD_REACTORS
330
6B69
102
}
330
6B69
100
AcDbXrecord
280
     1
290
     1
  0
SORTENTSTABLE
  5
5F9
102
{ACAD_REACTORS
330
5F8
102
}
330
5F8
100
AcDbSortentsTable
330
1F
331
66C0
  5
66C0
331
6681
  5
6681
331
660B
  5
660B
331
65D4
  5
65D4
331
6595
  5
6595
331
664A
  5
664A
331
6727
  5
6727
331
66C8
  5
66C8
331
6652
  5
6652
331
6613
  5
6613
331
65DC
  5
65DC
331
659D
  5
659D
331
6689
  5
6689
331
6A0C
  5
6A0C
331
6A14
  5
6A14
331
665A
  5
665A
331
661B
  5
661B
331
65E4
  5
65E4
331
65A5
  5
65A5
331
66D0
  5
66D0
331
699D
  5
699D
331
6737
  5
6737
331
6662
  5
6662
331
6623
  5
6623
331
65EC
  5
65EC
331
65AD
  5
65AD
331
66D8
  5
66D8
331
69C5
  5
69C5
331
673F
  5
673F
331
69CD
  5
69CD
331
655A
  5
655A
331
64E4
  5
64E4
331
64A5
  5
64A5
331
646E
  5
646E
331
651B
  5
651B
331
6523
  5
6523
331
64EC
  5
64EC
331
64AD
  5
64AD
331
6476
  5
6476
331
6562
  5
6562
331
652B
  5
652B
331
64F4
  5
64F4
331
643F
  5
643F
331
647E
  5
647E
331
656A
  5
656A
331
6533
  5
6533
331
64FC
  5
64FC
331
64BD
  5
64BD
331
6486
  5
6486
331
6447
  5
6447
331
6572
  5
6572
331
66E0
  5
66E0
331
666A
  5
666A
331
662B
  5
662B
331
65F4
  5
65F4
331
65B5
  5
65B5
331
66A1
  5
66A1
331
66E8
  5
66E8
331
66A9
  5
66A9
331
6672
  5
6672
331
6633
  5
6633
331
65FC
  5
65FC
331
65BD
  5
65BD
331
6747
  5
6747
331
678E
  5
678E
331
6A44
  5
6A44
331
6796
  5
6796
331
66B1
  5
66B1
331
667A
  5
667A
331
663B
  5
663B
331
65C5
  5
65C5
331
6604
  5
6604
331
674F
  5
674F
331
67A6
  5
67A6
331
6757
  5
6757
331
66B9
  5
66B9
331
65CD
  5
65CD
331
6643
  5
6643
331
6A54
  5
6A54
331
675F
  5
675F
331
6A05
  5
6A05
331
653B
  5
653B
331
6504
  5
6504
331
648E
  5
648E
331
644F
  5
644F
331
64C5
  5
64C5
331
657A
  5
657A
331
6543
  5
6543
331
650C
  5
650C
331
6496
  5
6496
331
6457
  5
6457
331
64CD
  5
64CD
331
6582
  5
6582
331
658A
  5
658A
331
6514
  5
6514
331
649E
  5
649E
331
645F
  5
645F
331
64D5
  5
64D5
331
654B
  5
654B
331
6553
  5
6553
331
64DD
  5
64DD
331
6467
  5
6467
331
6720
  5
6720
331
66C1
  5
66C1
331
6682
  5
6682
331
664B
  5
664B
331
65D5
  5
65D5
331
6596
  5
6596
331
660C
  5
660C
331
6728
  5
6728
331
66C9
  5
66C9
331
6653
  5
6653
331
6614
  5
6614
331
65DD
  5
65DD
331
659E
  5
659E
331
668A
  5
668A
331
6A0D
  5
6A0D
331
6730
  5
6730
331
66D1
  5
66D1
331
661C
  5
661C
331
65E5
  5
65E5
331
65A6
  5
65A6
331
665B
  5
665B
331
676F
  5
676F
331
6A15
  5
6A15
331
6738
  5
6738
331
6663
  5
6663
331
6624
  5
6624
331
65ED
  5
65ED
331
65AE
  5
65AE
331
66D9
  5
66D9
331
69C6
  5
69C6
331
6787
  5
6787
331
69CE
  5
69CE
331
655B
  5
655B
331
64E5
  5
64E5
331
64A6
  5
64A6
331
646F
  5
646F
331
651C
  5
651C
331
6563
  5
6563
331
64ED
  5
64ED
331
64AE
  5
64AE
331
6477
  5
6477
331
6438
  5
6438
331
6524
  5
6524
331
652C
  5
652C
331
64F5
  5
64F5
331
647F
  5
647F
331
6440
  5
6440
331
656B
  5
656B
331
6534
  5
6534
331
64FD
  5
64FD
331
64BE
  5
64BE
331
6487
  5
6487
331
6573
  5
6573
331
6740
  5
6740
331
66E1
  5
66E1
331
666B
  5
666B
331
662C
  5
662C
331
65F5
  5
65F5
331
65B6
  5
65B6
331
66A2
  5
66A2
331
6748
  5
6748
331
66AA
  5
66AA
331
6673
  5
6673
331
6634
  5
6634
331
65FD
  5
65FD
331
65BE
  5
65BE
331
66E9
  5
66E9
331
678F
  5
678F
331
6A45
  5
6A45
331
66B2
  5
66B2
331
667B
  5
667B
331
663C
  5
663C
331
6605
  5
6605
331
65C6
  5
65C6
331
6750
  5
6750
331
6A4D
  5
6A4D
331
6758
  5
6758
331
66BA
  5
66BA
331
65CE
  5
65CE
331
6644
  5
6644
331
67A7
  5
67A7
331
69FE
  5
69FE
331
6448
  5
6448
331
653C
  5
653C
331
6505
  5
6505
331
64C6
  5
64C6
331
6450
  5
6450
331
648F
  5
648F
331
657B
  5
657B
331
6544
  5
6544
331
650D
  5
650D
331
6458
  5
6458
331
6497
  5
6497
331
64CE
  5
64CE
331
6583
  5
6583
331
658B
  5
658B
331
6515
  5
6515
331
64D6
  5
64D6
331
6460
  5
6460
331
649F
  5
649F
331
654C
  5
654C
331
6554
  5
6554
331
64DE
  5
64DE
331
6760
  5
6760
331
66C2
  5
66C2
331
6683
  5
6683
331
664C
  5
664C
331
65D6
  5
65D6
331
6597
  5
6597
331
660D
  5
660D
331
6721
  5
6721
331
66CA
  5
66CA
331
668B
  5
668B
331
6654
  5
6654
331
65DE
  5
65DE
331
659F
  5
659F
331
6615
  5
6615
331
6A0E
  5
6A0E
331
6731
  5
6731
331
66D2
  5
66D2
331
661D
  5
661D
331
65E6
  5
65E6
331
65A7
  5
65A7
331
665C
  5
665C
331
6770
  5
6770
331
6A16
  5
6A16
331
6739
  5
6739
331
66DA
  5
66DA
331
6625
  5
6625
331
65EE
  5
65EE
331
65AF
  5
65AF
331
6664
  5
6664
331
69C7
  5
69C7
331
69CF
  5
69CF
331
6468
  5
6468
331
655C
  5
655C
331
64E6
  5
64E6
331
64A7
  5
64A7
331
6470
  5
6470
331
651D
  5
651D
331
6564
  5
6564
331
64EE
  5
64EE
331
64AF
  5
64AF
331
6478
  5
6478
331
6439
  5
6439
331
6525
  5
6525
331
652D
  5
652D
331
64F6
  5
64F6
331
6480
  5
6480
331
6441
  5
6441
331
656C
  5
656C
331
6574
  5
6574
331
64FE
  5
64FE
331
64BF
  5
64BF
331
6535
  5
6535
331
6741
  5
6741
331
66E2
  5
66E2
331
666C
  5
666C
331
662D
  5
662D
331
65F6
  5
65F6
331
65B7
  5
65B7
331
66A3
  5
66A3
331
6788
  5
6788
331
6749
  5
6749
331
66EA
  5
66EA
331
6674
  5
6674
331
6635
  5
6635
331
65FE
  5
65FE
331
65BF
  5
65BF
331
66AB
  5
66AB
331
6790
  5
6790
331
6A46
  5
6A46
331
6751
  5
6751
331
667C
  5
667C
331
663D
  5
663D
331
6606
  5
6606
331
65C7
  5
65C7
331
66B3
  5
66B3
331
6759
  5
6759
331
66BB
  5
66BB
331
6645
  5
6645
331
65CF
  5
65CF
331
69FF
  5
69FF
331
6488
  5
6488
331
6449
  5
6449
331
653D
  5
653D
331
6506
  5
6506
331
64C7
  5
64C7
331
6490
  5
6490
331
6451
  5
6451
331
657C
  5
657C
331
6545
  5
6545
331
650E
  5
650E
331
64CF
  5
64CF
331
6498
  5
6498
331
6459
  5
6459
331
6584
  5
6584
331
658C
  5
658C
331
6516
  5
6516
331
6461
  5
6461
331
64D7
  5
64D7
331
654D
  5
654D
331
6555
  5
6555
331
64DF
  5
64DF
331
6590
  5
6590
331
6761
  5
6761
331
66C3
  5
66C3
331
6684
  5
6684
331
664D
  5
664D
331
65D7
  5
65D7
331
6598
  5
6598
331
660E
  5
660E
331
6722
  5
6722
331
67A8
  5
67A8
331
6A0F
  5
6A0F
331
66CB
  5
66CB
331
668C
  5
668C
331
6655
  5
6655
331
65DF
  5
65DF
331
65A0
  5
65A0
331
6616
  5
6616
331
6998
  5
6998
331
6A17
  5
6A17
331
6732
  5
6732
331
66D3
  5
66D3
331
661E
  5
661E
331
65E7
  5
65E7
331
65A8
  5
65A8
331
665D
  5
665D
331
69C0
  5
69C0
331
673A
  5
673A
331
66DB
  5
66DB
331
669C
  5
669C
331
6665
  5
6665
331
65EF
  5
65EF
331
6626
  5
6626
331
69C8
  5
69C8
331
6A37
  5
6A37
331
6469
  5
6469
331
64A0
  5
64A0
331
651E
  5
651E
331
64A8
  5
64A8
331
6471
  5
6471
331
64E7
  5
64E7
331
655D
  5
655D
331
6565
  5
6565
331
64EF
  5
64EF
331
64B0
  5
64B0
331
6479
  5
6479
331
643A
  5
643A
331
6526
  5
6526
331
64F7
  5
64F7
331
6481
  5
6481
331
6442
  5
6442
331
652E
  5
652E
331
656D
  5
656D
331
6575
  5
6575
331
64FF
  5
64FF
331
6536
  5
6536
331
65B0
  5
65B0
331
6742
  5
6742
331
66E3
  5
66E3
331
666D
  5
666D
331
662E
  5
662E
331
65F7
  5
65F7
331
65B8
  5
65B8
331
66A4
  5
66A4
331
6789
  5
6789
331
69D0
  5
69D0
331
674A
  5
674A
331
66EB
  5
66EB
331
6675
  5
6675
331
6636
  5
6636
331
65C0
  5
65C0
331
65FF
  5
65FF
331
66AC
  5
66AC
331
6791
  5
6791
331
6A47
  5
6A47
331
67A1
  5
67A1
331
671B
  5
671B
331
667D
  5
667D
331
663E
  5
663E
331
6607
  5
6607
331
65C8
  5
65C8
331
66B4
  5
66B4
331
6752
  5
6752
331
675A
  5
675A
331
6646
  5
6646
331
66BC
  5
66BC
331
6A00
  5
6A00
331
64C0
  5
64C0
331
6489
  5
6489
331
644A
  5
644A
331
657D
  5
657D
331
6507
  5
6507
331
64C8
  5
64C8
331
6491
  5
6491
331
6452
  5
6452
331
653E
  5
653E
331
6546
  5
6546
331
64D0
  5
64D0
331
6499
  5
6499
331
645A
  5
645A
331
650F
  5
650F
331
6585
  5
6585
331
658D
  5
658D
331
6517
  5
6517
331
64D8
  5
64D8
331
6462
  5
6462
331
654E
  5
654E
331
6556
  5
6556
331
65D0
  5
65D0
331
6591
  5
6591
331
6A08
  5
6A08
331
67A9
  5
67A9
331
6762
  5
6762
331
66C4
  5
66C4
331
6685
  5
6685
331
664E
  5
664E
331
660F
  5
660F
331
6599
  5
6599
331
65D8
  5
65D8
331
6723
  5
6723
331
6A10
  5
6A10
331
6999
  5
6999
331
66CC
  5
66CC
331
668D
  5
668D
331
6656
  5
6656
331
6617
  5
6617
331
65A1
  5
65A1
331
65E0
  5
65E0
331
6A18
  5
6A18
331
69C1
  5
69C1
331
6733
  5
6733
331
66D4
  5
66D4
331
665E
  5
665E
331
65E8
  5
65E8
331
65A9
  5
65A9
331
661F
  5
661F
331
69C9
  5
69C9
331
66DC
  5
66DC
331
669D
  5
669D
331
6666
  5
6666
331
6627
  5
6627
331
673B
  5
673B
331
64E0
  5
64E0
331
646A
  5
646A
331
64A1
  5
64A1
331
651F
  5
651F
331
64E8
  5
64E8
331
6472
  5
6472
331
64A9
  5
64A9
331
655E
  5
655E
331
6527
  5
6527
331
64B1
  5
64B1
331
647A
  5
647A
331
643B
  5
643B
331
64F0
  5
64F0
331
6566
  5
6566
331
652F
  5
652F
331
64F8
  5
64F8
331
6482
  5
6482
331
6443
  5
6443
331
64B9
  5
64B9
331
656E
  5
656E
331
6576
  5
6576
331
6537
  5
6537
331
65F0
  5
65F0
331
65B1
  5
65B1
331
69D1
  5
69D1
331
6A40
  5
6A40
331
6743
  5
6743
331
66E4
  5
66E4
331
66A5
  5
66A5
331
666E
  5
666E
331
65F8
  5
65F8
331
65B9
  5
65B9
331
662F
  5
662F
331
678A
  5
678A
331
6A48
  5
6A48
331
674B
  5
674B
331
66EC
  5
66EC
331
6676
  5
6676
331
6637
  5
6637
331
6600
  5
6600
331
65C1
  5
65C1
331
66AD
  5
66AD
331
6792
  5
6792
331
67A2
  5
67A2
331
671C
  5
671C
331
66B5
  5
66B5
331
663F
  5
663F
331
65C9
  5
65C9
331
667E
  5
667E
331
6753
  5
6753
331
6A01
  5
6A01
331
675B
  5
675B
331
6647
  5
6647
331
66BD
  5
66BD
331
6500
  5
6500
331
64C1
  5
64C1
331
648A
  5
648A
331
644B
  5
644B
331
657E
  5
657E
331
6508
  5
6508
331
64C9
  5
64C9
331
6492
  5
6492
331
6453
  5
6453
331
653F
  5
653F
331
6586
  5
6586
331
6510
  5
6510
331
64D1
  5
64D1
331
649A
  5
649A
331
645B
  5
645B
331
6547
  5
6547
331
658E
  5
658E
331
654F
  5
654F
331
64D9
  5
64D9
331
6463
  5
6463
331
6557
  5
6557
331
6608
  5
6608
331
65D1
  5
65D1
331
6592
  5
6592
331
6A09
  5
6A09
331
67AA
  5
67AA
331
66C5
  5
66C5
331
6686
  5
6686
331
664F
  5
664F
331
6610
  5
6610
331
65D9
  5
65D9
331
659A
  5
659A
331
6724
  5
6724
331
6A11
  5
6A11
331
66CD
  5
66CD
331
668E
  5
668E
331
6657
  5
6657
331
6618
  5
6618
331
65A2
  5
65A2
331
65E1
  5
65E1
331
672C
  5
672C
331
6A19
  5
6A19
331
69C2
  5
69C2
331
66D5
  5
66D5
331
665F
  5
665F
331
6620
  5
6620
331
65E9
  5
65E9
331
65AA
  5
65AA
331
6734
  5
6734
331
69CA
  5
69CA
331
66DD
  5
66DD
331
6667
  5
6667
331
673C
  5
673C
331
6518
  5
6518
331
64E1
  5
64E1
331
646B
  5
646B
331
64A2
  5
64A2
331
6520
  5
6520
331
64E9
  5
64E9
331
6473
  5
6473
331
64AA
  5
64AA
331
655F
  5
655F
331
6528
  5
6528
331
64F1
  5
64F1
331
647B
  5
647B
331
643C
  5
643C
331
64B2
  5
64B2
331
6567
  5
6567
331
6530
  5
6530
331
64F9
  5
64F9
331
6483
  5
6483
331
6444
  5
6444
331
64BA
  5
64BA
331
656F
  5
656F
331
6577
  5
6577
331
65F1
  5
65F1
331
65B2
  5
65B2
331
6628
  5
6628
331
69D2
  5
69D2
331
6744
  5
6744
331
66E5
  5
66E5
331
66A6
  5
66A6
331
666F
  5
666F
331
65F9
  5
65F9
331
65BA
  5
65BA
331
6630
  5
6630
331
6A49
  5
6A49
331
69F2
  5
69F2
331
674C
  5
674C
331
66AE
  5
66AE
331
6601
  5
6601
331
65C2
  5
65C2
331
6638
  5
6638
331
6677
  5
6677
331
6793
  5
6793
331
67A3
  5
67A3
331
671D
  5
671D
331
66B6
  5
66B6
331
6640
  5
6640
331
65CA
  5
65CA
331
667F
  5
667F
331
6754
  5
6754
331
6A02
  5
6A02
331
675C
  5
675C
331
66BE
  5
66BE
331
6538
  5
6538
331
64C2
  5
64C2
331
648B
  5
648B
331
644C
  5
644C
331
6501
  5
6501
331
657F
  5
657F
331
6509
  5
6509
331
64CA
  5
64CA
331
6493
  5
6493
331
6454
  5
6454
331
6540
  5
6540
331
6548
  5
6548
331
64D2
  5
64D2
331
649B
  5
649B
331
645C
  5
645C
331
6511
  5
6511
331
6587
  5
6587
331
658F
  5
658F
331
6550
  5
6550
331
64DA
  5
64DA
331
6464
  5
6464
331
6648
  5
6648
331
6609
  5
6609
331
65D2
  5
65D2
331
6593
  5
6593
331
6A0A
  5
6A0A
331
67AB
  5
67AB
331
6725
  5
6725
331
66C6
  5
66C6
331
6650
  5
6650
331
6611
  5
6611
331
65DA
  5
65DA
331
659B
  5
659B
331
6687
  5
6687
331
6A12
  5
6A12
331
699B
  5
699B
331
66CE
  5
66CE
331
668F
  5
668F
331
6658
  5
6658
331
6619
  5
6619
331
65E2
  5
65E2
331
65A3
  5
65A3
331
6A1A
  5
6A1A
331
69C3
  5
69C3
331
6735
  5
6735
331
6660
  5
6660
331
6621
  5
6621
331
65EA
  5
65EA
331
65AB
  5
65AB
331
66D6
  5
66D6
331
69CB
  5
69CB
331
66DE
  5
66DE
331
669F
  5
669F
331
673D
  5
673D
331
6519
  5
6519
331
64E2
  5
64E2
331
64A3
  5
64A3
331
646C
  5
646C
331
6558
  5
6558
331
6521
  5
6521
331
64EA
  5
64EA
331
6474
  5
6474
331
64AB
  5
64AB
331
6560
  5
6560
331
6529
  5
6529
331
64F2
  5
64F2
331
643D
  5
643D
331
647C
  5
647C
331
6568
  5
6568
331
6531
  5
6531
331
64FA
  5
64FA
331
6484
  5
6484
331
6445
  5
6445
331
64BB
  5
64BB
331
6570
  5
6570
331
6668
  5
6668
331
6629
  5
6629
331
65B3
  5
65B3
331
65F2
  5
65F2
331
69D3
  5
69D3
331
66E6
  5
66E6
331
66A7
  5
66A7
331
6670
  5
6670
331
65FA
  5
65FA
331
65BB
  5
65BB
331
6631
  5
6631
331
6745
  5
6745
331
6A4A
  5
6A4A
331
674D
  5
674D
331
66AF
  5
66AF
331
6678
  5
6678
331
6602
  5
6602
331
65C3
  5
65C3
331
6639
  5
6639
331
6794
  5
6794
331
69FB
  5
69FB
331
67A4
  5
67A4
331
671E
  5
671E
331
66B7
  5
66B7
331
65CB
  5
65CB
331
6641
  5
6641
331
6755
  5
6755
331
6A03
  5
6A03
331
675D
  5
675D
331
66BF
  5
66BF
331
6539
  5
6539
331
6502
  5
6502
331
648C
  5
648C
331
644D
  5
644D
331
64C3
  5
64C3
331
6578
  5
6578
331
6541
  5
6541
331
64CB
  5
64CB
331
6494
  5
6494
331
6455
  5
6455
331
650A
  5
650A
331
6580
  5
6580
331
6549
  5
6549
331
64D3
  5
64D3
331
649C
  5
649C
331
645D
  5
645D
331
6512
  5
6512
331
6588
  5
6588
331
6551
  5
6551
331
64DB
  5
64DB
331
6465
  5
6465
331
6649
  5
6649
331
660A
  5
660A
331
65D3
  5
65D3
331
6594
  5
6594
331
6680
  5
6680
331
6A0B
  5
6A0B
331
6726
  5
6726
331
66C7
  5
66C7
331
6651
  5
6651
331
6612
  5
6612
331
65DB
  5
65DB
331
659C
  5
659C
331
6688
  5
6688
331
6A13
  5
6A13
331
699C
  5
699C
331
6690
  5
6690
331
6659
  5
6659
331
661A
  5
661A
331
65E3
  5
65E3
331
65A4
  5
65A4
331
66CF
  5
66CF
331
69C4
  5
69C4
331
6736
  5
6736
331
6661
  5
6661
331
6622
  5
6622
331
65EB
  5
65EB
331
65AC
  5
65AC
331
66D7
  5
66D7
331
69CC
  5
69CC
331
66DF
  5
66DF
331
673E
  5
673E
331
651A
  5
651A
331
64E3
  5
64E3
331
64A4
  5
64A4
331
646D
  5
646D
331
6559
  5
6559
331
6522
  5
6522
331
64EB
  5
64EB
331
64AC
  5
64AC
331
6475
  5
6475
331
6561
  5
6561
331
652A
  5
652A
331
64F3
  5
64F3
331
643E
  5
643E
331
647D
  5
647D
331
6569
  5
6569
331
6532
  5
6532
331
64FB
  5
64FB
331
6485
  5
6485
331
6446
  5
6446
331
64BC
  5
64BC
331
6571
  5
6571
331
66A0
  5
66A0
331
6669
  5
6669
331
662A
  5
662A
331
65F3
  5
65F3
331
65B4
  5
65B4
331
6A43
  5
6A43
331
69D4
  5
69D4
331
678D
  5
678D
331
66E7
  5
66E7
331
66A8
  5
66A8
331
6671
  5
6671
331
65FB
  5
65FB
331
65BC
  5
65BC
331
6632
  5
6632
331
6746
  5
6746
331
6795
  5
6795
331
66B0
  5
66B0
331
6679
  5
6679
331
663A
  5
663A
331
65C4
  5
65C4
331
6603
  5
6603
331
674E
  5
674E
331
67A5
  5
67A5
331
671F
  5
671F
331
66B8
  5
66B8
331
65CC
  5
65CC
331
6642
  5
6642
331
6756
  5
6756
331
675E
  5
675E
331
6A04
  5
6A04
331
653A
  5
653A
331
6503
  5
6503
331
648D
  5
648D
331
644E
  5
644E
331
64C4
  5
64C4
331
6579
  5
6579
331
6542
  5
6542
331
650B
  5
650B
331
6495
  5
6495
331
6456
  5
6456
331
64CC
  5
64CC
331
6581
  5
6581
331
6589
  5
6589
331
6513
  5
6513
331
649D
  5
649D
331
645E
  5
645E
331
64D4
  5
64D4
331
654A
  5
654A
331
6552
  5
6552
331
64DC
  5
64DC
331
6466
  5
6466
  0
DIMASSOC
  5
6A68
102
{ACAD_REACTORS
330
6A60
102
}
330
6A60
100
AcDbDimAssoc
330
6A55
 90
        3
 70
     0
 71
     0
  1
AcDbOsnapPointRef
 72
     1
331
6A54
 73
     2
 91
        8
 40
1.0
 10
0.0
 20
0.0
 30
2.000000000000000E+50
 75
     0
  1
AcDbOsnapPointRef
 72
     1
331
6A54
 73
     2
 91
        4
 40
1.0
 10
0.0
 20
0.0
 30
2.000000000000000E+50
 75
     0
  0
DIMASSOC
  5
6A7C
102
{ACAD_REACTORS
330
6A74
102
}
330
6A74
100
AcDbDimAssoc
330
6A69
 90
        3
 70
     0
 71
     0
  1
AcDbOsnapPointRef
 72
    13
331
6A54
 73
     2
 91
        1
 40
0.0
 10
0.0
 20
0.0
 30
2.000000000000000E+50
 75
     0
  1
AcDbOsnapPointRef
 72
     1
331
6A54
 73
     2
 91
        7
 40
1.0
 10
0.0
 20
0.0
 30
2.000000000000000E+50
 75
     0
  0
LAYOUT
  5
1E
102
{ACAD_XDICTIONARY
360
7D4
102
}
102
{ACAD_REACTORS
330
1A
102
}
330
1A
100
AcDbPlotSettings
  1

  2
Bullzip PDF Printer
  4
A4
  6

 40
3.174999952316284
 41
3.174999952316284
 42
3.175003051757812
 43
3.17498779296875
 44
209.8886566162109
 45
297.0530090332031
 46
0.0
 47
0.0
 48
6.561544945354853
 49
3.282189374834842
140
296.6096419909582
141
206.4421558651099
142
1.0
143
1.0
 70
   672
 72
     1
 73
     0
 74
     4
  7
RINTAL 1.10.ctb
 75
    16
147
25.4
 76
     0
 77
     2
 78
   300
148
-6.561544945354853
149
-3.282189374834842
100
AcDbLayout
  1
Layout1
 70
     0
 71
     1
 10
3.386544993038569
 20
0.1071894225185588
 11
213.2752016092495
 21
297.1601984557217
 12
0.0
 22
0.0
 32
0.0
 14
6.547234012028184
 24
3.270993223074697
 34
-0.0015258207003583
 15
208.4009457448023
 25
290.596894130555
 35
0.0000000349246037
146
0.0
 13
0.0
 23
0.0
 33
0.0
 16
1.0
 26
0.0
 36
0.0
 17
0.0
 27
1.0
 37
0.0
 76
     0
330
1B
331
7CA
1001
ACAD_PSEXT
1000
Bullzip PDF Printer
1000
Bullzip PDF Printer
1000
BULLZIP
1000
Bullzip PDF Printer 7.1.0.1218
1070
     0
  0
LAYOUT
  5
22
102
{ACAD_REACTORS
330
1A
102
}
330
1A
100
AcDbPlotSettings
  1

  2
none_device
  4
Letter_(8.50_x_11.00_Inches)
  6

 40
6.349999904632568
 41
6.349999904632568
 42
6.350006103515625
 43
6.350006103515625
 44
215.8999938964844
 45
279.3999938964844
 46
0.0
 47
0.0
 48
0.0
 49
0.0
140
0.0
141
0.0
142
1.0
143
2.339031675614175
 70
 11952
 72
     0
 73
     1
 74
     0
  7

 75
     0
147
0.4275273440824282
 76
     0
 77
     2
 78
   300
148
146.6099051445425
149
-22.9393749594208
100
AcDbLayout
  1
Model
 70
     1
 71
     0
 10
0.0
 20
0.0
 11
12.0
 21
9.0
 12
0.0
 22
0.0
 32
0.0
 14
1.000000000000000E+20
 24
1.000000000000000E+20
 34
1.000000000000000E+20
 15
-1.000000000000000E+20
 25
-1.000000000000000E+20
 35
-1.000000000000000E+20
146
0.0
 13
0.0
 23
0.0
 33
0.0
 16
1.0
 26
0.0
 36
0.0
 17
0.0
 27
1.0
 37
0.0
 76
     0
330
1F
331
29
1001
ACAD_PSEXT
1000
Brak
1000
Brak
1000
Nie można zastosować.
1000
Arkusz nie zostanie wydrukowany dopóki nie wybrano konfiguracji plotera.
1070
     0
  0
MATERIAL
  5
3D
102
{ACAD_XDICTIONARY
360
6BE4
102
}
102
{ACAD_REACTORS
330
3B
102
}
330
3B
100
AcDbMaterial
  1
ByBlock
 73
     1
 78
     1
172
     1
176
     1
270
     1
274
     1
  0
MATERIAL
  5
3C
102
{ACAD_XDICTIONARY
360
6BE2
102
}
102
{ACAD_REACTORS
330
3B
102
}
330
3B
100
AcDbMaterial
  1
ByLayer
 73
     1
 78
     1
172
     1
176
     1
270
     1
274
     1
  0
MATERIAL
  5
3E
102
{ACAD_XDICTIONARY
360
6BE6
102
}
102
{ACAD_REACTORS
330
3B
102
}
330
3B
100
AcDbMaterial
  1
Global
 73
     1
 78
     1
172
     1
176
     1
270
     1
274
     1
  0
MLEADERSTYLE
  5
6B5E
102
{ACAD_REACTORS
330
489
102
}
330
489
100
AcDbMLeaderStyle
170
     2
171
     1
172
     0
 90
        2
 40
0.0
 41
0.0
173
     1
 91
-1056964608
340
14
 92
       -2
290
     1
 42
0.09
291
     1
 43
0.36
  3
Standard
 44
0.18
300

342
11
174
     1
178
     6
175
     1
176
     0
 93
-1056964608
 45
0.18
292
     0
297
     0
 46
0.18
 94
-1056964608
 47
1.0
 49
1.0
140
1.0
293
     1
141
0.0
294
     1
177
     0
142
1.0
295
     0
296
     0
143
0.125
1001
ACAD_MLEADERVER
1070
     2
  0
MLINESTYLE
  5
18
102
{ACAD_REACTORS
330
17
102
}
330
17
100
AcDbMlineStyle
  2
STANDARD
 70
     0
  3

 62
   256
 51
90.0
 52
90.0
 71
     2
 49
0.5
 62
   256
  6
BYLAYER
 49
-0.5
 62
   256
  6
BYLAYER
  0
ACDBPLACEHOLDER
  5
F
102
{ACAD_REACTORS
330
E
102
}
330
E
  0
SCALE
  5
6B3D
102
{ACAD_REACTORS
330
6B3C
102
}
330
6B3C
100
AcDbScale
 70
     0
300
1:1
140
1.0
141
1.0
290
     1
  0
SCALE
  5
6B3E
102
{ACAD_REACTORS
330
6B3C
102
}
330
6B3C
100
AcDbScale
 70
     0
300
1:2
140
1.0
141
2.0
290
     0
  0
SCALE
  5
6B3F
102
{ACAD_REACTORS
330
6B3C
102
}
330
6B3C
100
AcDbScale
 70
     0
300
1:4
140
1.0
141
4.0
290
     0
  0
SCALE
  5
6B40
102
{ACAD_REACTORS
330
6B3C
102
}
330
6B3C
100
AcDbScale
 70
     0
300
1:5
140
1.0
141
5.0
290
     0
  0
SCALE
  5
6B41
102
{ACAD_REACTORS
330
6B3C
102
}
330
6B3C
100
AcDbScale
 70
     0
300
1:8
140
1.0
141
8.0
290
     0
  0
SCALE
  5
6B42
102
{ACAD_REACTORS
330
6B3C
102
}
330
6B3C
100
AcDbScale
 70
     0
300
1:10
140
1.0
141
10.0
290
     0
  0
SCALE
  5
6B43
102
{ACAD_REACTORS
330
6B3C
102
}
330
6B3C
100
AcDbScale
 70
     0
300
1:16
140
1.0
141
16.0
290
     0
  0
SCALE
  5
6B44
102
{ACAD_REACTORS
330
6B3C
102
}
330
6B3C
100
AcDbScale
 70
     0
300
1:20
140
1.0
141
20.0
290
     0
  0
SCALE
  5
6B45
102
{ACAD_REACTORS
330
6B3C
102
}
330
6B3C
100
AcDbScale
 70
     0
300
1:30
140
1.0
141
30.0
290
     0
  0
SCALE
  5
6B46
102
{ACAD_REACTORS
330
6B3C
102
}
330
6B3C
100
AcDbScale
 70
     0
300
1:40
140
1.0
141
40.0
290
     0
  0
SCALE
  5
6B47
102
{ACAD_REACTORS
330
6B3C
102
}
330
6B3C
100
AcDbScale
 70
     0
300
1:50
140
1.0
141
50.0
290
     0
  0
SCALE
  5
6B48
102
{ACAD_REACTORS
330
6B3C
102
}
330
6B3C
100
AcDbScale
 70
     0
300
1:100
140
1.0
141
100.0
290
     0
  0
SCALE
  5
6B49
102
{ACAD_REACTORS
330
6B3C
102
}
330
6B3C
100
AcDbScale
 70
     0
300
2:1
140
2.0
141
1.0
290
     0
  0
SCALE
  5
6B4A
102
{ACAD_REACTORS
330
6B3C
102
}
330
6B3C
100
AcDbScale
 70
     0
300
4:1
140
4.0
141
1.0
290
     0
  0
SCALE
  5
6B4B
102
{ACAD_REACTORS
330
6B3C
102
}
330
6B3C
100
AcDbScale
 70
     0
300
8:1
140
8.0
141
1.0
290
     0
  0
SCALE
  5
6B4C
102
{ACAD_REACTORS
330
6B3C
102
}
330
6B3C
100
AcDbScale
 70
     0
300
10:1
140
10.0
141
1.0
290
     0
  0
SCALE
  5
6B4D
102
{ACAD_REACTORS
330
6B3C
102
}
330
6B3C
100
AcDbScale
 70
     0
300
100:1
140
100.0
141
1.0
290
     0
  0
SCALE
  5
6B4E
102
{ACAD_REACTORS
330
6B3C
102
}
330
6B3C
100
AcDbScale
 70
     0
300
1/128" = 1'-0"
140
0.0078125
141
12.0
290
     0
  0
SCALE
  5
6B4F
102
{ACAD_REACTORS
330
6B3C
102
}
330
6B3C
100
AcDbScale
 70
     0
300
1/64" = 1'-0"
140
0.015625
141
12.0
290
     0
  0
SCALE
  5
6B50
102
{ACAD_REACTORS
330
6B3C
102
}
330
6B3C
100
AcDbScale
 70
     0
300
1/32" = 1'-0"
140
0.03125
141
12.0
290
     0
  0
SCALE
  5
6B51
102
{ACAD_REACTORS
330
6B3C
102
}
330
6B3C
100
AcDbScale
 70
     0
300
1/16" = 1'-0"
140
0.0625
141
12.0
290
     0
  0
SCALE
  5
6B52
102
{ACAD_REACTORS
330
6B3C
102
}
330
6B3C
100
AcDbScale
 70
     0
300
3/32" = 1'-0"
140
0.09375
141
12.0
290
     0
  0
SCALE
  5
6B53
102
{ACAD_REACTORS
330
6B3C
102
}
330
6B3C
100
AcDbScale
 70
     0
300
1/8" = 1'-0"
140
0.125
141
12.0
290
     0
  0
SCALE
  5
6B54
102
{ACAD_REACTORS
330
6B3C
102
}
330
6B3C
100
AcDbScale
 70
     0
300
3/16" = 1'-0"
140
0.1875
141
12.0
290
     0
  0
SCALE
  5
6B55
102
{ACAD_REACTORS
330
6B3C
102
}
330
6B3C
100
AcDbScale
 70
     0
300
1/4" = 1'-0"
140
0.25
141
12.0
290
     0
  0
SCALE
  5
6B56
102
{ACAD_REACTORS
330
6B3C
102
}
330
6B3C
100
AcDbScale
 70
     0
300
3/8" = 1'-0"
140
0.375
141
12.0
290
     0
  0
SCALE
  5
6B57
102
{ACAD_REACTORS
330
6B3C
102
}
330
6B3C
100
AcDbScale
 70
     0
300
1/2" = 1'-0"
140
0.5
141
12.0
290
     0
  0
SCALE
  5
6B58
102
{ACAD_REACTORS
330
6B3C
102
}
330
6B3C
100
AcDbScale
 70
     0
300
3/4" = 1'-0"
140
0.75
141
12.0
290
     0
  0
SCALE
  5
6B59
102
{ACAD_REACTORS
330
6B3C
102
}
330
6B3C
100
AcDbScale
 70
     0
300
1" = 1'-0"
140
1.0
141
12.0
290
     0
  0
SCALE
  5
6B5A
102
{ACAD_REACTORS
330
6B3C
102
}
330
6B3C
100
AcDbScale
 70
     0
300
1-1/2" = 1'-0"
140
1.5
141
12.0
290
     0
  0
SCALE
  5
6B5B
102
{ACAD_REACTORS
330
6B3C
102
}
330
6B3C
100
AcDbScale
 70
     0
300
3" = 1'-0"
140
3.0
141
12.0
290
     0
  0
SCALE
  5
6B5C
102
{ACAD_REACTORS
330
6B3C
102
}
330
6B3C
100
AcDbScale
 70
     0
300
6" = 1'-0"
140
6.0
141
12.0
290
     0
  0
SCALE
  5
6B5D
102
{ACAD_REACTORS
330
6B3C
102
}
330
6B3C
100
AcDbScale
 70
     0
300
1'-0" = 1'-0"
140
12.0
141
12.0
290
     0
  0
TABLESTYLE
  5
4BB
102
{ACAD_XDICTIONARY
360
6B6B
102
}
102
{ACAD_REACTORS
330
4BA
102
}
330
4BA
100
AcDbTableStyle
  3
Standard
 70
     0
 71
     0
 40
0.06
 41
0.06
280
     0
281
     0
  7
Standard
140
0.18
170
     2
 62
     0
 63
     7
283
     0
274
    -2
284
     1
 64
     0
275
    -2
285
     1
 65
     0
276
    -2
286
     1
 66
     0
277
    -2
287
     1
 67
     0
278
    -2
288
     1
 68
     0
279
    -2
289
     1
 69
     0
  7
Standard
140
0.25
170
     5
 62
     0
 63
     7
283
     0
274
    -2
284
     1
 64
     0
275
    -2
285
     1
 65
     0
276
    -2
286
     1
 66
     0
277
    -2
287
     1
 67
     0
278
    -2
288
     1
 68
     0
279
    -2
289
     1
 69
     0
  7
Standard
140
0.18
170
     5
 62
     0
 63
     7
283
     0
274
    -2
284
     1
 64
     0
275
    -2
285
     1
 65
     0
276
    -2
286
     1
 66
     0
277
    -2
287
     1
 67
     0
278
    -2
288
     1
 68
     0
279
    -2
289
     1
 69
     0
  0
VISUALSTYLE
  5
2F
102
{ACAD_XDICTIONARY
360
49A
102
}
102
{ACAD_REACTORS
330
2A
102
}
330
2A
100
AcDbVisualStyle
  2
2dWireframe
 70
     4
 71
     0
 72
     2
 73
     0
 90
        0
 40
-0.6
 41
-30.0
 62
     5
 63
     7
 74
     1
 91
        4
 64
     7
 65
   257
 75
     1
175
     1
 42
1.0
 92
        0
 66
   257
 43
1.0
 76
     1
 77
     6
 78
     2
 67
     7
 79
     5
170
     0
171
     0
290
     0
174
     0
 93
        1
 44
0.0
173
     0
291
     0
 45
0.0
1001
ACAD
1000
AcDbSavedByObjectVersion
1070
     0
  0
VISUALSTYLE
  5
A47
102
{ACAD_REACTORS
330
2A
102
}
330
2A
100
AcDbVisualStyle
  2
3D Hidden
 70
     6
 71
     1
 72
     2
 73
     2
 90
        0
 40
-0.6
 41
-30.0
 62
     5
 63
     7
 74
     2
 91
        2
 64
     7
 65
   257
 75
     2
175
     1
 42
40.0
 92
        0
 66
   257
 43
1.0
 76
     1
 77
     6
 78
     2
 67
     7
 79
     3
170
     0
171
     0
290
     0
174
     0
 93
        1
 44
0.0
173
     0
291
     0
 45
0.0
1001
ACAD
1000
AcDbSavedByObjectVersion
1070
     0
  0
VISUALSTYLE
  5
A48
102
{ACAD_XDICTIONARY
360
A49
102
}
102
{ACAD_REACTORS
330
2A
102
}
330
2A
100
AcDbVisualStyle
  2
3dWireframe
 70
     5
 71
     0
 72
     2
 73
     0
 90
        0
 40
-0.6
 41
-30.0
 62
     5
 63
     7
 74
     1
 91
        4
 64
     7
 65
   257
 75
     1
175
     1
 42
1.0
 92
        0
 66
   257
 43
1.0
 76
     1
 77
     6
 78
     2
 67
     7
 79
     5
170
     0
171
     0
290
     0
174
     0
 93
        1
 44
0.0
173
     0
291
     0
 45
0.0
1001
ACAD
1000
AcDbSavedByObjectVersion
1070
     0
  0
VISUALSTYLE
  5
32
102
{ACAD_XDICTIONARY
360
4A0
102
}
102
{ACAD_REACTORS
330
2A
102
}
330
2A
100
AcDbVisualStyle
  2
Basic
 70
     7
 71
     1
 72
     0
 73
     1
 90
        0
 40
-0.6
 41
-30.0
 62
     5
 63
     7
 74
     0
 91
        4
 64
     7
 65
   257
 75
     1
175
     1
 42
1.0
 92
        8
 66
     7
 43
1.0
 76
     1
 77
     6
 78
     2
 67
     7
 79
     5
170
     0
171
     0
290
     0
174
     0
 93
        1
 44
0.0
173
     0
291
     1
 45
0.0
1001
ACAD
1000
AcDbSavedByObjectVersion
1070
     0
  0
VISUALSTYLE
  5
36
102
{ACAD_XDICTIONARY
360
4A8
102
}
102
{ACAD_REACTORS
330
2A
102
}
330
2A
100
AcDbVisualStyle
  2
Brighten
 70
    12
 71
     2
 72
     2
 73
     0
 90
        0
 40
-0.6
 41
-30.0
 62
     5
 63
     7
 74
     1
 91
        4
 64
     7
 65
   257
 75
     1
175
     1
 42
1.0
 92
        8
 66
     7
 43
1.0
 76
     1
 77
     6
 78
     2
 67
     7
 79
     5
170
     0
171
     0
290
     0
174
     0
 93
        1
 44
50.0
173
     0
291
     1
 45
0.0
1001
ACAD
1000
AcDbSavedByObjectVersion
1070
     0
  0
VISUALSTYLE
  5
3A
102
{ACAD_XDICTIONARY
360
4B0
102
}
102
{ACAD_REACTORS
330
2A
102
}
330
2A
100
AcDbVisualStyle
  2
ColorChange
 70
    16
 71
     2
 72
     2
 73
     3
 90
        0
 40
-0.6
 41
-30.0
 62
     5
 63
     8
 74
     1
 91
        4
 64
     7
 65
   257
 75
     1
175
     1
 42
1.0
 92
        8
 66
     8
 43
1.0
 76
     1
 77
     6
 78
     2
 67
     7
 79
     5
170
     0
171
     0
290
     0
174
     0
 93
        1
 44
0.0
173
     0
291
     1
 45
0.0
1001
ACAD
1000
AcDbSavedByObjectVersion
1070
     0
  0
VISUALSTYLE
  5
A4B
102
{ACAD_REACTORS
330
2A
102
}
330
2A
100
AcDbVisualStyle
  2
Conceptual
 70
     9
 71
     3
 72
     2
 73
     0
 90
        0
 40
-0.6
 41
-30.0
 62
     5
 63
     7
 74
     2
 91
        2
 64
     7
 65
   257
 75
     1
175
     1
 42
40.0
 92
        8
 66
     7
 43
1.0
 76
     1
 77
     6
 78
     2
 67
     7
 79
     3
170
     0
171
     0
290
     0
174
     0
 93
        1
 44
0.0
173
     0
291
     0
 45
0.0
1001
ACAD
1000
AcDbSavedByObjectVersion
1070
     0
  0
VISUALSTYLE
  5
35
102
{ACAD_XDICTIONARY
360
4A6
102
}
102
{ACAD_REACTORS
330
2A
102
}
330
2A
100
AcDbVisualStyle
  2
Dim
 70
    11
 71
     2
 72
     2
 73
     0
 90
        0
 40
-0.6
 41
-30.0
 62
     5
 63
     7
 74
     1
 91
        4
 64
     7
 65
   257
 75
     1
175
     1
 42
1.0
 92
        8
 66
     7
 43
1.0
 76
     1
 77
     6
 78
     2
 67
     7
 79
     5
170
     0
171
     0
290
     0
174
     0
 93
        1
 44
-50.0
173
     0
291
     1
 45
0.0
1001
ACAD
1000
AcDbSavedByObjectVersion
1070
     0
  0
VISUALSTYLE
  5
39
102
{ACAD_XDICTIONARY
360
4AE
102
}
102
{ACAD_REACTORS
330
2A
102
}
330
2A
100
AcDbVisualStyle
  2
Facepattern
 70
    15
 71
     2
 72
     2
 73
     0
 90
        0
 40
-0.6
 41
-30.0
 62
     5
 63
     7
 74
     1
 91
        4
 64
     7
 65
   257
 75
     1
175
     1
 42
1.0
 92
        8
 66
     7
 43
1.0
 76
     1
 77
     6
 78
     2
 67
     7
 79
     5
170
     0
171
     0
290
     0
174
     0
 93
        1
 44
0.0
173
     0
291
     1
 45
0.0
1001
ACAD
1000
AcDbSavedByObjectVersion
1070
     0
  0
VISUALSTYLE
  5
2B
102
{ACAD_XDICTIONARY
360
492
102
}
102
{ACAD_REACTORS
330
2A
102
}
330
2A
100
AcDbVisualStyle
  2
Flat
 70
     0
 71
     2
 72
     1
 73
     1
 90
        2
 40
-0.6
 41
30.0
 62
     5
 63
     7
 74
     0
 91
        4
 64
     7
 65
   257
 75
     1
175
     1
 42
1.0
 92
        8
 66
     7
 43
1.0
 76
     1
 77
     6
 78
     2
 67
     7
 79
     5
170
     0
171
     0
290
     0
174
     0
 93
       13
 44
0.0
173
     0
291
     1
 45
0.0
1001
ACAD
1000
AcDbSavedByObjectVersion
1070
     0
  0
VISUALSTYLE
  5
2C
102
{ACAD_XDICTIONARY
360
494
102
}
102
{ACAD_REACTORS
330
2A
102
}
330
2A
100
AcDbVisualStyle
  2
FlatWithEdges
 70
     1
 71
     2
 72
     1
 73
     1
 90
        2
 40
-0.6
 41
30.0
 62
     5
 63
     7
 74
     1
 91
        4
 64
     7
 65
   257
 75
     1
175
     1
 42
1.0
 92
        0
 66
   257
 43
1.0
 76
     1
 77
     6
 78
     2
 67
     7
 79
     5
170
     0
171
     0
290
     0
174
     0
 93
       13
 44
0.0
173
     0
291
     1
 45
0.0
1001
ACAD
1000
AcDbSavedByObjectVersion
1070
     0
  0
VISUALSTYLE
  5
2D
102
{ACAD_XDICTIONARY
360
496
102
}
102
{ACAD_REACTORS
330
2A
102
}
330
2A
100
AcDbVisualStyle
  2
Gouraud
 70
     2
 71
     2
 72
     2
 73
     1
 90
        2
 40
-0.6
 41
30.0
 62
     5
 63
     7
 74
     0
 91
        4
 64
     7
 65
   257
 75
     1
175
     1
 42
1.0
 92
        0
 66
     7
 43
1.0
 76
     1
 77
     6
 78
     2
 67
     7
 79
     5
170
     0
171
     0
290
     0
174
     0
 93
       13
 44
0.0
173
     0
291
     1
 45
0.0
1001
ACAD
1000
AcDbSavedByObjectVersion
1070
     0
  0
VISUALSTYLE
  5
2E
102
{ACAD_XDICTIONARY
360
498
102
}
102
{ACAD_REACTORS
330
2A
102
}
330
2A
100
AcDbVisualStyle
  2
GouraudWithEdges
 70
     3
 71
     2
 72
     2
 73
     1
 90
        2
 40
-0.6
 41
30.0
 62
     5
 63
     7
 74
     1
 91
        4
 64
     7
 65
   257
 75
     1
175
     1
 42
1.0
 92
        0
 66
   257
 43
1.0
 76
     1
 77
     6
 78
     2
 67
     7
 79
     5
170
     0
171
     0
290
     0
174
     0
 93
       13
 44
0.0
173
     0
291
     1
 45
0.0
1001
ACAD
1000
AcDbSavedByObjectVersion
1070
     0
  0
VISUALSTYLE
  5
38
102
{ACAD_XDICTIONARY
360
4AC
102
}
102
{ACAD_REACTORS
330
2A
102
}
330
2A
100
AcDbVisualStyle
  2
Linepattern
 70
    14
 71
     2
 72
     2
 73
     0
 90
        0
 40
-0.6
 41
-30.0
 62
     5
 63
     7
 74
     1
 91
        4
 64
     7
 65
   257
 75
     7
175
     7
 42
1.0
 92
        8
 66
     7
 43
1.0
 76
     1
 77
     6
 78
     2
 67
     7
 79
     5
170
     0
171
     0
290
     0
174
     0
 93
        1
 44
0.0
173
     0
291
     1
 45
0.0
1001
ACAD
1000
AcDbSavedByObjectVersion
1070
     0
  0
VISUALSTYLE
  5
A4C
102
{ACAD_XDICTIONARY
360
A4D
102
}
102
{ACAD_REACTORS
330
2A
102
}
330
2A
100
AcDbVisualStyle
  2
Realistic
 70
     8
 71
     2
 72
     2
 73
     0
 90
        0
 40
-0.6
 41
-30.0
 62
     5
 63
     7
 74
     1
 91
        0
 64
     7
 65
   257
 75
     1
175
     1
 42
1.0
 92
        8
 66
     8
 43
1.0
 76
     1
 77
     6
 78
     2
 67
     7
 79
     5
170
     0
171
     0
290
     0
174
     0
 93
       13
 44
0.0
173
     0
291
     0
 45
0.0
1001
ACAD
1000
AcDbSavedByObjectVersion
1070
     0
  0
VISUALSTYLE
  5
37
102
{ACAD_XDICTIONARY
360
4AA
102
}
102
{ACAD_REACTORS
330
2A
102
}
330
2A
100
AcDbVisualStyle
  2
Thicken
 70
    13
 71
     2
 72
     2
 73
     0
 90
        0
 40
-0.6
 41
-30.0
 62
     5
 63
     7
 74
     1
 91
        4
 64
     7
 65
   257
 75
     1
175
     1
 42
1.0
 92
       12
 66
     7
 43
1.0
 76
     1
 77
     6
 78
     2
 67
     7
 79
     5
170
     0
171
     0
290
     0
174
     0
 93
        1
 44
0.0
173
     0
291
     1
 45
0.0
1001
ACAD
1000
AcDbSavedByObjectVersion
1070
     0
  0
DICTIONARYVAR
  5
6B70
102
{ACAD_REACTORS
330
487
102
}
330
487
100
DictionaryVariables
280
     0
  1
1:1
  0
DICTIONARYVAR
  5
6B6E
102
{ACAD_REACTORS
330
487
102
}
330
487
100
DictionaryVariables
280
     0
  1
STANDARD
  0
DICTIONARYVAR
  5
5FE
102
{ACAD_REACTORS
330
487
102
}
330
487
100
DictionaryVariables
280
     0
  1
STANDARD
  0
DICTIONARYVAR
  5
48A
102
{ACAD_REACTORS
330
487
102
}
330
487
100
DictionaryVariables
280
     0
  1
2
  0
DICTIONARYVAR
  5
48B
102
{ACAD_REACTORS
330
487
102
}
330
487
100
DictionaryVariables
280
     0
  1
1
  0
DICTIONARYVAR
  5
86B
102
{ACAD_REACTORS
330
487
102
}
330
487
100
DictionaryVariables
280
     0
  1
0
  0
DICTIONARYVAR
  5
6B71
102
{ACAD_REACTORS
330
487
102
}
330
487
100
DictionaryVariables
280
     0
  1
0
  0
DICTIONARYVAR
  5
6B6F
102
{ACAD_REACTORS
330
487
102
}
330
487
100
DictionaryVariables
280
     0
  1
0
  0
DICTIONARYVAR
  5
86A
102
{ACAD_REACTORS
330
487
102
}
330
487
100
DictionaryVariables
280
     0
  1
127
  0
DICTIONARY
  5
7D4
330
1E
100
AcDbDictionary
280
     1
281
     1
  3
ADSK_XREC_LAYOUTTHUMBNAIL
360
7D5
  0
DICTIONARY
  5
6BE4
330
3D
100
AcDbDictionary
280
     1
281
     1
  3
ACAD_XREC_ROUNDTRIP
360
6BE5
  0
DICTIONARY
  5
6BE2
330
3C
100
AcDbDictionary
280
     1
281
     1
  3
ACAD_XREC_ROUNDTRIP
360
6BE3
  0
DICTIONARY
  5
6BE6
330
3E
100
AcDbDictionary
280
     1
281
     1
  3
ACAD_XREC_ROUNDTRIP
360
6BE7
  0
DICTIONARY
  5
6B6B
330
4BB
100
AcDbDictionary
280
     1
281
     1
  3
ACAD_ROUNDTRIP_2008_TABLESTYLE_CELLSTYLEMAP
360
6BE1
  3
ACAD_XREC_ROUNDTRIP
360
6BE8
  0
DICTIONARY
  5
49A
330
2F
100
AcDbDictionary
280
     1
281
     1
  3
ACAD_XREC_ROUNDTRIP
360
49B
  0
DICTIONARY
  5
A49
330
A48
100
AcDbDictionary
280
     1
281
     1
  3
ACAD_XREC_ROUNDTRIP
360
A4A
  0
DICTIONARY
  5
4A0
330
32
100
AcDbDictionary
280
     1
281
     1
  3
ACAD_XREC_ROUNDTRIP
360
4A1
  0
DICTIONARY
  5
4A8
330
36
100
AcDbDictionary
280
     1
281
     1
  3
ACAD_XREC_ROUNDTRIP
360
4A9
  0
DICTIONARY
  5
4B0
330
3A
100
AcDbDictionary
280
     1
281
     1
  3
ACAD_XREC_ROUNDTRIP
360
4B1
  0
DICTIONARY
  5
4A6
330
35
100
AcDbDictionary
280
     1
281
     1
  3
ACAD_XREC_ROUNDTRIP
360
4A7
  0
DICTIONARY
  5
4AE
330
39
100
AcDbDictionary
280
     1
281
     1
  3
ACAD_XREC_ROUNDTRIP
360
4AF
  0
DICTIONARY
  5
492
330
2B
100
AcDbDictionary
280
     1
281
     1
  3
ACAD_XREC_ROUNDTRIP
360
493
  0
DICTIONARY
  5
494
330
2C
100
AcDbDictionary
280
     1
281
     1
  3
ACAD_XREC_ROUNDTRIP
360
495
  0
DICTIONARY
  5
496
330
2D
100
AcDbDictionary
280
     1
281
     1
  3
ACAD_XREC_ROUNDTRIP
360
497
  0
DICTIONARY
  5
498
330
2E
100
AcDbDictionary
280
     1
281
     1
  3
ACAD_XREC_ROUNDTRIP
360
499
  0
DICTIONARY
  5
4AC
330
38
100
AcDbDictionary
280
     1
281
     1
  3
ACAD_XREC_ROUNDTRIP
360
4AD
  0
DICTIONARY
  5
A4D
330
A4C
100
AcDbDictionary
280
     1
281
     1
  3
ACAD_XREC_ROUNDTRIP
360
A4E
  0
DICTIONARY
  5
4AA
330
37
100
AcDbDictionary
280
     1
281
     1
  3
ACAD_XREC_ROUNDTRIP
360
4AB
  0
XRECORD
  5
7D5
102
{ACAD_REACTORS
330
7D4
102
}
330
7D4
100
AcDbXrecord
280
     1
310
28000000620000008C0000000100080000000000B036000000000000000000000001000000000000FFFFFF0000000000FFFFFF000000000000000000000000000000000000000000000000000000000000000000330000006600000099000000CC000000FF00000000330000333300006633000099330000CC330000FF3300
310
0000660000336600006666000099660000CC660000FF66000000990000339900006699000099990000CC990000FF99000000CC000033CC000066CC000099CC0000CCCC0000FFCC000000FF000033FF000066FF000099FF0000CCFF0000FFFF000000003300330033006600330099003300CC003300FF003300003333003333
310
33006633330099333300CC333300FF33330000663300336633006666330099663300CC663300FF66330000993300339933006699330099993300CC993300FF99330000CC330033CC330066CC330099CC3300CCCC3300FFCC330000FF330033FF330066FF330099FF3300CCFF3300FFFF330000006600330066006600660099
310
006600CC006600FF00660000336600333366006633660099336600CC336600FF33660000666600336666006666660099666600CC666600FF66660000996600339966006699660099996600CC996600FF99660000CC660033CC660066CC660099CC6600CCCC6600FFCC660000FF660033FF660066FF660099FF6600CCFF6600
310
FFFF660000009900330099006600990099009900CC009900FF00990000339900333399006633990099339900CC339900FF33990000669900336699006666990099669900CC669900FF66990000999900339999006699990099999900CC999900FF99990000CC990033CC990066CC990099CC9900CCCC9900FFCC990000FF99
310
0033FF990066FF990099FF9900CCFF9900FFFF99000000CC003300CC006600CC009900CC00CC00CC00FF00CC000033CC003333CC006633CC009933CC00CC33CC00FF33CC000066CC003366CC006666CC009966CC00CC66CC00FF66CC000099CC003399CC006699CC009999CC00CC99CC00FF99CC0000CCCC0033CCCC0066CC
310
CC0099CCCC00CCCCCC00FFCCCC0000FFCC0033FFCC0066FFCC0099FFCC00CCFFCC00FFFFCC000000FF003300FF006600FF009900FF00CC00FF00FF00FF000033FF003333FF006633FF009933FF00CC33FF00FF33FF000066FF003366FF006666FF009966FF00CC66FF00FF66FF000099FF003399FF006699FF009999FF00CC
310
99FF00FF99FF0000CCFF0033CCFF0066CCFF0099CCFF00CCCCFF00FFCCFF0000FFFF0033FFFF0066FFFF0099FFFF00CCFFFF00FFFFFF00000000000D0D0D001A1A1A00282828003535350043434300505050005D5D5D006B6B6B00787878008686860093939300A1A1A100AEAEAE00BBBBBB00C9C9C900D6D6D600E4E4E400
310
F1F1F100FFFFFF0000000000000000000000000000000000000000000000000000000000000000000000000000000000E2E2E2E2E2E2E2E2E2E2E2E2E2E2E2E2E2E2E2E2E2E2E2E2E2E2E2E2E2E2E2E2E2E2E2E2E2E2E2E2E2E2E2E2E2E2E2E2E2E2E2E2E2E2E2E2E2E2E2E2E2E2E2E2E2E2E2E2E2E2E2E2E2E2E2E2E2E2E2
310
E2E2E2E2E2E2E2E2E2E2E2E2E2E2E2E2E2E2E20000E2F5F5F5F5F5F5F5F5F5F5F5F5F5F5F5F5F5F5F5F5F5F5F5F5F5F5F5F5F5F5F5F5F5F5F5F5F5F5F5F5F5F5F5F5F5F5F5F5F5F5F5F5F5F5F5F5F5F5F5F5F5F5F5F5F5F5F5F5F5F5F5F5F5F5F5F5F5F5F5F5F5F5F5F5F5F5F5F5F5F5F5F5F5F5F5F5E20000E2E2E2E2E2E2
310
E2E2E2E2E2E2E2E2E2E2E2E2E2E2E2E2E2E2E2E2E2E2E2E2E2E2E2E2E2E2E2E2E2E2E2E2E2E2E2E2E2E2E2E2E2E2E2E2E2E2E2E2E2E2E2E2E2E2E2E2E2E2E2E2E2E2E2E2E2E2E2E2E2E2E2E2E2E2E2E2E2E2E2E2E2E2E2E2E2E2E2E20000E2E2F5F5F5F5F5F5F5F5F5F5F5F5F5F5F5F5F5F5F5F5F5F5F5F5F5F5F5F5F5F5F5
310
F5F5F5F5F5F5F5F5F5F5F5F5F5F5F5F5F5F5F5F5F5F5F5F5F5F5F5F5F5F5F5F5F5F5F5F5F5F5F5F5F5F5F5F5F5F5F5F5F5F5F5F5F5F5F5F5F5F5F5F5F5F5E2E2E20000E2E2F5F5F5F5F5F5F5F5F5F5F5F5F5F5F5F5F5F5F5F5F5F5F5F5F5F5F5F5F5F5F5F5F5F5F5F5F5F5F5F5F5F5F5F5F5F5F5F5F5F5F5F5F5F5F5F5F5F5
310
F5F5F5F5F5F5F5F5F5F5F5F5F5F5F5F5F5F5F5F5F5F5F5F5F5F5F5F5F5F5F5F5F5F5F5E2E2E20000E2E2F5F5F5F5F5F5F5F5F5F5F5F5F5F5F5F5F5F5F5F5F5F5F5F5F5F5F5F5F5F5F5F5F5F5F5F5F5F5F5F5F5F5F5F5F5F5F5F5F5F5F5F5F5F5F5F5F5F5F5F5F5F5F5F5F5F5F5F5F5F5F5F5F5F5F5F5F5F5F5F5F5F5F5F5F5
310
F5F5F5F5F5F5F5F5E2E2E20000E2E2F5F5F5F5F5F5F5F5F5F5F5F5F5F5F5F5F5F5F5F5F5F5F5F5F5F5F5F5F5F5F5F5F5F5F5F5F5F5F5F5F5F5F5F5F5F5F5F5F5F5F5F5F5F5F5F5F5F5F5F5F5F5F5F5F5F5F5F5F5F5F5F5F5F5F5F5F5F5F5F5F5F5F5F5F5F5F5F5F5F5F5F5F5E2E2E20000E2E2F5F5F5F5F5F5F5F5F5F5F5F5
310
F5F5F5F5F5F5F5F5F5F5F5F5F5F5F5F5F5F5F5F5F5F5F5F5F5F5F5F5F5F5F5F5F5F5F5F5F5F5F5F5F5F5F5F5F5F5F5F5F5F5F5F5F5F5F5F5F5F5F5F5F5F5F5F5F5F5F5F5F5F5F5F5F5F5F5F5F5F5F5F5F5E2E2E20000E2E2F5F5F5F5F5F5F5F5F5F5F5F5F5F5F5F5F5F5F5F5F5F5F5F5F5F5F5F5F5F5F5F5F5F5F5F5F5F5F5
310
F5F5F5F5F5F5F5F5F5F5F5F5F5F5F5F5F5F5F5F5F5F5F5F5F5F5F5F5F5F5F5F5F5F5F5F5F5F5F5F5F5F5F5F5F5F5F5F5F5F5F5F5F5F5E2E2E20000E2E2F5F5F5F5F5F5F5F5F5F5F5F5F5F5F5F5F5F5F5F5F5F5F5F5F5F5F5F5F5F5F5F5F5F5F5F5F5F5F5F5F5F5F5F5F5F5F5F5F5F5F5F5F5F5F5F5F5F5F5F5F5F5F5F5F5F5
310
F5F5F5F5F5F5F5F5F5F5F5F5F5F5F5F5F5F5F5F5F5F5F5F5F5F5F5E2E2E20000E2E2F5F5F5F5F5F5F5F5F5F5F5F5F5F5F5F5F5F5F5F5F5F5F5F5F5F5F5F5F5F5F5F5F5F5F5F5F5F5F5F5F5F5F5F5F5F5F5F5F5F5F5F5F5F5F5F5F5F5F5F5F5F5F5F5F5F5F5F5F5F5F5F5F5F5F5F5F5F5F5F5F5F5F5F5F5F5F5F5F5F5F5F5F5
310
E2E2E20000E2E2F5F5F5F5F5F5F5F5F5F5F5F5F5F5F5F5F5F5F5F5F5F5F5F5F5F5F5F5F5F5F5F5F5F5F5F5F5F5F5F5F5F5F5F5F5F5F5F5F5F5F5F5F5F5F5F5F5F5F5F5F5F5F5F5F5F5F5F5F5F5F5F5F5F5F5F5F5F5F5F5F5F5F5F5F5F5F5F5F5F5F5F5F5E2F5E20000E2E2F5F5F5F5F5F5F5F5F5F5F5F5F5F5F5F5F5F5F5F5
310
F5F5F5F5F5F5F5F5F5F5F5F5F5F5F5F5F5F5F5F5F5F5F5F5F5F5F5F5F5F5F5F5F5F5F5F5F5F5F5F5F5F5F5F5F5F5F5F5F5F5F5F5F5F5F5F5F5F5F5F5F5F5F5F5F5F5F5F5F5F5F5F5F5E2F5E20000E2E2F5F5F5F5F5F5F5F5F5F5F5F5F5F5F5F5F5F5F5F5F5F5F5F5F5F5F5F5F5F5F5F5F5F5F5F5F5F5F5F5F5F5F5F5F5F5F5
310
F5F5F5F5F5F5F5F5F5F5F5F5F5F5F5F5F5F5F5F5F5F5F5F5F5F5F5F5F5F5F5F5F5F5F5F5F5F5F5F5F5F5F5F5F5F5E2F5E20000E2E2F5F5F5F5F5F5F5F5F5F5F5F5F5F5F5F5F5F5F5F5F5F5F5F5F5F5F5F5F5F5F5F5F5F5F5F5F5F5F5F5F5F5F5F5F5F5F5F5F5F5F5F5F5F5F5F5F5F5F5F5F5F5F5F5F5F5F5F5F5F5F5F5F5F5
310
F5F5F5F5F5F5F5F5F5F5F5F5F5F5F5F5F5F5F5E2F5E2CDCDE2E2F5F5F5F5F5F5F5F5F5F5F5F5F5F5F5F5F5F5F5F5F5F5F5F5F5F5F5F5F5F5F5F5F5F5F5F5F5F5F5F5F5F5F5F5F5F5F5F5F5F5F5F5F5F5F5F5F5F5F5F5F5F5F5F5F5F5F5F5F5F5F5F5F5F5F5F5F5F5F5F5F5F5F5F5F5F5F5F5F5F5F5F5F5E2F5E22E78E2E2F5
310
F5F5F5F5F5F5F5F5F5F5F5F5F5F5F5F5F5F5F5F5F5F5F5F5F5F5F5F5F5F5F5F5F5F5F5F5F5F5F5F5F5F5F5F5F5F5F5F5F5F5F5F5F5F5F5F5F5F5F5F5F5F5F5F5F5F5F5F5F5F5F5F5F5F5F5F5F5F5F5F5F5F5F5F5F5F5F5F5F5F5F5F5E2F5E20000E2E2F5F5F5F5F5F5F5F5F5F5F5F5F5F5F5F5F5F5F5F5F5F5F5F5F5F5F5F5
310
F5F5F5F5F5F5F5F5F5F5F5F5F5F5F5F5F5F5F5F5F5F5F5F5F5F5F5F5F5F5F5F5F5F5F5F5F5F5F5F5F5F5F5F5F5F5F5F5F5F5F5F5F5F5F5F5F5F5F5F5F5F5F5F5F5E2F5E22E78E2E2F5F5F5F5F5F5F5F5F5F5F5F5F5F5F5F5F5F5F5F5F5F5F5F5F5F5F5F5F5F5E2E2E2E2E2E2E2E2E2E2E2E2E2E2E2E2E2E2E2E2E2E2E2E2E2
310
E2E2E2E2E2E2E2E2E2E2F5F5F5F5F5F5F5F5F5F5F5F5F5F5F5F5F5F5F5F5F5F5F5F5F5F5F5F5E2F5E20000E2E2F5F5F5F5F5F5F5F5F5F5F5F5F5F5F5F5F5F5F5F5F5F5F5F5F5F5F5F5F5F5E2E2E2E2E2E2E2E2E2E2E2E2E2E2E2E2E2E2E2E2E2E2E2E2E2E2E2E2E2E2E2E2E2E2E2F5F5F5F5F5F5F5F5F5F5F5F5F5F5F5F5F5
310
F5F5F5F5F5F5F5F5F5F5F5E2F5E20000E2E2F5F5F5F5F5F5F5F5F5F5F5F5F5F5F5F5F5F5F5F5F5F5F5F5F5F5F5F5F5F5E2E2E2E2E2E2E2E2E2E2E2E2E2E2E2E2E2E2E2E2E2E2E2E2E2E2E2E2E2E2E2E2E2E2E2F5F5F5F5F5F5F5F5F5F5F5F5F5F5F5F5F5F5F5F5F5F5F5F5F5F5F5F5E2F5E22E78E2E2F5F5F5F5F5F5F5F5E2
310
BEF5F5F5F5F5F5F5F5F5F5F5F5F5F5F5F5F5F5F5F5F5F5F5F5F5F5F5F5F5F5F5F5F5F5F5F5F5F5F5F5F5F5F5F5F5F5F5F5F5F5F5F5F5F5F5F5F5F5F5F5F5F5F5F5F5F5F5F5F5F5F5F5F5F5F5F5F5F5F5F5F5F5F5E2E2E20000E2E2F5F5F5F5F5F5F5E2E2E2F5F5F5F5F5F5F5F5F5F5F5F5F5F5F5F5F5F5F5F5E2E2E2F5E2E2
310
E2E2E2E2F5E2E2E2E2E2E2F5E2E2E2E2E2E2F5E2E2E2E2E2E2F5E2E2E2F5F5F5F5F5F5F5F5F5F5F5F5F5F5F5F5F5F5F5F5F5F5F5F5F5F5F5F5E2E2E20000E2E2F5F5F5F5F5F5F5BEE2F5F5F5F5F5F5F5F5F5F5F5F5F5F5F5F5F5F5F5F5F5E2F5F5F5F5F5F5F5F5F5F5F5F5F5F5F5F5F5F5F5F5F5F5F5F5F5F5F5F5F5F5F5F5
310
F5E2F5F5F5F5F5F5F5F5F5F5F5F5F5F5F5F5F5F5F5F5F5F5F5F5F5F5F5F5E2E2E20000E2E2F5F5F5F5F5F5F5F5E2F5F5F5F5F5F5F5F5F5F5F5F5F5F5F5F5F5F5F5F5F5E2F5F5F5F5F5F5F5F5F5F5F5F5F5F5F5F5F5F5F5F5F5F5F5F5F5F5F5F5F5F5F5F5F5E2F5F5F5F5F5F5F5F5F5F5F5F5F5F5F5F5F5F5F5F5F5F5F5F5F5
310
F5F5F5E2E2E20000E2E2F5F5F5F5F5F5F5F5E2F5F5F5F5F5F5F5F5F5F5F5F5F5F5F5F5F5F5F5F5F5F5F5F5F5F5F5F5F5F5F5F5F5F5F5F5F5F5F5F5F5F5F5F5F5F5F5F5F5F5F5F5F5F5F5E2F5F5F5F5F5F5F5F5F5F5F5F5F5F5F5F5F5F5F5F5F5F5F5F5F5F5F5F5E2E2E20000E2E2F5F5F5F5F5F5F5F5E2F5F5F5F5F5F5F5F5
310
F5F5F5F5F5F5F5F5F5F5F5F5F5E2F5F5F5F5F5F5F5F5F5F5F5F5F5F5F5F5F5F5F5F5F5F5F5F5F5F5F5F5F5F5F5F5F5E2F5F5F5F5F5F5F5F5F5F5F5F5F5F5F5F5F5F5F5F5F5F5F5F5F5F5F5F5E2E2E20000E2E2F5F5F5F5F5F5F5F5E2F5F5F5F5F5F5F5F5F5F5F5F5F5F5F5F5F5F5F5F5F5E2F5F5F5F5F5F5F5F5F5F5F5F5F5
310
F5F5F5F5F5F5F5F5F5F5F5F5F5F5F5F5F5F5F5F5E2F5F5F5F5F5F5F5F5F5F5F5F5F5F5F5F5F5F5F5F5F5F5F5F5F5F5F5F5E2E2E20000E2E2F5F5F5F5F5F5F5F5E2F5F5F5F5F5F5F5F5F5F5F5F5F5F5F5F5F5F5F5F5F5E2F5F5F5F5F5F5F5F5F5F5F5F5F5F5F5F5F5F5F5F5F5F5F5F5F5F5F5F5F5F5F5F5F5E2F5F5F5F5F5F5
310
F5F5F5F5F5F5F5F5F5F5F5F5F5F5F5F5F5F5F5F5F5F5E2E2E20000E2E2F5F5F5F5F5F5F5F5E2F5F5F5F5F5F5F5F5F5F5F5F5F5F5F5F5F5F5F5F5F5E2F5F5F5F5F5F5F5F5F5F5F5F5F5F5F5F5F5F5F5F5F5F5F5F5F5F5F5F5F5F5F5F5F5E2F5F5F5F5F5F5F5F5F5F5F5F5F5F5F5F5F5F5F5F5F5F5F5F5F5F5F5F5E2E2E20000
310
E2E2F5F5F5F5F5F5F5F5E2F5F5F5F5F5F5F5F5F5F5F5F5F5F5F5F5F5F5F5F5F5E2F5F5F5F5F5F5F5F5F5F5F5F5F5F5F5F5F5F5F5F5F5F5F5F5F5F5F5F5F5F5F5F5F5E2F5F5F5F5F5F5F5F5F5F5F5F5F5F5F5F5F5F5F5F5F5F5F5F5F5F5F5F5E2E2E20000E2E2F5F5F5F5F5F5F5F5E2F5F5F5F5F5F5F5F5F5F5F5F5F5F5F5F5
310
F5F5F5F5F5E2F5F5F5F5F5F5F5F5F5F5F5F5F5F5F5F5F5F5F5F5F5F5F5F5F5F5F5F5F5F5F5F5F5E2F5F5F5F5F5F5F5F5F5F5F5F5F5F5F5F5F5F5F5F5F5F5F5F5F5F5F5F5E2E2E20000E2E2F5F5F5F5F5F5F5F5E2F5F5F5F5F5F5F5F5F5F5F5F5F5F5F5F5F5F5F5F5F5E2F5F5F5F5F5F5F5F5F5F5F5F5F5F5F5F5F5F5F5F5F5
310
F5F5F5F5F5F5F5F5F5F5F5F5E2F5F5F5F5F5F5F5F5F5F5F5F5F5F5F5F5F5F5F5F5F5F5F5F5F5F5F5F5E2E2E20000E2E2F5F5F5F5F5F5F5F5E2F5F5F5F5F5F5F5F5F5F5F5F5F5F5F5F5F5F5F5F5F5E2F5F5F5F5F5F5F5F5F5F5F5F5F5F5F5F5F5F5F5F5F5F5F5F5F5F5F5F5F5F5F5F5F5E2F5F5F5F5F5F5F5F5F5F5F5F5F5F5
310
F5F5F5F5F5F5F5F5F5F5F5F5F5F5E2E2E20000E2E2F5F5F5F5F5F5F5F5E2F5F5F5F5F5F5F5F5F5F5F5F5F5F5F5F5F5F5F5F5F5E2F5F5F5F5F5F5F5F5F5F5F5F5F5F5F5F5F5F5F5F5F5F5F5F5F5F5F5F5F5F5F5F5F5E2F5F5F5F5F5F5F5F5F5F5F5F5F5F5F5F5F5F5F5F5F5F5F5F5F5F5F5F5E2E2E20000E2E2F5F5F5F5F5F5
310
F5F5E2F5F5F5F5F5F5F5F5F5F5F5F5F5F5F5F5F5F5F5F5F5E2F5F5F5F5F5F5F5F5F5F5F5F5F5F5F5F5F5F5F5F5F5F5F5F5F5F5F5F5F5F5F5F5F5E2F5F5F5F5F5F5F5F5F5F5F5F5F5F5F5F5F5F5F5F5F5F5F5F5F5F5F5F5E2E2E20000E2E2F5F5F5F5F5F5F5F5E2F5F5F5F5F5F5F5F5F5F5F5F5F5F5F5F5F5F5F5F5F5E2F5F5
310
F5F5F5F5F5F5F5F5F5F5F5F5F5F5F5F5F5F5F5F5F5F5F5F5F5F5F5F5F5F5F5E2F5F5F5F5F5F5F5F5F5F5F5F5F5F5F5F5F5F5F5F5F5F5F5F5F5F5F5F5E2E2E22E78E2E2F5F5F5F5F5F5F5F5E2F5F5F5F5F5F5F5F5F5F5F5F5F5F5F5F5F5F5F5F5F5E2F5F5F5F5F5F5F5F5F5F5F5F5F5F5F5F5F5F5F5F5F5F5F5F5F5F5F5F5F5
310
F5F5F5F5E2F5F5F5F5F5F5F5F5F5F5F5F5F5F5F5F5F5F5F5F5F5F5F5F5F5F5F5F5E2E2E20000E2E2F5F5F5F5F5F5F5F5E2F5F5F5F5F5F5F5F5F5F5F5F5F5F5F5F5F5F5F5F5F5E2F5F5F5F5F5F5F5F5F5F5F5F5F5F5F5F5F5F5F5F5F5F5F5F5F5F5F5F5F5F5F5F5F5E2F5F5F5F5F5F5F5F5F5F5F5F5F5F5F5F5F5F5F5F5F5F5
310
F5F5F5F5F5F5E2F5E22E78E2E2F5F5F5F5F5F5F5F5E2F5F5F5F5F5F5F5F5F5F5F5F5F5F5F5F5F5F5F5F5F5E2F5F5F5F5F5F5F5F5F5F5F5F5F5F5F5F5F5F5F5F5F5F5F5F5F5F5F5F5F5F5F5F5F5F5F5F5F5F5F5F5F5F5F5F5F5F5F5F5F5F5F5F5F5F5F5F5F5F5F5F5F5F5E2F5E20000E2E2F5F5F5F5F5F5F5F5E2F5F5F5F5F5
310
F5F5F5F5F5F5F5F5F5F5F5F5F5F5F5F5E2F5F5F5F5F5F5F5F5F5F5F5F5F5F5F5F5F5F5F5F5F5F5F5F5F5F5F5F5F5F5F5F5F5E2F5F5F5F5F5F5F5F5F5F5F5F5F5F5F5F5F5F5F5F5F5F5F5F5F5F5F5F5E2F5E20000E2E2F5F5F5F5F5F5F5F5E2F5F5F5F5F5F5F5F5F5F5F5F5F5F5F5F5F5F5F5F5F5E2F5F5F5F5F5F5F5F5F5F5
310
F5F5F5F5F5F5F5F5F5F5F5F5F5F5F5F5F5F5F5F5F5F5F5E2F5F5F5F5F5F5F5F5F5F5F5F5F5F5F5F5F5F5F5F5F5F5F5F5F5F5F5F5E2F5E22E78E2E2F5F5F5F5F5F5F5F5E2F5F5F5F5F5F5F5F5F5F5F5F5F5F5F5F5F5F5F5F5F5E2F5F5F5F5F5F5F5F5F5F5F5F5F5F5F5F5F5F5F5F5F5F5F5F5F5F5F5F5F5F5F5F5F5E2F5F5F5
310
F5F5F5F5F5F5F5F5F5F5F5F5F5F5F5F5F5F5F5F5F5F5F5F5F5E2F5E20000E2E2F5F5F5F5F5F5F5F5E2F5F5F5F5F5F5F5F5F5F5F5F5F5F5F5F5F5F5F5F5F5E2F5F5F5F5F5F5F5F5F5F5F5F5F5F5F5F5F5F5F5F5F5F5F5F5F5F5F5F5F5F5F5F5F5E2F5F5F5F5F5F5F5F5F5F5F5F5F5F5F5F5F5F5F5F5F5F5F5F5F5F5F5F5E2F5
310
E20000E2E2F5F5F5F5F5F5F5F5E2F5F5F5F5F5F5F5F5F5F5F5F5F5F5F5F5F5F5F5F5F5E2F5F5F5F5F5F5F5F5F5F5F5F5F5F5F5F5F5F5F5F5F5F5F5F5F5F5F5F5F5F5F5F5F5E2F5F5F5F5F5F5F5F5F5F5F5F5F5F5F5F5F5F5F5F5F5F5F5F5F5F5F5F5E2F5E20000E2E2F5F5F5F5F5F5F5F5E2F5F5F5F5F5F5F5F5F5F5F5F5F5
310
F5F5F5F5F5F5F5F5E2F5F5F5F5F5F5F5F5F5F5F5F5F5F5F5F5F5F5F5F5F5F5F5F5F5F5F5F5F5F5F5F5F5E2F5F5F5F5F5F5F5F5F5F5F5F5F5F5F5F5F5F5F5F5F5F5F5F5F5F5F5F5E2F5E20000E2E2F5F5F5F5F5F5F5F5E2F5F5F5F5F5F5F5F5F5F5F5F5F5F5F5F5F5F5F5F5F5E2F5F5F5F5F5F5F5F5F5F5F5F5F5E2E2E2E2E2
310
E2E2F5F5F5F5F5F5F5F5F5F5F5F5F5F5F5F5F5F5F5F5F5F5F5F5F5F5F5F5F5F5F5F5F5F5F5F5F5F5F5F5F5F5E2F5E20000E2E2F5F5F5F5F5F5F5F5E2F5F5F5F5F5F5F5F5F5F5F5F5F5F5F5F5F5F5F5F5F5E2F5F5F5F5F5F5F5F5F5F5F5F5F5E2E2F5F5F5E2E2F5F5F5F5F5F5F5F5F5F5F5F5F5E2F5F5F5F5F5F5F5F5F5F5F5
310
F5F5F5F5F5F5F5F5F5F5F5F5F5F5F5F5F5E2F5E20000E2E2F5F5F5F5F5F5F5F5E2F5F5F5F5F5F5F5F5F5F5F5F5F5F5F5F5F5F5F5F5F5E2F5F5F5F5F5F5F5F5F5F5F5F5F5E2E2F5F5F5E2E2F5F5F5F5F5F5F5F5F5F5F5F5F5E2F5F5F5F5F5F5F5F5F5F5F5F5F5F5F5F5F5F5F5F5F5F5F5F5F5F5F5F5E2E2E22E78E2E2F5F5F5
310
F5F5F5F5F5E2F5F5F5F5F5F5F5F5F5F5F5F5F5F5F5F5F5F5F5F5F5E2F5F5F5F5F5F5F5F5F5F5F5F5F5E2E2E2E2E2E2E2F5F5F5F5F5F5F5F5F5F5F5F5F5E2F5F5F5F5F5F5F5F5F5F5F5F5F5F5F5F5F5F5F5F5F5F5F5F5F5F5F5F5E2E2E20000E2E2F5F5F5F5F5F5F5F5E2F5F5F5F5F5F5F5F5F5F5F5F5F5F5F5F5F5F5F5F5F5
310
E2F5F5F5F5F5F5F5F5F5F5F5F5F5E2E2F5F5F5E2E2F5F5F5F5F5F5F5F5F5F5F5F5F5E2F5F5F5F5F5F5F5F5F5F5F5F5F5F5F5F5F5F5F5F5F5F5F5F5F5F5F5F5E2E2E22E78E2E2F5F5F5F5F5F5F5F5E2F5F5F5F5F5F5F5F5F5F5F5F5F5F5F5F5F5F5F5F5E2F5F5F5F5F5F5F5F5F5F5F5F5F5F5E2E2F5F5F5E2E2F5F5F5F5F5F5
310
F5F5F5F5F5F5F5F5E2F5F5F5F5F5F5F5F5F5F5F5F5F5F5F5F5F5F5F5F5F5F5F5F5F5F5F5E2E2E20000E2E2F5F5F5F5F5F5F5F5E2F5F5F5F5F5F5F5F5F5F5F5F5F5F5F5F5F5F5F5E2F5F5F5F5F5F5F5F5F5F5F5F5F5F5F5E2E2F5F5F5E2E2F5F5F5F5F5F5F5F5F5F5F5F5F5F5F5E2F5F5F5F5F5F5F5F5F5F5F5F5F5F5F5F5F5
310
F5F5F5F5F5F5F5F5F5E2E2E20000E2E2F5F5F5F5F5F5F5F5E2F5F5F5F5F5F5F5F5F5F5F5F5F5F5F5F5F5F5F5E2F5F5F5F5F5F5F5F5F5F5F5F5F5F5F5E2E2F5F5F5E2E2F5F5F5F5F5F5F5F5F5F5F5F5F5F5F5E2F5F5F5F5F5F5F5F5F5F5F5F5F5F5F5F5F5F5F5F5F5F5F5F5F5F5E2E2E22E78E2E2F5F5F5F5F5F5F5F5E2F5F5
310
F5F5F5F5F5F5F5F5F5F5F5F5F5F5F5F5E2F5F5F5F5F5F5F5F5F5F5F5F5F5F5F5F5E2E2F5F5F5E2E2F5F5F5F5F5F5F5F5F5F5F5F5F5F5F5F5E2F5F5F5F5F5F5F5F5F5F5F5F5F5F5F5F5F5F5F5F5F5F5F5F5F5E2E2E20000E2E2F5F5F5F5F5F5F5F5E2F5F5F5F5F5F5F5F5F5F5F5F5F5F5F5F5F5F5E2F5F5F5F5F5F5F5F5F5F5
310
F5F5F5F5F5F5E2E2F5F5F5E2E2F5F5F5F5F5F5F5F5F5F5F5F5F5F5F5F5F5E2F5F5F5F5F5F5F5F5F5F5F5F5F5F5F5F5F5F5F5F5F5F5F5F5E2E2E20000E2E2F5F5F5F5F5F5F5F5E2F5F5F5F5F5F5F5F5F5F5F5F5F5F5F5F5F5E2F5F5F5F5F5F5F5F5F5F5F5F5F5F5F5F5F5E2E2F5F5F5E2E2F5F5F5F5F5F5F5F5F5F5F5F5F5F5
310
F5F5F5E2F5F5F5F5F5F5F5F5F5F5F5F5F5F5F5F5F5F5F5F5F5F5F5F5E2E2E20000E2E2F5F5F5F5F5F5F5F5E2F5F5F5F5F5F5F5F5F5F5F5F5F5F5F5F5E2F5F5F5F5F5F5F5F5F5F5F5F5F5F5F5F5F5F5E2E2F5F5F5E2E2F5F5F5F5F5F5F5F5F5F5F5F5F5F5F5F5F5E2F5F5F5F5F5F5F5F5F5F5F5F5F5F5F5F5F5F5F5F5F5F5F5
310
F5E2E2E20000E2E2F5F5F5F5F5F5F5F5E2F5F5F5F5F5F5F5F5F5F5F5F5F5F5F5F5E2F5F5F5F5F5F5F5F5F5F5F5F5F5F5F5F5F5F5E2E2F5F5F5E2E2F5F5F5F5F5F5F5F5F5F5F5F5F5F5F5F5F5F5E2F5F5F5F5F5F5F5F5F5F5F5F5F5F5F5F5F5F5F5F5F5F5F5E2E2E20000E2E2F5F5F5F5F5F5F5F5E2F5F5F5F5F5F5F5F5F5F5
310
F5F5F5F5F5F5E2F5F5F5F5F5F5F5F5F5F5F5F5F5F5F5F5F5F5E2E2F5F5F5E2E2F5F5F5F5F5F5F5F5F5F5F5F5F5F5F5F5F5F5F5E2F5F5F5F5F5F5F5F5F5F5F5F5F5F5F5F5F5F5F5F5F5F5E2E2E20000E2E2F5F5F5F5F5F5F5F5E2F5F5F5F5F5F5F5F5F5F5F5F5F5F5F5E2F5F5F5F5F5F5F5F5F5F5F5F5F5F5F5E2E2E2E2E2E2
310
E2E2E2E2E2E2E2E2E2F5F5F5F5F5F5F5F5F5F5F5F5F5F5F5E2F5F5F5F5F5F5F5F5F5F5F5F5F5F5F5F5F5F5F5F5F5F5E2E2E20000E2E2F5F5F5F5F5E2E2F5E2F5F5F5F5F5F5F5F5F5F5F5F5F5F5E2F5F5F5F5F5F5F5F5F5F5F5F5F5F5F5E2E2E2F5F5F5F5F5F5F5F5F5F5E2E2E2E2F5F5F5F5F5F5F5F5F5F5F5F5F5F5F5E2F5
310
F5F5F5F5F5F5F5F5F5F5F5F5F5F5F5F5F5F5F5F5E2E2E20000E2E2F5F5F5F5F5E2E2F5E2F5F5F5F5F5F5F5F5F5F5F5F5F5F5E2F5F5F5F5F5F5F5F5F5F5F5F5F5F5F5E2F5E2F5F5F5F5F5F5F5F5F5F5F5E2F5E2F5F5F5F5F5F5F5F5F5F5F5F5F5F5F5E2F5F5F5F5F5F5F5F5F5F5F5F5F5F5F5F5F5F5F5F5F5E2E2E20000E2E2
310
F5F5F5F5F5E2E2F5E2F5F5F5F5F5F5F5F5F5F5F5F5F5E2F5F5F5F5F5F5F5F5F5F5F5F5F5F5F5E2F5F5F5E2F5F5F5F5F5F5F5F5F5E2F5F5F5E2F5F5F5F5F5F5F5F5F5F5F5F5F5F5F5E2F5F5F5F5F5F5F5F5F5F5F5F5F5F5F5F5F5F5F5F5E2E2E20000E2E2F5F5F5F5F5E2E2F5E2F5F5F5F5F5F5F5F5F5F5F5F5E2F5F5F5F5F5
310
F5F5F5F5F5F5F5F5F5F5E2F5F5F5F5F5E2F5F5F5F5F5F5F5E2F5F5F5F5E2F5F5F5F5F5F5F5F5F5F5F5F5F5F5F5F5E2F5F5F5F5F5F5F5F5F5F5F5F5F5F5F5F5F5F5F5E2E2E20000E2E2F5F5F5F5F5F5F5F5E2F5F5F5F5F5F5F5F5F5F5F5F5E2F5F5F5F5F5F5F5F5F5F5F5F5F5F5F5E2F5F5F5F5F5E2F5F5F5F5F5F5F5E2F5F5
310
F5F5F5E2F5F5F5F5F5F5F5F5F5F5F5F5F5F5F5F5E2F5F5F5F5F5F5F5F5F5F5F5F5F5F5F5F5F5F5E2F5E20000E2E2F5F5F5F5F5F5F5F5E2F5F5F5F5F5F5F5F5F5F5F5E2F5F5F5F5F5F5F5F5F5F5F5F5F5F5F5E2F5F5F5F5F5F5F5E2F5F5F5F5F5E2F5F5F5F5F5F5E2F5F5F5F5F5F5F5F5F5F5F5F5F5F5F5F5F5E2F5F5F5F5F5
310
F5F5F5F5F5F5F5F5F5F5F5F5E2F5E20000E2E2F5F5F5F5F5F5F5F5E2F5F5F5F5F5F5F5F5F5E2E2F5F5F5F5F5F5F5F5F5F5F5F5F5F5F5F5E2F5F5F5F5F5F5F5E2F5F5F5F5F5E2F5F5F5F5F5F5F5E2F5F5F5F5F5F5F5F5F5F5F5F5F5F5F5F5F5E2E2F5F5F5F5F5F5F5F5F5F5F5F5F5F5F5E2F5E20000E2E2F5F5F5F5F5F5F5F5
310
E2F5F5F5F5F5F5F5F5E2F5F5F5F5F5F5F5F5F5F5F5F5F5F5F5F5F5E2F5F5F5F5F5F5F5F5F5E2F5F5F5E2F5F5F5F5F5F5F5F5E2F5F5F5F5F5F5F5F5F5F5F5F5F5F5F5F5F5F5F5E2F5F5F5F5F5F5F5F5F5F5F5F5F5F5E2F5E20000E2E2F5F5F5F5F5F5F5F5E2F5F5F5F5F5E2E2E2F5F5F5F5F5F5F5F5F5F5F5F5F5F5F5F5F5E2
310
F5F5F5F5F5F5F5F5F5F5F5E2F5E2F5F5F5F5F5F5F5F5F5F5E2F5F5F5F5F5F5F5F5F5F5F5F5F5F5F5F5F5F5F5E2E2E2F5F5F5F5F5F5F5F5F5F5F5E2F5E22E78E2E2F5F5F5F5F5F5F5F5E2F5F5F5F5E2F5F5F5F5F5F5F5F5F5F5F5F5F5F5F5F5F5F5F5F5E2E2F5F5F5F5F5F5F5F5F5F5E2E2E2F5F5F5F5F5F5F5F5F5F5E2F5F5
310
F5F5F5F5F5F5F5F5F5F5F5F5F5F5F5F5F5F5F5F5E2E2F5F5F5F5F5F5F5F5F5E2F5E20000E2E2F5F5F5F5F5F5F5F5E2F5F5F5F5F5E2F5F5F5F5F5F5F5F5F5F5F5F5F5F5F5F5F5F5E2E2E2E2E2E2E2E2E2E2E2E2E2E2E2E2E2E2E2E2E2E2E2E2E2E2E2E2F5F5F5F5F5F5F5F5F5F5F5F5F5F5F5F5F5F5F5F5F5F5F5E2F5F5F5F5
310
F5F5F5F5E2F5E22E78E2E2F5F5F5F5F5F5F5F5E2F5F5F5F5F5E2F5F5F5F5F5F5F5F5F5F5F5F5F5F5F5F5F5F5F5E2E2F5F5F5F5F5F5F5F5F5F5E2E2E2F5F5F5F5F5F5F5F5F5F5E2E2F5F5F5F5F5F5F5F5F5F5F5F5F5F5F5F5F5F5F5F5F5F5F5F5E2E2F5F5F5F5F5F5E2F5E20000E2E2F5F5F5F5F5F5F5F5E2F5F5F5F5F5F5E2
310
F5F5F5F5F5F5F5F5F5F5F5F5F5F5F5F5F5F5E2F5F5F5F5F5F5F5F5F5F5F5E2E2E2F5F5F5F5F5F5F5F5F5F5E2F5F5F5F5F5F5F5F5F5F5F5F5F5F5F5F5F5F5F5F5F5F5F5F5F5F5E2F5F5F5F5F5F5E2F5E20000E2E2F5F5F5F5F5F5F5F5E2F5F5F5F5F5F5F5E2F5F5F5F5F5F5F5F5F5F5F5F5F5F5F5F5F5F5E2F5F5F5F5F5F5F5
310
F5F5E2F5F5F5E2F5F5F5F5F5F5F5F5F5E2E2E2F5F5F5F5F5F5F5F5F5F5F5F5F5F5F5F5F5F5F5F5F5F5F5E2F5F5F5F5F5F5F5E2E2E22E78E2E2F5F5F5F5F5F5F5F5E2F5F5F5F5F5F5F5E2F5F5F5F5F5F5F5F5F5F5F5F5F5F5F5F5E2E2E2F5F5F5F5F5F5F5F5F5E2F5F5F5E2F5F5F5F5F5F5F5F5E2F5E2F5E2E2F5F5F5F5F5F5
310
F5F5F5F5F5F5F5F5F5F5F5F5F5F5E2F5F5F5F5F5F5F5F5E2E2E20000E2E2F5F5F5F5F5F5F5F5E2F5F5F5F5F5F5F5E2F5F5F5F5F5F5F5F5F5F5F5F5F5F5F5F5F5E2E2E2F5F5F5F5F5F5F5E2F5F5F5F5F5E2F5F5F5F5F5F5F5E2F5E2F5E2E2E2E2E2F5F5F5F5F5F5F5F5F5F5F5F5F5F5F5F5F5E2F5F5F5F5F5F5F5F5E2E2E200
310
00E2E2F5F5F5F5F5F5F5F5E2F5F5F5F5F5F5F5F5E2F5F5F5F5F5F5F5F5F5F5F5F5F5F5F5F5F5E2E2E2F5F5F5F5F5E2F5F5F5F5F5F5E2F5F5F5F5F5F5E2F5E2F5E2F5E2F5E2E2F5F5F5F5F5F5F5F5F5F5F5F5F5F5F5F5E2F5F5F5F5F5F5F5F5F5E2E2E20000E2E2F5F5F5F5F5F5F5F5E2F5F5F5F5F5F5F5F5F5E2F5F5F5F5F5
310
F5F5F5F5F5F5F5F5F5F5F5E2F5E2F5F5F5F5F5E2F5F5F5F5F5F5F5E2F5F5F5F5F5E2F5E2F5E2F5E2F5E2F5F5F5F5F5F5F5F5F5F5F5F5F5F5F5F5E2F5F5F5F5F5F5F5F5F5F5E2E2E20000E2E2F5F5F5F5F5F5F5F5E2F5F5F5F5F5F5F5F5F5E2F5F5F5F5F5F5F5F5F5F5F5F5F5F5F5F5F5E2F5E2F5F5F5E2F5F5F5F5F5F5F5F5
310
F5E2F5F5F5E2F5E2F5E2F5E2F5F5E2F5F5F5F5F5F5F5F5F5F5F5F5F5F5F5F5E2F5F5F5F5F5F5F5F5F5F5E2E2E20000E2E2F5F5F5F5F5F5F5F5E2F5F5F5F5F5F5F5F5F5F5E2F5F5F5F5F5F5F5F5F5F5F5F5F5F5F5F5E2F5E2F5F5F5E2F5F5F5F5F5F5F5F5F5E2F5F5F5E2E2F5F5E2F5E2F5E2F5F5F5F5F5F5F5F5F5F5F5F5F5
310
F5F5F5E2F5F5F5F5F5F5F5F5F5F5F5E2E2E20000E2E2F5F5F5F5F5F5F5F5E2F5F5F5F5F5F5F5F5F5F5E2F5F5F5F5F5F5F5F5F5F5F5F5F5F5F5F5F5F5F5E2E2E2F5F5F5F5F5F5F5F5F5F5F5E2E2E2F5E2F5E2F5E2F5E2F5F5F5F5F5F5F5F5F5F5F5F5F5F5F5F5E2F5F5F5F5F5F5F5F5F5F5F5F5E2E2E20000E2E2F5F5F5F5F5
310
F5F5F5E2F5F5F5F5F5F5F5F5F5F5F5E2F5F5F5F5F5F5F5F5F5F5F5F5F5F5F5F5F5F5E2F5E2E2F5F5F5F5F5F5F5F5F5E2E2F5E2E2E2F5E2F5E2E2F5F5F5F5F5F5F5F5F5F5F5F5F5F5F5F5F5E2F5F5F5F5F5F5F5F5F5F5F5F5E2E2E20000E2E2F5F5F5F5F5F5F5F5E2F5F5F5F5F5F5F5F5F5F5F5F5E2F5F5F5F5F5F5F5F5F5F5
310
F5F5F5F5F5F5F5F5E2E2E2E2E2E2E2E2E2E2E2E2E2E2E2F5F5E2E2E2E2F5E2F5F5F5F5F5F5F5F5F5F5F5F5F5F5F5F5E2F5F5F5F5F5F5F5F5F5F5F5F5F5E2E2E20000E2E2F5F5F5F5F5F5F5F5E2F5F5F5F5F5F5F5F5F5F5F5F5E2F5F5F5F5F5F5F5F5F5F5F5F5F5F5F5F5F5F5F5F5F5F5F5F5F5F5F5F5F5F5F5F5F5F5F5F5F5
310
F5E2E2F5F5F5F5F5F5F5F5F5F5F5F5F5F5F5F5F5E2F5F5F5F5F5F5F5F5F5F5F5F5F5E2E2E20000E2E2F5F5F5F5F5F5F5F5E2F5F5F5F5F5F5F5F5F5F5F5F5F5E2F5F5F5F5F5F5F5F5F5F5F5F5F5F5F5F5F5F5F5F5F5F5F5F5F5F5F5F5F5F5F5F5F5F5F5F5F5E2E2E2F5F5F5F5F5F5F5F5F5F5F5F5F5F5F5F5E2F5F5F5F5F5F5
310
F5F5F5F5F5F5F5E2E2E20000E2E2F5F5F5F5F5F5F5F5E2F5F5F5F5F5F5F5F5F5F5F5F5F5F5E2F5F5F5F5F5F5F5F5F5F5F5F5F5F5F5F5F5F5F5F5F5F5F5F5F5F5F5F5F5F5F5F5F5F5F5F5F5F5F5F5F5F5F5F5F5F5F5F5F5F5F5F5F5F5E2F5F5F5F5F5F5F5F5F5F5F5F5F5F5E2E2E20000E2E2F5F5F5F5F5F5F5F5E2F5F5F5F5
310
F5F5F5F5F5F5F5F5F5F5E2F5F5F5F5F5F5F5F5F5F5F5F5F5F5F5F5F5F5F5F5F5F5F5F5F5F5F5F5F5F5F5F5F5F5F5F5F5F5F5F5F5F5F5F5F5F5F5F5F5F5F5F5F5E2F5F5F5F5F5F5F5F5F5F5F5F5F5F5F5E2E2E20000E2E2F5F5F5F5F5F5F5F5E2F5F5F5F5F5F5F5F5F5F5F5F5F5F5E2F5F5F5F5F5F5F5F5F5F5F5F5F5F5F5F5
310
F5F5F5F5F5F5F5F5F5F5F5F5F5F5F5F5F5F5F5F5F5F5F5F5F5F5F5F5F5F5F5F5F5F5F5F5F5E2F5F5F5F5F5F5F5F5F5F5F5F5F5F5F5E2E2E20000E2E2F5F5F5F5F5F5F5F5E2F5F5F5F5F5F5F5F5F5F5F5F5F5F5F5E2F5F5F5F5F5F5F5F5F5F5F5F5F5F5F5F5F5F5F5F5F5F5F5F5F5F5F5F5F5F5F5F5F5F5F5F5F5F5F5F5F5F5
310
F5F5F5F5F5F5F5F5F5E2F5F5F5F5F5F5F5F5F5F5F5F5F5F5F5F5E2E2E20000E2E2F5F5F5F5F5F5F5F5E2F5F5F5F5F5F5F5F5F5F5F5F5F5F5F5F5E2F5F5F5F5F5F5F5F5F5F5F5F5F5F5F5F5F5F5F5F5F5F5F5F5F5F5F5F5F5F5F5F5F5F5F5F5F5F5F5F5F5F5F5F5F5F5F5F5F5E2F5F5F5F5F5F5F5F5F5F5F5F5F5F5F5F5F5E2
310
E2E22E78E2E2F5F5F5F5F5F5F5F5E2F5F5F5F5F5F5F5F5F5F5F5F5F5F5F5F5E2F5F5F5F5F5F5F5F5F5F5F5F5F5F5F5F5F5F5F5F5F5F5F5F5F5F5F5F5F5F5F5F5F5F5F5F5F5F5F5F5F5F5F5F5F5F5F5F5F5E2F5F5F5F5F5F5F5F5F5F5F5F5F5F5F5F5F5E2F5E20000E2E2F5F5F5F5F5F5F5F5E2F5F5F5F5F5F5F5F5F5F5F5F5
310
F5F5F5F5F5E2F5F5F5F5F5F5F5F5F5F5F5F5F5F5F5F5F5F5F5F5F5F5F5F5F5F5F5F5F5F5F5F5F5F5F5F5F5F5F5F5F5F5F5F5F5F5F5E2F5F5F5F5F5F5F5F5F5F5F5F5F5F5F5F5F5F5E2F5E22E78E2E2F5F5F5F5F5F5F5F5E2F5F5F5F5F5F5F5F5F5F5F5F5F5F5F5F5F5E2F5F5F5F5F5F5F5F5F5F5F5F5F5F5F5F5F5F5F5F5F5
310
F5F5F5F5F5F5F5F5F5F5F5F5F5F5F5F5F5F5F5F5F5F5F5F5F5E2F5F5F5F5F5F5F5F5F5F5F5F5F5F5F5F5F5F5F5E2F5E20000E2E2F5F5F5F5F5F5F5F5E2F5F5F5F5F5F5F5F5F5F5F5F5F5F5F5F5F5F5E2F5F5F5F5F5F5F5F5F5F5F5F5F5F5F5F5F5F5F5F5F5F5F5F5F5F5F5F5F5F5F5F5F5F5F5F5F5F5F5F5F5F5F5F5F5E2F5
310
F5F5F5F5F5F5F5F5F5F5F5F5F5F5F5F5F5F5E2F5E20000E2E2F5F5F5F5F5F5F5F5E2F5F5F5F5F5F5F5F5F5F5F5F5F5F5F5F5F5F5F5E2F5F5F5F5F5F5F5F5F5F5F5F5F5F5F5F5F5F5F5F5F5F5F5F5F5F5F5F5F5F5F5F5F5F5F5F5F5F5F5F5F5F5F5E2F5F5F5F5F5F5F5F5F5F5F5F5F5F5F5F5F5F5F5F5E2F5E22E78E2E2F5F5
310
F5F5F5F5F5F5E2F5F5F5F5F5F5F5F5F5F5F5F5F5F5F5F5F5F5F5E2F5F5F5F5F5F5E2E2E2E2E2E2E2E2E2E2E2E2E2E2E2E2E2E2E2E2F5F5F5F5F5F5F5F5F5F5F5F5F5F5F5F5F5E2F5F5F5F5F5F5F5F5F5F5F5F5F5F5F5F5F5F5F5F5E2F5E20000E2E2F5F5F5F5F5F5F5F5E2F5F5F5F5F5F5F5F5F5F5F5F5F5F5F5F5F5F5F5F5
310
E2F5F5F5F5E2F5F5F5F5F5F5F5F5F5F5F5F5F5F5F5F5F5F5F5F5E2F5F5F5F5F5F5F5F5F5F5F5F5F5F5F5F5E2F5F5F5F5F5F5F5F5F5F5F5F5F5F5F5F5F5F5F5F5E2F5E21909E2E2F5F5F5F5F5F5F5F5E2F5F5F5F5F5F5F5F5F5F5F5F5F5F5F5F5F5F5F5F5E2F5F5E2E2F5F5F5F5F5F5F5F5F5F5F5F5F5F5F5F5F5F5F5F5F5F5
310
E2F5F5F5F5F5F5F5F5F5F5F5F5F5F5E2F5F5F5F5F5F5F5F5F5F5F5F5F5F5F5F5F5F5F5F5F5E2F5E20000E2E2F5F5F5F5F5F5F5F5E2F5F5F5F5F5F5F5F5F5F5F5F5F5F5F5F5F5F5F5F5F5E2E2F5F5F5F5F5F5F5F5F5F5F5F5F5F5F5F5F5F5F5F5F5F5F5F5F5E2E2F5F5F5F5F5F5F5F5F5F5F5E2F5F5F5F5F5F5F5F5F5F5F5F5
310
F5F5F5F5F5F5F5F5F5F5E2F5E21909E2E2F5F5F5F5F5F5F5F5E2F5F5F5F5F5F5F5F5F5F5F5F5F5F5F5F5F5F5F5F5F5E2F5F5F5F5F5F5F5F5F5F5F5F5F5F5F5F5F5F5F5F5F5F5F5F5F5F5F5F5E2F5F5F5F5F5F5F5F5F5F5E2F5F5F5F5F5F5F5F5F5F5F5F5F5F5F5F5F5F5F5F5F5F5E2F5E21909E2E2F5F5F5F5F5F5F5F5E2F5
310
F5F5F5F5F5F5F5F5F5F5F5F5F5F5F5F5F5F5F5F5F5F5F5F5F5F5F5F5F5F5F5F5F5F5F5F5F5F5F5F5F5F5F5F5F5F5F5F5F5F5E2E2E2F5F5F5F5F5F5E2F5F5F5F5F5F5F5F5F5F5F5F5F5F5F5F5F5F5F5F5F5F5F5E2E2E21309E2E2F5F5F5F5F5F5F5F5E2F5F5F5F5F5F5F5F5F5F5F5F5F5F5F5F5F5F5F5F5F5F5F5F5F5F5F5F5
310
F5F5F5F5F5F5F5F5F5F5F5F5F5F5F5F5F5F5F5F5F5F5F5F5F5F5E2F5F5F5F5E2F5F5F5F5F5F5F5F5F5F5F5F5F5F5F5F5F5F5F5F5F5F5F5F5E2E2E20000E2E2F5F5F5F5F5F5F5F5E2BEF5F5F5F5F5F5F5F5F5F5F5F5F5F5F5F5F5F5F5F5F5F5F5F5F5F5F5F5F5F5F5F5F5F5F5F5F5F5F5F5F5F5F5F5F5F5F5F5F5F5F5F5F5F5
310
E2E2F5F5E2F5F5F5F5F5F5F5F5F5F5F5F5F5F5F5F5F5F5F5F5F5F5F5F5E2E2E2F03FE2E2F5F5F5F5F5F5F5E2E2E2F5F5F5F5F5F5F5F5F5F5F5F5F5F5F5F5F5F5F5F5F5F5F5F5F5F5F5F5F5F5F5F5F5F5F5F5F5F5F5F5F5F5F5F5F5F5F5F5F5F5F5F5F5F5F5F5E2E2F5F5F5F5F5F5F5F5F5F5F5F5F5F5F5F5F5F5F5F5F5F5F5
310
F5F5E2E2E20000E2E2F5F5F5F5F5F5F5BEE2F5F5F5F5F5F5F5F5F5F5F5F5F5F5F5F5F5F5F5F5F5F5F5F5F5F5F5F5F5F5F5F5F5F5F5F5F5F5F5F5F5F5F5F5F5F5F5F5F5F5F5F5F5F5F5F5F5F5F5F5F5F5F5F5F5F5F5F5F5F5F5F5F5F5F5F5F5F5F5F5F5F5F5F5E2E2E21309E2E2F5F5F5F5F5F5F5F5F5F5F5F5F5F5F5F5F5F5
310
F5F5F5F5F5F5F5F5F5F5F5F5F5F5F5F5F5F5F5F5F5F5F5F5F5F5F5F5F5F5F5F5F5F5F5F5F5F5F5F5F5F5F5F5F5F5F5F5F5F5F5F5F5F5F5F5F5F5F5F5F5F5F5F5F5F5F5F5F5F5F5F5F5F5F5E2E2E21509E2E2F5F5F5F5F5F5F5F5F5F5F5F5F5F5F5F5F5F5F5F5F5F5F5F5F5F5F5F5F5F5F5F5F5F5F5F5F5F5F5F5F5F5F5F5F5
310
F5F5F5F5F5F5F5F5F5F5F5F5F5F5F5F5F5F5F5F5F5F5F5F5F5F5F5F5F5F5F5F5F5F5F5F5F5F5F5F5F5F5F5F5F5F5F5F5E2E2E21809E2E2F5F5F5F5F5F5F5F5F5F5F5F5F5F5F5F5F5F5F5F5F5F5F5F5F5F5F5F5F5F5F5F5F5F5F5F5F5F5F5F5F5F5F5F5F5F5F5F5F5F5F5F5F5F5F5F5F5F5F5F5F5F5F5F5F5F5F5F5F5F5F5F5
310
F5F5F5F5F5F5F5F5F5F5F5F5F5F5F5F5F5F5F5F5F5E2E2E20000E2E2F5F5F5F5F5F5F5F5F5F5F5F5F5E2F5F5F5F5F5F5F5F5F5F5F5F5F5F5F5F5F5F5F5F5F5F5F5F5F5F5F5F5F5F5F5F5F5F5F5F5F5F5F5F5F5F5F5F5F5F5F5F5F5F5F5F5F5F5F5F5F5F5F5F5F5F5F5F5F5F5F5F5F5F5F5F5E2F5F5F5F5F5F5E2E2E21809E2
310
E2F5F5F5F5F5F5F5F5F5F5F5F5BEE2F5F5F5F5F5F5F5F5F5F5F5F5F5F5F5F5F5F5F5F5F5F5F5F5F5F5F5F5F5F5F5F5F5F5F5F5F5F5F5F5F5F5F5F5F5F5F5F5F5F5F5F5F5F5F5F5F5F5F5F5F5F5F5F5F5F5F5F5F5F5F5BEE2F5F5F5F5F5F5E2E2E21809E2E2F5F5F5F5F5F5F5F5F5F5F5F5E2E2E2E2E2E2E2E2E2E2E2E2E2E2
310
E2E2E2E2E2E2E2E2E2E2E2E2E2E2E2E2E2E2E2E2E2E2E2E2E2E2E2E2E2E2E2E2E2E2E2E2E2E2E2E2E2E2E2E2E2E2E2E2E2E2E2E2E2E2E2E2E2E2E2E2E2E2F5F5F5F5F5E2E2E20000E2E2F5F5F5F5F5F5F5F5F5F5F5F5F5E2BEF5F5F5F5F5F5F5F5F5F5F5F5F5F5F5F5F5F5F5F5F5F5F5F5F5F5F5F5F5F5F5F5E2E2E2E2F5F5
310
F5F5F5F5F5F5F5F5F5F5F5F5F5F5F5F5F5F5F5F5F5F5F5F5F5F5F5F5F5F5F5F5F5E2BEF5F5F5F5F5E2E2E22B01E2E2F5F5F5F5F5F5F5F5F5F5F5F5F5F5F5F5F5F5F5F5F5F5F5F5F5F5F5F5F5F5F5F5F5F5F5F5F5F5F5F5F5F5F5F5F5F5F5E2E2E2E2F5F5F5F5F5F5F5F5F5F5F5F5F5F5F5F5F5F5F5F5F5F5F5F5F5F5F5F5F5
310
F5F5F5F5F5F5F5F5F5F5F5F5F5E2E2E20000E2E2F5F5F5F5F5F5F5F5F5F5F5F5F5F5F5F5F5F5F5F5F5F5F5F5F5F5F5F5F5F5F5F5F5F5F5F5F5F5F5F5F5F5F5F5F5F5F5F5F5F5F5F5F5F5F5F5F5F5F5F5F5F5F5F5F5F5F5F5F5F5F5F5F5F5F5F5F5F5F5F5F5F5F5F5F5F5F5F5F5F5F5F5F5E2E2E2CDCDE2E2F5F5F5F5F5F5F5
310
F5F5F5F5F5F5F5F5F5F5F5F5F5F5F5F5F5F5F5F5F5F5F5F5F5F5F5F5F5F5F5F5F5F5F5F5F5F5F5F5F5F5F5F5F5F5F5F5F5F5F5F5F5F5F5F5F5F5F5F5F5F5F5F5F5F5F5F5F5F5F5F5F5F5F5F5F5F5F5F5F5F5F5F5F5F5E2E2E20000E2E2F5F5F5F5F5F5F5F5F5F5F5F5F5F5F5F5F5F5F5F5F5F5F5F5F5F5F5F5F5F5F5F5F5F5
310
F5F5F5F5F5F5F5F5F5F5F5F5F5F5F5F5F5F5F5F5F5F5F5F5F5F5F5F5F5F5F5F5F5F5F5F5F5F5F5F5F5F5F5F5F5F5F5F5F5F5F5F5F5F5F5F5F5F5F5E2E2E2CDCDE2E2F5F5F5F5F5F5F5F5F5F5F5F5F5F5F5F5F5F5F5F5F5F5F5F5F5F5F5F5F5F5F5F5F5F5F5F5F5F5F5F5F5F5F5F5F5F5F5F5F5F5F5F5F5F5F5F5F5F5F5F5F5
310
F5F5F5F5F5F5F5F5F5F5F5F5F5F5F5F5F5F5F5F5F5F5F5F5F5F5F5F5F5F5F5F5E2E2E20000E2E2F5F5F5F5F5F5F5F5F5F5F5F5F5F5F5F5F5F5F5F5F5F5F5F5F5F5F5F5F5F5F5F5F5F5F5F5F5F5F5F5F5F5F5F5F5F5F5F5F5F5F5F5F5F5F5F5F5F5F5F5F5F5F5F5F5F5F5F5F5F5F5F5F5F5F5F5F5F5F5F5F5F5F5F5F5F5F5F5
310
F5F5F5F5F5E2F5E2CDCDE2E2F5F5F5F5F5F5F5F5F5F5F5F5F5F5F5F5F5F5F5F5F5F5F5F5F5F5F5F5F5F5F5F5F5F5F5F5F5F5F5F5F5F5F5F5F5F5F5F5F5F5F5F5F5F5F5F5F5F5F5F5F5F5F5F5F5F5F5F5F5F5F5F5F5F5F5F5F5F5F5F5F5F5F5F5F5F5F5F5F5F5F5F5F5E2F5E20000E2E2F5F5F5F5F5F5F5F5F5F5F5F5F5F5F5
310
F5F5F5F5F5F5F5F5F5F5F5F5F5F5F5F5F5F5F5F5F5F5F5F5F5F5F5F5F5F5F5F5F5F5F5F5F5F5F5F5F5F5F5F5F5F5F5F5F5F5F5F5F5F5F5F5F5F5F5F5F5F5F5F5F5F5F5F5F5F5F5F5F5F5F5F5F5F5E2F5E2CDCDE2E2F5F5F5F5F5F5F5F5F5F5F5F5F5F5F5F5F5F5F5F5F5F5F5F5F5F5F5F5F5F5F5F5F5F5F5F5F5F5F5F5F5F5
310
F5F5F5F5F5F5F5F5F5F5F5F5F5F5F5F5F5F5F5F5F5F5F5F5F5F5F5F5F5F5F5F5F5F5F5F5F5F5F5F5F5F5F5F5F5F5F5F5F5F5F5E2F5E20000E2E2F5F5F5F5F5F5F5F5F5F5F5F5F5F5F5F5F5F5F5F5F5F5F5F5F5F5F5F5F5F5F5F5F5F5F5F5F5F5F5F5F5F5F5F5F5F5F5F5F5F5F5F5F5F5F5F5F5F5F5F5F5F5F5F5F5F5F5F5F5
310
F5F5F5F5F5F5F5F5F5F5F5F5F5F5F5F5F5F5F5F5F5F5F5F5E2F5E2CDCDE2E2F5F5F5F5F5F5F5F5F5F5F5F5F5F5F5F5F5F5F5F5F5F5F5F5F5F5F5F5F5F5F5F5F5F5F5F5F5F5F5F5F5F5F5F5F5F5F5F5F5F5F5F5F5F5F5F5F5F5F5F5F5F5F5F5F5F5F5F5F5F5F5F5F5F5F5F5F5F5F5F5F5F5F5F5F5F5F5F5F5F5F5F5F5E2F5E2
310
0000E2E2F5F5F5F5F5F5F5F5F5F5F5F5F5F5F5F5F5F5F5F5F5F5F5F5F5F5F5F5F5F5F5F5F5F5F5F5F5F5F5F5F5F5F5F5F5F5F5F5F5F5F5F5F5F5F5F5F5F5F5F5F5F5F5F5F5F5F5F5F5F5F5F5F5F5F5F5F5F5F5F5F5F5F5F5F5F5F5F5F5F5F5F5F5E2F5E2CDCDE2E2F5F5F5F5F5F5F5F5F5F5F5F5F5F5F5F5F5F5F5F5F5F5F5
310
F5F5F5F5F5F5F5F5F5F5F5F5F5F5F5F5F5F5F5F5F5F5F5F5F5F5F5F5F5F5F5F5F5F5F5F5F5F5F5F5F5F5F5F5F5F5F5F5F5F5F5F5F5F5F5F5F5F5F5F5F5F5F5F5F5F5F5F5F5F5E2F5E20000E2E2F5F5F5F5F5F5F5F5F5F5F5F5F5F5F5F5F5F5F5F5F5F5F5F5F5F5F5F5F5F5F5F5F5F5F5F5F5F5F5F5F5F5F5F5F5F5F5F5F5F5
310
F5F5F5F5F5F5F5F5F5F5F5F5F5F5F5F5F5F5F5F5F5F5F5F5F5F5F5F5F5F5F5F5F5F5F5F5F5F5F5F5F5F5F5E2F5E2CDCDE2E2F5F5F5F5F5F5F5F5F5F5F5F5F5F5F5F5F5F5F5F5F5F5F5F5F5F5F5F5F5F5F5F5F5F5F5F5F5F5F5F5F5F5F5F5F5F5F5F5F5F5F5F5F5F5F5F5F5F5F5F5F5F5F5F5F5F5F5F5F5F5F5F5F5F5F5F5F5
310
F5F5F5F5F5F5F5F5F5F5F5F5F5F5F5F5E2F5E20000E2E2F5F5F5F5F5F5F5F5F5F5F5F5F5F5F5F5F5F5F5F5F5F5F5F5F5F5F5F5F5F5F5F5F5F5F5F5F5F5F5F5F5F5F5F5F5F5F5F5F5F5F5F5F5F5F5F5F5F5F5F5F5F5F5F5F5F5F5F5F5F5F5F5F5F5F5F5F5F5F5F5F5F5F5F5F5F5F5F5F5F5F5F5F5E2E2E2CDCDE2E2F5F5F5F5
310
F5F5F5F5F5F5F5F5F5F5F5F5F5F5F5F5F5F5F5F5F5F5F5F5F5F5F5F5F5F5F5F5F5F5F5F5F5F5F5F5F5F5F5F5F5F5F5F5F5F5F5F5F5F5F5F5F5F5F5F5F5F5F5F5F5F5F5F5F5F5F5F5F5F5F5F5F5F5F5F5F5F5F5F5F5F5F5F5F5E2E2E20000E2E2F5F5F5F5F5F5F5F5F5F5F5F5F5F5F5F5F5F5F5F5F5F5F5F5F5F5F5F5F5F5F5
310
F5F5F5F5F5F5F5F5F5F5F5F5F5F5F5F5F5F5F5F5F5F5F5F5F5F5F5F5F5F5F5F5F5F5F5F5F5F5F5F5F5F5F5F5F5F5F5F5F5F5F5F5F5F5F5F5F5F5F5F5F5F5E2E2E2CDCDE2E2F5F5F5F5F5F5F5F5F5F5F5F5F5F5F5F5F5F5F5F5F5F5F5F5F5F5F5F5F5F5F5F5F5F5F5F5F5F5F5F5F5F5F5F5F5F5F5F5F5F5F5F5F5F5F5F5F5F5
310
F5F5F5F5F5F5F5F5F5F5F5F5F5F5F5F5F5F5F5F5F5F5F5F5F5F5F5F5F5F5F5F5F5F5F5E2E2E20000E2E2F5F5F5F5F5F5F5F5F5F5F5F5F5F5F5F5F5F5F5F5F5F5F5F5F5F5F5F5F5F5F5F5F5F5F5F5F5F5F5F5F5F5F5F5F5F5F5F5F5F5F5F5F5F5F5F5F5F5F5F5F5F5F5F5F5F5F5F5F5F5F5F5F5F5F5F5F5F5F5F5F5F5F5F5F5
310
F5F5F5F5F5F5F5F5E2E2E2CDCDE2E2F5F5F5F5F5F5F5F5F5F5F5F5F5F5F5F5F5F5F5F5F5F5F5F5F5F5F5F5F5F5F5F5F5F5F5F5F5F5F5F5F5F5F5F5F5F5F5F5F5F5F5F5F5F5F5F5F5F5F5F5F5F5F5F5F5F5F5F5F5F5F5F5F5F5F5F5F5F5F5F5F5F5F5F5F5F5F5F5F5F5F5F5F5E2E2E20000E2E2F5F5F5F5F5F5F5F5F5F5F5F5
310
F5F5F5F5F5F5F5F5F5F5F5F5F5F5F5F5F5F5F5F5F5F5F5F5F5F5F5F5F5F5F5F5F5F5F5F5F5F5F5F5F5F5F5F5F5F5F5F5F5F5F5F5F5F5F5F5F5F5F5F5F5F5F5F5F5F5F5F5F5F5F5F5F5F5F5F5F5F5F5F5F5E2E2E20000E2E2E2E2E2E2E2E2E2E2E2E2E2E2E2E2E2E2E2E2E2E2E2E2E2E2E2E2E2E2E2E2E2E2E2E2E2E2E2E2E2
310
E2E2E2E2E2E2E2E2E2E2E2E2E2E2E2E2E2E2E2E2E2E2E2E2E2E2E2E2E2E2E2E2E2E2E2E2E2E2E2E2E2E2E2E2E2E2E2E2E2E2E2E2E2E2E2E2E233C2E2E2E2E2E2E2E2E2E2F5F5F5F5F5F5F5F5F5E2E2E2E2E2E2E2E2E2E2E2E2E2E2E2F5F5F5F5F5F5F5F5E2E2E2E2E2E2E2E2E2E2E2E2E2E2E2E2F5F5F5F5F5F5F5F5E2E2E2
310
E2E2E2E2E2E2E2E2E2E2E2E2F5F5F5F5F5F5F5F5F5E2E2E2E2E2E2E2E2E2CDCDE2F5F5F5F5F5F5F5F5F5F5F5F5F5F5F5F5F5F5F5F5F5F5F5F5F5F5F5F5F5F5F5F5F5F5F5F5F5F5F5F5F5F5F5F5F5F5F5F5F5F5F5F5F5F5F5F5F5F5F5F5F5F5F5F5F5F5F5F5F5F5F5F5F5F5F5F5F5F5F5F5F5F5F5F5F5F5F5F5F5F5F5F5F5F5
310
F5F5E20000E2E2E2E2E2E2E2E2E2E2E2E2E2E2E2E2E2E2E2E2E2E2E2E2E2E2E2E2E2E2E2E2E2E2E2E2E2E2E2E2E2E2E2E2E2E2E2E2E2E2E2E2E2E2E2E2E2E2E2E2E2E2E2E2E2E2E2E2E2E2E2E2E2E2E2E2E2E2E2E2E2E2E2E2E2E2E2E2E2E2E2E2E2E2E2E2E2E20000EFEFEFEFEFEFEFEFEFEFEFEFEFEFEFEFEFEFEFEFEFEF
310
EFEFEFEFEFEFEFEFEFEFEFEFEFEFEFEFEFEFEFEFEFEFEFEFEFEFEFEFEFEFEFEFEFEFEFEFEFEFEFEFEFEFEFEFEFEFEFEFEFEFEFEFEFEFEFEFEFEFEFEFEFEFEFEFEFEFEFEFEFEFEFEFEFEFEFEF0000
  0
XRECORD
  5
6BE5
102
{ACAD_REACTORS
330
6BE4
102
}
330
6BE4
100
AcDbXrecord
280
     1
102
MATERIAL
148
0.0
149
0.0
149
0.0
 93
        0
 94
      127
282
     0
 72
     1
 77
     1
171
     1
175
     1
179
     1
273
     0
  0
XRECORD
  5
6BE3
102
{ACAD_REACTORS
330
6BE2
102
}
330
6BE2
100
AcDbXrecord
280
     1
102
MATERIAL
148
0.0
149
0.0
149
0.0
 93
        0
 94
      127
282
     0
 72
     1
 77
     1
171
     1
175
     1
179
     1
273
     0
  0
XRECORD
  5
6BE7
102
{ACAD_REACTORS
330
6BE6
102
}
330
6BE6
100
AcDbXrecord
280
     1
102
MATERIAL
148
0.0
149
0.0
149
0.0
 93
        0
 94
      127
282
     0
 72
     1
 77
     1
171
     1
175
     1
179
     1
273
     0
  0
CELLSTYLEMAP
  5
6BE1
102
{ACAD_REACTORS
330
6B6B
102
}
330
6B6B
100
AcDbCellStyleMap
 90
        3
300
CELLSTYLE
  1
TABLEFORMAT_BEGIN
 90
        5
170
     1
 91
        0
 92
    32768
 62
   257
 93
        1
300
CONTENTFORMAT
  1
CONTENTFORMAT_BEGIN
 90
        0
 91
        0
 92
      512
 93
        0
300

 40
0.0
140
1.0
 94
        5
 62
     0
340
11
144
0.25
309
CONTENTFORMAT_END
171
     0
 94
        6
 95
        1
302
GRIDFORMAT
  1
GRIDFORMAT_BEGIN
 90
        0
 91
        1
 62
     0
 92
       -2
340
0
 93
        0
 40
0.045
309
GRIDFORMAT_END
 95
        2
302
GRIDFORMAT
  1
GRIDFORMAT_BEGIN
 90
        0
 91
        1
 62
     0
 92
       -2
340
0
 93
        0
 40
0.045
309
GRIDFORMAT_END
 95
        4
302
GRIDFORMAT
  1
GRIDFORMAT_BEGIN
 90
        0
 91
        1
 62
     0
 92
       -2
340
0
 93
        0
 40
0.045
309
GRIDFORMAT_END
 95
        8
302
GRIDFORMAT
  1
GRIDFORMAT_BEGIN
 90
        0
 91
        1
 62
     0
 92
       -2
340
0
 93
        0
 40
0.045
309
GRIDFORMAT_END
 95
       16
302
GRIDFORMAT
  1
GRIDFORMAT_BEGIN
 90
        0
 91
        1
 62
     0
 92
       -2
340
0
 93
        0
 40
0.045
309
GRIDFORMAT_END
 95
       32
302
GRIDFORMAT
  1
GRIDFORMAT_BEGIN
 90
        0
 91
        1
 62
     0
 92
       -2
340
0
 93
        0
 40
0.045
309
GRIDFORMAT_END
309
TABLEFORMAT_END
  1
CELLSTYLE_BEGIN
 90
        1
 91
        1
300
_TITLE
309
CELLSTYLE_END
300
CELLSTYLE
  1
TABLEFORMAT_BEGIN
 90
        5
170
     1
 91
        0
 92
        0
 62
   257
 93
        1
300
CONTENTFORMAT
  1
CONTENTFORMAT_BEGIN
 90
        0
 91
        0
 92
      512
 93
        0
300

 40
0.0
140
1.0
 94
        5
 62
     0
340
11
144
0.18
309
CONTENTFORMAT_END
171
     0
 94
        6
 95
        1
302
GRIDFORMAT
  1
GRIDFORMAT_BEGIN
 90
        0
 91
        1
 62
     0
 92
       -2
340
0
 93
        0
 40
0.045
309
GRIDFORMAT_END
 95
        2
302
GRIDFORMAT
  1
GRIDFORMAT_BEGIN
 90
        0
 91
        1
 62
     0
 92
       -2
340
0
 93
        0
 40
0.045
309
GRIDFORMAT_END
 95
        4
302
GRIDFORMAT
  1
GRIDFORMAT_BEGIN
 90
        0
 91
        1
 62
     0
 92
       -2
340
0
 93
        0
 40
0.045
309
GRIDFORMAT_END
 95
        8
302
GRIDFORMAT
  1
GRIDFORMAT_BEGIN
 90
        0
 91
        1
 62
     0
 92
       -2
340
0
 93
        0
 40
0.045
309
GRIDFORMAT_END
 95
       16
302
GRIDFORMAT
  1
GRIDFORMAT_BEGIN
 90
        0
 91
        1
 62
     0
 92
       -2
340
0
 93
        0
 40
0.045
309
GRIDFORMAT_END
 95
       32
302
GRIDFORMAT
  1
GRIDFORMAT_BEGIN
 90
        0
 91
        1
 62
     0
 92
       -2
340
0
 93
        0
 40
0.045
309
GRIDFORMAT_END
309
TABLEFORMAT_END
  1
CELLSTYLE_BEGIN
 90
        2
 91
        1
300
_HEADER
309
CELLSTYLE_END
300
CELLSTYLE
  1
TABLEFORMAT_BEGIN
 90
        5
170
     1
 91
        0
 92
        0
 62
   257
 93
        1
300
CONTENTFORMAT
  1
CONTENTFORMAT_BEGIN
 90
        0
 91
        0
 92
      512
 93
        0
300

 40
0.0
140
1.0
 94
        2
 62
     0
340
11
144
0.18
309
CONTENTFORMAT_END
171
     0
 94
        6
 95
        1
302
GRIDFORMAT
  1
GRIDFORMAT_BEGIN
 90
        0
 91
        1
 62
     0
 92
       -2
340
0
 93
        0
 40
0.045
309
GRIDFORMAT_END
 95
        2
302
GRIDFORMAT
  1
GRIDFORMAT_BEGIN
 90
        0
 91
        1
 62
     0
 92
       -2
340
0
 93
        0
 40
0.045
309
GRIDFORMAT_END
 95
        4
302
GRIDFORMAT
  1
GRIDFORMAT_BEGIN
 90
        0
 91
        1
 62
     0
 92
       -2
340
0
 93
        0
 40
0.045
309
GRIDFORMAT_END
 95
        8
302
GRIDFORMAT
  1
GRIDFORMAT_BEGIN
 90
        0
 91
        1
 62
     0
 92
       -2
340
0
 93
        0
 40
0.045
309
GRIDFORMAT_END
 95
       16
302
GRIDFORMAT
  1
GRIDFORMAT_BEGIN
 90
        0
 91
        1
 62
     0
 92
       -2
340
0
 93
        0
 40
0.045
309
GRIDFORMAT_END
 95
       32
302
GRIDFORMAT
  1
GRIDFORMAT_BEGIN
 90
        0
 91
        1
 62
     0
 92
       -2
340
0
 93
        0
 40
0.045
309
GRIDFORMAT_END
309
TABLEFORMAT_END
  1
CELLSTYLE_BEGIN
 90
        3
 91
        2
300
_DATA
309
CELLSTYLE_END
  0
XRECORD
  5
6BE8
102
{ACAD_REACTORS
330
6B6B
102
}
330
6B6B
100
AcDbXrecord
280
     1
102
ACAD_ROUNDTRIP_PRE2007_TABLESTYLE
 90
      512
 91
        0
  1

 92
      512
 93
        0
  2

 94
      512
 95
        0
  3

  0
XRECORD
  5
49B
102
{ACAD_REACTORS
330
49A
102
}
330
49A
100
AcDbXrecord
280
     1
102
RTVSPropertyOp0
 70
     1
102
RTVSPropertyOp1
 70
     1
102
RTVSPropertyOp2
 70
     1
102
RTVSPropertyOp3
 70
     1
102
RTVSPropertyOp4
 70
     1
102
RTVSPropertyOp5
 70
     1
102
RTVSPropertyOp6
 70
     1
102
RTVSPropertyOp7
 70
     1
102
RTVSPropertyOp8
 70
     1
102
RTVSPropertyOp9
 70
     1
102
RTVSPropertyOp10
 70
     1
102
RTVSPropertyOp11
 70
     1
102
RTVSPropertyOp12
 70
     1
102
RTVSPropertyOp13
 70
     1
102
RTVSPropertyOp14
 70
     1
102
RTVSPropertyOp15
 70
     1
102
RTVSPropertyOp16
 70
     1
102
RTVSPropertyOp17
 70
     1
102
RTVSPropertyOp18
 70
     1
102
RTVSPropertyOp19
 70
     1
102
RTVSPropertyOp20
 70
     1
102
RTVSPropertyOp21
 70
     1
102
RTVSPropertyOp22
 70
     1
102
RTVSPropertyOp23
 70
     1
102
RTVSPropertyOp24
 70
     1
102
RTVSPropertyOp25
 70
     1
102
RTVSPropertyOp26
 70
     1
102
RTVSPropertyOp27
 70
     1
  0
XRECORD
  5
A4A
102
{ACAD_REACTORS
330
A49
102
}
330
A49
100
AcDbXrecord
280
     1
102
RTVSPropertyOp0
 70
     1
102
RTVSPropertyOp1
 70
     1
102
RTVSPropertyOp2
 70
     1
102
RTVSPropertyOp3
 70
     1
102
RTVSPropertyOp4
 70
     1
102
RTVSPropertyOp5
 70
     1
102
RTVSPropertyOp6
 70
     1
102
RTVSPropertyOp7
 70
     1
102
RTVSPropertyOp8
 70
     1
102
RTVSPropertyOp9
 70
     1
102
RTVSPropertyOp10
 70
     1
102
RTVSPropertyOp11
 70
     1
102
RTVSPropertyOp12
 70
     1
102
RTVSPropertyOp13
 70
     1
102
RTVSPropertyOp14
 70
     1
102
RTVSPropertyOp15
 70
     1
102
RTVSPropertyOp16
 70
     1
102
RTVSPropertyOp17
 70
     1
102
RTVSPropertyOp18
 70
     1
102
RTVSPropertyOp19
 70
     1
102
RTVSPropertyOp20
 70
     1
102
RTVSPropertyOp21
 70
     1
102
RTVSPropertyOp22
 70
     1
102
RTVSPropertyOp23
 70
     1
102
RTVSPropertyOp24
 70
     1
102
RTVSPropertyOp25
 70
     1
102
RTVSPropertyOp26
 70
     1
102
RTVSPropertyOp27
 70
     1
  0
XRECORD
  5
4A1
102
{ACAD_REACTORS
330
4A0
102
}
330
4A0
100
AcDbXrecord
280
     1
102
RTVSPropertyOp0
 70
     1
102
RTVSPropertyOp1
 70
     1
102
RTVSPropertyOp2
 70
     1
102
RTVSPropertyOp3
 70
     1
102
RTVSPropertyOp4
 70
     1
102
RTVSPropertyOp5
 70
     1
102
RTVSPropertyOp6
 70
     1
102
RTVSPropertyOp7
 70
     1
102
RTVSPropertyOp8
 70
     1
102
RTVSPropertyOp9
 70
     1
102
RTVSPropertyOp10
 70
     1
102
RTVSPropertyOp11
 70
     1
102
RTVSPropertyOp12
 70
     1
102
RTVSPropertyOp13
 70
     1
102
RTVSPropertyOp14
 70
     1
102
RTVSPropertyOp15
 70
     1
102
RTVSPropertyOp16
 70
     1
102
RTVSPropertyOp17
 70
     1
102
RTVSPropertyOp18
 70
     1
102
RTVSPropertyOp19
 70
     1
102
RTVSPropertyOp20
 70
     1
102
RTVSPropertyOp21
 70
     1
102
RTVSPropertyOp22
 70
     1
102
RTVSPropertyOp23
 70
     1
102
RTVSPropertyOp24
 70
     1
102
RTVSPropertyOp25
 70
     1
102
RTVSPropertyOp26
 70
     1
102
RTVSPropertyOp27
 70
     1
  0
XRECORD
  5
4A9
102
{ACAD_REACTORS
330
4A8
102
}
330
4A8
100
AcDbXrecord
280
     1
102
RTVSPropertyOp0
 70
     1
102
RTVSPropertyOp1
 70
     1
102
RTVSPropertyOp2
 70
     1
102
RTVSPropertyOp3
 70
     1
102
RTVSPropertyOp4
 70
     1
102
RTVSPropertyOp5
 70
     1
102
RTVSPropertyOp6
 70
     1
102
RTVSPropertyOp7
 70
     1
102
RTVSPropertyOp8
 70
     1
102
RTVSPropertyOp9
 70
     1
102
RTVSPropertyOp10
 70
     1
102
RTVSPropertyOp11
 70
     1
102
RTVSPropertyOp12
 70
     1
102
RTVSPropertyOp13
 70
     1
102
RTVSPropertyOp14
 70
     1
102
RTVSPropertyOp15
 70
     1
102
RTVSPropertyOp16
 70
     1
102
RTVSPropertyOp17
 70
     1
102
RTVSPropertyOp18
 70
     1
102
RTVSPropertyOp19
 70
     1
102
RTVSPropertyOp20
 70
     1
102
RTVSPropertyOp21
 70
     1
102
RTVSPropertyOp22
 70
     1
102
RTVSPropertyOp23
 70
     1
102
RTVSPropertyOp24
 70
     1
102
RTVSPropertyOp25
 70
     1
102
RTVSPropertyOp26
 70
     1
102
RTVSPropertyOp27
 70
     1
  0
XRECORD
  5
4B1
102
{ACAD_REACTORS
330
4B0
102
}
330
4B0
100
AcDbXrecord
280
     1
102
RTVSPropertyOp0
 70
     1
102
RTVSPropertyOp1
 70
     1
102
RTVSPropertyOp2
 70
     1
102
RTVSPropertyOp3
 70
     1
102
RTVSPropertyOp4
 70
     1
102
RTVSPropertyOp5
 70
     1
102
RTVSPropertyOp6
 70
     1
102
RTVSPropertyOp7
 70
     1
102
RTVSPropertyOp8
 70
     1
102
RTVSPropertyOp9
 70
     1
102
RTVSPropertyOp10
 70
     1
102
RTVSPropertyOp11
 70
     1
102
RTVSPropertyOp12
 70
     1
102
RTVSPropertyOp13
 70
     1
102
RTVSPropertyOp14
 70
     1
102
RTVSPropertyOp15
 70
     1
102
RTVSPropertyOp16
 70
     1
102
RTVSPropertyOp17
 70
     1
102
RTVSPropertyOp18
 70
     1
102
RTVSPropertyOp19
 70
     1
102
RTVSPropertyOp20
 70
     1
102
RTVSPropertyOp21
 70
     1
102
RTVSPropertyOp22
 70
     1
102
RTVSPropertyOp23
 70
     1
102
RTVSPropertyOp24
 70
     1
102
RTVSPropertyOp25
 70
     1
102
RTVSPropertyOp26
 70
     1
102
RTVSPropertyOp27
 70
     1
  0
XRECORD
  5
4A7
102
{ACAD_REACTORS
330
4A6
102
}
330
4A6
100
AcDbXrecord
280
     1
102
RTVSPropertyOp0
 70
     1
102
RTVSPropertyOp1
 70
     1
102
RTVSPropertyOp2
 70
     1
102
RTVSPropertyOp3
 70
     1
102
RTVSPropertyOp4
 70
     1
102
RTVSPropertyOp5
 70
     1
102
RTVSPropertyOp6
 70
     1
102
RTVSPropertyOp7
 70
     1
102
RTVSPropertyOp8
 70
     1
102
RTVSPropertyOp9
 70
     1
102
RTVSPropertyOp10
 70
     1
102
RTVSPropertyOp11
 70
     1
102
RTVSPropertyOp12
 70
     1
102
RTVSPropertyOp13
 70
     1
102
RTVSPropertyOp14
 70
     1
102
RTVSPropertyOp15
 70
     1
102
RTVSPropertyOp16
 70
     1
102
RTVSPropertyOp17
 70
     1
102
RTVSPropertyOp18
 70
     1
102
RTVSPropertyOp19
 70
     1
102
RTVSPropertyOp20
 70
     1
102
RTVSPropertyOp21
 70
     1
102
RTVSPropertyOp22
 70
     1
102
RTVSPropertyOp23
 70
     1
102
RTVSPropertyOp24
 70
     1
102
RTVSPropertyOp25
 70
     1
102
RTVSPropertyOp26
 70
     1
102
RTVSPropertyOp27
 70
     1
  0
XRECORD
  5
4AF
102
{ACAD_REACTORS
330
4AE
102
}
330
4AE
100
AcDbXrecord
280
     1
102
RTVSPropertyOp0
 70
     1
102
RTVSPropertyOp1
 70
     1
102
RTVSPropertyOp2
 70
     1
102
RTVSPropertyOp3
 70
     1
102
RTVSPropertyOp4
 70
     1
102
RTVSPropertyOp5
 70
     1
102
RTVSPropertyOp6
 70
     1
102
RTVSPropertyOp7
 70
     1
102
RTVSPropertyOp8
 70
     1
102
RTVSPropertyOp9
 70
     1
102
RTVSPropertyOp10
 70
     1
102
RTVSPropertyOp11
 70
     1
102
RTVSPropertyOp12
 70
     1
102
RTVSPropertyOp13
 70
     1
102
RTVSPropertyOp14
 70
     1
102
RTVSPropertyOp15
 70
     1
102
RTVSPropertyOp16
 70
     1
102
RTVSPropertyOp17
 70
     1
102
RTVSPropertyOp18
 70
     1
102
RTVSPropertyOp19
 70
     1
102
RTVSPropertyOp20
 70
     1
102
RTVSPropertyOp21
 70
     1
102
RTVSPropertyOp22
 70
     1
102
RTVSPropertyOp23
 70
     1
102
RTVSPropertyOp24
 70
     1
102
RTVSPropertyOp25
 70
     1
102
RTVSPropertyOp26
 70
     1
102
RTVSPropertyOp27
 70
     1
  0
XRECORD
  5
493
102
{ACAD_REACTORS
330
492
102
}
330
492
100
AcDbXrecord
280
     1
102
RTVSPropertyOp0
 70
     1
102
RTVSPropertyOp1
 70
     1
102
RTVSPropertyOp2
 70
     1
102
RTVSPropertyOp3
 70
     1
102
RTVSPropertyOp4
 70
     1
102
RTVSPropertyOp5
 70
     1
102
RTVSPropertyOp6
 70
     1
102
RTVSPropertyOp7
 70
     1
102
RTVSPropertyOp8
 70
     1
102
RTVSPropertyOp9
 70
     1
102
RTVSPropertyOp10
 70
     1
102
RTVSPropertyOp11
 70
     1
102
RTVSPropertyOp12
 70
     1
102
RTVSPropertyOp13
 70
     1
102
RTVSPropertyOp14
 70
     1
102
RTVSPropertyOp15
 70
     1
102
RTVSPropertyOp16
 70
     1
102
RTVSPropertyOp17
 70
     1
102
RTVSPropertyOp18
 70
     1
102
RTVSPropertyOp19
 70
     1
102
RTVSPropertyOp20
 70
     1
102
RTVSPropertyOp21
 70
     1
102
RTVSPropertyOp22
 70
     1
102
RTVSPropertyOp23
 70
     1
102
RTVSPropertyOp24
 70
     1
102
RTVSPropertyOp25
 70
     1
102
RTVSPropertyOp26
 70
     1
102
RTVSPropertyOp27
 70
     1
  0
XRECORD
  5
495
102
{ACAD_REACTORS
330
494
102
}
330
494
100
AcDbXrecord
280
     1
102
RTVSPropertyOp0
 70
     1
102
RTVSPropertyOp1
 70
     1
102
RTVSPropertyOp2
 70
     1
102
RTVSPropertyOp3
 70
     1
102
RTVSPropertyOp4
 70
     1
102
RTVSPropertyOp5
 70
     1
102
RTVSPropertyOp6
 70
     1
102
RTVSPropertyOp7
 70
     1
102
RTVSPropertyOp8
 70
     1
102
RTVSPropertyOp9
 70
     1
102
RTVSPropertyOp10
 70
     1
102
RTVSPropertyOp11
 70
     1
102
RTVSPropertyOp12
 70
     1
102
RTVSPropertyOp13
 70
     1
102
RTVSPropertyOp14
 70
     1
102
RTVSPropertyOp15
 70
     1
102
RTVSPropertyOp16
 70
     1
102
RTVSPropertyOp17
 70
     1
102
RTVSPropertyOp18
 70
     1
102
RTVSPropertyOp19
 70
     1
102
RTVSPropertyOp20
 70
     1
102
RTVSPropertyOp21
 70
     1
102
RTVSPropertyOp22
 70
     1
102
RTVSPropertyOp23
 70
     1
102
RTVSPropertyOp24
 70
     1
102
RTVSPropertyOp25
 70
     1
102
RTVSPropertyOp26
 70
     1
102
RTVSPropertyOp27
 70
     1
  0
XRECORD
  5
497
102
{ACAD_REACTORS
330
496
102
}
330
496
100
AcDbXrecord
280
     1
102
RTVSPropertyOp0
 70
     1
102
RTVSPropertyOp1
 70
     1
102
RTVSPropertyOp2
 70
     1
102
RTVSPropertyOp3
 70
     1
102
RTVSPropertyOp4
 70
     1
102
RTVSPropertyOp5
 70
     1
102
RTVSPropertyOp6
 70
     1
102
RTVSPropertyOp7
 70
     1
102
RTVSPropertyOp8
 70
     1
102
RTVSPropertyOp9
 70
     1
102
RTVSPropertyOp10
 70
     1
102
RTVSPropertyOp11
 70
     1
102
RTVSPropertyOp12
 70
     1
102
RTVSPropertyOp13
 70
     1
102
RTVSPropertyOp14
 70
     1
102
RTVSPropertyOp15
 70
     1
102
RTVSPropertyOp16
 70
     1
102
RTVSPropertyOp17
 70
     1
102
RTVSPropertyOp18
 70
     1
102
RTVSPropertyOp19
 70
     1
102
RTVSPropertyOp20
 70
     1
102
RTVSPropertyOp21
 70
     1
102
RTVSPropertyOp22
 70
     1
102
RTVSPropertyOp23
 70
     1
102
RTVSPropertyOp24
 70
     1
102
RTVSPropertyOp25
 70
     1
102
RTVSPropertyOp26
 70
     1
102
RTVSPropertyOp27
 70
     1
  0
XRECORD
  5
499
102
{ACAD_REACTORS
330
498
102
}
330
498
100
AcDbXrecord
280
     1
102
RTVSPropertyOp0
 70
     1
102
RTVSPropertyOp1
 70
     1
102
RTVSPropertyOp2
 70
     1
102
RTVSPropertyOp3
 70
     1
102
RTVSPropertyOp4
 70
     1
102
RTVSPropertyOp5
 70
     1
102
RTVSPropertyOp6
 70
     1
102
RTVSPropertyOp7
 70
     1
102
RTVSPropertyOp8
 70
     1
102
RTVSPropertyOp9
 70
     1
102
RTVSPropertyOp10
 70
     1
102
RTVSPropertyOp11
 70
     1
102
RTVSPropertyOp12
 70
     1
102
RTVSPropertyOp13
 70
     1
102
RTVSPropertyOp14
 70
     1
102
RTVSPropertyOp15
 70
     1
102
RTVSPropertyOp16
 70
     1
102
RTVSPropertyOp17
 70
     1
102
RTVSPropertyOp18
 70
     1
102
RTVSPropertyOp19
 70
     1
102
RTVSPropertyOp20
 70
     1
102
RTVSPropertyOp21
 70
     1
102
RTVSPropertyOp22
 70
     1
102
RTVSPropertyOp23
 70
     1
102
RTVSPropertyOp24
 70
     1
102
RTVSPropertyOp25
 70
     1
102
RTVSPropertyOp26
 70
     1
102
RTVSPropertyOp27
 70
     1
  0
XRECORD
  5
4AD
102
{ACAD_REACTORS
330
4AC
102
}
330
4AC
100
AcDbXrecord
280
     1
102
RTVSPropertyOp0
 70
     1
102
RTVSPropertyOp1
 70
     1
102
RTVSPropertyOp2
 70
     1
102
RTVSPropertyOp3
 70
     1
102
RTVSPropertyOp4
 70
     1
102
RTVSPropertyOp5
 70
     1
102
RTVSPropertyOp6
 70
     1
102
RTVSPropertyOp7
 70
     1
102
RTVSPropertyOp8
 70
     1
102
RTVSPropertyOp9
 70
     1
102
RTVSPropertyOp10
 70
     1
102
RTVSPropertyOp11
 70
     1
102
RTVSPropertyOp12
 70
     1
102
RTVSPropertyOp13
 70
     1
102
RTVSPropertyOp14
 70
     1
102
RTVSPropertyOp15
 70
     1
102
RTVSPropertyOp16
 70
     1
102
RTVSPropertyOp17
 70
     1
102
RTVSPropertyOp18
 70
     1
102
RTVSPropertyOp19
 70
     1
102
RTVSPropertyOp20
 70
     1
102
RTVSPropertyOp21
 70
     1
102
RTVSPropertyOp22
 70
     1
102
RTVSPropertyOp23
 70
     1
102
RTVSPropertyOp24
 70
     1
102
RTVSPropertyOp25
 70
     1
102
RTVSPropertyOp26
 70
     1
102
RTVSPropertyOp27
 70
     1
  0
XRECORD
  5
A4E
102
{ACAD_REACTORS
330
A4D
102
}
330
A4D
100
AcDbXrecord
280
     1
102
RTVSPropertyOp0
 70
     1
102
RTVSPropertyOp1
 70
     1
102
RTVSPropertyOp2
 70
     1
102
RTVSPropertyOp3
 70
     1
102
RTVSPropertyOp4
 70
     1
102
RTVSPropertyOp5
 70
     1
102
RTVSPropertyOp6
 70
     1
102
RTVSPropertyOp7
 70
     1
102
RTVSPropertyOp8
 70
     1
102
RTVSPropertyOp9
 70
     1
102
RTVSPropertyOp10
 70
     1
102
RTVSPropertyOp11
 70
     1
102
RTVSPropertyOp12
 70
     1
102
RTVSPropertyOp13
 70
     1
102
RTVSPropertyOp14
 70
     1
102
RTVSPropertyOp15
 70
     1
102
RTVSPropertyOp16
 70
     1
102
RTVSPropertyOp17
 70
     1
102
RTVSPropertyOp18
 70
     1
102
RTVSPropertyOp19
 70
     1
102
RTVSPropertyOp20
 70
     1
102
RTVSPropertyOp21
 70
     1
102
RTVSPropertyOp22
 70
     1
102
RTVSPropertyOp23
 70
     1
102
RTVSPropertyOp24
 70
     1
102
RTVSPropertyOp25
 70
     1
102
RTVSPropertyOp26
 70
     1
102
RTVSPropertyOp27
 70
     1
  0
XRECORD
  5
4AB
102
{ACAD_REACTORS
330
4AA
102
}
330
4AA
100
AcDbXrecord
280
     1
102
RTVSPropertyOp0
 70
     1
102
RTVSPropertyOp1
 70
     1
102
RTVSPropertyOp2
 70
     1
102
RTVSPropertyOp3
 70
     1
102
RTVSPropertyOp4
 70
     1
102
RTVSPropertyOp5
 70
     1
102
RTVSPropertyOp6
 70
     1
102
RTVSPropertyOp7
 70
     1
102
RTVSPropertyOp8
 70
     1
102
RTVSPropertyOp9
 70
     1
102
RTVSPropertyOp10
 70
     1
102
RTVSPropertyOp11
 70
     1
102
RTVSPropertyOp12
 70
     1
102
RTVSPropertyOp13
 70
     1
102
RTVSPropertyOp14
 70
     1
102
RTVSPropertyOp15
 70
     1
102
RTVSPropertyOp16
 70
     1
102
RTVSPropertyOp17
 70
     1
102
RTVSPropertyOp18
 70
     1
102
RTVSPropertyOp19
 70
     1
102
RTVSPropertyOp20
 70
     1
102
RTVSPropertyOp21
 70
     1
102
RTVSPropertyOp22
 70
     1
102
RTVSPropertyOp23
 70
     1
102
RTVSPropertyOp24
 70
     1
102
RTVSPropertyOp25
 70
     1
102
RTVSPropertyOp26
 70
     1
102
RTVSPropertyOp27
 70
     1
  0
ENDSEC
  0
EOF
