  0
SECTION
  2
HEADER
  9
$ACADVER
  1
AC1018
  9
$ACADMAINTVER
 70
   104
  9
$DWGCODEPAGE
  3
ANSI_1250
  9
$LASTSAVEDBY
  1
bonzo
  9
$INSBASE
 10
0.0
 20
0.0
 30
0.0
  9
$EXTMIN
 10
2.751421609313185
 20
1.226152922194861
 30
0.0
  9
$EXTMAX
 10
11.14973328585236
 20
9.612990093786546
 30
0.0
  9
$LIMMIN
 10
0.0
 20
0.0
  9
$LIMMAX
 10
12.0
 20
9.0
  9
$ORTHOMODE
 70
     1
  9
$REGENMODE
 70
     1
  9
$FILLMODE
 70
     1
  9
$QTEXTMODE
 70
     0
  9
$MIRRTEXT
 70
     1
  9
$LTSCALE
 40
1.0
  9
$ATTMODE
 70
     1
  9
$TEXTSIZE
 40
0.2
  9
$TRACEWID
 40
0.05
  9
$TEXTSTYLE
  7
Standard
  9
$CLAYER
  8
0
  9
$CELTYPE
  6
ByLayer
  9
$CECOLOR
 62
   256
  9
$CELTSCALE
 40
1.0
  9
$DISPSILH
 70
     0
  9
$DIMSCALE
 40
0.02
  9
$DIMASZ
 40
3.0
  9
$DIMEXO
 40
20.0
  9
$DIMDLI
 40
0.0
  9
$DIMRND
 40
0.05
  9
$DIMDLE
 40
0.0
  9
$DIMEXE
 40
5.0
  9
$DIMTP
 40
0.0
  9
$DIMTM
 40
0.0
  9
$DIMTXT
 40
9.0
  9
$DIMCEN
 40
12.0
  9
$DIMTSZ
 40
0.0
  9
$DIMTOL
 70
     0
  9
$DIMLIM
 70
     0
  9
$DIMTIH
 70
     0
  9
$DIMTOH
 70
     0
  9
$DIMSE1
 70
     1
  9
$DIMSE2
 70
     1
  9
$DIMTAD
 70
     1
  9
$DIMZIN
 70
     1
  9
$DIMBLK
  1

  9
$DIMASO
 70
     1
  9
$DIMSHO
 70
     1
  9
$DIMPOST
  1

  9
$DIMAPOST
  1

  9
$DIMALT
 70
     0
  9
$DIMALTD
 70
     4
  9
$DIMALTF
 40
1.0
  9
$DIMLFAC
 40
1.0
  9
$DIMTOFL
 70
     1
  9
$DIMTVP
 40
0.0
  9
$DIMTIX
 70
     1
  9
$DIMSOXD
 70
     0
  9
$DIMSAH
 70
     1
  9
$DIMBLK1
  1
MAR-STRZ
  9
$DIMBLK2
  1
MAR-STRZ
  9
$DIMSTYLE
  2
AR SKALA 1-50
  9
$DIMCLRD
 70
   256
  9
$DIMCLRE
 70
   256
  9
$DIMCLRT
 70
   256
  9
$DIMTFAC
 40
0.01
  9
$DIMGAP
 40
6.0
  9
$DIMJUST
 70
     0
  9
$DIMSD1
 70
     0
  9
$DIMSD2
 70
     0
  9
$DIMTOLJ
 70
     1
  9
$DIMTZIN
 70
     0
  9
$DIMALTZ
 70
     0
  9
$DIMALTTZ
 70
     0
  9
$DIMUPT
 70
     0
  9
$DIMDEC
 70
     2
  9
$DIMTDEC
 70
     2
  9
$DIMALTU
 70
     2
  9
$DIMALTTD
 70
     4
  9
$DIMTXSTY
  7
AR 01 SWIS
  9
$DIMAUNIT
 70
     0
  9
$DIMADEC
 70
     1
  9
$DIMALTRND
 40
0.0
  9
$DIMAZIN
 70
     0
  9
$DIMDSEP
 70
    46
  9
$DIMATFIT
 70
     3
  9
$DIMFRAC
 70
     0
  9
$DIMLDRBLK
  1
MAR-STRZ
  9
$DIMLUNIT
 70
     2
  9
$DIMLWD
 70
    -2
  9
$DIMLWE
 70
    -2
  9
$DIMTMOVE
 70
     2
  9
$LUNITS
 70
     2
  9
$LUPREC
 70
     4
  9
$SKETCHINC
 40
0.1
  9
$FILLETRAD
 40
0.5
  9
$AUNITS
 70
     0
  9
$AUPREC
 70
     0
  9
$MENU
  1
.
  9
$ELEVATION
 40
0.0
  9
$PELEVATION
 40
0.0
  9
$THICKNESS
 40
0.0
  9
$LIMCHECK
 70
     0
  9
$CHAMFERA
 40
0.5
  9
$CHAMFERB
 40
0.5
  9
$CHAMFERC
 40
1.0
  9
$CHAMFERD
 40
0.0
  9
$SKPOLY
 70
     0
  9
$TDCREATE
 40
2455956.499359827
  9
$TDUCREATE
 40
2455956.416026493
  9
$TDUPDATE
 40
2459311.319763842
  9
$TDUUPDATE
 40
2459311.236430510
  9
$TDINDWG
 40
0.1862101157
  9
$TDUSRTIMER
 40
0.1862101157
  9
$USRTIMER
 70
     1
  9
$ANGBASE
 50
0.0
  9
$ANGDIR
 70
     0
  9
$PDMODE
 70
     0
  9
$PDSIZE
 40
0.0
  9
$PLINEWID
 40
0.0
  9
$SPLFRAME
 70
     0
  9
$SPLINETYPE
 70
     6
  9
$SPLINESEGS
 70
     8
  9
$HANDSEED
  5
9920
  9
$SURFTAB1
 70
     6
  9
$SURFTAB2
 70
     6
  9
$SURFTYPE
 70
     6
  9
$SURFU
 70
     6
  9
$SURFV
 70
     6
  9
$UCSBASE
  2

  9
$UCSNAME
  2

  9
$UCSORG
 10
0.0
 20
0.0
 30
0.0
  9
$UCSXDIR
 10
1.0
 20
0.0
 30
0.0
  9
$UCSYDIR
 10
0.0
 20
1.0
 30
0.0
  9
$UCSORTHOREF
  2

  9
$UCSORTHOVIEW
 70
     0
  9
$UCSORGTOP
 10
0.0
 20
0.0
 30
0.0
  9
$UCSORGBOTTOM
 10
0.0
 20
0.0
 30
0.0
  9
$UCSORGLEFT
 10
0.0
 20
0.0
 30
0.0
  9
$UCSORGRIGHT
 10
0.0
 20
0.0
 30
0.0
  9
$UCSORGFRONT
 10
0.0
 20
0.0
 30
0.0
  9
$UCSORGBACK
 10
0.0
 20
0.0
 30
0.0
  9
$PUCSBASE
  2

  9
$PUCSNAME
  2

  9
$PUCSORG
 10
0.0
 20
0.0
 30
0.0
  9
$PUCSXDIR
 10
1.0
 20
0.0
 30
0.0
  9
$PUCSYDIR
 10
0.0
 20
1.0
 30
0.0
  9
$PUCSORTHOREF
  2

  9
$PUCSORTHOVIEW
 70
     0
  9
$PUCSORGTOP
 10
0.0
 20
0.0
 30
0.0
  9
$PUCSORGBOTTOM
 10
0.0
 20
0.0
 30
0.0
  9
$PUCSORGLEFT
 10
0.0
 20
0.0
 30
0.0
  9
$PUCSORGRIGHT
 10
0.0
 20
0.0
 30
0.0
  9
$PUCSORGFRONT
 10
0.0
 20
0.0
 30
0.0
  9
$PUCSORGBACK
 10
0.0
 20
0.0
 30
0.0
  9
$USERI1
 70
     0
  9
$USERI2
 70
     0
  9
$USERI3
 70
     0
  9
$USERI4
 70
     0
  9
$USERI5
 70
     0
  9
$USERR1
 40
0.0
  9
$USERR2
 40
0.0
  9
$USERR3
 40
0.0
  9
$USERR4
 40
0.0
  9
$USERR5
 40
0.0
  9
$WORLDVIEW
 70
     1
  9
$SHADEDGE
 70
     3
  9
$SHADEDIF
 70
    70
  9
$TILEMODE
 70
     1
  9
$MAXACTVP
 70
    64
  9
$PINSBASE
 10
0.0
 20
0.0
 30
0.0
  9
$PLIMCHECK
 70
     0
  9
$PEXTMIN
 10
6.561544945354853
 20
3.282189374834842
 30
0.0
  9
$PEXTMAX
 10
416.7133315898103
 20
290.5875349075164
 30
0.0
  9
$PLIMMIN
 10
3.386557152386103
 20
0.1071894225185588
  9
$PLIMMAX
 10
423.5448823476986
 20
297.1601984557217
  9
$UNITMODE
 70
     0
  9
$VISRETAIN
 70
     1
  9
$PLINEGEN
 70
     0
  9
$PSLTSCALE
 70
     0
  9
$TREEDEPTH
 70
  3020
  9
$CMLSTYLE
  2
Standard
  9
$CMLJUST
 70
     0
  9
$CMLSCALE
 40
1.0
  9
$PROXYGRAPHICS
 70
     1
  9
$MEASUREMENT
 70
     0
  9
$CELWEIGHT
370
    -1
  9
$ENDCAPS
280
     0
  9
$JOINSTYLE
280
     0
  9
$LWDISPLAY
290
     0
  9
$INSUNITS
 70
     1
  9
$HYPERLINKBASE
  1

  9
$STYLESHEET
  1

  9
$XEDIT
290
     1
  9
$CEPSNTYPE
380
     0
  9
$PSTYLEMODE
290
     1
  9
$FINGERPRINTGUID
  2
{1B330B5B-CE04-4EC8-B886-8C8BFC3A02BF}
  9
$VERSIONGUID
  2
{32A77D17-DA3A-4C5A-8432-A5AAECB365AB}
  9
$EXTNAMES
290
     1
  9
$PSVPSCALE
 40
0.0
  9
$OLESTARTUP
290
     0
  9
$SORTENTS
280
   127
  9
$INDEXCTL
280
     0
  9
$HIDETEXT
280
     1
  9
$XCLIPFRAME
290
     0
  9
$HALOGAP
280
     0
  9
$OBSCOLOR
 70
   257
  9
$OBSLTYPE
280
     0
  9
$INTERSECTIONDISPLAY
280
     0
  9
$INTERSECTIONCOLOR
 70
   257
  9
$DIMASSOC
280
     2
  9
$PROJECTNAME
  1

  0
ENDSEC
  0
SECTION
  2
CLASSES
  0
CLASS
  1
ACDBDICTIONARYWDFLT
  2
AcDbDictionaryWithDefault
  3
ObjectDBX Classes
 90
        0
 91
        1
280
     0
281
     0
  0
CLASS
  1
VISUALSTYLE
  2
AcDbVisualStyle
  3
ObjectDBX Classes
 90
     4095
 91
       16
280
     0
281
     0
  0
CLASS
  1
MATERIAL
  2
AcDbMaterial
  3
ObjectDBX Classes
 90
     1153
 91
        3
280
     0
281
     0
  0
CLASS
  1
DICTIONARYVAR
  2
AcDbDictionaryVar
  3
ObjectDBX Classes
 90
        0
 91
        9
280
     0
281
     0
  0
CLASS
  1
TABLESTYLE
  2
AcDbTableStyle
  3
ObjectDBX Classes
 90
     4095
 91
        1
280
     0
281
     0
  0
CLASS
  1
SORTENTSTABLE
  2
AcDbSortentsTable
  3
ObjectDBX Classes
 90
        0
 91
        3
280
     0
281
     0
  0
CLASS
  1
DIMASSOC
  2
AcDbDimAssoc
  3
"AcDbDimAssoc|Product Desc:     AcDim ARX App For Dimension|Company:          Autodesk, Inc.|WEB Address:      www.autodesk.com"
 90
        0
 91
        2
280
     0
281
     0
  0
CLASS
  1
SCALE
  2
AcDbScale
  3
ObjectDBX Classes
 90
     1153
 91
       33
280
     0
281
     0
  0
CLASS
  1
MLEADERSTYLE
  2
AcDbMLeaderStyle
  3
ACDB_MLEADERSTYLE_CLASS
 90
     4095
 91
        1
280
     0
281
     0
  0
CLASS
  1
CELLSTYLEMAP
  2
AcDbCellStyleMap
  3
ObjectDBX Classes
 90
     1152
 91
        2
280
     0
281
     0
  0
ENDSEC
  0
SECTION
  2
TABLES
  0
TABLE
  2
VPORT
  5
8
102
{ACAD_XDICTIONARY
360
84C
102
}
330
0
100
AcDbSymbolTable
 70
     1
  0
VPORT
  5
29
330
8
100
AcDbSymbolTableRecord
100
AcDbViewportTableRecord
  2
*Active
 70
     0
 10
0.0
 20
0.0
 11
1.0
 21
1.0
 12
3.81549251966741
 22
5.64549419246175
 13
0.0
 23
0.0
 14
0.5
 24
0.5
 15
0.5
 25
0.5
 16
0.0
 26
0.0
 36
1.0
 17
0.0
 27
0.0
 37
-1000.0
 40
10.87749601386517
 41
2.060556464811783
 42
50.0
 43
4.148984367261674
 44
9.217858496371269
 50
0.0
 51
0.0
 71
     0
 72
   100
 73
     1
 74
     3
 75
     0
 76
     0
 77
     0
 78
     0
281
     0
 65
     1
110
0.0
120
0.0
130
0.0
111
1.0
121
0.0
131
0.0
112
0.0
122
1.0
132
0.0
 79
     0
146
0.0
  0
ENDTAB
  0
TABLE
  2
LTYPE
  5
5
330
0
100
AcDbSymbolTable
 70
     2
  0
LTYPE
  5
14
330
5
100
AcDbSymbolTableRecord
100
AcDbLinetypeTableRecord
  2
ByBlock
 70
     0
  3

 72
    65
 73
     0
 40
0.0
  0
LTYPE
  5
15
330
5
100
AcDbSymbolTableRecord
100
AcDbLinetypeTableRecord
  2
ByLayer
 70
     0
  3

 72
    65
 73
     0
 40
0.0
  0
LTYPE
  5
16
330
5
100
AcDbSymbolTableRecord
100
AcDbLinetypeTableRecord
  2
Continuous
 70
     0
  3
Solid line
 72
    65
 73
     0
 40
0.0
  0
LTYPE
  5
886
330
5
100
AcDbSymbolTableRecord
100
AcDbLinetypeTableRecord
  2
DASHED
 70
     0
  3
Dashed __ __ __ __ __ __ __ __ __ __ __ __ __ _
 72
    65
 73
     2
 40
0.75
 49
0.5
 74
     0
 49
-0.25
 74
     0
  0
ENDTAB
  0
TABLE
  2
LAYER
  5
2
102
{ACAD_XDICTIONARY
360
7D1
102
}
330
0
100
AcDbSymbolTable
 70
     4
  0
LAYER
  5
10
102
{ACAD_XDICTIONARY
360
8C9A
102
}
330
2
100
AcDbSymbolTableRecord
100
AcDbLayerTableRecord
  2
0
 70
     0
 62
     7
  6
Continuous
370
    25
390
F
  0
LAYER
  5
87B
102
{ACAD_XDICTIONARY
360
8C9C
102
}
330
2
100
AcDbSymbolTableRecord
100
AcDbLayerTableRecord
  2
STREFA BEZPIECZEŃSTWA
 70
     0
 62
     7
  6
DASHED
370
    25
390
F
1001
AcAecLayerStandard
1000

1000

  0
LAYER
  5
87D
102
{ACAD_XDICTIONARY
360
8C9E
102
}
330
2
100
AcDbSymbolTableRecord
100
AcDbLayerTableRecord
  2
WYMIAR
 70
     0
 62
     7
  6
Continuous
370
    25
390
F
1001
AcAecLayerStandard
1000

1000

  0
LAYER
  5
8CC
330
2
100
AcDbSymbolTableRecord
100
AcDbLayerTableRecord
  2
Defpoints
 70
     0
 62
     7
  6
Continuous
290
     0
370
     5
390
F
1001
RAK
1000
{ACET-LAYISO
1070
     0
1070
     7
1000
Continuous
1071
        5
1071
        0
1005
F
1000
ACET-LAYISO}
  0
ENDTAB
  0
TABLE
  2
STYLE
  5
3
330
0
100
AcDbSymbolTable
 70
     2
  0
STYLE
  5
11
330
3
100
AcDbSymbolTableRecord
100
AcDbTextStyleTableRecord
  2
Standard
 70
     0
 40
0.0
 41
1.0
 50
0.0
 71
     0
 42
0.2
  3
txt
  4

  0
STYLE
  5
8CE
330
3
100
AcDbSymbolTableRecord
100
AcDbTextStyleTableRecord
  2
AR 01 SWIS
 70
     0
 40
0.0
 41
1.0
 50
0.0
 71
     0
 42
55.0
  3
swissc.ttf
  4

1001
ACAD
1000
Swis721 Cn BT
1071
       34
  0
ENDTAB
  0
TABLE
  2
VIEW
  5
6
330
0
100
AcDbSymbolTable
 70
     0
  0
ENDTAB
  0
TABLE
  2
UCS
  5
7
330
0
100
AcDbSymbolTable
 70
     0
  0
ENDTAB
  0
TABLE
  2
APPID
  5
9
330
0
100
AcDbSymbolTable
 70
     9
  0
APPID
  5
12
330
9
100
AcDbSymbolTableRecord
100
AcDbRegAppTableRecord
  2
ACAD
 70
     0
  0
APPID
  5
7CB
330
9
100
AcDbSymbolTableRecord
100
AcDbRegAppTableRecord
  2
ACAD_PSEXT
 70
     0
  0
APPID
  5
875
330
9
100
AcDbSymbolTableRecord
100
AcDbRegAppTableRecord
  2
ACAD_EXEMPT_FROM_CAD_STANDARDS
 70
     0
  0
APPID
  5
87C
330
9
100
AcDbSymbolTableRecord
100
AcDbRegAppTableRecord
  2
AcAecLayerStandard
 70
     0
  0
APPID
  5
8D4
330
9
100
AcDbSymbolTableRecord
100
AcDbRegAppTableRecord
  2
RAK
 70
     0
  0
APPID
  5
8D5
330
9
100
AcDbSymbolTableRecord
100
AcDbRegAppTableRecord
  2
ACAD_DSTYLE_DIMJOGGED_JOGANGLE_SYMBOL
 70
     0
  0
APPID
  5
8D6
330
9
100
AcDbSymbolTableRecord
100
AcDbRegAppTableRecord
  2
ACAD_DSTYLE_DIMJAG
 70
     0
  0
APPID
  5
8D7
330
9
100
AcDbSymbolTableRecord
100
AcDbRegAppTableRecord
  2
ACAD_DSTYLE_DIMTALN
 70
     0
  0
APPID
  5
8C8C
330
9
100
AcDbSymbolTableRecord
100
AcDbRegAppTableRecord
  2
ACAD_MLEADERVER
 70
     0
  0
ENDTAB
  0
TABLE
  2
DIMSTYLE
  5
A
330
0
100
AcDbSymbolTable
 70
     2
100
AcDbDimStyleTable
 71
     1
340
8CF
  0
DIMSTYLE
105
8CF
102
{ACAD_REACTORS
330
9813
330
9827
102
}
330
A
100
AcDbSymbolTableRecord
100
AcDbDimStyleTableRecord
  2
AR SKALA 1-50
 70
     0
 40
0.02
 41
3.0
 42
20.0
 43
0.0
 44
5.0
 45
0.05
 73
     0
 74
     0
 75
     1
 76
     1
 77
     1
 78
     1
140
9.0
141
12.0
143
1.0
146
0.01
147
6.0
171
     4
172
     1
173
     1
174
     1
176
   256
177
   256
178
   256
179
     1
271
     2
272
     2
274
     4
279
     2
340
8CE
341
8BC
343
8BC
344
8BC
  0
DIMSTYLE
105
A46
330
A
100
AcDbSymbolTableRecord
100
AcDbDimStyleTableRecord
  2
Standard
 70
     0
340
11
  0
ENDTAB
  0
TABLE
  2
BLOCK_RECORD
  5
1
330
0
100
AcDbSymbolTable
 70
     5
  0
BLOCK_RECORD
  5
1F
102
{ACAD_XDICTIONARY
360
5F8
102
}
330
1
100
AcDbSymbolTableRecord
100
AcDbBlockTableRecord
  2
*Model_Space
340
22
  0
BLOCK_RECORD
  5
1B
330
1
100
AcDbSymbolTableRecord
100
AcDbBlockTableRecord
  2
*Paper_Space
340
1E
  0
BLOCK_RECORD
  5
8BC
330
1
100
AcDbSymbolTableRecord
100
AcDbBlockTableRecord
  2
MAR-STRZ
340
0
310
2800000020000000200000000100080000000000000400000000000000000000000000000000000000000000000080000080000000808000800000008000800080800000C0C0C000C0DCC000F0CAA6000020400000206000002080000020A0000020C0000020E00000400000004020000040400000406000004080000040A0
310
000040C0000040E00000600000006020000060400000606000006080000060A0000060C0000060E00000800000008020000080400000806000008080000080A0000080C0000080E00000A0000000A0200000A0400000A0600000A0800000A0A00000A0C00000A0E00000C0000000C0200000C0400000C0600000C0800000C0
310
A00000C0C00000C0E00000E0000000E0200000E0400000E0600000E0800000E0A00000E0C00000E0E00040000000400020004000400040006000400080004000A0004000C0004000E00040200000402020004020400040206000402080004020A0004020C0004020E000404000004040200040404000404060004040800040
310
40A0004040C0004040E00040600000406020004060400040606000406080004060A0004060C0004060E00040800000408020004080400040806000408080004080A0004080C0004080E00040A0000040A0200040A0400040A0600040A0800040A0A00040A0C00040A0E00040C0000040C0200040C0400040C0600040C08000
310
40C0A00040C0C00040C0E00040E0000040E0200040E0400040E0600040E0800040E0A00040E0C00040E0E00080000000800020008000400080006000800080008000A0008000C0008000E00080200000802020008020400080206000802080008020A0008020C0008020E00080400000804020008040400080406000804080
310
008040A0008040C0008040E00080600000806020008060400080606000806080008060A0008060C0008060E00080800000808020008080400080806000808080008080A0008080C0008080E00080A0000080A0200080A0400080A0600080A0800080A0A00080A0C00080A0E00080C0000080C0200080C0400080C0600080C0
310
800080C0A00080C0C00080C0E00080E0000080E0200080E0400080E0600080E0800080E0A00080E0C00080E0E000C0000000C0002000C0004000C0006000C0008000C000A000C000C000C000E000C0200000C0202000C0204000C0206000C0208000C020A000C020C000C020E000C0400000C0402000C0404000C0406000C0
310
408000C040A000C040C000C040E000C0600000C0602000C0604000C0606000C0608000C060A000C060C000C060E000C0800000C0802000C0804000C0806000C0808000C080A000C080C000C080E000C0A00000C0A02000C0A04000C0A06000C0A08000C0A0A000C0A0C000C0A0E000C0C00000C0C02000C0C04000C0C06000
310
C0C08000C0C0A000F0FBFF00A4A0A000808080000000FF0000FF000000FFFF00FF000000FF00FF00FFFF0000FFFFFF00000000000000000000000000000000000000000000000000000000000000000000000000000000000000000000000000FF000000000000000000000000000000000000000000000000000000000000
310
00FF00000000000000000000000000000000000000000000000000000000000000FF00000000000000000000000000000000000000000000000000000000000000FF00000000000000000000000000000000000000000000000000000000000000FF000000000000000000000000000000000000000000F900000000000000
310
0000FF00000000000000000000000000000000000000000000F90000000000000000FF0000000000000000000000000000000000000000000000F900000000000000FF000000000000000000000000000000000000000000000000F9000000000000FF00000000000000000000000000000000000000000000000000F90000
310
000000FF0000000000000000000000000000000000000000000000000000F900000000FF000000000000000000000000000000000000000000000000000000F9000000FF00000000000000000000000000000000000000000000000000000000F90000FF000000000000000000000000000000000000000000000000000000
310
0000F900FF000000000000000000000000000000000000000000000000000000000000F9FF00000000000000000000000000000000000000000000FFFFFFFFFFFFFFFFFFFFFFFFFFFFFFFFFFFF0000000000000000000000000000000000000000000000FFF900000000000000000000000000000000000000000000000000
310
0000000000FF00F90000000000000000000000000000000000000000000000000000000000FF0000F900000000000000000000000000000000000000000000000000000000FF000000F9000000000000000000000000000000000000000000000000000000FF00000000F90000000000000000000000000000000000000000
310
000000000000FF0000000000F900000000000000000000000000000000000000000000000000FF000000000000F9000000000000000000000000000000000000000000000000FF00000000000000F90000000000000000000000000000000000000000000000FF0000000000000000F9000000000000000000000000000000
310
00000000000000FF00000000000000000000000000000000000000000000000000000000000000FF00000000000000000000000000000000000000000000000000000000000000FF00000000000000000000000000000000000000000000000000000000000000FF0000000000000000000000000000000000000000000000
310
0000000000000000FF0000000000000000000000000000000000000000000000000000000000000000000000000000000000000000000000
102
{BLKREFS
331
9843
331
9844
331
9858
331
9859
102
}
  0
BLOCK_RECORD
  5
8D3F
102
{ACAD_XDICTIONARY
360
8D7B
102
}
330
1
100
AcDbSymbolTableRecord
100
AcDbBlockTableRecord
  2
A$C7986418B
340
0
1001
ACAD
1000
DesignCenter Data
1002
{
1070
     1
1070
     1
1002
}
  0
BLOCK_RECORD
  5
91D8
102
{ACAD_XDICTIONARY
360
91DA
102
}
330
1
100
AcDbSymbolTableRecord
100
AcDbBlockTableRecord
  2
A$C48B517A9
340
0
1001
ACAD
1000
DesignCenter Data
1002
{
1070
     1
1070
     1
1002
}
  0
BLOCK_RECORD
  5
9814
330
1
100
AcDbSymbolTableRecord
100
AcDbBlockTableRecord
  2
*D3
340
0
  0
BLOCK_RECORD
  5
9828
330
1
100
AcDbSymbolTableRecord
100
AcDbBlockTableRecord
  2
*D4
340
0
  0
ENDTAB
  0
ENDSEC
  0
SECTION
  2
BLOCKS
  0
BLOCK
  5
20
330
1F
100
AcDbEntity
  8
0
100
AcDbBlockBegin
  2
*Model_Space
 70
     0
 10
0.0
 20
0.0
 30
0.0
  3
*Model_Space
  1

  0
ENDBLK
  5
21
330
1F
100
AcDbEntity
  8
0
100
AcDbBlockEnd
  0
BLOCK
  5
1C
330
1B
100
AcDbEntity
 67
     1
  8
0
100
AcDbBlockBegin
  2
*Paper_Space
 70
     0
 10
0.0
 20
0.0
 30
0.0
  3
*Paper_Space
  1

  0
ENDBLK
  5
1D
330
1B
100
AcDbEntity
 67
     1
  8
0
100
AcDbBlockEnd
  0
BLOCK
  5
8BD
330
8BC
100
AcDbEntity
  8
0
100
AcDbBlockBegin
  2
MAR-STRZ
 70
     0
 10
0.0
 20
0.0
 30
0.0
  3
MAR-STRZ
  1

  0
LINE
  5
8BE
330
8BC
100
AcDbEntity
  8
0
100
AcDbLine
 10
0.0
 20
2.299999999999272
 30
0.0
 11
0.0
 21
-2.299999999999272
 31
0.0
  0
LINE
  5
8BF
330
8BC
100
AcDbEntity
  8
0
 62
    10
100
AcDbLine
 10
1.5
 20
1.5
 30
0.0
 11
-1.5
 21
-1.5
 31
0.0
  0
LINE
  5
8C0
330
8BC
100
AcDbEntity
  8
0
100
AcDbLine
 10
1.399999999999636
 20
0.0
 30
0.0
 11
-1.399999999999636
 21
0.0
 31
0.0
  0
ENDBLK
  5
8C1
330
8BC
100
AcDbEntity
  8
0
100
AcDbBlockEnd
  0
BLOCK
  5
8D7D
330
8D3F
100
AcDbEntity
  8
0
100
AcDbBlockBegin
  2
A$C7986418B
 70
     0
 10
0.0
 20
0.0
 30
0.0
  3
A$C7986418B
  1

  0
LINE
  5
8D40
330
8D3F
100
AcDbEntity
  8
0
100
AcDbLine
 10
1.200000007221493
 20
0.5994216238885475
 30
0.0
 11
1.200000007221493
 21
0.0740391323206158
 31
0.0
  0
LINE
  5
8D41
330
8D3F
100
AcDbEntity
  8
0
100
AcDbLine
 10
0.1000000072214355
 20
0.5994216238890254
 30
0.0
 11
0.1000000072214355
 21
0.6025801467617385
 31
0.0
  0
LINE
  5
8D42
330
8D3F
100
AcDbEntity
  8
0
100
AcDbLine
 10
1.200000007221493
 20
0.6025801467612677
 30
0.0
 11
1.200000007221493
 21
0.5994216238885475
 31
0.0
  0
LINE
  5
8D43
330
8D3F
100
AcDbEntity
  8
0
100
AcDbLine
 10
0.1000000072214391
 20
0.0740391323210794
 30
0.0
 11
0.1000000072214355
 21
0.5994216238890254
 31
0.0
  0
LINE
  5
8D44
330
8D3F
100
AcDbEntity
  8
0
100
AcDbLine
 10
1.200000007221493
 20
0.0508825003517952
 30
0.0
 11
1.200000007221493
 21
0.0740391323206158
 31
0.0
  0
LINE
  5
8D45
330
8D3F
100
AcDbEntity
  8
0
100
AcDbLine
 10
0.1000000072214391
 20
0.0508825003522659
 30
0.0
 11
0.1000000072214391
 21
0.0740391323210794
 31
0.0
  0
LINE
  5
8D46
330
8D3F
100
AcDbEntity
  8
0
100
AcDbLine
 10
1.100000007221495
 20
0.6311617741716109
 30
0.0
 11
1.100000007221485
 21
0.0508825003517934
 31
0.0
  0
LINE
  5
8D47
330
8D3F
100
AcDbEntity
  8
0
100
AcDbLine
 10
1.000000007221487
 20
0.0508825003517934
 30
0.0
 11
1.000000007221487
 21
0.6311617741716109
 31
0.0
  0
LINE
  5
8D48
330
8D3F
100
AcDbEntity
  8
0
100
AcDbLine
 10
0.9000000072214859
 20
0.6311617741716109
 30
0.0
 11
0.9000000072214859
 21
0.0508825003517934
 31
0.0
  0
ARC
  5
8D49
330
8D3F
100
AcDbEntity
  8
0
100
AcDbCircle
 10
1.150000007221489
 20
0.0500076644303569
 30
0.0
 40
0.0500076527932462
100
AcDbArc
 50
178.9976141588701
 51
1.002385841130862
  0
ARC
  5
8D4A
330
8D3F
100
AcDbEntity
  8
0
100
AcDbCircle
 10
1.050000007221481
 20
0.0500076644303249
 30
0.0
 40
0.0500076527932462
100
AcDbArc
 50
178.9976141588701
 51
1.002385841130964
  0
ARC
  5
8D4B
330
8D3F
100
AcDbEntity
  8
0
100
AcDbCircle
 10
0.9500000072214724
 20
0.0500076644303249
 30
0.0
 40
0.0500076527932462
100
AcDbArc
 50
178.9976141588701
 51
1.002385841130964
  0
LINE
  5
8D4C
330
8D3F
100
AcDbEntity
  8
0
100
AcDbLine
 10
0.8000000072214845
 20
0.6311617741716092
 30
0.0
 11
0.8000000072214774
 21
0.0508825003517934
 31
0.0
  0
LINE
  5
8D4D
330
8D3F
100
AcDbEntity
  8
0
100
AcDbLine
 10
0.7000000072214761
 20
0.0508825003517934
 30
0.0
 11
0.7000000072214761
 21
0.6311617741716092
 31
0.0
  0
LINE
  5
8D4E
330
8D3F
100
AcDbEntity
  8
0
100
AcDbLine
 10
0.6000000072214747
 20
0.6311617741716092
 30
0.0
 11
0.6000000072214747
 21
0.0508825003517934
 31
0.0
  0
ARC
  5
8D4F
330
8D3F
100
AcDbEntity
  8
0
100
AcDbCircle
 10
0.8500000072214817
 20
0.0500076644303569
 30
0.0
 40
0.0500076527932462
100
AcDbArc
 50
178.9976141588701
 51
1.002385841130964
  0
ARC
  5
8D50
330
8D3F
100
AcDbEntity
  8
0
100
AcDbCircle
 10
0.7500000072214697
 20
0.0500076644303249
 30
0.0
 40
0.0500076527932462
100
AcDbArc
 50
178.9976141588701
 51
1.002385841130964
  0
ARC
  5
8D51
330
8D3F
100
AcDbEntity
  8
0
100
AcDbCircle
 10
0.6500000072214612
 20
0.0500076644303249
 30
0.0
 40
0.0500076527932462
100
AcDbArc
 50
178.9976141588701
 51
1.002385841130964
  0
LINE
  5
8D52
330
8D3F
100
AcDbEntity
  8
0
100
AcDbLine
 10
0.500000007221459
 20
0.6311617741715772
 30
0.0
 11
0.5000000072214484
 21
0.0508825003517615
 31
0.0
  0
LINE
  5
8D53
330
8D3F
100
AcDbEntity
  8
0
100
AcDbLine
 10
0.4000000072214505
 20
0.0508825003517615
 30
0.0
 11
0.4000000072214505
 21
0.6311617741715772
 31
0.0
  0
LINE
  5
8D54
330
8D3F
100
AcDbEntity
  8
0
100
AcDbLine
 10
0.300000007221449
 20
0.6311617741715772
 30
0.0
 11
0.300000007221449
 21
0.0508825003517615
 31
0.0
  0
ARC
  5
8D55
330
8D3F
100
AcDbEntity
  8
0
100
AcDbCircle
 10
0.5500000072214526
 20
0.0500076644303231
 30
0.0
 40
0.0500076527932462
100
AcDbArc
 50
178.9976141588701
 51
1.002385841130964
  0
ARC
  5
8D56
330
8D3F
100
AcDbEntity
  8
0
100
AcDbCircle
 10
0.4500000072214441
 20
0.0500076644302929
 30
0.0
 40
0.0500076527932462
100
AcDbArc
 50
178.9976141588701
 51
1.002385841130964
  0
ARC
  5
8D57
330
8D3F
100
AcDbEntity
  8
0
100
AcDbCircle
 10
0.3500000072214355
 20
0.0500076644302912
 30
0.0
 40
0.0500076527932462
100
AcDbArc
 50
178.9976141588701
 51
1.002385841130964
  0
LINE
  5
8D58
330
8D3F
100
AcDbEntity
  8
0
100
AcDbLine
 10
0.2000000072214476
 20
0.6311617741715772
 30
0.0
 11
0.2000000072214405
 21
0.0508825003517597
 31
0.0
  0
LINE
  5
8D59
330
8D3F
100
AcDbEntity
  8
0
100
AcDbLine
 10
0.1000000072214391
 20
0.0508825003517597
 30
0.0
 11
0.1000000072214391
 21
0.6311617741715772
 31
0.0
  0
ARC
  5
8D5A
330
8D3F
100
AcDbEntity
  8
0
100
AcDbCircle
 10
0.2500000072214448
 20
0.0500076644303214
 30
0.0
 40
0.0500076527932462
100
AcDbArc
 50
178.9976141588701
 51
1.002385841130964
  0
ARC
  5
8D5B
330
8D3F
100
AcDbEntity
  8
0
100
AcDbCircle
 10
0.1500000072214327
 20
0.0500076644302912
 30
0.0
 40
0.0500076527932462
100
AcDbArc
 50
178.9976141588701
 51
1.002385841130964
  0
LINE
  5
8D5C
330
8D3F
100
AcDbEntity
  8
0
100
AcDbLine
 10
1.300000007221502
 20
0.5994216238885564
 30
0.0
 11
1.300000007221502
 21
0.0740391323206247
 31
0.0
  0
ARC
  5
8D5D
330
8D3F
100
AcDbEntity
  8
0
100
AcDbCircle
 10
1.250000007221498
 20
0.0500076644303658
 30
0.0
 40
0.0500076527932462
100
AcDbArc
 50
178.9976141588701
 51
1.002385841130862
  0
LINE
  5
8D5E
330
8D3F
100
AcDbEntity
  8
0
100
AcDbLine
 10
0.0000000072214412
 20
0.074039132321623
 30
0.0
 11
0.0000000072214377
 21
0.5994216238895689
 31
0.0
  0
LINE
  5
8D5F
330
8D3F
100
AcDbEntity
  8
0
100
AcDbLine
 10
0.0000000072214412
 20
0.0508825003523033
 30
0.0
 11
0.0000000072214412
 21
0.6311617741721208
 31
0.0
  0
ARC
  5
8D60
330
8D3F
100
AcDbEntity
  8
0
100
AcDbCircle
 10
0.0500000072214348
 20
0.0500076644308347
 30
0.0
 40
0.0500076527932462
100
AcDbArc
 50
178.9976141588701
 51
1.002385841130964
  0
CIRCLE
  5
8D61
330
8D3F
100
AcDbEntity
  8
0
100
AcDbCircle
 10
1.241737978032126
 20
0.5172195259370334
 30
0.0
 40
0.01089627287962
  0
CIRCLE
  5
8D62
330
8D3F
100
AcDbEntity
  8
0
100
AcDbCircle
 10
1.143762261992975
 20
0.5172195259370334
 30
0.0
 40
0.01089627287962
  0
CIRCLE
  5
8D63
330
8D3F
100
AcDbEntity
  8
0
100
AcDbCircle
 10
1.045786545953827
 20
0.5172195259370334
 30
0.0
 40
0.01089627287962
  0
CIRCLE
  5
8D64
330
8D3F
100
AcDbEntity
  8
0
100
AcDbCircle
 10
0.9450893041072312
 20
0.5172195259370334
 30
0.0
 40
0.01089627287962
  0
CIRCLE
  5
8D65
330
8D3F
100
AcDbEntity
  8
0
100
AcDbCircle
 10
0.8471135880680797
 20
0.5172195259370334
 30
0.0
 40
0.01089627287962
  0
CIRCLE
  5
8D66
330
8D3F
100
AcDbEntity
  8
0
100
AcDbCircle
 10
0.7491378720289284
 20
0.5172195259370334
 30
0.0
 40
0.01089627287962
  0
CIRCLE
  5
8D67
330
8D3F
100
AcDbEntity
  8
0
100
AcDbCircle
 10
0.648440630182332
 20
0.5172195259370334
 30
0.0
 40
0.01089627287962
  0
CIRCLE
  5
8D68
330
8D3F
100
AcDbEntity
  8
0
100
AcDbCircle
 10
0.5477433658508489
 20
0.5172195259370334
 30
0.0
 40
0.01089627287962
  0
CIRCLE
  5
8D69
330
8D3F
100
AcDbEntity
  8
0
100
AcDbCircle
 10
0.4470461015193657
 20
0.5172195259370334
 30
0.0
 40
0.01089627287962
  0
CIRCLE
  5
8D6A
330
8D3F
100
AcDbEntity
  8
0
100
AcDbCircle
 10
0.349070407965101
 20
0.5172195259370334
 30
0.0
 40
0.01089627287962
  0
CIRCLE
  5
8D6B
330
8D3F
100
AcDbEntity
  8
0
100
AcDbCircle
 10
0.2490461163150641
 20
0.5170410508585981
 30
0.0
 40
0.01089627287962
  0
CIRCLE
  5
8D6C
330
8D3F
100
AcDbEntity
  8
0
100
AcDbCircle
 10
0.1505589590259255
 20
0.5213270738704488
 30
0.0
 40
0.01089627287962
  0
CIRCLE
  5
8D6D
330
8D3F
100
AcDbEntity
  8
0
100
AcDbCircle
 10
0.0499307907535815
 20
0.523470061547922
 30
0.0
 40
0.01089627287962
  0
CIRCLE
  5
8D6E
330
8D3F
100
AcDbEntity
  8
0
100
AcDbCircle
 10
1.243548730988432
 20
0.1564139261105417
 30
0.0
 40
0.01089627287962
  0
CIRCLE
  5
8D6F
330
8D3F
100
AcDbEntity
  8
0
100
AcDbCircle
 10
1.145573014949281
 20
0.1564139261105417
 30
0.0
 40
0.01089627287962
  0
CIRCLE
  5
8D70
330
8D3F
100
AcDbEntity
  8
0
100
AcDbCircle
 10
1.047597298910133
 20
0.1564139261105417
 30
0.0
 40
0.01089627287962
  0
CIRCLE
  5
8D71
330
8D3F
100
AcDbEntity
  8
0
100
AcDbCircle
 10
0.9469000570635373
 20
0.1564139261105417
 30
0.0
 40
0.01089627287962
  0
CIRCLE
  5
8D72
330
8D3F
100
AcDbEntity
  8
0
100
AcDbCircle
 10
0.8489243410243858
 20
0.1564139261105417
 30
0.0
 40
0.01089627287962
  0
CIRCLE
  5
8D73
330
8D3F
100
AcDbEntity
  8
0
100
AcDbCircle
 10
0.7509486249852344
 20
0.1564139261105417
 30
0.0
 40
0.01089627287962
  0
CIRCLE
  5
8D74
330
8D3F
100
AcDbEntity
  8
0
100
AcDbCircle
 10
0.6502513831386381
 20
0.1564139261105417
 30
0.0
 40
0.01089627287962
  0
CIRCLE
  5
8D75
330
8D3F
100
AcDbEntity
  8
0
100
AcDbCircle
 10
0.5495541188071549
 20
0.1564139261105417
 30
0.0
 40
0.01089627287962
  0
CIRCLE
  5
8D76
330
8D3F
100
AcDbEntity
  8
0
100
AcDbCircle
 10
0.4488568544756717
 20
0.1564139261105417
 30
0.0
 40
0.01089627287962
  0
CIRCLE
  5
8D77
330
8D3F
100
AcDbEntity
  8
0
100
AcDbCircle
 10
0.3508811609214071
 20
0.1564139261105417
 30
0.0
 40
0.01089627287962
  0
CIRCLE
  5
8D78
330
8D3F
100
AcDbEntity
  8
0
100
AcDbCircle
 10
0.2508568692713702
 20
0.1562354510321064
 30
0.0
 40
0.01089627287962
  0
CIRCLE
  5
8D79
330
8D3F
100
AcDbEntity
  8
0
100
AcDbCircle
 10
0.1523697119822316
 20
0.1605214740439571
 30
0.0
 40
0.01089627287962
  0
CIRCLE
  5
8D7A
330
8D3F
100
AcDbEntity
  8
0
100
AcDbCircle
 10
0.0517415437098876
 20
0.1626644617214303
 30
0.0
 40
0.01089627287962
  0
ENDBLK
  5
8D7E
330
8D3F
100
AcDbEntity
  8
0
100
AcDbBlockEnd
  0
BLOCK
  5
91DC
330
91D8
100
AcDbEntity
  8
0
100
AcDbBlockBegin
  2
A$C48B517A9
 70
     0
 10
0.0
 20
0.0
 30
0.0
  3
A$C48B517A9
  1

  0
ARC
  5
91D9
330
91D8
100
AcDbEntity
  8
0
100
AcDbCircle
 10
0.049376789266443
 20
0.049470213183481
 30
0.0
 40
0.0494882445605987
100
AcDbArc
 50
176.1542009092439
 51
268.4536732191058
  0
ENDBLK
  5
91DD
330
91D8
100
AcDbEntity
  8
0
100
AcDbBlockEnd
  0
BLOCK
  5
9815
330
9814
100
AcDbEntity
  8
0
100
AcDbBlockBegin
  2
*D3
 70
     1
 10
0.0
 20
0.0
 30
0.0
  3
*D3
  1

  0
LINE
  5
9857
330
9814
100
AcDbEntity
  8
WYMIAR
370
    -2
100
AcDbLine
 10
4.02386507086995
 20
9.258288795085249
 30
0.0
 11
10.99973328585236
 21
9.258288795085249
 31
0.0
  0
INSERT
  5
9858
330
9814
100
AcDbEntity
  8
WYMIAR
370
    -2
100
AcDbBlockReference
  2
MAR-STRZ
 10
3.96386507086995
 20
9.258288795085249
 30
0.0
 41
0.06
 42
0.06
 43
0.06
 50
180.0
  0
INSERT
  5
9859
330
9814
100
AcDbEntity
  8
WYMIAR
370
    -2
100
AcDbBlockReference
  2
MAR-STRZ
 10
11.05973328585236
 20
9.258288795085249
 30
0.0
 41
0.06
 42
0.06
 43
0.06
  0
MTEXT
  5
985A
330
9814
100
AcDbEntity
  8
WYMIAR
100
AcDbMText
 10
7.511799178361155
 20
9.470684898981353
 30
0.0
 40
0.18
 41
0.0
 71
     5
 72
     1
  1
\A1;7.10
  7
AR 01 SWIS
 73
     1
 44
1.0
  0
POINT
  5
985B
330
9814
100
AcDbEntity
  8
Defpoints
 62
     0
100
AcDbPoint
 10
3.96386507086995
 20
5.513806642467766
 30
0.0
  0
POINT
  5
985C
330
9814
100
AcDbEntity
  8
Defpoints
 62
     0
100
AcDbPoint
 10
11.05973328585236
 20
5.496534263282931
 30
0.0
  0
POINT
  5
985D
330
9814
100
AcDbEntity
  8
Defpoints
 62
     0
100
AcDbPoint
 10
11.05973328585236
 20
9.258288795085249
 30
0.0
  0
ENDBLK
  5
9816
330
9814
100
AcDbEntity
  8
0
100
AcDbBlockEnd
  0
BLOCK
  5
9829
330
9828
100
AcDbEntity
  8
0
100
AcDbBlockBegin
  2
*D4
 70
     1
 10
0.0
 20
0.0
 30
0.0
  3
*D4
  1

  0
LINE
  5
9842
330
9828
100
AcDbEntity
  8
WYMIAR
370
    -2
100
AcDbLine
 10
3.106122908014485
 20
8.636228914517094
 30
0.0
 11
3.106122908014484
 21
1.975363165396904
 31
0.0
  0
INSERT
  5
9843
330
9828
100
AcDbEntity
  8
WYMIAR
370
    -2
100
AcDbBlockReference
  2
MAR-STRZ
 10
3.106122908014485
 20
8.696228914517094
 30
0.0
 41
0.06
 42
0.06
 43
0.06
 50
90.0
  0
INSERT
  5
9844
330
9828
100
AcDbEntity
  8
WYMIAR
370
    -2
100
AcDbBlockReference
  2
MAR-STRZ
 10
3.106122908014484
 20
1.915363165396904
 30
0.0
 41
0.06
 42
0.06
 43
0.06
 50
270.0
  0
MTEXT
  5
9845
330
9828
100
AcDbEntity
  8
WYMIAR
100
AcDbMText
 10
2.89372680411838
 20
5.305796039956999
 30
0.0
 40
0.18
 41
0.0
 71
     5
 72
     1
  1
\A1;6.80
  7
AR 01 SWIS
 11
0.0000000000000001
 21
1.0
 31
0.0
 73
     1
 44
1.0
  0
POINT
  5
9846
330
9828
100
AcDbEntity
  8
Defpoints
 62
     0
100
AcDbPoint
 10
4.25541780068434
 20
8.696228914517092
 30
0.0
  0
POINT
  5
9847
330
9828
100
AcDbEntity
  8
Defpoints
 62
     0
100
AcDbPoint
 10
4.255417800684357
 20
1.915363165396904
 30
0.0
  0
POINT
  5
9848
330
9828
100
AcDbEntity
  8
Defpoints
 62
     0
100
AcDbPoint
 10
3.106122908014484
 20
1.915363165396904
 30
0.0
  0
ENDBLK
  5
982A
330
9828
100
AcDbEntity
  8
0
100
AcDbBlockEnd
  0
ENDSEC
  0
SECTION
  2
ENTITIES
  0
LINE
  5
9545
330
1F
100
AcDbEntity
  8
0
100
AcDbLine
 10
5.946121925751377
 20
7.1760998757427
 30
0.0
 11
5.953728226036233
 21
7.1760998757427
 31
0.0
  0
LINE
  5
9546
330
1F
100
AcDbEntity
  8
0
100
AcDbLine
 10
6.957768546211781
 20
7.077321515086964
 30
0.0
 11
6.957768546211781
 21
6.77031948914001
 31
0.0
  0
LINE
  5
9547
330
1F
100
AcDbEntity
  8
0
100
AcDbLine
 10
6.957768546211781
 20
6.639319489140014
 30
0.0
 11
6.957768546211781
 21
6.294228914517098
 31
0.0
  0
LINE
  5
9549
330
1F
100
AcDbEntity
  8
0
100
AcDbLine
 10
6.063803001680817
 20
6.95160994999685
 30
0.0
 11
6.859181925751371
 21
6.95160994999685
 31
0.0
  0
LINE
  5
954A
330
1F
100
AcDbEntity
  8
0
100
AcDbLine
 10
6.859181925751371
 20
6.854604988265744
 30
0.0
 11
6.063803001680817
 21
6.854604988265744
 31
0.0
  0
LINE
  5
954B
330
1F
100
AcDbEntity
  8
0
100
AcDbLine
 10
6.063803001680824
 20
6.748545881011175
 30
0.0
 11
6.859181925751379
 21
6.748545881011175
 31
0.0
  0
LINE
  5
954C
330
1F
100
AcDbEntity
  8
0
100
AcDbLine
 10
6.859181925751379
 20
6.648312986720029
 30
0.0
 11
6.063803001680824
 21
6.648312986720029
 31
0.0
  0
LINE
  5
954D
330
1F
100
AcDbEntity
  8
0
100
AcDbLine
 10
6.063803001680824
 20
6.546007641908886
 30
0.0
 11
6.859181925751379
 21
6.546007641908886
 31
0.0
  0
LINE
  5
954E
330
1F
100
AcDbEntity
  8
0
100
AcDbLine
 10
6.859181925751379
 20
6.442321691056964
 30
0.0
 11
6.063803001680824
 21
6.442321691056964
 31
0.0
  0
LINE
  5
954F
330
1F
100
AcDbEntity
  8
0
100
AcDbLine
 10
6.063803001680824
 20
6.347199088024108
 30
0.0
 11
6.859181925751379
 21
6.347199088024108
 31
0.0
  0
LINE
  5
9550
330
1F
100
AcDbEntity
  8
0
100
AcDbLine
 10
6.134650927127559
 20
7.117001047146359
 30
0.0
 11
6.791717598726251
 21
7.117001047146359
 31
0.0
  0
LINE
  5
9551
330
1F
100
AcDbEntity
  8
0
100
AcDbLine
 10
6.075250927127555
 20
7.14797774755678
 30
0.0
 11
6.075250927127555
 21
7.177677747556781
 31
0.0
  0
LINE
  5
9552
330
1F
100
AcDbEntity
  8
0
100
AcDbLine
 10
6.134650927127559
 20
7.117001047146359
 30
0.0
 11
6.134650927127559
 21
7.146701047146361
 31
0.0
  0
LINE
  5
9553
330
1F
100
AcDbEntity
  8
0
100
AcDbLine
 10
6.134650927127559
 20
7.146701047146361
 30
0.0
 11
6.791717598726251
 21
7.146701047146361
 31
0.0
  0
LINE
  5
9554
330
1F
100
AcDbEntity
  8
0
100
AcDbLine
 10
6.791717598726251
 20
7.117001047146359
 30
0.0
 11
6.791717598726251
 21
7.146701047146361
 31
0.0
  0
LINE
  5
9555
330
1F
100
AcDbEntity
  8
0
100
AcDbLine
 10
6.851117598726247
 20
7.117001047146359
 30
0.0
 11
6.851117598726247
 21
7.146701047146361
 31
0.0
  0
LINE
  5
9556
330
1F
100
AcDbEntity
  8
0
100
AcDbLine
 10
6.859728226036239
 20
7.105055888318208
 30
0.0
 11
6.840712022970315
 21
7.105055888318208
 31
0.0
  0
LINE
  5
9557
330
1F
100
AcDbEntity
  8
0
100
AcDbLine
 10
6.828712022970314
 20
7.105055888318208
 30
0.0
 11
6.815632395334858
 21
7.105055888318208
 31
0.0
  0
LINE
  5
9558
330
1F
100
AcDbEntity
  8
0
100
AcDbLine
 10
6.815632395334858
 20
7.105055888318208
 30
0.0
 11
6.815632395334858
 21
7.117001047146359
 31
0.0
  0
LINE
  5
9559
330
1F
100
AcDbEntity
  8
0
100
AcDbLine
 10
6.815632395334858
 20
7.146701047146361
 30
0.0
 11
6.815632395334858
 21
7.15905688409316
 31
0.0
  0
LINE
  5
955A
330
1F
100
AcDbEntity
  8
0
100
AcDbLine
 10
6.874066456824266
 20
7.201217556919399
 30
0.0
 11
6.870238536875596
 21
7.196228914517092
 31
0.0
  0
LINE
  5
955B
330
1F
100
AcDbEntity
  8
0
100
AcDbLine
 10
6.876895588068229
 20
7.198388425675432
 30
0.0
 11
6.875238536875599
 21
7.196228914517092
 31
0.0
  0
LINE
  5
955C
330
1F
100
AcDbEntity
  8
0
100
AcDbLine
 10
6.878033223525719
 20
7.204261364064443
 30
0.0
 11
6.884836112561835
 21
7.209481404418081
 31
0.0
  0
LINE
  5
955D
330
1F
100
AcDbEntity
  8
0
100
AcDbLine
 10
6.88725092712756
 20
7.206334356805324
 30
0.0
 11
6.876895588068229
 21
7.198388425675432
 31
0.0
  0
LINE
  5
955E
330
1F
100
AcDbEntity
  8
0
100
AcDbLine
 10
6.884836112561835
 20
7.209481404418081
 30
0.0
 11
6.88725092712756
 21
7.206334356805324
 31
0.0
  0
LINE
  5
955F
330
1F
100
AcDbEntity
  8
0
100
AcDbLine
 10
6.828712022970314
 20
7.163056884093158
 30
0.0
 11
6.828712022970314
 21
7.15905688409316
 31
0.0
  0
LINE
  5
9560
330
1F
100
AcDbEntity
  8
0
100
AcDbLine
 10
6.828712022970314
 20
7.105055888318208
 30
0.0
 11
6.828712022970314
 21
7.099056884093158
 31
0.0
  0
LINE
  5
9561
330
1F
100
AcDbEntity
  8
0
100
AcDbLine
 10
6.840712022970315
 20
7.163056884093158
 30
0.0
 11
6.840712022970315
 21
7.15905688409316
 31
0.0
  0
LINE
  5
9562
330
1F
100
AcDbEntity
  8
0
100
AcDbLine
 10
6.840712022970315
 20
7.105055888318208
 30
0.0
 11
6.840712022970315
 21
7.099056884093158
 31
0.0
  0
LINE
  5
9563
330
1F
100
AcDbEntity
  8
0
100
AcDbLine
 10
6.870099690122806
 20
7.198173749774355
 30
0.0
 11
6.868273405835779
 21
7.200553809795227
 31
0.0
  0
LINE
  5
9564
330
1F
100
AcDbEntity
  8
0
100
AcDbLine
 10
6.878033223525719
 20
7.204261364064443
 30
0.0
 11
6.876206939238691
 21
7.206641424085315
 31
0.0
  0
LINE
  5
9565
330
1F
100
AcDbEntity
  8
0
100
AcDbLine
 10
6.072635625466361
 20
7.15905688409316
 30
0.0
 11
6.081789831284801
 21
7.15905688409316
 31
0.0
  0
LINE
  5
9566
330
1F
100
AcDbEntity
  8
0
100
AcDbLine
 10
6.093789831284802
 20
7.15905688409316
 30
0.0
 11
6.106869458920257
 21
7.15905688409316
 31
0.0
  0
LINE
  5
9567
330
1F
100
AcDbEntity
  8
0
100
AcDbLine
 10
6.106869458920257
 20
7.105055888318204
 30
0.0
 11
6.106869458920257
 21
7.117001047146359
 31
0.0
  0
LINE
  5
9568
330
1F
100
AcDbEntity
  8
0
100
AcDbLine
 10
6.106869458920257
 20
7.146701047146361
 30
0.0
 11
6.106869458920257
 21
7.15905688409316
 31
0.0
  0
LINE
  5
9569
330
1F
100
AcDbEntity
  8
0
100
AcDbLine
 10
6.04843539743085
 20
7.201217556919399
 30
0.0
 11
6.052263317379519
 21
7.196228914517092
 31
0.0
  0
LINE
  5
956A
330
1F
100
AcDbEntity
  8
0
100
AcDbLine
 10
6.047263317379517
 20
7.196228914517092
 30
0.0
 11
6.045606266186887
 21
7.198388425675432
 31
0.0
  0
LINE
  5
956B
330
1F
100
AcDbEntity
  8
0
100
AcDbLine
 10
6.045606266186887
 20
7.198388425675432
 30
0.0
 11
6.035250927127556
 21
7.206334356805324
 31
0.0
  0
LINE
  5
956C
330
1F
100
AcDbEntity
  8
0
100
AcDbLine
 10
6.037665741693281
 20
7.209481404418081
 30
0.0
 11
6.035250927127556
 21
7.206334356805324
 31
0.0
  0
LINE
  5
956D
330
1F
100
AcDbEntity
  8
0
100
AcDbLine
 10
6.093789831284802
 20
7.163056884093158
 30
0.0
 11
6.093789831284802
 21
7.15905688409316
 31
0.0
  0
LINE
  5
956E
330
1F
100
AcDbEntity
  8
0
100
AcDbLine
 10
6.093789831284802
 20
7.105055888318204
 30
0.0
 11
6.093789831284802
 21
7.099056884093158
 31
0.0
  0
LINE
  5
956F
330
1F
100
AcDbEntity
  8
0
100
AcDbLine
 10
6.081789831284801
 20
7.163056884093158
 30
0.0
 11
6.081789831284801
 21
7.15905688409316
 31
0.0
  0
LINE
  5
9570
330
1F
100
AcDbEntity
  8
0
100
AcDbLine
 10
6.081789831284801
 20
7.105055888318204
 30
0.0
 11
6.081789831284801
 21
7.099056884093158
 31
0.0
  0
LINE
  5
9571
330
1F
100
AcDbEntity
  8
0
100
AcDbLine
 10
6.05240216413231
 20
7.198173749774355
 30
0.0
 11
6.054228448419337
 21
7.200553809795227
 31
0.0
  0
LINE
  5
9572
330
1F
100
AcDbEntity
  8
0
100
AcDbLine
 10
6.044468630729397
 20
7.204261364064443
 30
0.0
 11
6.046294915016424
 21
7.206641424085315
 31
0.0
  0
LINE
  5
9573
330
1F
100
AcDbEntity
  8
0
100
AcDbLine
 10
6.037665741693281
 20
7.209481404418081
 30
0.0
 11
6.044468630729397
 21
7.204261364064443
 31
0.0
  0
LINE
  5
9574
330
1F
100
AcDbEntity
  8
0
100
AcDbLine
 10
6.870238536875596
 20
7.196228914517092
 30
0.0
 11
6.859728226036239
 21
7.196228914517092
 31
0.0
  0
LINE
  5
9575
330
1F
100
AcDbEntity
  8
0
100
AcDbLine
 10
6.859728226036239
 20
7.196228914517092
 30
0.0
 11
6.859728226036239
 21
7.190033584503581
 31
0.0
  0
LINE
  5
9576
330
1F
100
AcDbEntity
  8
0
100
AcDbLine
 10
6.957768546211781
 20
7.077321515086964
 30
0.0
 11
6.978635625466367
 21
7.077321515086964
 31
0.0
  0
LINE
  5
9577
330
1F
100
AcDbEntity
  8
0
100
AcDbLine
 10
6.978635625466367
 20
7.1760998757427
 30
0.0
 11
6.978635625466367
 21
7.196228914517092
 31
0.0
  0
LINE
  5
9578
330
1F
100
AcDbEntity
  8
0
100
AcDbLine
 10
6.040182423638832
 20
7.077321515086964
 30
0.0
 11
6.040182423638832
 21
7.075071506116501
 31
0.0
  0
LINE
  5
957A
330
1F
100
AcDbEntity
  8
0
100
AcDbLine
 10
6.072635625466361
 20
7.196228914517092
 30
0.0
 11
6.052263317379519
 21
7.196228914517092
 31
0.0
  0
LINE
  5
957B
330
1F
100
AcDbEntity
  8
0
100
AcDbLine
 10
5.953728226036233
 20
7.090419875742703
 30
0.0
 11
5.953728226036233
 21
7.077321515086964
 31
0.0
  0
LINE
  5
957C
330
1F
100
AcDbEntity
  8
0
100
AcDbLine
 10
6.072635625466361
 20
7.190033584503581
 30
0.0
 11
6.072635625466361
 21
7.196228914517092
 31
0.0
  0
LINE
  5
957D
330
1F
100
AcDbEntity
  8
0
100
AcDbLine
 10
6.040182423638832
 20
7.075071506116501
 30
0.0
 11
6.063803001680817
 21
7.075071506116501
 31
0.0
  0
LINE
  5
957E
330
1F
100
AcDbEntity
  8
0
100
AcDbLine
 10
6.86611085793951
 20
7.077321515086964
 30
0.0
 11
6.86611085793951
 21
7.075071506116504
 31
0.0
  0
LINE
  5
957F
330
1F
100
AcDbEntity
  8
0
100
AcDbLine
 10
6.86611085793951
 20
7.075071506116504
 30
0.0
 11
6.866110857939517
 21
6.294228914517098
 31
0.0
  0
LINE
  5
9580
330
1F
100
AcDbEntity
  8
0
100
AcDbLine
 10
6.859181925751371
 20
7.075071506116504
 30
0.0
 11
6.859181925751371
 21
7.050130553861361
 31
0.0
  0
LINE
  5
9582
330
1F
100
AcDbEntity
  8
0
100
AcDbLine
 10
6.828712022970314
 20
7.15905688409316
 30
0.0
 11
6.815632395334858
 21
7.15905688409316
 31
0.0
  0
LINE
  5
9583
330
1F
100
AcDbEntity
  8
0
100
AcDbLine
 10
6.072635625466361
 20
7.105055888318204
 30
0.0
 11
6.081789831284801
 21
7.105055888318204
 31
0.0
  0
LINE
  5
9584
330
1F
100
AcDbEntity
  8
0
100
AcDbLine
 10
6.044468630729397
 20
7.204261364064443
 30
0.0
 11
6.04843539743085
 21
7.201217556919399
 31
0.0
  0
LINE
  5
9585
330
1F
100
AcDbEntity
  8
0
100
AcDbLine
 10
6.978635625466367
 20
7.196228914517092
 30
0.0
 11
6.875238536875599
 21
7.196228914517092
 31
0.0
  0
LINE
  5
9586
330
1F
100
AcDbEntity
  8
0
100
AcDbLine
 10
6.875238536875599
 20
7.196228914517092
 30
0.0
 11
6.870238536875596
 21
7.196228914517092
 31
0.0
  0
LINE
  5
9587
330
1F
100
AcDbEntity
  8
0
100
AcDbLine
 10
6.859728226036239
 20
7.190033584503581
 30
0.0
 11
6.859728226036239
 21
7.136032588728628
 31
0.0
  0
LINE
  5
9588
330
1F
100
AcDbEntity
  8
0
100
AcDbLine
 10
6.859728226036239
 20
7.136032588728628
 30
0.0
 11
6.859728226036239
 21
7.077321515086964
 31
0.0
  0
LINE
  5
9589
330
1F
100
AcDbEntity
  8
0
100
AcDbLine
 10
6.859728226036239
 20
7.077321515086964
 30
0.0
 11
6.86611085793951
 21
7.077321515086964
 31
0.0
  0
LINE
  5
958A
330
1F
100
AcDbEntity
  8
0
100
AcDbLine
 10
6.86611085793951
 20
7.077321515086964
 30
0.0
 11
6.957768546211781
 21
7.077321515086964
 31
0.0
  0
LINE
  5
958B
330
1F
100
AcDbEntity
  8
0
100
AcDbLine
 10
6.978635625466367
 20
7.077321515086964
 30
0.0
 11
6.978635625466367
 21
7.090419875742703
 31
0.0
  0
LINE
  5
958C
330
1F
100
AcDbEntity
  8
0
100
AcDbLine
 10
6.978635625466367
 20
7.090419875742703
 30
0.0
 11
6.978635625466367
 21
7.1760998757427
 31
0.0
  0
LINE
  5
958E
330
1F
100
AcDbEntity
  8
0
100
AcDbLine
 10
6.052263317379519
 20
7.196228914517092
 30
0.0
 11
6.047263317379517
 21
7.196228914517092
 31
0.0
  0
LINE
  5
958F
330
1F
100
AcDbEntity
  8
0
100
AcDbLine
 10
6.047263317379517
 20
7.196228914517092
 30
0.0
 11
5.953728226036233
 21
7.196228914517092
 31
0.0
  0
LINE
  5
9590
330
1F
100
AcDbEntity
  8
0
100
AcDbLine
 10
5.953728226036233
 20
7.196228914517092
 30
0.0
 11
5.953728226036233
 21
7.1760998757427
 31
0.0
  0
LINE
  5
9591
330
1F
100
AcDbEntity
  8
0
100
AcDbLine
 10
5.953728226036233
 20
7.1760998757427
 30
0.0
 11
5.953728226036233
 21
7.090419875742703
 31
0.0
  0
LINE
  5
9592
330
1F
100
AcDbEntity
  8
0
100
AcDbLine
 10
5.953728226036233
 20
7.077321515086964
 30
0.0
 11
5.972145313408553
 21
7.077321515086964
 31
0.0
  0
LINE
  5
9593
330
1F
100
AcDbEntity
  8
0
100
AcDbLine
 10
5.972145313408553
 20
7.077321515086964
 30
0.0
 11
5.986181427863883
 21
7.077321515086964
 31
0.0
  0
LINE
  5
9594
330
1F
100
AcDbEntity
  8
0
100
AcDbLine
 10
5.986181427863883
 20
7.077321515086964
 30
0.0
 11
6.040182423638832
 21
7.077321515086964
 31
0.0
  0
LINE
  5
9595
330
1F
100
AcDbEntity
  8
0
100
AcDbLine
 10
6.040182423638832
 20
7.077321515086964
 30
0.0
 11
6.072635625466361
 21
7.077321515086964
 31
0.0
  0
LINE
  5
9596
330
1F
100
AcDbEntity
  8
0
100
AcDbLine
 10
6.072635625466361
 20
7.077321515086964
 30
0.0
 11
6.072635625466361
 21
7.136032588728625
 31
0.0
  0
LINE
  5
9597
330
1F
100
AcDbEntity
  8
0
100
AcDbLine
 10
6.072635625466361
 20
7.136032588728625
 30
0.0
 11
6.072635625466361
 21
7.190033584503581
 31
0.0
  0
LINE
  5
9598
330
1F
100
AcDbEntity
  8
0
100
AcDbLine
 10
6.957768546211781
 20
6.294228914517098
 30
0.0
 11
6.866110857939517
 21
6.294228914517098
 31
0.0
  0
LINE
  5
9599
330
1F
100
AcDbEntity
  8
0
100
AcDbLine
 10
6.866110857939517
 20
6.294228914517098
 30
0.0
 11
6.859728226036239
 21
6.294228914517098
 31
0.0
  0
LINE
  5
959A
330
1F
100
AcDbEntity
  8
0
100
AcDbLine
 10
6.063803001680824
 20
6.290729194388767
 30
0.0
 11
6.859181925751379
 21
6.290729194388774
 31
0.0
  0
LINE
  5
959B
330
1F
100
AcDbEntity
  8
0
100
AcDbLine
 10
6.063803001680817
 20
7.075071506116501
 30
0.0
 11
6.859181925751371
 21
7.075071506116504
 31
0.0
  0
LINE
  5
959C
330
1F
100
AcDbEntity
  8
0
100
AcDbLine
 10
6.859181925751371
 20
7.075071506116504
 30
0.0
 11
6.86611085793951
 21
7.075071506116504
 31
0.0
  0
LINE
  5
959D
330
1F
100
AcDbEntity
  8
0
100
AcDbLine
 10
6.957768546211781
 20
6.77031948914001
 30
0.0
 11
6.957768546211781
 21
6.639319489140014
 31
0.0
  0
LINE
  5
959E
330
1F
100
AcDbEntity
  8
0
100
AcDbLine
 10
6.859181925751371
 20
7.050130553861361
 30
0.0
 11
6.859181925751371
 21
6.95160994999685
 31
0.0
  0
LINE
  5
959F
330
1F
100
AcDbEntity
  8
0
100
AcDbLine
 10
6.859728226036239
 20
7.15905688409316
 30
0.0
 11
6.840712022970315
 21
7.15905688409316
 31
0.0
  0
LINE
  5
95A0
330
1F
100
AcDbEntity
  8
0
100
AcDbLine
 10
6.840712022970315
 20
7.15905688409316
 30
0.0
 11
6.828712022970314
 21
7.15905688409316
 31
0.0
  0
LINE
  5
95A1
330
1F
100
AcDbEntity
  8
0
100
AcDbLine
 10
6.840712022970315
 20
7.105055888318208
 30
0.0
 11
6.828712022970314
 21
7.105055888318208
 31
0.0
  0
LINE
  5
95A2
330
1F
100
AcDbEntity
  8
0
100
AcDbLine
 10
6.081789831284801
 20
7.15905688409316
 30
0.0
 11
6.093789831284802
 21
7.15905688409316
 31
0.0
  0
LINE
  5
95A3
330
1F
100
AcDbEntity
  8
0
100
AcDbLine
 10
6.081789831284801
 20
7.105055888318204
 30
0.0
 11
6.093789831284802
 21
7.105055888318204
 31
0.0
  0
LINE
  5
95A4
330
1F
100
AcDbEntity
  8
0
100
AcDbLine
 10
6.093789831284802
 20
7.105055888318204
 30
0.0
 11
6.106869458920257
 21
7.105055888318204
 31
0.0
  0
LINE
  5
95A6
330
1F
100
AcDbEntity
  8
0
100
AcDbLine
 10
6.859181925751371
 20
6.95160994999685
 30
0.0
 11
6.859181925751371
 21
6.854604988265744
 31
0.0
  0
LINE
  5
95A7
330
1F
100
AcDbEntity
  8
0
100
AcDbLine
 10
6.859181925751371
 20
6.854604988265744
 30
0.0
 11
6.859181925751379
 21
6.748545881011175
 31
0.0
  0
LINE
  5
95A8
330
1F
100
AcDbEntity
  8
0
100
AcDbLine
 10
6.859181925751379
 20
6.748545881011175
 30
0.0
 11
6.859181925751379
 21
6.648312986720029
 31
0.0
  0
LINE
  5
95A9
330
1F
100
AcDbEntity
  8
0
100
AcDbLine
 10
6.859181925751379
 20
6.648312986720029
 30
0.0
 11
6.859181925751379
 21
6.546007641908886
 31
0.0
  0
LINE
  5
95AA
330
1F
100
AcDbEntity
  8
0
100
AcDbLine
 10
6.859181925751379
 20
6.546007641908886
 30
0.0
 11
6.859181925751379
 21
6.442321691056964
 31
0.0
  0
LINE
  5
95AB
330
1F
100
AcDbEntity
  8
0
100
AcDbLine
 10
6.859181925751379
 20
6.442321691056964
 30
0.0
 11
6.859181925751379
 21
6.347199088024108
 31
0.0
  0
LINE
  5
95AC
330
1F
100
AcDbEntity
  8
0
100
AcDbLine
 10
6.859181925751379
 20
6.347199088024108
 30
0.0
 11
6.859181925751379
 21
6.290729194388774
 31
0.0
  0
LINE
  5
95AD
330
1F
100
AcDbEntity
  8
0
100
AcDbLine
 10
6.106869458920257
 20
7.117001047146359
 30
0.0
 11
6.075250927127555
 21
7.117001047146359
 31
0.0
  0
LINE
  5
95AE
330
1F
100
AcDbEntity
  8
0
100
AcDbLine
 10
6.815632395334858
 20
7.117001047146359
 30
0.0
 11
6.851117598726247
 21
7.117001047146359
 31
0.0
  0
LINE
  5
95AF
330
1F
100
AcDbEntity
  8
0
100
AcDbLine
 10
6.791717598726251
 20
7.117001047146359
 30
0.0
 11
6.815632395334858
 21
7.117001047146359
 31
0.0
  0
LINE
  5
95B0
330
1F
100
AcDbEntity
  8
0
100
AcDbLine
 10
6.106869458920257
 20
7.146701047146361
 30
0.0
 11
6.075250927127555
 21
7.146701047146361
 31
0.0
  0
LINE
  5
95B1
330
1F
100
AcDbEntity
  8
0
100
AcDbLine
 10
6.851117598726247
 20
7.146701047146361
 30
0.0
 11
6.815632395334858
 21
7.146701047146361
 31
0.0
  0
LINE
  5
95B2
330
1F
100
AcDbEntity
  8
0
100
AcDbLine
 10
6.791717598726251
 20
7.146701047146361
 30
0.0
 11
6.815632395334858
 21
7.146701047146361
 31
0.0
  0
LINE
  5
95B3
330
1F
100
AcDbEntity
  8
0
100
AcDbLine
 10
6.106869458920257
 20
7.117001047146359
 30
0.0
 11
6.134650927127559
 21
7.117001047146359
 31
0.0
  0
LINE
  5
95B4
330
1F
100
AcDbEntity
  8
0
100
AcDbLine
 10
6.106869458920257
 20
7.146701047146361
 30
0.0
 11
6.134650927127559
 21
7.146701047146361
 31
0.0
  0
LINE
  5
95B5
330
1F
100
AcDbEntity
  8
0
100
AcDbLine
 10
6.828712022970314
 20
7.163056884093158
 30
0.0
 11
6.840712022970315
 21
7.163056884093158
 31
0.0
  0
LINE
  5
95B6
330
1F
100
AcDbEntity
  8
0
100
AcDbLine
 10
6.840712022970315
 20
7.099056884093158
 30
0.0
 11
6.828712022970314
 21
7.099056884093158
 31
0.0
  0
LINE
  5
95B7
330
1F
100
AcDbEntity
  8
0
100
AcDbLine
 10
6.878033223525719
 20
7.204261364064443
 30
0.0
 11
6.874066456824266
 21
7.201217556919399
 31
0.0
  0
LINE
  5
95B8
330
1F
100
AcDbEntity
  8
0
100
AcDbLine
 10
6.870099690122806
 20
7.198173749774355
 30
0.0
 11
6.874066456824266
 21
7.201217556919399
 31
0.0
  0
LINE
  5
95B9
330
1F
100
AcDbEntity
  8
0
100
AcDbLine
 10
6.868273405835779
 20
7.200553809795227
 30
0.0
 11
6.876206939238691
 21
7.206641424085315
 31
0.0
  0
LINE
  5
95BA
330
1F
100
AcDbEntity
  8
0
100
AcDbLine
 10
6.093789831284802
 20
7.163056884093158
 30
0.0
 11
6.081789831284801
 21
7.163056884093158
 31
0.0
  0
LINE
  5
95BB
330
1F
100
AcDbEntity
  8
0
100
AcDbLine
 10
6.081789831284801
 20
7.099056884093158
 30
0.0
 11
6.093789831284802
 21
7.099056884093158
 31
0.0
  0
LINE
  5
95BC
330
1F
100
AcDbEntity
  8
0
100
AcDbLine
 10
6.04843539743085
 20
7.201217556919399
 30
0.0
 11
6.05240216413231
 21
7.198173749774355
 31
0.0
  0
LINE
  5
95BD
330
1F
100
AcDbEntity
  8
0
100
AcDbLine
 10
6.046294915016424
 20
7.206641424085315
 30
0.0
 11
6.054228448419337
 21
7.200553809795227
 31
0.0
  0
LINE
  5
95BE
330
1F
100
AcDbEntity
  8
0
100
AcDbLine
 10
6.059641437591977
 20
6.194228914517097
 30
0.0
 11
6.059641437591977
 21
6.294228914517097
 31
0.0
  0
LINE
  5
95BF
330
1F
100
AcDbEntity
  8
0
100
AcDbLine
 10
6.059641437591977
 20
6.294228914517097
 30
0.0
 11
6.159641437591975
 21
6.294228914517097
 31
0.0
  0
LINE
  5
95C0
330
1F
100
AcDbEntity
  8
0
100
AcDbLine
 10
6.757768546211785
 20
6.294228914517098
 30
0.0
 11
6.857768546211783
 21
6.294228914517098
 31
0.0
  0
LINE
  5
95C1
330
1F
100
AcDbEntity
  8
0
100
AcDbLine
 10
6.857768546211783
 20
6.294228914517098
 30
0.0
 11
6.957768546211781
 21
6.294228914517098
 31
0.0
  0
LINE
  5
95C2
330
1F
100
AcDbEntity
  8
0
100
AcDbLine
 10
6.957768546211781
 20
6.294228914517098
 30
0.0
 11
6.957768546211781
 21
6.194228914517099
 31
0.0
  0
LINE
  5
95C3
330
1F
100
AcDbEntity
  8
0
100
AcDbLine
 10
6.957768546211781
 20
6.194228914517099
 30
0.0
 11
6.857768546211783
 21
6.194228914517099
 31
0.0
  0
LINE
  5
95C4
330
1F
100
AcDbEntity
  8
0
100
AcDbLine
 10
6.059641437591977
 20
6.294228914517097
 30
0.0
 11
5.959641437591976
 21
6.294228914517097
 31
0.0
  0
LINE
  5
95C5
330
1F
100
AcDbEntity
  8
0
100
AcDbLine
 10
5.959641437591976
 20
6.294228914517097
 30
0.0
 11
5.959641437591976
 21
6.194228914517097
 31
0.0
  0
LINE
  5
95C6
330
1F
100
AcDbEntity
  8
0
100
AcDbLine
 10
5.959641437591976
 20
6.194228914517097
 30
0.0
 11
6.059641437591977
 21
6.194228914517097
 31
0.0
  0
LINE
  5
95C7
330
1F
100
AcDbEntity
  8
0
100
AcDbLine
 10
5.959641437591976
 20
6.194228914517095
 30
0.0
 11
6.059641437591977
 21
6.194228914517097
 31
0.0
  0
LINE
  5
95C8
330
1F
100
AcDbEntity
  8
0
100
AcDbLine
 10
6.757768546211785
 20
6.194228914517099
 30
0.0
 11
6.159641437591975
 21
6.194228914517101
 31
0.0
  0
LINE
  5
95C9
330
1F
100
AcDbEntity
  8
0
100
AcDbLine
 10
6.140192380931736
 20
7.166701056184127
 30
0.0
 11
6.240192380931738
 21
7.166701056184127
 31
0.0
  0
LINE
  5
95CA
330
1F
100
AcDbEntity
  8
0
100
AcDbLine
 10
6.240192380931738
 20
7.166701056184127
 30
0.0
 11
6.240192380931738
 21
7.146701056184127
 31
0.0
  0
LINE
  5
95CB
330
1F
100
AcDbEntity
  8
0
100
AcDbLine
 10
6.257452459602497
 20
7.146701056184127
 30
0.0
 11
6.157452459602495
 21
7.146701056184129
 31
0.0
  0
LINE
  5
95CC
330
1F
100
AcDbEntity
  8
0
100
AcDbLine
 10
6.140192380931736
 20
7.146701056184129
 30
0.0
 11
6.140192380931736
 21
7.166701056184127
 31
0.0
  0
LINE
  5
95CD
330
1F
100
AcDbEntity
  8
0
100
AcDbLine
 10
6.682267597360102
 20
7.166701047146361
 30
0.0
 11
6.782267597360103
 21
7.166701047146361
 31
0.0
  0
LINE
  5
95CE
330
1F
100
AcDbEntity
  8
0
100
AcDbLine
 10
6.782267597360103
 20
7.166701047146361
 30
0.0
 11
6.782267597360103
 21
7.146701047146361
 31
0.0
  0
LINE
  5
95CF
330
1F
100
AcDbEntity
  8
0
100
AcDbLine
 10
6.762706142658103
 20
7.146701047146361
 30
0.0
 11
6.662706142658102
 21
7.146701047146363
 31
0.0
  0
LINE
  5
95D0
330
1F
100
AcDbEntity
  8
0
100
AcDbLine
 10
6.682267597360102
 20
7.146701047146363
 30
0.0
 11
6.682267597360102
 21
7.166701047146361
 31
0.0
  0
LINE
  5
95D1
330
1F
100
AcDbEntity
  8
0
100
AcDbLine
 10
6.40829900472714
 20
7.167128944586984
 30
0.0
 11
6.508299004727142
 21
7.167128944586984
 31
0.0
  0
LINE
  5
95D2
330
1F
100
AcDbEntity
  8
0
100
AcDbLine
 10
6.508299004727142
 20
7.167128944586984
 30
0.0
 11
6.508299004727142
 21
7.147128944586984
 31
0.0
  0
LINE
  5
95D3
330
1F
100
AcDbEntity
  8
0
100
AcDbLine
 10
6.508299004727142
 20
7.147128944586984
 30
0.0
 11
6.40829900472714
 21
7.147128944586986
 31
0.0
  0
LINE
  5
95D4
330
1F
100
AcDbEntity
  8
0
100
AcDbLine
 10
6.40829900472714
 20
7.147128944586986
 30
0.0
 11
6.40829900472714
 21
7.167128944586984
 31
0.0
  0
LINE
  5
95D5
330
1F
100
AcDbEntity
  8
0
100
AcDbLine
 10
6.546379694484073
 20
7.167128944586984
 30
0.0
 11
6.646379694484075
 21
7.167128944586984
 31
0.0
  0
LINE
  5
95D6
330
1F
100
AcDbEntity
  8
0
100
AcDbLine
 10
6.646379694484075
 20
7.167128944586984
 30
0.0
 11
6.646379694484075
 21
7.147128944586984
 31
0.0
  0
LINE
  5
95D7
330
1F
100
AcDbEntity
  8
0
100
AcDbLine
 10
6.646379694484075
 20
7.147128944586984
 30
0.0
 11
6.546379694484073
 21
7.147128944586986
 31
0.0
  0
LINE
  5
95D8
330
1F
100
AcDbEntity
  8
0
100
AcDbLine
 10
6.546379694484073
 20
7.147128944586986
 30
0.0
 11
6.546379694484073
 21
7.167128944586984
 31
0.0
  0
LINE
  5
95D9
330
1F
100
AcDbEntity
  8
0
100
AcDbLine
 10
6.274821006641815
 20
7.167128944586984
 30
0.0
 11
6.374821006641816
 21
7.167128944586984
 31
0.0
  0
LINE
  5
95DA
330
1F
100
AcDbEntity
  8
0
100
AcDbLine
 10
6.374821006641816
 20
7.167128944586984
 30
0.0
 11
6.374821006641816
 21
7.147128944586984
 31
0.0
  0
LINE
  5
95DB
330
1F
100
AcDbEntity
  8
0
100
AcDbLine
 10
6.374821006641816
 20
7.147128944586984
 30
0.0
 11
6.274821006641815
 21
7.147128944586986
 31
0.0
  0
LINE
  5
95DC
330
1F
100
AcDbEntity
  8
0
100
AcDbLine
 10
6.274821006641815
 20
7.147128944586986
 30
0.0
 11
6.274821006641815
 21
7.167128944586984
 31
0.0
  0
LINE
  5
95DD
330
1F
100
AcDbEntity
  8
0
100
AcDbLine
 10
6.140192380931736
 20
7.166701056184127
 30
0.0
 11
6.160192380931736
 21
7.166701056184127
 31
0.0
  0
LINE
  5
95DE
330
1F
100
AcDbEntity
  8
0
100
AcDbLine
 10
6.160192380931736
 20
7.166701056184127
 30
0.0
 11
6.160192380931739
 21
7.146701047146361
 31
0.0
  0
LINE
  5
95DF
330
1F
100
AcDbEntity
  8
0
100
AcDbLine
 10
6.240192380931738
 20
7.166701056184127
 30
0.0
 11
6.220192380931738
 21
7.166701056184127
 31
0.0
  0
LINE
  5
95E0
330
1F
100
AcDbEntity
  8
0
100
AcDbLine
 10
6.220192380931738
 20
7.166701056184127
 30
0.0
 11
6.220192380931749
 21
7.146701056184125
 31
0.0
  0
LINE
  5
95E1
330
1F
100
AcDbEntity
  8
0
100
AcDbLine
 10
6.29365244292278
 20
7.167128942838923
 30
0.0
 11
6.293652442922784
 21
7.147128933801157
 31
0.0
  0
LINE
  5
95E2
330
1F
100
AcDbEntity
  8
0
100
AcDbLine
 10
6.353652442922783
 20
7.167128942838923
 30
0.0
 11
6.353652442922793
 21
7.147128942838921
 31
0.0
  0
LINE
  5
95E3
330
1F
100
AcDbEntity
  8
0
100
AcDbLine
 10
6.429100089881291
 20
7.167128942838923
 30
0.0
 11
6.429100089881295
 21
7.147128933801157
 31
0.0
  0
LINE
  5
95E4
330
1F
100
AcDbEntity
  8
0
100
AcDbLine
 10
6.489100089881294
 20
7.167128942838923
 30
0.0
 11
6.489100089881304
 21
7.147128942838921
 31
0.0
  0
LINE
  5
95E5
330
1F
100
AcDbEntity
  8
0
100
AcDbLine
 10
6.56705486463284
 20
7.167128942838923
 30
0.0
 11
6.567054864632844
 21
7.147128933801157
 31
0.0
  0
LINE
  5
95E6
330
1F
100
AcDbEntity
  8
0
100
AcDbLine
 10
6.627054864632842
 20
7.167128942838923
 30
0.0
 11
6.627054864632853
 21
7.147128942838921
 31
0.0
  0
LINE
  5
95E7
330
1F
100
AcDbEntity
  8
0
100
AcDbLine
 10
6.7019458887594
 20
7.166701045398298
 30
0.0
 11
6.701945888759404
 21
7.146701036360532
 31
0.0
  0
LINE
  5
95E8
330
1F
100
AcDbEntity
  8
0
100
AcDbLine
 10
6.761945888759402
 20
7.166701045398298
 30
0.0
 11
6.761945888759413
 21
7.146701045398296
 31
0.0
  0
LINE
  5
95E9
330
1F
100
AcDbEntity
  8
0
100
AcDbLine
 10
6.95943863122704
 20
6.294228914517098
 30
0.0
 11
6.957768546211781
 21
6.294228914517098
 31
0.0
  0
LINE
  5
95EA
330
1F
100
AcDbEntity
  8
0
100
AcDbLine
 10
6.957768546211781
 20
6.294228914517098
 30
0.0
 11
6.905042625782989
 21
6.294228914517098
 31
0.0
  0
LINE
  5
95EB
330
1F
100
AcDbEntity
  8
0
100
AcDbLine
 10
6.905042625782989
 20
6.294228914517098
 30
0.0
 11
6.896881106047359
 21
6.294228914517098
 31
0.0
  0
LINE
  5
95EC
330
1F
100
AcDbEntity
  8
0
100
AcDbLine
 10
6.91998071439559
 20
6.088734473616241
 30
0.0
 11
6.919980714395594
 21
4.882852277827646
 31
0.0
  0
LINE
  5
95ED
330
1F
100
AcDbEntity
  8
0
100
AcDbLine
 10
6.889980714395589
 20
4.882852277827646
 30
0.0
 11
6.889980714395591
 21
6.08873447361624
 31
0.0
  0
LINE
  5
95EE
330
1F
100
AcDbEntity
  8
0
100
AcDbLine
 10
6.000435712157525
 20
6.163216924772751
 30
0.0
 11
6.030435712157526
 21
6.163216924772751
 31
0.0
  0
LINE
  5
95EF
330
1F
100
AcDbEntity
  8
0
100
AcDbLine
 10
6.030435712157526
 20
6.163216924772751
 30
0.0
 11
6.030435712157526
 21
4.881143740849893
 31
0.0
  0
LINE
  5
95F0
330
1F
100
AcDbEntity
  8
0
100
AcDbLine
 10
6.000435712157525
 20
4.881143740849891
 30
0.0
 11
6.000435712157525
 21
6.163216924772751
 31
0.0
  0
LINE
  5
95F1
330
1F
100
AcDbEntity
  8
0
100
AcDbLine
 10
6.000435712157525
 20
6.163216924772751
 30
0.0
 11
6.000435712157525
 21
6.143216924772751
 31
0.0
  0
LINE
  5
95F2
330
1F
100
AcDbEntity
  8
0
100
AcDbLine
 10
6.000435712157525
 20
6.143216924772751
 30
0.0
 11
5.990435712157527
 21
6.143216924772751
 31
0.0
  0
LINE
  5
95F3
330
1F
100
AcDbEntity
  8
0
100
AcDbLine
 10
5.990435712157527
 20
6.143216924772751
 30
0.0
 11
5.990435712157527
 21
6.193216924772752
 31
0.0
  0
LINE
  5
95F4
330
1F
100
AcDbEntity
  8
0
100
AcDbLine
 10
5.990435712157527
 20
6.193216924772752
 30
0.0
 11
6.040435712157524
 21
6.193216924772752
 31
0.0
  0
LINE
  5
95F5
330
1F
100
AcDbEntity
  8
0
100
AcDbLine
 10
6.040435712157524
 20
6.193216924772752
 30
0.0
 11
6.040435712157513
 21
6.143216924772751
 31
0.0
  0
LINE
  5
95F6
330
1F
100
AcDbEntity
  8
0
100
AcDbLine
 10
6.040435712157513
 20
6.143216924772751
 30
0.0
 11
6.030435712157526
 21
6.143216924772749
 31
0.0
  0
LINE
  5
95F7
330
1F
100
AcDbEntity
  8
WYMIAR
100
AcDbLine
 10
6.059641437591977
 20
6.194228914517097
 30
0.0
 11
6.857768546211783
 21
6.194228914517099
 31
0.0
  0
LINE
  5
95F8
330
1F
100
AcDbEntity
  8
WYMIAR
100
AcDbLine
 10
6.889980714395591
 20
6.08873447361624
 30
0.0
 11
6.889980714395591
 21
6.042365731699641
 31
0.0
  0
LINE
  5
95F9
330
1F
100
AcDbEntity
  8
WYMIAR
100
AcDbLine
 10
6.889980714395591
 20
6.042365731699641
 30
0.0
 11
6.030435712157526
 21
6.042365731699643
 31
0.0
  0
LINE
  5
95FA
330
1F
100
AcDbEntity
  8
WYMIAR
100
AcDbLine
 10
6.889980714395591
 20
6.042365731699641
 30
0.0
 11
6.889980714395591
 21
5.922365731699642
 31
0.0
  0
LINE
  5
95FB
330
1F
100
AcDbEntity
  8
WYMIAR
100
AcDbLine
 10
6.889980714395591
 20
5.922365731699642
 30
0.0
 11
6.030435712157526
 21
5.922365731699642
 31
0.0
  0
LINE
  5
95FC
330
1F
100
AcDbEntity
  8
WYMIAR
100
AcDbLine
 10
6.889980714395591
 20
5.922365731699642
 30
0.0
 11
6.889980714395591
 21
5.802365731699643
 31
0.0
  0
LINE
  5
95FD
330
1F
100
AcDbEntity
  8
WYMIAR
100
AcDbLine
 10
6.889980714395591
 20
5.802365731699643
 30
0.0
 11
6.030435712157526
 21
5.802365731699643
 31
0.0
  0
LINE
  5
95FE
330
1F
100
AcDbEntity
  8
WYMIAR
100
AcDbLine
 10
6.030435712157526
 20
5.802365731699643
 30
0.0
 11
6.030435712157526
 21
5.682365731699643
 31
0.0
  0
LINE
  5
95FF
330
1F
100
AcDbEntity
  8
WYMIAR
100
AcDbLine
 10
6.030435712157526
 20
5.682365731699643
 30
0.0
 11
6.889980714395591
 21
5.68236573169964
 31
0.0
  0
LINE
  5
9600
330
1F
100
AcDbEntity
  8
WYMIAR
100
AcDbLine
 10
6.889980714395591
 20
5.68236573169964
 30
0.0
 11
6.889980714395591
 21
5.562365731699641
 31
0.0
  0
LINE
  5
9601
330
1F
100
AcDbEntity
  8
WYMIAR
100
AcDbLine
 10
6.889980714395591
 20
5.562365731699641
 30
0.0
 11
6.030435712157528
 21
5.562365731699632
 31
0.0
  0
LINE
  5
9602
330
1F
100
AcDbEntity
  8
WYMIAR
100
AcDbLine
 10
6.030435712157528
 20
5.562365731699632
 30
0.0
 11
6.030435712157528
 21
5.442365731699633
 31
0.0
  0
LINE
  5
9603
330
1F
100
AcDbEntity
  8
WYMIAR
100
AcDbLine
 10
6.030435712157528
 20
5.442365731699633
 30
0.0
 11
6.889980714395591
 21
5.442365731699645
 31
0.0
  0
LINE
  5
9604
330
1F
100
AcDbEntity
  8
WYMIAR
100
AcDbLine
 10
6.889980714395591
 20
5.442365731699645
 30
0.0
 11
6.889980714395591
 21
5.322365731699646
 31
0.0
  0
LINE
  5
9605
330
1F
100
AcDbEntity
  8
WYMIAR
100
AcDbLine
 10
6.889980714395591
 20
5.322365731699646
 30
0.0
 11
6.030435712157528
 21
5.322365731699642
 31
0.0
  0
LINE
  5
9606
330
1F
100
AcDbEntity
  8
WYMIAR
100
AcDbLine
 10
6.030435712157528
 20
5.322365731699642
 30
0.0
 11
6.030435712157528
 21
5.202365731699643
 31
0.0
  0
LINE
  5
9607
330
1F
100
AcDbEntity
  8
WYMIAR
100
AcDbLine
 10
6.030435712157528
 20
5.202365731699643
 30
0.0
 11
6.889980714395591
 21
5.202365731699643
 31
0.0
  0
LINE
  5
9608
330
1F
100
AcDbEntity
  8
WYMIAR
100
AcDbLine
 10
6.889980714395591
 20
5.202365731699643
 30
0.0
 11
6.889980714395591
 21
5.082365731699644
 31
0.0
  0
LINE
  5
9609
330
1F
100
AcDbEntity
  8
WYMIAR
100
AcDbLine
 10
6.889980714395591
 20
5.082365731699644
 30
0.0
 11
6.030435712157528
 21
5.082365731699642
 31
0.0
  0
LINE
  5
960A
330
1F
100
AcDbEntity
  8
WYMIAR
100
AcDbLine
 10
6.030435712157528
 20
5.082365731699642
 30
0.0
 11
6.030435712157528
 21
4.962365731699643
 31
0.0
  0
LINE
  5
960B
330
1F
100
AcDbEntity
  8
WYMIAR
100
AcDbLine
 10
6.030435712157528
 20
4.962365731699643
 30
0.0
 11
6.889980714395591
 21
4.962365731699625
 31
0.0
  0
LINE
  5
960C
330
1F
100
AcDbEntity
  8
WYMIAR
100
AcDbLine
 10
6.030435712157526
 20
4.881143740849893
 30
0.0
 11
6.030435712157524
 21
4.659132976532895
 31
0.0
  0
LINE
  5
960D
330
1F
100
AcDbEntity
  8
WYMIAR
100
AcDbLine
 10
6.000435712157525
 20
4.665592073739741
 30
0.0
 11
6.000435712157525
 21
4.881143740849891
 31
0.0
  0
LINE
  5
960E
330
1F
100
AcDbEntity
  8
WYMIAR
100
AcDbLine
 10
6.919980714395594
 20
4.663673436337358
 30
0.0
 11
6.919980714395594
 21
4.882852277827646
 31
0.0
  0
LINE
  5
960F
330
1F
100
AcDbEntity
  8
WYMIAR
100
AcDbLine
 10
6.889980714395589
 20
4.663398555331777
 30
0.0
 11
6.889980714395589
 21
4.882852277827646
 31
0.0
  0
LINE
  5
9610
330
1F
100
AcDbEntity
  8
WYMIAR
100
AcDbLine
 10
6.030435712157528
 20
4.962365731699643
 30
0.0
 11
6.030435712157528
 21
4.842365731699644
 31
0.0
  0
LINE
  5
9611
330
1F
100
AcDbEntity
  8
WYMIAR
100
AcDbLine
 10
6.030435712157528
 20
4.842365731699644
 30
0.0
 11
6.889980714395589
 21
4.842365731699642
 31
0.0
  0
LINE
  5
9612
330
1F
100
AcDbEntity
  8
WYMIAR
100
AcDbLine
 10
6.889980714395589
 20
4.842365731699642
 30
0.0
 11
6.889980714395589
 21
4.722365731699643
 31
0.0
  0
LINE
  5
9613
330
1F
100
AcDbEntity
  8
WYMIAR
100
AcDbLine
 10
6.889980714395589
 20
4.722365731699643
 30
0.0
 11
6.030435712157528
 21
4.722365731699646
 31
0.0
  0
LINE
  5
9614
330
1F
100
AcDbEntity
  8
WYMIAR
100
AcDbLine
 10
6.889980714395591
 20
6.08873447361624
 30
0.0
 11
6.889980714395592
 21
6.094228914517083
 31
0.0
  0
LINE
  5
9615
330
1F
100
AcDbEntity
  8
WYMIAR
100
AcDbLine
 10
6.919980714395588
 20
6.094228914517083
 30
0.0
 11
6.91998071439559
 21
6.088734473616241
 31
0.0
  0
LINE
  5
9616
330
1F
100
AcDbEntity
  8
WYMIAR
100
AcDbLine
 10
6.866110857939517
 20
6.294228914517098
 30
0.0
 11
6.866238405074264
 21
6.194228914517099
 31
0.0
  0
LINE
  5
9630
330
1F
100
AcDbEntity
  8
0
100
AcDbLine
 10
6.889681638092852
 20
6.144366958735758
 30
0.0
 11
6.879681638092854
 21
6.144366958735758
 31
0.0
  0
LINE
  5
9631
330
1F
100
AcDbEntity
  8
0
100
AcDbLine
 10
6.879681638092854
 20
6.144366958735758
 30
0.0
 11
6.879681638092854
 21
6.194366958735759
 31
0.0
  0
LINE
  5
9632
330
1F
100
AcDbEntity
  8
0
100
AcDbLine
 10
6.929681638092851
 20
6.194366958735759
 30
0.0
 11
6.929681638092841
 21
6.144366958735758
 31
0.0
  0
LINE
  5
9633
330
1F
100
AcDbEntity
  8
0
100
AcDbLine
 10
6.929681638092841
 20
6.144366958735758
 30
0.0
 11
6.919681638092853
 21
6.144366958735757
 31
0.0
  0
LINE
  5
9634
330
1F
100
AcDbEntity
  8
WYMIAR
100
AcDbLine
 10
6.919980714395588
 20
6.094228914517083
 30
0.0
 11
6.919681638092853
 21
6.144366958735757
 31
0.0
  0
LINE
  5
9635
330
1F
100
AcDbEntity
  8
WYMIAR
100
AcDbLine
 10
6.889681638092852
 20
6.144366958735758
 30
0.0
 11
6.889980714395592
 21
6.094228914517083
 31
0.0
  0
LINE
  5
9636
330
1F
100
AcDbEntity
  8
WYMIAR
100
AcDbLine
 10
6.919681638092853
 20
6.144366958735757
 30
0.0
 11
6.919681638092853
 21
6.160360498111913
 31
0.0
  0
LINE
  5
9637
330
1F
100
AcDbEntity
  8
WYMIAR
100
AcDbLine
 10
6.919681638092853
 20
6.160360498111913
 30
0.0
 11
6.889681638092852
 21
6.160360498111904
 31
0.0
  0
LINE
  5
9638
330
1F
100
AcDbEntity
  8
WYMIAR
100
AcDbLine
 10
6.889681638092852
 20
6.160360498111904
 30
0.0
 11
6.889681638092852
 21
6.144366958735758
 31
0.0
  0
LINE
  5
9639
330
1F
100
AcDbEntity
  8
0
100
AcDbLine
 10
6.030310329140661
 20
6.365714112737364
 30
0.0
 11
6.030310329140661
 21
7.022780784336056
 31
0.0
  0
LINE
  5
964E
330
1F
100
AcDbEntity
  8
0
100
AcDbLine
 10
6.030310329140661
 20
7.046695580944664
 30
0.0
 11
6.030310329140661
 21
7.077321515086963
 31
0.0
  0
LINE
  5
964F
330
1F
100
AcDbEntity
  8
0
100
AcDbLine
 10
6.030310329140661
 20
7.022780784336056
 30
0.0
 11
6.030310329140661
 21
7.046695580944664
 31
0.0
  0
LINE
  5
9679
330
1F
100
AcDbEntity
  8
WYMIAR
100
AcDbLine
 10
6.063803001680817
 20
6.95160994999685
 30
0.0
 11
6.030310329140661
 21
6.95160994999685
 31
0.0
  0
LINE
  5
967A
330
1F
100
AcDbEntity
  8
WYMIAR
100
AcDbLine
 10
6.030310329140661
 20
6.95160994999685
 30
0.0
 11
6.030310329140661
 21
6.854604988265744
 31
0.0
  0
LINE
  5
967B
330
1F
100
AcDbEntity
  8
WYMIAR
100
AcDbLine
 10
6.030310329140661
 20
6.854604988265744
 30
0.0
 11
6.063803001680817
 21
6.854604988265744
 31
0.0
  0
LINE
  5
967C
330
1F
100
AcDbEntity
  8
WYMIAR
100
AcDbLine
 10
6.063803001680824
 20
6.748545881011175
 30
0.0
 11
6.030310329140663
 21
6.74854588101118
 31
0.0
  0
LINE
  5
967D
330
1F
100
AcDbEntity
  8
WYMIAR
100
AcDbLine
 10
6.030310329140663
 20
6.74854588101118
 30
0.0
 11
6.030310329140673
 21
6.648312986720029
 31
0.0
  0
LINE
  5
967E
330
1F
100
AcDbEntity
  8
WYMIAR
100
AcDbLine
 10
6.030310329140673
 20
6.648312986720029
 30
0.0
 11
6.063803001680824
 21
6.648312986720029
 31
0.0
  0
LINE
  5
967F
330
1F
100
AcDbEntity
  8
WYMIAR
100
AcDbLine
 10
6.063803001680824
 20
6.546007641908886
 30
0.0
 11
6.030310329140661
 21
6.546007641908886
 31
0.0
  0
LINE
  5
9680
330
1F
100
AcDbEntity
  8
WYMIAR
100
AcDbLine
 10
6.030310329140661
 20
6.546007641908886
 30
0.0
 11
6.030310329140641
 21
6.442321691056964
 31
0.0
  0
LINE
  5
9681
330
1F
100
AcDbEntity
  8
WYMIAR
100
AcDbLine
 10
6.030310329140641
 20
6.442321691056964
 30
0.0
 11
6.03031032914064
 21
6.347199088024108
 31
0.0
  0
LINE
  5
9682
330
1F
100
AcDbEntity
  8
WYMIAR
100
AcDbLine
 10
6.03031032914064
 20
6.347199088024108
 30
0.0
 11
6.063803001680824
 21
6.347199088024108
 31
0.0
  0
LINE
  5
9683
330
1F
100
AcDbEntity
  8
WYMIAR
100
AcDbLine
 10
6.063803001680824
 20
6.442321691056964
 30
0.0
 11
6.030310329140641
 21
6.442321691056964
 31
0.0
  0
LINE
  5
9685
330
1F
100
AcDbEntity
  8
0
100
AcDbLine
 10
8.978600222210744
 20
3.731308882760409
 30
0.0
 11
8.972906549268525
 21
3.730525176765054
 31
0.0
  0
LINE
  5
9686
330
1F
100
AcDbEntity
  8
0
100
AcDbLine
 10
8.983905880751198
 20
3.733606592478015
 30
0.0
 11
8.978600222210744
 21
3.731308882760409
 31
0.0
  0
LINE
  5
9687
330
1F
100
AcDbEntity
  8
0
100
AcDbLine
 10
8.988461953028355
 20
3.737261720797766
 30
0.0
 11
8.983905880751198
 21
3.733606592478015
 31
0.0
  0
LINE
  5
9688
330
1F
100
AcDbEntity
  8
0
100
AcDbLine
 10
8.991957950245801
 20
3.742025176765054
 30
0.0
 11
8.988461953028355
 21
3.737261720797766
 31
0.0
  0
LINE
  5
9689
330
1F
100
AcDbEntity
  8
0
100
AcDbLine
 10
8.994155625970577
 20
3.747572338727696
 30
0.0
 11
8.991957950245801
 21
3.742025176765054
 31
0.0
  0
LINE
  5
968A
330
1F
100
AcDbEntity
  8
0
100
AcDbLine
 10
8.994905212233863
 20
3.753525176765055
 30
0.0
 11
8.994155625970577
 21
3.747572338727696
 31
0.0
  0
LINE
  5
968B
330
1F
100
AcDbEntity
  8
0
100
AcDbLine
 10
8.994155625970577
 20
3.759478014802411
 30
0.0
 11
8.994905212233863
 21
3.753525176765055
 31
0.0
  0
LINE
  5
968C
330
1F
100
AcDbEntity
  8
0
100
AcDbLine
 10
8.991957950245801
 20
3.765025176765053
 30
0.0
 11
8.994155625970577
 21
3.759478014802411
 31
0.0
  0
LINE
  5
968D
330
1F
100
AcDbEntity
  8
0
100
AcDbLine
 10
8.988461953028355
 20
3.769788632732346
 30
0.0
 11
8.991957950245801
 21
3.765025176765053
 31
0.0
  0
LINE
  5
968E
330
1F
100
AcDbEntity
  8
0
100
AcDbLine
 10
8.983905880751198
 20
3.773443761052099
 30
0.0
 11
8.988461953028355
 21
3.769788632732346
 31
0.0
  0
LINE
  5
968F
330
1F
100
AcDbEntity
  8
0
100
AcDbLine
 10
8.978600222210744
 20
3.775741470769705
 30
0.0
 11
8.983905880751198
 21
3.773443761052099
 31
0.0
  0
LINE
  5
9690
330
1F
100
AcDbEntity
  8
0
100
AcDbLine
 10
8.972906549268525
 20
3.776525176765055
 30
0.0
 11
8.978600222210744
 21
3.775741470769705
 31
0.0
  0
LINE
  5
9691
330
1F
100
AcDbEntity
  8
0
100
AcDbLine
 10
8.954164851904327
 20
4.250534263282933
 30
0.0
 11
8.953862484078879
 21
3.776525176765055
 31
0.0
  0
LINE
  5
9692
330
1F
100
AcDbEntity
  8
0
100
AcDbLine
 10
8.673657521418787
 20
3.731308882760409
 30
0.0
 11
8.673066175335382
 21
3.730525176765054
 31
0.0
  0
LINE
  5
9693
330
1F
100
AcDbEntity
  8
0
100
AcDbLine
 10
8.674208568243855
 20
3.733606592478015
 30
0.0
 11
8.673657521418787
 21
3.731308882760409
 31
0.0
  0
LINE
  5
9694
330
1F
100
AcDbEntity
  8
0
100
AcDbLine
 10
8.674630402986382
 20
3.736864998206966
 30
0.0
 11
8.674208568243855
 21
3.733606592478015
 31
0.0
  0
LINE
  5
9695
330
1F
100
AcDbEntity
  8
0
100
AcDbLine
 10
8.674208568243855
 20
3.773443761052099
 30
0.0
 11
8.674630402986382
 21
3.770185355323148
 31
0.0
  0
LINE
  5
9696
330
1F
100
AcDbEntity
  8
0
100
AcDbLine
 10
8.673657521418787
 20
3.775741470769705
 30
0.0
 11
8.674208568243855
 21
3.773443761052099
 31
0.0
  0
LINE
  5
9697
330
1F
100
AcDbEntity
  8
0
100
AcDbLine
 10
8.673066175335382
 20
3.776525176765055
 30
0.0
 11
8.673657521418787
 21
3.775741470769705
 31
0.0
  0
LINE
  5
9698
330
1F
100
AcDbEntity
  8
0
100
AcDbLine
 10
8.671119658658858
 20
4.250534263282929
 30
0.0
 11
8.671088254672159
 21
3.776525176765055
 31
0.0
  0
LINE
  5
9699
330
1F
100
AcDbEntity
  8
0
100
AcDbLine
 10
7.514241947526921
 20
3.731308882760409
 30
0.0
 11
7.512246377488708
 21
3.730525176765057
 31
0.0
  0
LINE
  5
969A
330
1F
100
AcDbEntity
  8
0
100
AcDbLine
 10
7.115666926601722
 20
3.733606592478015
 30
0.0
 11
7.11380735136378
 21
3.731308882760409
 31
0.0
  0
LINE
  5
969B
330
1F
100
AcDbEntity
  8
0
100
AcDbLine
 10
7.117090459786242
 20
3.736864998206966
 30
0.0
 11
7.115666926601722
 21
3.733606592478015
 31
0.0
  0
LINE
  5
969C
330
1F
100
AcDbEntity
  8
0
100
AcDbLine
 10
7.115666926601722
 20
3.773443761052099
 30
0.0
 11
7.117090459786242
 21
3.77018535532315
 31
0.0
  0
LINE
  5
969D
330
1F
100
AcDbEntity
  8
0
100
AcDbLine
 10
7.11380735136378
 20
3.775741470769705
 30
0.0
 11
7.115666926601722
 21
3.773443761052099
 31
0.0
  0
LINE
  5
969E
330
1F
100
AcDbEntity
  8
0
100
AcDbLine
 10
7.111811781325567
 20
3.776525176765055
 30
0.0
 11
7.11380735136378
 21
3.775741470769705
 31
0.0
  0
LINE
  5
969F
330
1F
100
AcDbEntity
  8
0
100
AcDbLine
 10
7.105243019531265
 20
4.250525176765057
 30
0.0
 11
7.105137044949955
 21
3.776525176765055
 31
0.0
  0
LINE
  5
96A0
330
1F
100
AcDbEntity
  8
0
100
AcDbLine
 10
7.111811781325567
 20
3.730525176765057
 30
0.0
 11
7.05541780068442
 21
3.730525176765057
 31
0.0
  0
LINE
  5
96A1
330
1F
100
AcDbEntity
  8
0
100
AcDbLine
 10
7.11723256628286
 20
3.76712739450939
 30
0.0
 11
7.120568370522443
 21
3.765260907792763
 31
0.0
  0
LINE
  5
96A2
330
1F
100
AcDbEntity
  8
0
100
AcDbLine
 10
7.113918352716257
 20
3.739034918172004
 30
0.0
 11
7.110096218144416
 21
3.738983440964645
 31
0.0
  0
LINE
  5
96A3
330
1F
100
AcDbEntity
  8
0
100
AcDbLine
 10
7.117596927929099
 20
3.740073882556202
 30
0.0
 11
7.113918352716257
 21
3.739034918172004
 31
0.0
  0
LINE
  5
96A4
330
1F
100
AcDbEntity
  8
0
100
AcDbLine
 10
7.123307427679202
 20
3.76259465040081
 30
0.0
 11
7.125263075534419
 21
3.759310323368593
 31
0.0
  0
LINE
  5
96A5
330
1F
100
AcDbEntity
  8
0
100
AcDbLine
 10
7.120568370522443
 20
3.765260907792763
 30
0.0
 11
7.123307427679202
 21
3.76259465040081
 31
0.0
  0
LINE
  5
96A6
330
1F
100
AcDbEntity
  8
0
100
AcDbLine
 10
7.123547512353269
 20
3.744768587568177
 30
0.0
 11
7.120881254961314
 21
3.742029530411418
 31
0.0
  0
LINE
  5
96A7
330
1F
100
AcDbEntity
  8
0
100
AcDbLine
 10
7.1254139990699
 20
3.748104391807757
 30
0.0
 11
7.123547512353269
 21
3.744768587568177
 31
0.0
  0
LINE
  5
96A8
330
1F
100
AcDbEntity
  8
0
100
AcDbLine
 10
7.126353517125975
 20
3.751809613583906
 30
0.0
 11
7.1254139990699
 21
3.748104391807757
 31
0.0
  0
LINE
  5
96A9
330
1F
100
AcDbEntity
  8
0
100
AcDbLine
 10
7.126302039918616
 20
3.755631748155749
 30
0.0
 11
7.126353517125975
 21
3.751809613583906
 31
0.0
  0
LINE
  5
96AA
330
1F
100
AcDbEntity
  8
0
100
AcDbLine
 10
7.125263075534419
 20
3.759310323368593
 30
0.0
 11
7.126302039918616
 21
3.755631748155749
 31
0.0
  0
LINE
  5
96AB
330
1F
100
AcDbEntity
  8
0
100
AcDbLine
 10
7.11827838763801
 20
3.739976958979941
 30
0.0
 11
7.11856305486307
 21
3.740649161463494
 31
0.0
  0
LINE
  5
96AC
330
1F
100
AcDbEntity
  8
0
100
AcDbLine
 10
7.116562127235077
 20
3.737888160173801
 30
0.0
 11
7.11827838763801
 21
3.739976958979941
 31
0.0
  0
LINE
  5
96AD
330
1F
100
AcDbEntity
  8
0
100
AcDbLine
 10
7.114522138608727
 20
3.736864998206966
 30
0.0
 11
7.116562127235077
 21
3.737888160173801
 31
0.0
  0
LINE
  5
96AE
330
1F
100
AcDbEntity
  8
0
100
AcDbLine
 10
7.112297443612607
 20
3.736977199876619
 30
0.0
 11
7.114522138608727
 21
3.736864998206966
 31
0.0
  0
LINE
  5
96AF
330
1F
100
AcDbEntity
  8
0
100
AcDbLine
 10
7.110039651534222
 20
3.73821711882439
 30
0.0
 11
7.112297443612607
 21
3.736977199876619
 31
0.0
  0
LINE
  5
96B0
330
1F
100
AcDbEntity
  8
0
100
AcDbLine
 10
7.109322371533171
 20
3.738983440964645
 30
0.0
 11
7.110039651534222
 21
3.73821711882439
 31
0.0
  0
LINE
  5
96B1
330
1F
100
AcDbEntity
  8
0
100
AcDbLine
 10
7.1091014240424
 20
3.77018535532315
 30
0.0
 11
7.107061435416049
 21
3.769162193356311
 31
0.0
  0
LINE
  5
96B2
330
1F
100
AcDbEntity
  8
0
100
AcDbLine
 10
7.111326119038519
 20
3.770073153653497
 30
0.0
 11
7.1091014240424
 21
3.77018535532315
 31
0.0
  0
LINE
  5
96B3
330
1F
100
AcDbEntity
  8
0
100
AcDbLine
 10
7.107061435416049
 20
3.769162193356311
 30
0.0
 11
7.106161498549994
 21
3.768066912565471
 31
0.0
  0
LINE
  5
96B4
330
1F
100
AcDbEntity
  8
0
100
AcDbLine
 10
7.113583911116908
 20
3.768833234705724
 30
0.0
 11
7.111326119038519
 21
3.770073153653497
 31
0.0
  0
LINE
  5
96B5
330
1F
100
AcDbEntity
  8
0
100
AcDbLine
 10
7.114542010456139
 20
3.76780962783652
 30
0.0
 11
7.113583911116908
 21
3.768833234705724
 31
0.0
  0
LINE
  5
96B6
330
1F
100
AcDbEntity
  8
0
100
AcDbLine
 10
8.673066175335382
 20
3.776525176765055
 30
0.0
 11
8.671088254672159
 21
3.776525176765055
 31
0.0
  0
LINE
  5
96B7
330
1F
100
AcDbEntity
  8
0
100
AcDbLine
 10
7.111811781325567
 20
3.776525176765055
 30
0.0
 11
7.105137044949955
 21
3.776525176765055
 31
0.0
  0
LINE
  5
96B8
330
1F
100
AcDbEntity
  8
0
100
AcDbLine
 10
7.105137044949955
 20
3.776525176765055
 30
0.0
 11
7.05541780068442
 21
3.776525176765055
 31
0.0
  0
LINE
  5
96B9
330
1F
100
AcDbEntity
  8
0
100
AcDbLine
 10
7.110096218144416
 20
3.738983440964645
 30
0.0
 11
7.109322371533171
 21
3.738983440964645
 31
0.0
  0
LINE
  5
96BA
330
1F
100
AcDbEntity
  8
0
100
AcDbLine
 10
7.11352734450671
 20
3.768066912565471
 30
0.0
 11
7.114542010456139
 21
3.76780962783652
 31
0.0
  0
LINE
  5
96BB
330
1F
100
AcDbEntity
  8
0
100
AcDbLine
 10
7.114542010456139
 20
3.76780962783652
 30
0.0
 11
7.11723256628286
 21
3.76712739450939
 31
0.0
  0
LINE
  5
96BC
330
1F
100
AcDbEntity
  8
0
100
AcDbLine
 10
7.120881254961314
 20
3.742029530411418
 30
0.0
 11
7.11856305486307
 21
3.740649161463494
 31
0.0
  0
LINE
  5
96BD
330
1F
100
AcDbEntity
  8
0
100
AcDbLine
 10
7.11856305486307
 20
3.740649161463494
 30
0.0
 11
7.117596927929099
 21
3.740073882556202
 31
0.0
  0
LINE
  5
96BE
330
1F
100
AcDbEntity
  8
0
100
AcDbLine
 10
7.11352734450671
 20
3.768066912565471
 30
0.0
 11
7.106161498549994
 21
3.768066912565471
 31
0.0
  0
LINE
  5
96BF
330
1F
100
AcDbEntity
  8
0
100
AcDbLine
 10
8.674630402986382
 20
3.736864998206966
 30
0.0
 11
8.972906549268525
 21
3.736864998206966
 31
0.0
  0
LINE
  5
96C0
330
1F
100
AcDbEntity
  8
0
100
AcDbLine
 10
7.117090459786242
 20
3.77018535532315
 30
0.0
 11
7.1091014240424
 21
3.77018535532315
 31
0.0
  0
LINE
  5
96C1
330
1F
100
AcDbEntity
  8
0
100
AcDbLine
 10
7.114522138608727
 20
3.736864998206966
 30
0.0
 11
7.117090459786242
 21
3.736864998206966
 31
0.0
  0
LINE
  5
96C2
330
1F
100
AcDbEntity
  8
0
100
AcDbLine
 10
7.117090459786242
 20
3.736864998206966
 30
0.0
 11
8.274195806823241
 21
3.736864998206966
 31
0.0
  0
LINE
  5
96C3
330
1F
100
AcDbEntity
  8
0
100
AcDbLine
 10
8.973959009280957
 20
3.770185355323148
 30
0.0
 11
8.674630402986382
 21
3.770185355323148
 31
0.0
  0
LINE
  5
96C4
330
1F
100
AcDbEntity
  8
0
100
AcDbLine
 10
8.274195806823241
 20
3.770185355323148
 30
0.0
 11
7.117090459786242
 21
3.77018535532315
 31
0.0
  0
LINE
  5
96C5
330
1F
100
AcDbEntity
  8
0
100
AcDbLine
 10
8.953862484078879
 20
3.776525176765055
 30
0.0
 11
8.972906549268525
 21
3.776525176765055
 31
0.0
  0
LINE
  5
96C6
330
1F
100
AcDbEntity
  8
0
100
AcDbLine
 10
8.673066175335382
 20
3.730525176765054
 30
0.0
 11
8.972906549268525
 21
3.730525176765054
 31
0.0
  0
LINE
  5
96C7
330
1F
100
AcDbEntity
  8
0
100
AcDbLine
 10
8.673066175335382
 20
3.776525176765055
 30
0.0
 11
8.953862484078879
 21
3.776525176765055
 31
0.0
  0
LINE
  5
96C8
330
1F
100
AcDbEntity
  8
0
100
AcDbLine
 10
7.111811781325567
 20
3.776525176765055
 30
0.0
 11
8.270653658509019
 21
3.776525176765055
 31
0.0
  0
LINE
  5
96C9
330
1F
100
AcDbEntity
  8
0
100
AcDbLine
 10
7.05541780068442
 20
3.738983440964645
 30
0.0
 11
7.109322371533171
 21
3.738983440964645
 31
0.0
  0
LINE
  5
96CA
330
1F
100
AcDbEntity
  8
0
100
AcDbLine
 10
7.05541780068442
 20
3.768066912565471
 30
0.0
 11
7.106161498549994
 21
3.768066912565471
 31
0.0
  0
ARC
  5
96CB
330
1F
100
AcDbEntity
  8
0
100
AcDbCircle
 10
8.970800671403903
 20
3.753608314778038
 30
0.0
 40
0.0168752295208051
100
AcDbArc
 50
277.1686902151657
 51
79.2130127358568
  0
LINE
  5
96CC
330
1F
100
AcDbEntity
  8
0
100
AcDbLine
 10
8.978600222210744
 20
4.251317969278284
 30
0.0
 11
8.972906549268525
 21
4.250534263282929
 31
0.0
  0
LINE
  5
96CD
330
1F
100
AcDbEntity
  8
0
100
AcDbLine
 10
8.983905880751198
 20
4.253615678995892
 30
0.0
 11
8.978600222210744
 21
4.251317969278284
 31
0.0
  0
LINE
  5
96CE
330
1F
100
AcDbEntity
  8
0
100
AcDbLine
 10
8.988461953028352
 20
4.257270807315642
 30
0.0
 11
8.983905880751198
 21
4.253615678995892
 31
0.0
  0
LINE
  5
96CF
330
1F
100
AcDbEntity
  8
0
100
AcDbLine
 10
8.991957950245801
 20
4.262034263282931
 30
0.0
 11
8.988461953028352
 21
4.257270807315642
 31
0.0
  0
LINE
  5
96D0
330
1F
100
AcDbEntity
  8
0
100
AcDbLine
 10
8.994155625970577
 20
4.267581425245573
 30
0.0
 11
8.991957950245801
 21
4.262034263282931
 31
0.0
  0
LINE
  5
96D1
330
1F
100
AcDbEntity
  8
0
100
AcDbLine
 10
8.994905212233863
 20
4.273534263282929
 30
0.0
 11
8.994155625970577
 21
4.267581425245573
 31
0.0
  0
LINE
  5
96D2
330
1F
100
AcDbEntity
  8
0
100
AcDbLine
 10
8.994155625970577
 20
4.279487101320288
 30
0.0
 11
8.994905212233863
 21
4.273534263282929
 31
0.0
  0
LINE
  5
96D3
330
1F
100
AcDbEntity
  8
0
100
AcDbLine
 10
8.991957950245801
 20
4.285034263282931
 30
0.0
 11
8.994155625970577
 21
4.279487101320288
 31
0.0
  0
LINE
  5
96D4
330
1F
100
AcDbEntity
  8
0
100
AcDbLine
 10
8.988461953028352
 20
4.28979771925022
 30
0.0
 11
8.991957950245801
 21
4.285034263282931
 31
0.0
  0
LINE
  5
96D5
330
1F
100
AcDbEntity
  8
0
100
AcDbLine
 10
8.983905880751198
 20
4.293452847569975
 30
0.0
 11
8.988461953028352
 21
4.28979771925022
 31
0.0
  0
LINE
  5
96D6
330
1F
100
AcDbEntity
  8
0
100
AcDbLine
 10
8.978600222210744
 20
4.295750557287581
 30
0.0
 11
8.983905880751198
 21
4.293452847569975
 31
0.0
  0
LINE
  5
96D7
330
1F
100
AcDbEntity
  8
0
100
AcDbLine
 10
8.972906549268525
 20
4.29653426328293
 30
0.0
 11
8.978600222210744
 21
4.295750557287581
 31
0.0
  0
LINE
  5
96D8
330
1F
100
AcDbEntity
  8
0
100
AcDbLine
 10
8.673657521418787
 20
4.251317969278284
 30
0.0
 11
8.673066175335382
 21
4.250534263282929
 31
0.0
  0
LINE
  5
96D9
330
1F
100
AcDbEntity
  8
0
100
AcDbLine
 10
8.674208568243855
 20
4.253615678995892
 30
0.0
 11
8.673657521418787
 21
4.251317969278284
 31
0.0
  0
LINE
  5
96DA
330
1F
100
AcDbEntity
  8
0
100
AcDbLine
 10
8.674630402986382
 20
4.256874084724842
 30
0.0
 11
8.674208568243855
 21
4.253615678995892
 31
0.0
  0
LINE
  5
96DB
330
1F
100
AcDbEntity
  8
0
100
AcDbLine
 10
8.674208568243855
 20
4.293452847569975
 30
0.0
 11
8.67463040298638
 21
4.290194441841023
 31
0.0
  0
LINE
  5
96DC
330
1F
100
AcDbEntity
  8
0
100
AcDbLine
 10
8.673657521418787
 20
4.295750557287581
 30
0.0
 11
8.674208568243855
 21
4.293452847569975
 31
0.0
  0
LINE
  5
96DD
330
1F
100
AcDbEntity
  8
0
100
AcDbLine
 10
8.673066175335382
 20
4.29653426328293
 30
0.0
 11
8.673657521418787
 21
4.295750557287581
 31
0.0
  0
LINE
  5
96DE
330
1F
100
AcDbEntity
  8
0
100
AcDbLine
 10
7.113807351363778
 20
4.251317969278284
 30
0.0
 11
7.111811781325565
 21
4.250534263282933
 31
0.0
  0
LINE
  5
96DF
330
1F
100
AcDbEntity
  8
0
100
AcDbLine
 10
7.115666926601722
 20
4.253615678995892
 30
0.0
 11
7.113807351363778
 21
4.251317969278284
 31
0.0
  0
LINE
  5
96E0
330
1F
100
AcDbEntity
  8
0
100
AcDbLine
 10
7.117090459786242
 20
4.256874084724842
 30
0.0
 11
7.115666926601722
 21
4.253615678995892
 31
0.0
  0
LINE
  5
96E1
330
1F
100
AcDbEntity
  8
0
100
AcDbLine
 10
7.115666926601722
 20
4.293452847569975
 30
0.0
 11
7.117090459786242
 21
4.290194441841023
 31
0.0
  0
LINE
  5
96E2
330
1F
100
AcDbEntity
  8
0
100
AcDbLine
 10
7.113807351363778
 20
4.295750557287583
 30
0.0
 11
7.115666926601722
 21
4.293452847569975
 31
0.0
  0
LINE
  5
96E3
330
1F
100
AcDbEntity
  8
0
100
AcDbLine
 10
7.111811781325565
 20
4.29653426328293
 30
0.0
 11
7.113807351363778
 21
4.295750557287583
 31
0.0
  0
LINE
  5
96E4
330
1F
100
AcDbEntity
  8
0
100
AcDbLine
 10
7.111811781325565
 20
4.250534263282933
 30
0.0
 11
7.05541780068442
 21
4.250534263282933
 31
0.0
  0
LINE
  5
96E5
330
1F
100
AcDbEntity
  8
0
100
AcDbLine
 10
7.11723256628286
 20
4.287136481027264
 30
0.0
 11
7.120568370522441
 21
4.285269994310638
 31
0.0
  0
LINE
  5
96E6
330
1F
100
AcDbEntity
  8
0
100
AcDbLine
 10
7.113918352716257
 20
4.259044004689879
 30
0.0
 11
7.110096218144414
 21
4.25899252748252
 31
0.0
  0
LINE
  5
96E7
330
1F
100
AcDbEntity
  8
0
100
AcDbLine
 10
7.117596927929099
 20
4.260082969074076
 30
0.0
 11
7.113918352716257
 21
4.259044004689879
 31
0.0
  0
LINE
  5
96E8
330
1F
100
AcDbEntity
  8
0
100
AcDbLine
 10
7.1233074276792
 20
4.282603736918686
 30
0.0
 11
7.125263075534418
 21
4.279319409886468
 31
0.0
  0
LINE
  5
96E9
330
1F
100
AcDbEntity
  8
0
100
AcDbLine
 10
7.120568370522441
 20
4.285269994310638
 30
0.0
 11
7.1233074276792
 21
4.282603736918686
 31
0.0
  0
LINE
  5
96EA
330
1F
100
AcDbEntity
  8
0
100
AcDbLine
 10
7.123547512353267
 20
4.264777674086053
 30
0.0
 11
7.120881254961314
 21
4.262038616929293
 31
0.0
  0
LINE
  5
96EB
330
1F
100
AcDbEntity
  8
0
100
AcDbLine
 10
7.1254139990699
 20
4.268113478325632
 30
0.0
 11
7.123547512353267
 21
4.264777674086053
 31
0.0
  0
LINE
  5
96EC
330
1F
100
AcDbEntity
  8
0
100
AcDbLine
 10
7.126353517125975
 20
4.271818700101782
 30
0.0
 11
7.1254139990699
 21
4.268113478325632
 31
0.0
  0
LINE
  5
96ED
330
1F
100
AcDbEntity
  8
0
100
AcDbLine
 10
7.126302039918616
 20
4.275640834673627
 30
0.0
 11
7.126353517125975
 21
4.271818700101782
 31
0.0
  0
LINE
  5
96EE
330
1F
100
AcDbEntity
  8
0
100
AcDbLine
 10
7.125263075534418
 20
4.279319409886468
 30
0.0
 11
7.126302039918616
 21
4.275640834673627
 31
0.0
  0
LINE
  5
96EF
330
1F
100
AcDbEntity
  8
0
100
AcDbLine
 10
7.11827838763801
 20
4.259986045497814
 30
0.0
 11
7.11856305486307
 21
4.260658247981371
 31
0.0
  0
LINE
  5
96F0
330
1F
100
AcDbEntity
  8
0
100
AcDbLine
 10
7.116562127235077
 20
4.257897246691676
 30
0.0
 11
7.11827838763801
 21
4.259986045497814
 31
0.0
  0
LINE
  5
96F1
330
1F
100
AcDbEntity
  8
0
100
AcDbLine
 10
7.114522138608727
 20
4.256874084724842
 30
0.0
 11
7.116562127235077
 21
4.257897246691676
 31
0.0
  0
LINE
  5
96F2
330
1F
100
AcDbEntity
  8
0
100
AcDbLine
 10
7.112297443612607
 20
4.256986286394493
 30
0.0
 11
7.114522138608727
 21
4.256874084724842
 31
0.0
  0
LINE
  5
96F3
330
1F
100
AcDbEntity
  8
0
100
AcDbLine
 10
7.11003965153422
 20
4.258226205342266
 30
0.0
 11
7.112297443612607
 21
4.256986286394493
 31
0.0
  0
LINE
  5
96F4
330
1F
100
AcDbEntity
  8
0
100
AcDbLine
 10
7.109322371533171
 20
4.25899252748252
 30
0.0
 11
7.11003965153422
 21
4.258226205342266
 31
0.0
  0
LINE
  5
96F5
330
1F
100
AcDbEntity
  8
0
100
AcDbLine
 10
7.109101424042398
 20
4.290194441841023
 30
0.0
 11
7.107061435416049
 21
4.289171279874187
 31
0.0
  0
LINE
  5
96F6
330
1F
100
AcDbEntity
  8
0
100
AcDbLine
 10
7.111326119038519
 20
4.290082240171372
 30
0.0
 11
7.109101424042398
 21
4.290194441841023
 31
0.0
  0
LINE
  5
96F7
330
1F
100
AcDbEntity
  8
0
100
AcDbLine
 10
7.107061435416049
 20
4.289171279874187
 30
0.0
 11
7.106161498549994
 21
4.288075999083346
 31
0.0
  0
LINE
  5
96F8
330
1F
100
AcDbEntity
  8
0
100
AcDbLine
 10
7.113583911116908
 20
4.288842321223601
 30
0.0
 11
7.111326119038519
 21
4.290082240171372
 31
0.0
  0
LINE
  5
96F9
330
1F
100
AcDbEntity
  8
0
100
AcDbLine
 10
7.114542010456137
 20
4.287818714354395
 30
0.0
 11
7.113583911116908
 21
4.288842321223601
 31
0.0
  0
LINE
  5
96FA
330
1F
100
AcDbEntity
  8
0
100
AcDbLine
 10
8.673066175335382
 20
4.29653426328293
 30
0.0
 11
8.671088254672159
 21
4.29653426328293
 31
0.0
  0
LINE
  5
96FB
330
1F
100
AcDbEntity
  8
0
100
AcDbLine
 10
7.111811781325565
 20
4.29653426328293
 30
0.0
 11
7.105137044949955
 21
4.29653426328293
 31
0.0
  0
LINE
  5
96FC
330
1F
100
AcDbEntity
  8
0
100
AcDbLine
 10
7.105137044949955
 20
4.29653426328293
 30
0.0
 11
7.05541780068442
 21
4.296534263282932
 31
0.0
  0
LINE
  5
96FD
330
1F
100
AcDbEntity
  8
0
100
AcDbLine
 10
7.110096218144414
 20
4.25899252748252
 30
0.0
 11
7.109322371533171
 21
4.25899252748252
 31
0.0
  0
LINE
  5
96FE
330
1F
100
AcDbEntity
  8
0
100
AcDbLine
 10
7.11352734450671
 20
4.288075999083346
 30
0.0
 11
7.114542010456137
 21
4.287818714354395
 31
0.0
  0
LINE
  5
96FF
330
1F
100
AcDbEntity
  8
0
100
AcDbLine
 10
7.114542010456137
 20
4.287818714354395
 30
0.0
 11
7.11723256628286
 21
4.287136481027264
 31
0.0
  0
LINE
  5
9700
330
1F
100
AcDbEntity
  8
0
100
AcDbLine
 10
7.120881254961314
 20
4.262038616929293
 30
0.0
 11
7.11856305486307
 21
4.260658247981371
 31
0.0
  0
LINE
  5
9701
330
1F
100
AcDbEntity
  8
0
100
AcDbLine
 10
7.11856305486307
 20
4.260658247981371
 30
0.0
 11
7.117596927929099
 21
4.260082969074076
 31
0.0
  0
LINE
  5
9702
330
1F
100
AcDbEntity
  8
0
100
AcDbLine
 10
7.11352734450671
 20
4.288075999083346
 30
0.0
 11
7.106161498549994
 21
4.288075999083346
 31
0.0
  0
LINE
  5
9703
330
1F
100
AcDbEntity
  8
0
100
AcDbLine
 10
8.674630402986382
 20
4.256874084724842
 30
0.0
 11
8.972906549268525
 21
4.256874084724842
 31
0.0
  0
LINE
  5
9704
330
1F
100
AcDbEntity
  8
0
100
AcDbLine
 10
7.117090459786242
 20
4.290194441841023
 30
0.0
 11
7.109101424042398
 21
4.290194441841023
 31
0.0
  0
LINE
  5
9705
330
1F
100
AcDbEntity
  8
0
100
AcDbLine
 10
7.114522138608727
 20
4.256874084724842
 30
0.0
 11
7.117090459786242
 21
4.256874084724842
 31
0.0
  0
LINE
  5
9706
330
1F
100
AcDbEntity
  8
0
100
AcDbLine
 10
7.117090459786242
 20
4.256874084724842
 30
0.0
 11
8.274195806823241
 21
4.256874084724842
 31
0.0
  0
LINE
  5
9707
330
1F
100
AcDbEntity
  8
0
100
AcDbLine
 10
8.973959009280957
 20
4.290194441841023
 30
0.0
 11
8.67463040298638
 21
4.290194441841023
 31
0.0
  0
LINE
  5
9708
330
1F
100
AcDbEntity
  8
0
100
AcDbLine
 10
8.274195806823239
 20
4.290194441841023
 30
0.0
 11
7.117090459786242
 21
4.290194441841023
 31
0.0
  0
LINE
  5
9709
330
1F
100
AcDbEntity
  8
0
100
AcDbLine
 10
8.953862484078879
 20
4.29653426328293
 30
0.0
 11
8.972906549268525
 21
4.29653426328293
 31
0.0
  0
LINE
  5
970A
330
1F
100
AcDbEntity
  8
0
100
AcDbLine
 10
8.673066175335382
 20
4.250534263282929
 30
0.0
 11
8.972906549268525
 21
4.250534263282929
 31
0.0
  0
LINE
  5
970B
330
1F
100
AcDbEntity
  8
0
100
AcDbLine
 10
8.673066175335382
 20
4.29653426328293
 30
0.0
 11
8.953862484078879
 21
4.29653426328293
 31
0.0
  0
LINE
  5
970C
330
1F
100
AcDbEntity
  8
0
100
AcDbLine
 10
7.111811781325565
 20
4.29653426328293
 30
0.0
 11
8.270653658509019
 21
4.29653426328293
 31
0.0
  0
LINE
  5
970D
330
1F
100
AcDbEntity
  8
0
100
AcDbLine
 10
7.111811781325565
 20
4.250534263282933
 30
0.0
 11
8.272631579172241
 21
4.250534263282929
 31
0.0
  0
LINE
  5
970E
330
1F
100
AcDbEntity
  8
0
100
AcDbLine
 10
7.05541780068442
 20
4.25899252748252
 30
0.0
 11
7.109322371533171
 21
4.25899252748252
 31
0.0
  0
LINE
  5
970F
330
1F
100
AcDbEntity
  8
0
100
AcDbLine
 10
7.05541780068442
 20
4.288075999083346
 30
0.0
 11
7.106161498549994
 21
4.288075999083346
 31
0.0
  0
ARC
  5
9710
330
1F
100
AcDbEntity
  8
0
100
AcDbCircle
 10
8.970800671403903
 20
4.273617401295915
 30
0.0
 40
0.0168752295208051
100
AcDbArc
 50
277.1686902151657
 51
79.2130127358568
  0
LINE
  5
9711
330
1F
100
AcDbEntity
  8
0
100
AcDbLine
 10
6.955417800684426
 20
4.055970130243604
 30
0.0
 11
6.955417800684422
 21
4.034679104165778
 31
0.0
  0
LINE
  5
9712
330
1F
100
AcDbEntity
  8
0
100
AcDbLine
 10
6.955417800684422
 20
3.439231060644626
 30
0.0
 11
6.955417800684422
 21
4.00890534663825
 31
0.0
  0
LINE
  5
9713
330
1F
100
AcDbEntity
  8
0
100
AcDbLine
 10
6.955417800684422
 20
4.00890534663825
 30
0.0
 11
6.955417800684422
 21
4.013465900730185
 31
0.0
  0
LINE
  5
9714
330
1F
100
AcDbEntity
  8
0
100
AcDbLine
 10
5.855417800684366
 20
4.013465900730659
 30
0.0
 11
5.855417800684366
 21
4.008905346638721
 31
0.0
  0
LINE
  5
9715
330
1F
100
AcDbEntity
  8
0
100
AcDbLine
 10
5.855417800684366
 20
4.008905346638721
 30
0.0
 11
5.855417800684366
 21
3.439231060645107
 31
0.0
  0
LINE
  5
9716
330
1F
100
AcDbEntity
  8
0
100
AcDbLine
 10
5.855417800684366
 20
4.06641925444932
 30
0.0
 11
5.855417800684366
 21
4.591801746017251
 31
0.0
  0
LINE
  5
9717
330
1F
100
AcDbEntity
  8
0
100
AcDbLine
 10
6.955417800684426
 20
4.063260731576129
 30
0.0
 11
6.955417800684426
 21
4.055970130243604
 31
0.0
  0
LINE
  5
9718
330
1F
100
AcDbEntity
  8
0
100
AcDbLine
 10
5.855417800684366
 20
4.034679104166256
 30
0.0
 11
5.855417800684366
 21
4.054666815944608
 31
0.0
  0
LINE
  5
9719
330
1F
100
AcDbEntity
  8
0
100
AcDbLine
 10
6.955417800684426
 20
4.066419254448842
 30
0.0
 11
6.955417800684426
 21
4.063260731576129
 31
0.0
  0
LINE
  5
971A
330
1F
100
AcDbEntity
  8
0
100
AcDbLine
 10
5.855417800684366
 20
4.054666815944608
 30
0.0
 11
5.855417800684366
 21
4.063260731576599
 31
0.0
  0
LINE
  5
971B
330
1F
100
AcDbEntity
  8
0
100
AcDbLine
 10
5.855417800684366
 20
4.063260731576599
 30
0.0
 11
5.855417800684366
 21
4.06641925444932
 31
0.0
  0
LINE
  5
971C
330
1F
100
AcDbEntity
  8
0
100
AcDbLine
 10
6.955417800684422
 20
4.591801746016788
 30
0.0
 11
6.955417800684426
 21
4.066419254448842
 31
0.0
  0
LINE
  5
971D
330
1F
100
AcDbEntity
  8
0
100
AcDbLine
 10
6.955417800684422
 20
3.415363165397447
 30
0.0
 11
6.955417800684422
 21
3.439231060644626
 31
0.0
  0
LINE
  5
971E
330
1F
100
AcDbEntity
  8
0
100
AcDbLine
 10
5.855417800684366
 20
3.415363165397925
 30
0.0
 11
5.855417800684366
 21
3.439231060645107
 31
0.0
  0
LINE
  5
971F
330
1F
100
AcDbEntity
  8
0
100
AcDbLine
 10
5.855417800684366
 20
4.614958377986072
 30
0.0
 11
5.855417800684366
 21
4.591801746017251
 31
0.0
  0
LINE
  5
9720
330
1F
100
AcDbEntity
  8
0
100
AcDbLine
 10
6.955417800684422
 20
4.614958377985601
 30
0.0
 11
6.955417800684422
 21
4.591801746016788
 31
0.0
  0
LINE
  5
9721
330
1F
100
AcDbEntity
  8
0
100
AcDbLine
 10
8.590660316613552
 20
3.737261720797766
 30
0.0
 11
8.990660316613553
 21
3.737261720797766
 31
0.0
  0
LINE
  5
9722
330
1F
100
AcDbEntity
  8
0
100
AcDbLine
 10
7.514014314709978
 20
4.256874069824963
 30
0.0
 11
8.671119661746978
 21
4.256874069824963
 31
0.0
  0
LINE
  5
9723
330
1F
100
AcDbEntity
  8
0
100
AcDbLine
 10
8.671119661746978
 20
4.290194426941145
 30
0.0
 11
7.514014314709978
 21
4.290194426941145
 31
0.0
  0
LINE
  5
9724
330
1F
100
AcDbEntity
  8
0
100
AcDbLine
 10
7.508735636249301
 20
4.296534248383052
 30
0.0
 11
8.667577513432757
 21
4.296534248383052
 31
0.0
  0
LINE
  5
9725
330
1F
100
AcDbEntity
  8
0
100
AcDbLine
 10
7.508735636249301
 20
4.250534248383054
 30
0.0
 11
8.669555434095977
 21
4.250534248383051
 31
0.0
  0
LINE
  5
9726
330
1F
100
AcDbEntity
  8
0
100
AcDbLine
 10
7.515960831386504
 20
3.736864983307087
 30
0.0
 11
8.673066178423503
 21
3.736864983307087
 31
0.0
  0
LINE
  5
9727
330
1F
100
AcDbEntity
  8
0
100
AcDbLine
 10
8.673066178423502
 20
3.770185340423271
 30
0.0
 11
7.515960831386504
 21
3.770185340423271
 31
0.0
  0
LINE
  5
9728
330
1F
100
AcDbEntity
  8
0
100
AcDbLine
 10
7.510682152925827
 20
3.776525161865176
 30
0.0
 11
8.669524030109281
 21
3.776525161865176
 31
0.0
  0
LINE
  5
9729
330
1F
100
AcDbEntity
  8
0
100
AcDbLine
 10
8.673657521418787
 20
3.731308882760409
 30
0.0
 11
7.111811781325567
 21
3.730525176765057
 31
0.0
  0
LINE
  5
972A
330
1F
100
AcDbEntity
  8
0
100
AcDbLine
 10
8.671119661746978
 20
4.256874069824963
 30
0.0
 11
8.674630402986382
 21
4.256874084724842
 31
0.0
  0
LINE
  5
972B
330
1F
100
AcDbEntity
  8
0
100
AcDbLine
 10
8.67463040298638
 20
4.290194441841023
 30
0.0
 11
8.671119661746978
 21
4.290194426941145
 31
0.0
  0
LINE
  5
972C
330
1F
100
AcDbEntity
  8
0
100
AcDbLine
 10
8.667577513432757
 20
4.296534248383052
 30
0.0
 11
8.673066175335382
 21
4.29653426328293
 31
0.0
  0
LINE
  5
972D
330
1F
100
AcDbEntity
  8
0
100
AcDbLine
 10
5.855417800684366
 20
4.034679104166256
 30
0.0
 11
5.955417800684365
 21
4.034679104166256
 31
0.0
  0
LINE
  5
972E
330
1F
100
AcDbEntity
  8
0
100
AcDbLine
 10
5.955417800684365
 20
4.034679104166256
 30
0.0
 11
5.955417800684374
 21
4.614958377986074
 31
0.0
  0
LINE
  5
972F
330
1F
100
AcDbEntity
  8
0
100
AcDbLine
 10
6.055417800684374
 20
4.614958377986074
 30
0.0
 11
6.055417800684374
 21
4.034679104166256
 31
0.0
  0
LINE
  5
9730
330
1F
100
AcDbEntity
  8
0
100
AcDbLine
 10
6.055417800684374
 20
4.034679104166256
 30
0.0
 11
6.155417800684373
 21
4.034679104166256
 31
0.0
  0
LINE
  5
9731
330
1F
100
AcDbEntity
  8
0
100
AcDbLine
 10
6.155417800684373
 20
4.034679104166256
 30
0.0
 11
6.155417800684375
 21
4.614958377986074
 31
0.0
  0
ARC
  5
9732
330
1F
100
AcDbEntity
  8
0
100
AcDbCircle
 10
5.90541780068437
 20
4.61583321390751
 30
0.0
 40
0.0500076527932462
100
AcDbArc
 50
358.9976141588702
 51
181.0023858411308
  0
ARC
  5
9733
330
1F
100
AcDbEntity
  8
0
100
AcDbCircle
 10
6.00541780068438
 20
4.615833213907542
 30
0.0
 40
0.0500076527932462
100
AcDbArc
 50
358.9976141588702
 51
181.002385841131
  0
ARC
  5
9734
330
1F
100
AcDbEntity
  8
0
100
AcDbCircle
 10
6.105417800684389
 20
4.615833213907542
 30
0.0
 40
0.0500076527932462
100
AcDbArc
 50
358.9976141588702
 51
181.002385841131
  0
LINE
  5
9735
330
1F
100
AcDbEntity
  8
0
100
AcDbLine
 10
6.255417800684377
 20
4.034679104166258
 30
0.0
 11
6.255417800684384
 21
4.614958377986074
 31
0.0
  0
LINE
  5
9736
330
1F
100
AcDbEntity
  8
0
100
AcDbLine
 10
6.355417800684385
 20
4.614958377986074
 30
0.0
 11
6.355417800684385
 21
4.034679104166258
 31
0.0
  0
LINE
  5
9737
330
1F
100
AcDbEntity
  8
0
100
AcDbLine
 10
6.455417800684383
 20
4.034679104166258
 30
0.0
 11
6.455417800684386
 21
4.614958377986074
 31
0.0
  0
ARC
  5
9738
330
1F
100
AcDbEntity
  8
0
100
AcDbCircle
 10
6.205417800684379
 20
4.61583321390751
 30
0.0
 40
0.0500076527932462
100
AcDbArc
 50
358.9976141588702
 51
181.002385841131
  0
ARC
  5
9739
330
1F
100
AcDbEntity
  8
0
100
AcDbCircle
 10
6.30541780068439
 20
4.615833213907542
 30
0.0
 40
0.0500076527932462
100
AcDbArc
 50
358.9976141588702
 51
181.002385841131
  0
ARC
  5
973A
330
1F
100
AcDbEntity
  8
0
100
AcDbCircle
 10
6.405417800684398
 20
4.615833213907542
 30
0.0
 40
0.0500076527932462
100
AcDbArc
 50
358.9976141588702
 51
181.002385841131
  0
LINE
  5
973B
330
1F
100
AcDbEntity
  8
0
100
AcDbLine
 10
6.555417800684402
 20
4.03467910416629
 30
0.0
 11
6.555417800684411
 21
4.614958377986106
 31
0.0
  0
LINE
  5
973C
330
1F
100
AcDbEntity
  8
0
100
AcDbLine
 10
6.655417800684411
 20
4.614958377986106
 30
0.0
 11
6.655417800684411
 21
4.03467910416629
 31
0.0
  0
LINE
  5
973D
330
1F
100
AcDbEntity
  8
0
100
AcDbLine
 10
6.75541780068441
 20
4.03467910416629
 30
0.0
 11
6.755417800684412
 21
4.614958377986106
 31
0.0
  0
ARC
  5
973E
330
1F
100
AcDbEntity
  8
0
100
AcDbCircle
 10
6.505417800684407
 20
4.615833213907544
 30
0.0
 40
0.0500076527932462
100
AcDbArc
 50
358.9976141588702
 51
181.002385841131
  0
ARC
  5
973F
330
1F
100
AcDbEntity
  8
0
100
AcDbCircle
 10
6.605417800684417
 20
4.615833213907574
 30
0.0
 40
0.0500076527932462
100
AcDbArc
 50
358.9976141588702
 51
181.002385841131
  0
ARC
  5
9740
330
1F
100
AcDbEntity
  8
0
100
AcDbCircle
 10
6.705417800684426
 20
4.615833213907576
 30
0.0
 40
0.0500076527932462
100
AcDbArc
 50
358.9976141588702
 51
181.002385841131
  0
LINE
  5
9741
330
1F
100
AcDbEntity
  8
0
100
AcDbLine
 10
6.855417800684413
 20
4.03467910416629
 30
0.0
 11
6.855417800684421
 21
4.614958377986107
 31
0.0
  0
LINE
  5
9742
330
1F
100
AcDbEntity
  8
0
100
AcDbLine
 10
6.955417800684422
 20
4.614958377986107
 30
0.0
 11
6.955417800684422
 21
4.03467910416629
 31
0.0
  0
ARC
  5
9743
330
1F
100
AcDbEntity
  8
0
100
AcDbCircle
 10
6.805417800684416
 20
4.615833213907546
 30
0.0
 40
0.0500076527932462
100
AcDbArc
 50
358.9976141588702
 51
181.002385841131
  0
ARC
  5
9744
330
1F
100
AcDbEntity
  8
0
100
AcDbCircle
 10
6.905417800684427
 20
4.615833213907576
 30
0.0
 40
0.0500076527932462
100
AcDbArc
 50
358.9976141588702
 51
181.002385841131
  0
LINE
  5
9745
330
1F
100
AcDbEntity
  8
0
100
AcDbLine
 10
5.855417800684366
 20
4.034679104166256
 30
0.0
 11
6.955417800684422
 21
4.03467910416629
 31
0.0
  0
LINE
  5
9746
330
1F
100
AcDbEntity
  8
0
100
AcDbLine
 10
6.957004548154975
 20
4.013465900730659
 30
0.0
 11
5.855417800684366
 21
4.013465900730659
 31
0.0
  0
LINE
  5
9747
330
1F
100
AcDbEntity
  8
0
100
AcDbLine
 10
6.855417800684431
 20
3.995642439217807
 30
0.0
 11
6.855417800684422
 21
3.415363165397991
 31
0.0
  0
LINE
  5
9748
330
1F
100
AcDbEntity
  8
0
100
AcDbLine
 10
6.755417800684423
 20
3.415363165397991
 30
0.0
 11
6.755417800684423
 21
3.995642439217807
 31
0.0
  0
LINE
  5
9749
330
1F
100
AcDbEntity
  8
0
100
AcDbLine
 10
6.655417800684423
 20
3.995642439217807
 30
0.0
 11
6.655417800684421
 21
3.415363165397991
 31
0.0
  0
ARC
  5
974A
330
1F
100
AcDbEntity
  8
0
100
AcDbCircle
 10
6.905417800684427
 20
3.414488329476554
 30
0.0
 40
0.0500076527932462
100
AcDbArc
 50
178.99761415887
 51
1.00238584113076
  0
ARC
  5
974B
330
1F
100
AcDbEntity
  8
0
100
AcDbCircle
 10
6.805417800684416
 20
3.414488329476522
 30
0.0
 40
0.0500076527932462
100
AcDbArc
 50
178.99761415887
 51
1.00238584113076
  0
ARC
  5
974C
330
1F
100
AcDbEntity
  8
0
100
AcDbCircle
 10
6.705417800684408
 20
3.414488329476522
 30
0.0
 40
0.0500076527932462
100
AcDbArc
 50
178.99761415887
 51
1.00238584113076
  0
LINE
  5
974D
330
1F
100
AcDbEntity
  8
0
100
AcDbLine
 10
6.55541780068442
 20
3.995642439217807
 30
0.0
 11
6.555417800684413
 21
3.415363165397991
 31
0.0
  0
LINE
  5
974E
330
1F
100
AcDbEntity
  8
0
100
AcDbLine
 10
6.455417800684411
 20
3.415363165397991
 30
0.0
 11
6.455417800684411
 21
3.995642439217807
 31
0.0
  0
LINE
  5
974F
330
1F
100
AcDbEntity
  8
0
100
AcDbLine
 10
6.355417800684413
 20
3.995642439217807
 30
0.0
 11
6.35541780068441
 21
3.415363165397991
 31
0.0
  0
ARC
  5
9750
330
1F
100
AcDbEntity
  8
0
100
AcDbCircle
 10
6.605417800684417
 20
3.414488329476553
 30
0.0
 40
0.0500076527932462
100
AcDbArc
 50
178.99761415887
 51
1.00238584113076
  0
ARC
  5
9751
330
1F
100
AcDbEntity
  8
0
100
AcDbCircle
 10
6.505417800684407
 20
3.414488329476522
 30
0.0
 40
0.0500076527932462
100
AcDbArc
 50
178.99761415887
 51
1.00238584113076
  0
ARC
  5
9752
330
1F
100
AcDbEntity
  8
0
100
AcDbCircle
 10
6.405417800684398
 20
3.414488329476521
 30
0.0
 40
0.0500076527932462
100
AcDbArc
 50
178.99761415887
 51
1.00238584113076
  0
LINE
  5
9753
330
1F
100
AcDbEntity
  8
0
100
AcDbLine
 10
6.255417800684394
 20
3.995642439217775
 30
0.0
 11
6.255417800684385
 21
3.415363165397957
 31
0.0
  0
LINE
  5
9754
330
1F
100
AcDbEntity
  8
0
100
AcDbLine
 10
6.155417800684386
 20
3.415363165397957
 30
0.0
 11
6.155417800684386
 21
3.995642439217775
 31
0.0
  0
LINE
  5
9755
330
1F
100
AcDbEntity
  8
0
100
AcDbLine
 10
6.055417800684386
 20
3.995642439217775
 30
0.0
 11
6.055417800684384
 21
3.415363165397957
 31
0.0
  0
ARC
  5
9756
330
1F
100
AcDbEntity
  8
0
100
AcDbCircle
 10
6.30541780068439
 20
3.414488329476519
 30
0.0
 40
0.0500076527932462
100
AcDbArc
 50
178.99761415887
 51
1.00238584113076
  0
ARC
  5
9757
330
1F
100
AcDbEntity
  8
0
100
AcDbCircle
 10
6.205417800684379
 20
3.414488329476489
 30
0.0
 40
0.0500076527932462
100
AcDbArc
 50
178.99761415887
 51
1.00238584113076
  0
ARC
  5
9758
330
1F
100
AcDbEntity
  8
0
100
AcDbCircle
 10
6.105417800684371
 20
3.414488329476487
 30
0.0
 40
0.0500076527932462
100
AcDbArc
 50
178.99761415887
 51
1.00238584113076
  0
LINE
  5
9759
330
1F
100
AcDbEntity
  8
0
100
AcDbLine
 10
5.955417800684383
 20
3.995642439217773
 30
0.0
 11
5.955417800684376
 21
3.415363165397955
 31
0.0
  0
ARC
  5
975A
330
1F
100
AcDbEntity
  8
0
100
AcDbCircle
 10
6.00541780068438
 20
3.414488329476519
 30
0.0
 40
0.0500076527932462
100
AcDbArc
 50
178.99761415887
 51
1.00238584113076
  0
ARC
  5
975B
330
1F
100
AcDbEntity
  8
0
100
AcDbCircle
 10
5.90541780068437
 20
3.414488329476487
 30
0.0
 40
0.0500076527932462
100
AcDbArc
 50
178.99761415887
 51
1.00238584113076
  0
LINE
  5
975C
330
1F
100
AcDbEntity
  8
0
100
AcDbLine
 10
5.755417800684357
 20
4.008905346638712
 30
0.0
 11
5.755417800684357
 21
3.439231060645099
 31
0.0
  0
LINE
  5
975D
330
1F
100
AcDbEntity
  8
0
100
AcDbLine
 10
5.755417800684357
 20
4.066419254449311
 30
0.0
 11
5.755417800684357
 21
4.591801746017242
 31
0.0
  0
LINE
  5
975E
330
1F
100
AcDbEntity
  8
0
100
AcDbLine
 10
5.755417800684357
 20
3.415363165397916
 30
0.0
 11
5.755417800684357
 21
3.439231060645099
 31
0.0
  0
LINE
  5
975F
330
1F
100
AcDbEntity
  8
0
100
AcDbLine
 10
5.755417800684357
 20
4.614958377986063
 30
0.0
 11
5.755417800684357
 21
4.591801746017242
 31
0.0
  0
ARC
  5
9760
330
1F
100
AcDbEntity
  8
0
100
AcDbCircle
 10
5.805417800684361
 20
4.615833213907501
 30
0.0
 40
0.0500076527932462
100
AcDbArc
 50
358.9976141588702
 51
181.0023858411308
  0
ARC
  5
9761
330
1F
100
AcDbEntity
  8
0
100
AcDbCircle
 10
5.805417800684361
 20
3.414488329476478
 30
0.0
 40
0.0500076527932462
100
AcDbArc
 50
178.99761415887
 51
1.00238584113076
  0
LINE
  5
9762
330
1F
100
AcDbEntity
  8
0
100
AcDbLine
 10
5.755417800684357
 20
4.034679104166247
 30
0.0
 11
5.855417800684366
 21
4.034679104166256
 31
0.0
  0
LINE
  5
9763
330
1F
100
AcDbEntity
  8
0
100
AcDbLine
 10
5.855417800684366
 20
4.013465900730659
 30
0.0
 11
5.755417800684355
 21
4.013465900730658
 31
0.0
  0
LINE
  5
9764
330
1F
100
AcDbEntity
  8
0
100
AcDbLine
 10
7.057004548154974
 20
3.776525176764511
 30
0.0
 11
7.057004548154974
 21
4.250534263282389
 31
0.0
  0
LINE
  5
9765
330
1F
100
AcDbEntity
  8
0
100
AcDbLine
 10
7.05541780068442
 20
3.439231060644083
 30
0.0
 11
7.05541780068442
 21
4.008905346637707
 31
0.0
  0
LINE
  5
9766
330
1F
100
AcDbEntity
  8
0
100
AcDbLine
 10
7.05541780068442
 20
4.591801746016244
 30
0.0
 11
7.055417800684423
 21
4.066419254448298
 31
0.0
  0
LINE
  5
9767
330
1F
100
AcDbEntity
  8
0
100
AcDbLine
 10
7.05541780068442
 20
3.415363165396904
 30
0.0
 11
7.05541780068442
 21
3.439231060644083
 31
0.0
  0
LINE
  5
9768
330
1F
100
AcDbEntity
  8
0
100
AcDbLine
 10
7.05541780068442
 20
4.614958377985058
 30
0.0
 11
7.05541780068442
 21
4.591801746016244
 31
0.0
  0
LINE
  5
9769
330
1F
100
AcDbEntity
  8
0
100
AcDbLine
 10
7.05541780068442
 20
4.614958377985564
 30
0.0
 11
7.05541780068442
 21
4.034679104165746
 31
0.0
  0
ARC
  5
976A
330
1F
100
AcDbEntity
  8
0
100
AcDbCircle
 10
7.005417800684426
 20
4.615833213907032
 30
0.0
 40
0.0500076527932462
100
AcDbArc
 50
358.9976141588702
 51
181.002385841131
  0
ARC
  5
976B
330
1F
100
AcDbEntity
  8
0
100
AcDbCircle
 10
7.005417800684426
 20
3.414488329476011
 30
0.0
 40
0.0500076527932462
100
AcDbArc
 50
178.99761415887
 51
1.00238584113076
  0
LINE
  5
976C
330
1F
100
AcDbEntity
  8
0
100
AcDbLine
 10
6.957004548154975
 20
4.013465900730659
 30
0.0
 11
7.05541780068442
 21
4.013465900730658
 31
0.0
  0
LINE
  5
976D
330
1F
100
AcDbEntity
  8
0
100
AcDbLine
 10
6.955417800684422
 20
4.034679104165778
 30
0.0
 11
7.05541780068442
 21
4.034679104165746
 31
0.0
  0
CIRCLE
  5
976E
330
1F
100
AcDbEntity
  8
0
100
AcDbCircle
 10
5.813679829873734
 20
4.148621352400834
 30
0.0
 40
0.01089627287962
  0
CIRCLE
  5
976F
330
1F
100
AcDbEntity
  8
0
100
AcDbCircle
 10
5.911655545912886
 20
4.148621352400834
 30
0.0
 40
0.01089627287962
  0
CIRCLE
  5
9770
330
1F
100
AcDbEntity
  8
0
100
AcDbCircle
 10
6.009631261952034
 20
4.148621352400834
 30
0.0
 40
0.01089627287962
  0
CIRCLE
  5
9771
330
1F
100
AcDbEntity
  8
0
100
AcDbCircle
 10
6.11032850379863
 20
4.148621352400834
 30
0.0
 40
0.01089627287962
  0
CIRCLE
  5
9772
330
1F
100
AcDbEntity
  8
0
100
AcDbCircle
 10
6.208304219837781
 20
4.148621352400834
 30
0.0
 40
0.01089627287962
  0
CIRCLE
  5
9773
330
1F
100
AcDbEntity
  8
0
100
AcDbCircle
 10
6.306279935876933
 20
4.148621352400834
 30
0.0
 40
0.01089627287962
  0
CIRCLE
  5
9774
330
1F
100
AcDbEntity
  8
0
100
AcDbCircle
 10
6.406977177723529
 20
4.148621352400834
 30
0.0
 40
0.01089627287962
  0
CIRCLE
  5
9775
330
1F
100
AcDbEntity
  8
0
100
AcDbCircle
 10
6.507674442055012
 20
4.148621352400834
 30
0.0
 40
0.01089627287962
  0
CIRCLE
  5
9776
330
1F
100
AcDbEntity
  8
0
100
AcDbCircle
 10
6.608371706386495
 20
4.148621352400834
 30
0.0
 40
0.01089627287962
  0
CIRCLE
  5
9777
330
1F
100
AcDbEntity
  8
0
100
AcDbCircle
 10
6.70634739994076
 20
4.148621352400834
 30
0.0
 40
0.01089627287962
  0
CIRCLE
  5
9778
330
1F
100
AcDbEntity
  8
0
100
AcDbCircle
 10
6.806371691590797
 20
4.148799827479269
 30
0.0
 40
0.01089627287962
  0
CIRCLE
  5
9779
330
1F
100
AcDbEntity
  8
0
100
AcDbCircle
 10
6.904858848879936
 20
4.144513804467418
 30
0.0
 40
0.01089627287962
  0
CIRCLE
  5
977A
330
1F
100
AcDbEntity
  8
0
100
AcDbCircle
 10
7.00548701715228
 20
4.142370816789945
 30
0.0
 40
0.01089627287962
  0
CIRCLE
  5
977B
330
1F
100
AcDbEntity
  8
0
100
AcDbCircle
 10
5.811869076917428
 20
4.509426952227325
 30
0.0
 40
0.01089627287962
  0
CIRCLE
  5
977C
330
1F
100
AcDbEntity
  8
0
100
AcDbCircle
 10
5.90984479295658
 20
4.509426952227325
 30
0.0
 40
0.01089627287962
  0
CIRCLE
  5
977D
330
1F
100
AcDbEntity
  8
0
100
AcDbCircle
 10
6.007820508995727
 20
4.509426952227325
 30
0.0
 40
0.01089627287962
  0
CIRCLE
  5
977E
330
1F
100
AcDbEntity
  8
0
100
AcDbCircle
 10
6.108517750842324
 20
4.509426952227325
 30
0.0
 40
0.01089627287962
  0
CIRCLE
  5
977F
330
1F
100
AcDbEntity
  8
0
100
AcDbCircle
 10
6.206493466881475
 20
4.509426952227325
 30
0.0
 40
0.01089627287962
  0
CIRCLE
  5
9780
330
1F
100
AcDbEntity
  8
0
100
AcDbCircle
 10
6.304469182920627
 20
4.509426952227325
 30
0.0
 40
0.01089627287962
  0
CIRCLE
  5
9781
330
1F
100
AcDbEntity
  8
0
100
AcDbCircle
 10
6.405166424767223
 20
4.509426952227325
 30
0.0
 40
0.01089627287962
  0
CIRCLE
  5
9782
330
1F
100
AcDbEntity
  8
0
100
AcDbCircle
 10
6.505863689098706
 20
4.509426952227325
 30
0.0
 40
0.01089627287962
  0
CIRCLE
  5
9783
330
1F
100
AcDbEntity
  8
0
100
AcDbCircle
 10
6.606560953430189
 20
4.509426952227325
 30
0.0
 40
0.01089627287962
  0
CIRCLE
  5
9784
330
1F
100
AcDbEntity
  8
0
100
AcDbCircle
 10
6.704536646984454
 20
4.509426952227325
 30
0.0
 40
0.01089627287962
  0
CIRCLE
  5
9785
330
1F
100
AcDbEntity
  8
0
100
AcDbCircle
 10
6.804560938634491
 20
4.509605427305761
 30
0.0
 40
0.01089627287962
  0
CIRCLE
  5
9786
330
1F
100
AcDbEntity
  8
0
100
AcDbCircle
 10
6.90304809592363
 20
4.50531940429391
 30
0.0
 40
0.01089627287962
  0
CIRCLE
  5
9787
330
1F
100
AcDbEntity
  8
0
100
AcDbCircle
 10
7.003676264195973
 20
4.503176416616437
 30
0.0
 40
0.01089627287962
  0
CIRCLE
  5
9788
330
1F
100
AcDbEntity
  8
0
100
AcDbCircle
 10
5.811475861205664
 20
3.907587017903214
 30
0.0
 40
0.01089627287962
  0
CIRCLE
  5
9789
330
1F
100
AcDbEntity
  8
0
100
AcDbCircle
 10
5.909451577244816
 20
3.907587017903214
 30
0.0
 40
0.01089627287962
  0
CIRCLE
  5
978A
330
1F
100
AcDbEntity
  8
0
100
AcDbCircle
 10
6.007427293283964
 20
3.907587017903214
 30
0.0
 40
0.01089627287962
  0
CIRCLE
  5
978B
330
1F
100
AcDbEntity
  8
0
100
AcDbCircle
 10
6.10812453513056
 20
3.907587017903214
 30
0.0
 40
0.01089627287962
  0
CIRCLE
  5
978C
330
1F
100
AcDbEntity
  8
0
100
AcDbCircle
 10
6.206100251169711
 20
3.907587017903214
 30
0.0
 40
0.01089627287962
  0
CIRCLE
  5
978D
330
1F
100
AcDbEntity
  8
0
100
AcDbCircle
 10
6.304075967208863
 20
3.907587017903214
 30
0.0
 40
0.01089627287962
  0
CIRCLE
  5
978E
330
1F
100
AcDbEntity
  8
0
100
AcDbCircle
 10
6.404773209055459
 20
3.907587017903214
 30
0.0
 40
0.01089627287962
  0
CIRCLE
  5
978F
330
1F
100
AcDbEntity
  8
0
100
AcDbCircle
 10
6.505470473386942
 20
3.907587017903214
 30
0.0
 40
0.01089627287962
  0
CIRCLE
  5
9790
330
1F
100
AcDbEntity
  8
0
100
AcDbCircle
 10
6.606167737718426
 20
3.907587017903214
 30
0.0
 40
0.01089627287962
  0
CIRCLE
  5
9791
330
1F
100
AcDbEntity
  8
0
100
AcDbCircle
 10
6.70414343127269
 20
3.907587017903214
 30
0.0
 40
0.01089627287962
  0
CIRCLE
  5
9792
330
1F
100
AcDbEntity
  8
0
100
AcDbCircle
 10
6.804167722922727
 20
3.907765492981649
 30
0.0
 40
0.01089627287962
  0
CIRCLE
  5
9793
330
1F
100
AcDbEntity
  8
0
100
AcDbCircle
 10
6.902654880211866
 20
3.903479469969798
 30
0.0
 40
0.01089627287962
  0
CIRCLE
  5
9794
330
1F
100
AcDbEntity
  8
0
100
AcDbCircle
 10
7.00328304848421
 20
3.901336482292325
 30
0.0
 40
0.01089627287962
  0
CIRCLE
  5
9795
330
1F
100
AcDbEntity
  8
0
100
AcDbCircle
 10
5.811475861205664
 20
3.533679441043464
 30
0.0
 40
0.01089627287962
  0
CIRCLE
  5
9796
330
1F
100
AcDbEntity
  8
0
100
AcDbCircle
 10
5.909451577244816
 20
3.533679441043464
 30
0.0
 40
0.01089627287962
  0
CIRCLE
  5
9797
330
1F
100
AcDbEntity
  8
0
100
AcDbCircle
 10
6.007427293283964
 20
3.533679441043464
 30
0.0
 40
0.01089627287962
  0
CIRCLE
  5
9798
330
1F
100
AcDbEntity
  8
0
100
AcDbCircle
 10
6.10812453513056
 20
3.533679441043464
 30
0.0
 40
0.01089627287962
  0
CIRCLE
  5
9799
330
1F
100
AcDbEntity
  8
0
100
AcDbCircle
 10
6.206100251169711
 20
3.533679441043464
 30
0.0
 40
0.01089627287962
  0
CIRCLE
  5
979A
330
1F
100
AcDbEntity
  8
0
100
AcDbCircle
 10
6.304075967208863
 20
3.533679441043464
 30
0.0
 40
0.01089627287962
  0
CIRCLE
  5
979B
330
1F
100
AcDbEntity
  8
0
100
AcDbCircle
 10
6.404773209055459
 20
3.533679441043464
 30
0.0
 40
0.01089627287962
  0
CIRCLE
  5
979C
330
1F
100
AcDbEntity
  8
0
100
AcDbCircle
 10
6.505470473386942
 20
3.533679441043464
 30
0.0
 40
0.01089627287962
  0
CIRCLE
  5
979D
330
1F
100
AcDbEntity
  8
0
100
AcDbCircle
 10
6.606167737718426
 20
3.533679441043464
 30
0.0
 40
0.01089627287962
  0
CIRCLE
  5
979E
330
1F
100
AcDbEntity
  8
0
100
AcDbCircle
 10
6.70414343127269
 20
3.533679441043464
 30
0.0
 40
0.01089627287962
  0
CIRCLE
  5
979F
330
1F
100
AcDbEntity
  8
0
100
AcDbCircle
 10
6.804167722922727
 20
3.533857916121899
 30
0.0
 40
0.01089627287962
  0
CIRCLE
  5
97A0
330
1F
100
AcDbEntity
  8
0
100
AcDbCircle
 10
6.902654880211866
 20
3.529571893110048
 30
0.0
 40
0.01089627287962
  0
CIRCLE
  5
97A1
330
1F
100
AcDbEntity
  8
0
100
AcDbCircle
 10
7.00328304848421
 20
3.527428905432575
 30
0.0
 40
0.01089627287962
  0
LINE
  5
97C4
330
1F
100
AcDbEntity
  8
0
100
AcDbLine
 10
5.483274120807671
 20
4.020877710279631
 30
0.0
 11
5.482933379070562
 21
4.023465900730656
 31
0.0
  0
LINE
  5
97C5
330
1F
100
AcDbEntity
  8
0
100
AcDbLine
 10
5.490345188619535
 20
4.013806642467766
 30
0.0
 11
5.487933379070561
 21
4.014805646692813
 31
0.0
  0
LINE
  5
97C6
330
1F
100
AcDbEntity
  8
0
100
AcDbLine
 10
5.487933379070561
 20
4.014805646692813
 30
0.0
 11
5.485862311258696
 21
4.016394832918791
 31
0.0
  0
LINE
  5
97C7
330
1F
100
AcDbEntity
  8
0
100
AcDbLine
 10
5.487933379070561
 20
4.032126154768501
 30
0.0
 11
5.490345188619535
 21
4.033125158993549
 31
0.0
  0
LINE
  5
97C8
330
1F
100
AcDbEntity
  8
0
100
AcDbLine
 10
5.484273125032718
 20
4.028465900730658
 30
0.0
 11
5.485862311258696
 21
4.03053696854252
 31
0.0
  0
LINE
  5
97C9
330
1F
100
AcDbEntity
  8
0
100
AcDbLine
 10
5.485862311258696
 20
4.016394832918791
 30
0.0
 11
5.484273125032718
 21
4.018465900730657
 31
0.0
  0
LINE
  5
97CA
330
1F
100
AcDbEntity
  8
0
100
AcDbLine
 10
5.654603171420252
 20
4.020877710279631
 30
0.0
 11
5.6545543117888
 21
4.023465900730659
 31
0.0
  0
LINE
  5
97CB
330
1F
100
AcDbEntity
  8
0
100
AcDbLine
 10
5.654746420611459
 20
4.018465900730657
 30
0.0
 11
5.654603171420252
 21
4.020877710279631
 31
0.0
  0
LINE
  5
97CC
330
1F
100
AcDbEntity
  8
0
100
AcDbLine
 10
5.49293337907056
 20
4.013465900730658
 30
0.0
 11
5.490345188619535
 21
4.013806642467766
 31
0.0
  0
LINE
  5
97CD
330
1F
100
AcDbEntity
  8
0
100
AcDbLine
 10
5.654974297166774
 20
4.016394832918791
 30
0.0
 11
5.654746420611459
 21
4.018465900730657
 31
0.0
  0
LINE
  5
97CE
330
1F
100
AcDbEntity
  8
0
100
AcDbLine
 10
5.485862311258696
 20
4.03053696854252
 30
0.0
 11
5.487933379070561
 21
4.032126154768501
 31
0.0
  0
LINE
  5
97CF
330
1F
100
AcDbEntity
  8
0
100
AcDbLine
 10
5.654603171420252
 20
4.026054091181684
 30
0.0
 11
5.654746420611459
 21
4.028465900730658
 31
0.0
  0
LINE
  5
97D0
330
1F
100
AcDbEntity
  8
0
100
AcDbLine
 10
5.654974297166774
 20
4.03053696854252
 30
0.0
 11
5.655271271675541
 21
4.032126154768501
 31
0.0
  0
LINE
  5
97D1
330
1F
100
AcDbEntity
  8
0
100
AcDbLine
 10
5.655271271675541
 20
4.032126154768501
 30
0.0
 11
5.655617105815757
 21
4.033125158993549
 31
0.0
  0
LINE
  5
97D2
330
1F
100
AcDbEntity
  8
0
100
AcDbLine
 10
5.654746420611459
 20
4.028465900730658
 30
0.0
 11
5.654974297166774
 21
4.03053696854252
 31
0.0
  0
LINE
  5
97D3
330
1F
100
AcDbEntity
  8
0
100
AcDbLine
 10
5.655617105815757
 20
4.013806642467766
 30
0.0
 11
5.655271271675541
 21
4.014805646692813
 31
0.0
  0
LINE
  5
97D4
330
1F
100
AcDbEntity
  8
0
100
AcDbLine
 10
5.655988231562282
 20
4.013465900730658
 30
0.0
 11
5.655617105815757
 21
4.013806642467766
 31
0.0
  0
LINE
  5
97D5
330
1F
100
AcDbEntity
  8
0
100
AcDbLine
 10
5.655617105815757
 20
4.033125158993549
 30
0.0
 11
5.655988231562282
 21
4.033465900730657
 31
0.0
  0
LINE
  5
97D6
330
1F
100
AcDbEntity
  8
0
100
AcDbLine
 10
5.655271271675541
 20
4.014805646692813
 30
0.0
 11
5.654974297166774
 21
4.016394832918791
 31
0.0
  0
LINE
  5
97D7
330
1F
100
AcDbEntity
  8
0
100
AcDbLine
 10
5.490345188619535
 20
4.033125158993549
 30
0.0
 11
5.49293337907056
 21
4.033465900730657
 31
0.0
  0
LINE
  5
97D8
330
1F
100
AcDbEntity
  8
0
100
AcDbLine
 10
5.483274120807671
 20
4.026054091181684
 30
0.0
 11
5.484273125032718
 21
4.028465900730658
 31
0.0
  0
LINE
  5
97D9
330
1F
100
AcDbEntity
  8
0
100
AcDbLine
 10
5.482933379070562
 20
4.023465900730656
 30
0.0
 11
5.483274120807671
 21
4.026054091181684
 31
0.0
  0
LINE
  5
97DA
330
1F
100
AcDbEntity
  8
0
100
AcDbLine
 10
5.484273125032718
 20
4.018465900730657
 30
0.0
 11
5.483274120807671
 21
4.020877710279631
 31
0.0
  0
LINE
  5
97DB
330
1F
100
AcDbEntity
  8
0
100
AcDbLine
 10
5.6545543117888
 20
4.023465900730659
 30
0.0
 11
5.654603171420252
 21
4.026054091181684
 31
0.0
  0
LINE
  5
97DC
330
1F
100
AcDbEntity
  8
0
100
AcDbLine
 10
5.755417800684355
 20
4.033465900730657
 30
0.0
 11
5.655988231562282
 21
4.033465900730657
 31
0.0
  0
LINE
  5
97DD
330
1F
100
AcDbEntity
  8
0
100
AcDbLine
 10
5.755417800684355
 20
4.013465900730658
 30
0.0
 11
5.655988231562282
 21
4.013465900730658
 31
0.0
  0
LINE
  5
97DE
330
1F
100
AcDbEntity
  8
0
100
AcDbLine
 10
5.49293337907056
 20
4.033465900730657
 30
0.0
 11
5.655988231562282
 21
4.033465900730657
 31
0.0
  0
LINE
  5
97DF
330
1F
100
AcDbEntity
  8
0
100
AcDbLine
 10
5.49293337907056
 20
4.013465900730658
 30
0.0
 11
5.655988231562282
 21
4.013465900730658
 31
0.0
  0
LINE
  5
97E0
330
1F
100
AcDbEntity
  8
STREFA BEZPIECZEŃSTWA
100
AcDbLine
 10
5.755417800684357
 20
4.008905346638712
 30
0.0
 11
5.755417800684357
 21
4.066419254449311
 31
0.0
  0
LINE
  5
97FC
330
1F
100
AcDbEntity
  8
STREFA BEZPIECZEŃSTWA
100
AcDbLine
 10
9.059733285852361
 20
5.496534263282931
 30
0.0
 11
11.05973328585236
 21
5.496534263282931
 31
0.0
  0
LINE
  5
97FD
102
{ACAD_REACTORS
330
9826
102
}
330
1F
100
AcDbEntity
  8
STREFA BEZPIECZEŃSTWA
100
AcDbLine
 10
11.05973328585236
 20
5.496534263282931
 30
0.0
 11
11.05973328585236
 21
3.747572338727696
 31
0.0
  0
LINE
  5
97FE
330
1F
100
AcDbEntity
  8
STREFA BEZPIECZEŃSTWA
100
AcDbLine
 10
11.05973328585236
 20
3.747572338727696
 30
0.0
 11
11.05973328585236
 21
2.547572338727696
 31
0.0
  0
LINE
  5
9803
330
1F
100
AcDbEntity
  8
STREFA BEZPIECZEŃSTWA
100
AcDbLine
 10
8.555417800684409
 20
1.915363165396904
 30
0.0
 11
5.755417800684357
 21
1.915363165396904
 31
0.0
  0
LINE
  5
9804
330
1F
100
AcDbEntity
  8
STREFA BEZPIECZEŃSTWA
100
AcDbLine
 10
5.755417800684357
 20
1.915363165396904
 30
0.0
 11
4.255417800684357
 21
1.915363165396904
 31
0.0
  0
LINE
  5
980B
330
1F
100
AcDbEntity
  8
STREFA BEZPIECZEŃSTWA
100
AcDbLine
 10
4.255417800684344
 20
5.513806642467762
 30
0.0
 11
4.25541780068434
 21
8.696228914517092
 31
0.0
  0
LINE
  5
980D
330
1F
100
AcDbEntity
  8
STREFA BEZPIECZEŃSTWA
100
AcDbLine
 10
8.555417800684409
 20
1.915363165396904
 30
0.0
 11
8.55541780068442
 21
2.547572338727693
 31
0.0
  0
LINE
  5
980E
330
1F
100
AcDbEntity
  8
STREFA BEZPIECZEŃSTWA
100
AcDbLine
 10
8.55541780068442
 20
2.547572338727693
 30
0.0
 11
11.05973328585236
 21
2.547572338727696
 31
0.0
  0
LINE
  5
980F
102
{ACAD_REACTORS
330
983A
102
}
330
1F
100
AcDbEntity
  8
STREFA BEZPIECZEŃSTWA
100
AcDbLine
 10
4.255417800684357
 20
1.915363165396904
 30
0.0
 11
4.255417800684349
 21
2.520877710279631
 31
0.0
  0
LINE
  5
9810
102
{ACAD_REACTORS
330
9826
102
}
330
1F
100
AcDbEntity
  8
STREFA BEZPIECZEŃSTWA
100
AcDbLine
 10
3.96386507086995
 20
2.520877710279631
 30
0.0
 11
3.96386507086995
 21
5.513806642467766
 31
0.0
  0
LINE
  5
9811
102
{ACAD_REACTORS
330
983A
102
}
330
1F
100
AcDbEntity
  8
STREFA BEZPIECZEŃSTWA
100
AcDbLine
 10
4.25541780068434
 20
8.696228914517092
 30
0.0
 11
9.059733285852358
 21
8.696228914517092
 31
0.0
  0
LINE
  5
9812
330
1F
100
AcDbEntity
  8
STREFA BEZPIECZEŃSTWA
100
AcDbLine
 10
9.059733285852358
 20
8.696228914517092
 30
0.0
 11
9.059733285852361
 21
5.496534263282931
 31
0.0
  0
DIMENSION
  5
9813
102
{ACAD_XDICTIONARY
360
981E
102
}
102
{ACAD_REACTORS
330
9826
102
}
330
1F
100
AcDbEntity
  8
WYMIAR
100
AcDbDimension
  2
*D3
 10
11.05973328585236
 20
9.258288795085249
 30
0.0
 11
7.511799178361155
 21
9.470684898981353
 31
0.0
 70
    32
 71
     5
 42
7.095868214982411
  3
AR SKALA 1-50
100
AcDbAlignedDimension
 13
3.96386507086995
 23
5.513806642467766
 33
0.0
 14
11.05973328585236
 24
5.496534263282931
 34
0.0
100
AcDbRotatedDimension
  0
DIMENSION
  5
9827
102
{ACAD_XDICTIONARY
360
9832
102
}
102
{ACAD_REACTORS
330
983A
102
}
330
1F
100
AcDbEntity
  8
WYMIAR
100
AcDbDimension
  2
*D4
 10
3.106122908014484
 20
1.915363165396904
 30
0.0
 11
2.89372680411838
 21
5.305796039956999
 31
0.0
 70
    32
 71
     5
 42
6.780865749120189
  3
AR SKALA 1-50
100
AcDbAlignedDimension
 13
4.25541780068434
 23
8.696228914517092
 33
0.0
 14
4.255417800684357
 24
1.915363165396904
 34
0.0
 50
90.0
100
AcDbRotatedDimension
  0
LINE
  5
985E
330
1F
100
AcDbEntity
  8
STREFA BEZPIECZEŃSTWA
100
AcDbLine
 10
3.96386507086995
 20
5.513806642467766
 30
0.0
 11
4.255417800684344
 21
5.513806642467762
 31
0.0
  0
LINE
  5
9860
330
1F
100
AcDbEntity
  8
STREFA BEZPIECZEŃSTWA
100
AcDbLine
 10
4.255417800684349
 20
2.520877710279631
 30
0.0
 11
3.96386507086995
 21
2.520877710279631
 31
0.0
  0
LINE
  5
989B
330
1F
100
AcDbEntity
  8
0
100
AcDbLine
 10
5.953728226036233
 20
7.077321515086964
 30
0.0
 11
5.953728226036233
 21
6.294228914517097
 31
0.0
  0
LINE
  5
98DA
330
1F
100
AcDbEntity
  8
0
100
AcDbLine
 10
5.956704137378147
 20
6.190607433320497
 30
0.0
 11
5.856704137378147
 21
6.190607433320497
 31
0.0
  0
LINE
  5
98DB
330
1F
100
AcDbEntity
  8
0
100
AcDbLine
 10
5.856704137378147
 20
7.050584240838841
 30
0.0
 11
5.856704137378147
 21
6.190607433320497
 31
0.0
  0
LINE
  5
98DC
330
1F
100
AcDbEntity
  8
0
100
AcDbLine
 10
5.899360044374208
 20
6.695219778189738
 30
0.0
 11
5.91565103950809
 21
6.695219778189738
 31
0.0
  0
LINE
  5
98DD
330
1F
100
AcDbEntity
  8
0
100
AcDbLine
 10
5.899360044374208
 20
6.70426217818974
 30
0.0
 11
5.91565103950809
 21
6.70426217818974
 31
0.0
  0
LINE
  5
98DF
330
1F
100
AcDbEntity
  8
0
100
AcDbLine
 10
5.899360044374208
 20
6.448722715788935
 30
0.0
 11
5.91565103950809
 21
6.448722715788935
 31
0.0
  0
LINE
  5
98E0
330
1F
100
AcDbEntity
  8
0
100
AcDbLine
 10
5.901892477280486
 20
6.943168969177321
 30
0.0
 11
5.918183472414368
 21
6.943168969177321
 31
0.0
  0
LINE
  5
98E1
330
1F
100
AcDbEntity
  8
0
100
AcDbLine
 10
5.901892477280486
 20
6.952211369177323
 30
0.0
 11
5.918183472414368
 21
6.952211369177323
 31
0.0
  0
LINE
  5
98E2
330
1F
100
AcDbEntity
  8
0
100
AcDbLine
 10
5.856704137378147
 20
7.050584240838841
 30
0.0
 11
5.856704137378147
 21
7.077321515086968
 31
0.0
  0
LINE
  5
98E3
330
1F
100
AcDbEntity
  8
0
100
AcDbLine
 10
5.856704137378147
 20
7.196228914517096
 30
0.0
 11
5.956704137378146
 21
7.196228914517092
 31
0.0
  0
LINE
  5
98EB
330
1F
100
AcDbEntity
  8
0
100
AcDbLine
 10
5.901938494448129
 20
6.436061202071464
 30
0.0
 11
5.918229489582012
 21
6.436061202071464
 31
0.0
  0
LINE
  5
98EC
330
1F
100
AcDbEntity
  8
0
100
AcDbLine
 10
5.856704137378147
 20
7.196228914517096
 30
0.0
 11
5.856704137378147
 21
7.050584240838841
 31
0.0
  0
LINE
  5
98FD
330
1F
100
AcDbEntity
  8
0
100
AcDbLine
 10
7.164071395432783
 20
6.412099606543148
 30
0.0
 11
7.164071395432786
 21
6.419620312107428
 31
0.0
  0
ARC
  5
98FE
330
1F
100
AcDbEntity
  8
0
100
AcDbCircle
 10
6.95229255862611
 20
6.454101497141567
 30
0.0
 40
0.2159037622021181
100
AcDbArc
 50
271.4533564060679
 51
348.7821544540363
  0
ARC
  5
98FF
330
1F
100
AcDbEntity
  8
0
100
AcDbCircle
 10
6.953772207204528
 20
6.44975965576035
 30
0.0
 40
0.172945637548428
100
AcDbArc
 50
271.3240821443995
 51
349.963784439027
  0
LINE
  5
9900
330
1F
100
AcDbEntity
  8
0
100
AcDbLine
 10
7.124071395432784
 20
6.419620312107428
 30
0.0
 11
7.124071395432784
 21
6.694705896001692
 31
0.0
  0
LINE
  5
9901
330
1F
100
AcDbEntity
  8
0
100
AcDbLine
 10
7.164071395432818
 20
6.694705896001694
 30
0.0
 11
7.164071395432783
 21
6.412099606543148
 31
0.0
  0
LINE
  5
9902
330
1F
100
AcDbEntity
  8
0
100
AcDbLine
 10
7.164071395432785
 20
6.977312185460239
 30
0.0
 11
7.164071395432788
 21
6.969791479895959
 31
0.0
  0
ARC
  5
9903
330
1F
100
AcDbEntity
  8
0
100
AcDbCircle
 10
6.952292558626112
 20
6.93531029486182
 30
0.0
 40
0.2159037622021181
100
AcDbArc
 50
11.21784554596365
 51
82.99170690212212
  0
ARC
  5
9904
330
1F
100
AcDbEntity
  8
0
100
AcDbCircle
 10
6.953772207204529
 20
6.939652136243037
 30
0.0
 40
0.172945637548428
100
AcDbArc
 50
10.03621556097305
 51
81.73426765124965
  0
LINE
  5
9905
330
1F
100
AcDbEntity
  8
0
100
AcDbLine
 10
7.124071395432785
 20
6.969791479895959
 30
0.0
 11
7.124071395432784
 21
6.694705896001695
 31
0.0
  0
LINE
  5
9906
330
1F
100
AcDbEntity
  8
0
100
AcDbLine
 10
7.164071395432818
 20
6.694705896001694
 30
0.0
 11
7.164071395432785
 21
6.977312185460239
 31
0.0
  0
LINE
  5
9908
330
1F
100
AcDbEntity
  8
0
100
AcDbLine
 10
6.894116067639174
 20
7.077321515086964
 30
0.0
 11
6.894116067639176
 21
6.294228914517098
 31
0.0
  0
LINE
  5
990A
330
1F
100
AcDbEntity
  8
0
100
AcDbLine
 10
6.894116067639176
 20
6.294228914517098
 30
0.0
 11
6.927116067639176
 21
6.294228914517098
 31
0.0
  0
LINE
  5
990B
330
1F
100
AcDbEntity
  8
0
100
AcDbLine
 10
6.927116067639176
 20
6.294228914517098
 30
0.0
 11
6.927116067639171
 21
7.077321515086964
 31
0.0
  0
VIEWPORT
  5
7CA
330
1B
100
AcDbEntity
 67
     1
  8
0
100
AcDbViewport
 10
227.5469376790073
 20
225.4028465150061
 30
0.0
 40
1064.159005702636
 41
526.7851794398622
 68
     2
 69
     1
 12
227.5469376790073
 22
225.4028465150061
 13
0.0
 23
0.0
 14
10.0
 24
10.0
 15
10.0
 25
10.0
 16
0.0
 26
0.0
 36
1.0
 17
0.0
 27
0.0
 37
0.0
 42
50.0
 43
0.0
 44
0.0
 45
526.7851794398622
 50
0.0
 51
0.0
 72
   100
 90
   819232
  1

281
     0
 71
     1
 74
     0
110
0.0
120
0.0
130
0.0
111
1.0
121
0.0
131
0.0
112
0.0
122
1.0
132
0.0
 79
     0
146
0.0
170
     0
  0
VIEWPORT
  5
99A
330
1B
100
AcDbEntity
 67
     1
  8
Defpoints
100
AcDbViewport
 10
211.6374382675827
 20
146.9348621411756
 30
0.0
 40
410.1517866444555
 41
287.3053455326816
 68
     1
 69
     2
 12
6.723315891245686
 22
5.803809306072883
 13
0.0
 23
0.0
 14
0.5
 24
0.5
 15
0.5
 25
0.5
 16
0.0
 26
0.0
 36
1.0
 17
0.0
 27
0.0
 37
-1000.0
 42
50.0
 43
4.148984367261674
 44
9.217858496371269
 45
7.920172554520639
 50
0.0
 51
0.0
 72
   100
 90
   819296
  1

281
     0
 71
     1
 74
     0
110
0.0
120
0.0
130
0.0
111
1.0
121
0.0
131
0.0
112
0.0
122
1.0
132
0.0
 79
     0
146
0.0
170
     0
  0
ENDSEC
  0
SECTION
  2
OBJECTS
  0
DICTIONARY
  5
C
330
0
100
AcDbDictionary
281
     1
  3
ACAD_COLOR
350
4B9
  3
ACAD_GROUP
350
D
  3
ACAD_LAYOUT
350
1A
  3
ACAD_MATERIAL
350
3B
  3
ACAD_MLEADERSTYLE
350
489
  3
ACAD_MLINESTYLE
350
17
  3
ACAD_PLOTSETTINGS
350
19
  3
ACAD_PLOTSTYLENAME
350
E
  3
ACAD_SCALELIST
350
8C69
  3
ACAD_TABLESTYLE
350
4BA
  3
ACAD_VISUALSTYLE
350
2A
  3
ACDB_RECOMPOSE_DATA
350
8CA2
  3
AcDbVariableDictionary
350
487
  0
DICTIONARY
  5
84C
330
8
100
AcDbDictionary
280
     1
281
     1
  0
DICTIONARY
  5
7D1
330
2
100
AcDbDictionary
280
     1
281
     1
  3
ACAD_LAYERFILTERS
360
986F
  3
ACAD_LAYERSTATES
360
7D2
  3
ACLYDICTIONARY
360
986E
  0
DICTIONARY
  5
8C9A
330
10
100
AcDbDictionary
280
     1
281
     1
  3
ADSK_XREC_LAYER_RECONCILED
360
8C9B
  0
DICTIONARY
  5
8C9C
330
87B
100
AcDbDictionary
280
     1
281
     1
  3
ADSK_XREC_LAYER_RECONCILED
360
8C9D
  0
DICTIONARY
  5
8C9E
330
87D
100
AcDbDictionary
280
     1
281
     1
  3
ADSK_XREC_LAYER_RECONCILED
360
8C9F
  0
DICTIONARY
  5
5F8
330
1F
100
AcDbDictionary
280
     1
281
     1
  3
ACAD_SORTENTS
360
5F9
  0
DICTIONARY
  5
8D7B
330
8D3F
100
AcDbDictionary
280
     1
281
     1
  3
ACAD_SORTENTS
360
8D7C
  0
DICTIONARY
  5
91DA
330
91D8
100
AcDbDictionary
280
     1
281
     1
  3
ACAD_SORTENTS
360
91DB
  0
DICTIONARY
  5
981E
330
9813
100
AcDbDictionary
280
     1
281
     1
  3
ACAD_DIMASSOC
360
9826
  0
DICTIONARY
  5
9832
330
9827
100
AcDbDictionary
280
     1
281
     1
  3
ACAD_DIMASSOC
360
983A
  0
DICTIONARY
  5
4B9
102
{ACAD_REACTORS
330
C
102
}
330
C
100
AcDbDictionary
281
     1
  0
DICTIONARY
  5
D
102
{ACAD_REACTORS
330
C
102
}
330
C
100
AcDbDictionary
281
     1
  0
DICTIONARY
  5
1A
102
{ACAD_REACTORS
330
C
102
}
330
C
100
AcDbDictionary
281
     1
  3
Layout1
350
1E
  3
Model
350
22
  0
DICTIONARY
  5
3B
102
{ACAD_REACTORS
330
C
102
}
330
C
100
AcDbDictionary
281
     1
  3
ByBlock
350
3D
  3
ByLayer
350
3C
  3
Global
350
3E
  0
DICTIONARY
  5
489
102
{ACAD_REACTORS
330
C
102
}
330
C
100
AcDbDictionary
281
     1
  3
Standard
350
8C8B
  0
DICTIONARY
  5
17
102
{ACAD_REACTORS
330
C
102
}
330
C
100
AcDbDictionary
281
     1
  3
Standard
350
18
  0
DICTIONARY
  5
19
102
{ACAD_REACTORS
330
C
102
}
330
C
100
AcDbDictionary
281
     1
  0
ACDBDICTIONARYWDFLT
  5
E
102
{ACAD_REACTORS
330
C
102
}
330
C
100
AcDbDictionary
281
     1
  3
Normal
350
F
100
AcDbDictionaryWithDefault
340
F
  0
DICTIONARY
  5
8C69
102
{ACAD_REACTORS
330
C
102
}
330
C
100
AcDbDictionary
281
     1
  3
A0
350
8C6A
  3
A1
350
8C6B
  3
A2
350
8C6C
  3
A3
350
8C6D
  3
A4
350
8C6E
  3
A5
350
8C6F
  3
A6
350
8C70
  3
A7
350
8C71
  3
A8
350
8C72
  3
A9
350
8C73
  3
B0
350
8C74
  3
B1
350
8C75
  3
B2
350
8C76
  3
B3
350
8C77
  3
B4
350
8C78
  3
B5
350
8C79
  3
B6
350
8C7A
  3
B7
350
8C7B
  3
B8
350
8C7C
  3
B9
350
8C7D
  3
C0
350
8C7E
  3
C1
350
8C7F
  3
C2
350
8C80
  3
C3
350
8C81
  3
C4
350
8C82
  3
C5
350
8C83
  3
C6
350
8C84
  3
C7
350
8C85
  3
C8
350
8C86
  3
C9
350
8C87
  3
D0
350
8C88
  3
D1
350
8C89
  3
D2
350
8C8A
  0
DICTIONARY
  5
4BA
102
{ACAD_REACTORS
330
C
102
}
330
C
100
AcDbDictionary
281
     1
  3
Standard
350
4BB
  0
DICTIONARY
  5
2A
102
{ACAD_REACTORS
330
C
102
}
330
C
100
AcDbDictionary
281
     1
  3
2dWireframe
350
2F
  3
3D Hidden
350
A47
  3
3dWireframe
350
A48
  3
Basic
350
32
  3
Brighten
350
36
  3
ColorChange
350
3A
  3
Conceptual
350
A4B
  3
Dim
350
35
  3
Facepattern
350
39
  3
Flat
350
2B
  3
FlatWithEdges
350
2C
  3
Gouraud
350
2D
  3
GouraudWithEdges
350
2E
  3
Linepattern
350
38
  3
Realistic
350
A4C
  3
Thicken
350
37
  0
XRECORD
  5
8CA2
102
{ACAD_REACTORS
330
C
102
}
330
C
100
AcDbXrecord
280
     1
 90
        1
330
4BB
  0
DICTIONARY
  5
487
102
{ACAD_REACTORS
330
C
102
}
330
C
100
AcDbDictionary
281
     1
  3
CANNOSCALE
350
8CA5
  3
CMLEADERSTYLE
350
8CA3
  3
CTABLESTYLE
350
5FE
  3
DIMASSOC
350
48A
  3
HIDETEXT
350
48B
  3
INDEXCTL
350
86B
  3
LIGHTINGUNITS
350
8CA6
  3
MSLTSCALE
350
8CA4
  3
SORTENTS
350
86A
  0
DICTIONARY
  5
986F
102
{ACAD_REACTORS
330
7D1
102
}
330
7D1
100
AcDbDictionary
281
     1
  0
DICTIONARY
  5
7D2
102
{ACAD_REACTORS
330
7D1
102
}
330
7D1
100
AcDbDictionary
281
     1
  0
DICTIONARY
  5
986E
102
{ACAD_REACTORS
330
7D1
102
}
330
7D1
100
AcDbDictionary
281
     1
1001
ACAD
1000
<All
  0
XRECORD
  5
8C9B
102
{ACAD_REACTORS
330
8C9A
102
}
330
8C9A
100
AcDbXrecord
280
     1
290
     1
  0
XRECORD
  5
8C9D
102
{ACAD_REACTORS
330
8C9C
102
}
330
8C9C
100
AcDbXrecord
280
     1
290
     1
  0
XRECORD
  5
8C9F
102
{ACAD_REACTORS
330
8C9E
102
}
330
8C9E
100
AcDbXrecord
280
     1
290
     1
  0
SORTENTSTABLE
  5
5F9
102
{ACAD_REACTORS
330
5F8
102
}
330
5F8
100
AcDbSortentsTable
330
1F
  0
SORTENTSTABLE
  5
8D7C
102
{ACAD_REACTORS
330
8D7B
102
}
330
8D7B
100
AcDbSortentsTable
330
8D3F
  0
SORTENTSTABLE
  5
91DB
102
{ACAD_REACTORS
330
91DA
102
}
330
91DA
100
AcDbSortentsTable
330
91D8
  0
DIMASSOC
  5
9826
102
{ACAD_REACTORS
330
981E
102
}
330
981E
100
AcDbDimAssoc
330
9813
 90
        3
 70
     0
 71
     0
  1
AcDbOsnapPointRef
 72
     1
331
9810
 73
     2
 91
        0
 40
1.0
 10
0.0
 20
0.0
 30
2.000000000000000E+50
 75
     0
  1
AcDbOsnapPointRef
 72
    13
331
97FD
 73
     2
 91
        0
 40
0.0
 10
0.0
 20
0.0
 30
2.000000000000000E+50
 75
     0
  0
DIMASSOC
  5
983A
102
{ACAD_REACTORS
330
9832
102
}
330
9832
100
AcDbDimAssoc
330
9827
 90
        3
 70
     0
 71
     0
  1
AcDbOsnapPointRef
 72
    13
331
9811
 73
     2
 91
        0
 40
0.0
 10
0.0
 20
0.0
 30
2.000000000000000E+50
 75
     0
  1
AcDbOsnapPointRef
 72
    13
331
980F
 73
     2
 91
        0
 40
0.0
 10
0.0
 20
0.0
 30
2.000000000000000E+50
 75
     0
  0
LAYOUT
  5
1E
102
{ACAD_XDICTIONARY
360
7D4
102
}
102
{ACAD_REACTORS
330
1A
102
}
330
1A
100
AcDbPlotSettings
  1

  2
Bullzip PDF Printer
  4
A3
  6

 40
3.174999952316284
 41
3.174999952316284
 42
3.17498779296875
 43
3.17498779296875
 44
297.0530090332031
 45
420.1583251953125
 46
0.0
 47
0.0
 48
6.561544945354853
 49
3.282189374834842
140
416.7133315898103
141
290.5875349075164
142
1.0
143
1.0
 70
   672
 72
     1
 73
     1
 74
     4
  7
RINTAL 1.10.ctb
 75
    16
147
25.4
 76
     0
 77
     2
 78
   300
148
-6.561544945354853
149
-3.282189374834842
100
AcDbLayout
  1
Layout1
 70
     0
 71
     1
 10
3.386557152386103
 20
0.1071894225185588
 11
423.5448823476986
 21
297.1601984557217
 12
0.0
 22
0.0
 32
0.0
 14
6.561544945354853
 24
3.282189374834842
 34
0.0
 15
416.7133315898103
 25
290.5875349075164
 35
0.0
146
0.0
 13
0.0
 23
0.0
 33
0.0
 16
1.0
 26
0.0
 36
0.0
 17
0.0
 27
1.0
 37
0.0
 76
     0
330
1B
331
99A
1001
ACAD_PSEXT
1000
Bullzip PDF Printer
1000
Bullzip PDF Printer
1000
BULLZIP
1000
Bullzip PDF Printer 7.2.0.1338
1070
     0
  0
LAYOUT
  5
22
102
{ACAD_REACTORS
330
1A
102
}
330
1A
100
AcDbPlotSettings
  1

  2
none_device
  4

  6

 40
0.0
 41
0.0
 42
0.0
 43
0.0
 44
0.0
 45
0.0
 46
0.0
 47
0.0
 48
0.0
 49
0.0
140
0.0
141
0.0
142
1.0
143
1.0
 70
  1712
 72
     0
 73
     0
 74
     0
  7

 75
     0
147
1.0
 76
     0
 77
     2
 78
   300
148
0.0
149
0.0
100
AcDbLayout
  1
Model
 70
     1
 71
     0
 10
0.0
 20
0.0
 11
12.0
 21
9.0
 12
0.0
 22
0.0
 32
0.0
 14
1.000000000000000E+20
 24
1.000000000000000E+20
 34
1.000000000000000E+20
 15
-1.000000000000000E+20
 25
-1.000000000000000E+20
 35
-1.000000000000000E+20
146
0.0
 13
0.0
 23
0.0
 33
0.0
 16
1.0
 26
0.0
 36
0.0
 17
0.0
 27
1.0
 37
0.0
 76
     0
330
1F
331
29
  0
MATERIAL
  5
3D
102
{ACAD_XDICTIONARY
360
991B
102
}
102
{ACAD_REACTORS
330
3B
102
}
330
3B
100
AcDbMaterial
  1
ByBlock
 73
     1
 78
     1
172
     1
176
     1
270
     1
274
     1
  0
MATERIAL
  5
3C
102
{ACAD_XDICTIONARY
360
9919
102
}
102
{ACAD_REACTORS
330
3B
102
}
330
3B
100
AcDbMaterial
  1
ByLayer
 73
     1
 78
     1
172
     1
176
     1
270
     1
274
     1
  0
MATERIAL
  5
3E
102
{ACAD_XDICTIONARY
360
991D
102
}
102
{ACAD_REACTORS
330
3B
102
}
330
3B
100
AcDbMaterial
  1
Global
 73
     1
 78
     1
172
     1
176
     1
270
     1
274
     1
  0
MLEADERSTYLE
  5
8C8B
102
{ACAD_REACTORS
330
489
102
}
330
489
100
AcDbMLeaderStyle
170
     2
171
     1
172
     0
 90
        2
 40
0.0
 41
0.0
173
     1
 91
-1056964608
340
14
 92
       -2
290
     1
 42
0.09
291
     1
 43
0.36
  3
Standard
 44
0.18
300

342
11
174
     1
178
     6
175
     1
176
     0
 93
-1056964608
 45
0.18
292
     0
297
     0
 46
0.18
 94
-1056964608
 47
1.0
 49
1.0
140
1.0
293
     1
141
0.0
294
     1
177
     0
142
1.0
295
     0
296
     0
143
0.125
1001
ACAD_MLEADERVER
1070
     2
  0
MLINESTYLE
  5
18
102
{ACAD_REACTORS
330
17
102
}
330
17
100
AcDbMlineStyle
  2
STANDARD
 70
     0
  3

 62
   256
 51
90.0
 52
90.0
 71
     2
 49
0.5
 62
   256
  6
BYLAYER
 49
-0.5
 62
   256
  6
BYLAYER
  0
ACDBPLACEHOLDER
  5
F
102
{ACAD_REACTORS
330
E
102
}
330
E
  0
SCALE
  5
8C6A
102
{ACAD_REACTORS
330
8C69
102
}
330
8C69
100
AcDbScale
 70
     0
300
1:1
140
1.0
141
1.0
290
     1
  0
SCALE
  5
8C6B
102
{ACAD_REACTORS
330
8C69
102
}
330
8C69
100
AcDbScale
 70
     0
300
1:2
140
1.0
141
2.0
290
     0
  0
SCALE
  5
8C6C
102
{ACAD_REACTORS
330
8C69
102
}
330
8C69
100
AcDbScale
 70
     0
300
1:4
140
1.0
141
4.0
290
     0
  0
SCALE
  5
8C6D
102
{ACAD_REACTORS
330
8C69
102
}
330
8C69
100
AcDbScale
 70
     0
300
1:5
140
1.0
141
5.0
290
     0
  0
SCALE
  5
8C6E
102
{ACAD_REACTORS
330
8C69
102
}
330
8C69
100
AcDbScale
 70
     0
300
1:8
140
1.0
141
8.0
290
     0
  0
SCALE
  5
8C6F
102
{ACAD_REACTORS
330
8C69
102
}
330
8C69
100
AcDbScale
 70
     0
300
1:10
140
1.0
141
10.0
290
     0
  0
SCALE
  5
8C70
102
{ACAD_REACTORS
330
8C69
102
}
330
8C69
100
AcDbScale
 70
     0
300
1:16
140
1.0
141
16.0
290
     0
  0
SCALE
  5
8C71
102
{ACAD_REACTORS
330
8C69
102
}
330
8C69
100
AcDbScale
 70
     0
300
1:20
140
1.0
141
20.0
290
     0
  0
SCALE
  5
8C72
102
{ACAD_REACTORS
330
8C69
102
}
330
8C69
100
AcDbScale
 70
     0
300
1:30
140
1.0
141
30.0
290
     0
  0
SCALE
  5
8C73
102
{ACAD_REACTORS
330
8C69
102
}
330
8C69
100
AcDbScale
 70
     0
300
1:40
140
1.0
141
40.0
290
     0
  0
SCALE
  5
8C74
102
{ACAD_REACTORS
330
8C69
102
}
330
8C69
100
AcDbScale
 70
     0
300
1:50
140
1.0
141
50.0
290
     0
  0
SCALE
  5
8C75
102
{ACAD_REACTORS
330
8C69
102
}
330
8C69
100
AcDbScale
 70
     0
300
1:100
140
1.0
141
100.0
290
     0
  0
SCALE
  5
8C76
102
{ACAD_REACTORS
330
8C69
102
}
330
8C69
100
AcDbScale
 70
     0
300
2:1
140
2.0
141
1.0
290
     0
  0
SCALE
  5
8C77
102
{ACAD_REACTORS
330
8C69
102
}
330
8C69
100
AcDbScale
 70
     0
300
4:1
140
4.0
141
1.0
290
     0
  0
SCALE
  5
8C78
102
{ACAD_REACTORS
330
8C69
102
}
330
8C69
100
AcDbScale
 70
     0
300
8:1
140
8.0
141
1.0
290
     0
  0
SCALE
  5
8C79
102
{ACAD_REACTORS
330
8C69
102
}
330
8C69
100
AcDbScale
 70
     0
300
10:1
140
10.0
141
1.0
290
     0
  0
SCALE
  5
8C7A
102
{ACAD_REACTORS
330
8C69
102
}
330
8C69
100
AcDbScale
 70
     0
300
100:1
140
100.0
141
1.0
290
     0
  0
SCALE
  5
8C7B
102
{ACAD_REACTORS
330
8C69
102
}
330
8C69
100
AcDbScale
 70
     0
300
1/128" = 1'-0"
140
0.0078125
141
12.0
290
     0
  0
SCALE
  5
8C7C
102
{ACAD_REACTORS
330
8C69
102
}
330
8C69
100
AcDbScale
 70
     0
300
1/64" = 1'-0"
140
0.015625
141
12.0
290
     0
  0
SCALE
  5
8C7D
102
{ACAD_REACTORS
330
8C69
102
}
330
8C69
100
AcDbScale
 70
     0
300
1/32" = 1'-0"
140
0.03125
141
12.0
290
     0
  0
SCALE
  5
8C7E
102
{ACAD_REACTORS
330
8C69
102
}
330
8C69
100
AcDbScale
 70
     0
300
1/16" = 1'-0"
140
0.0625
141
12.0
290
     0
  0
SCALE
  5
8C7F
102
{ACAD_REACTORS
330
8C69
102
}
330
8C69
100
AcDbScale
 70
     0
300
3/32" = 1'-0"
140
0.09375
141
12.0
290
     0
  0
SCALE
  5
8C80
102
{ACAD_REACTORS
330
8C69
102
}
330
8C69
100
AcDbScale
 70
     0
300
1/8" = 1'-0"
140
0.125
141
12.0
290
     0
  0
SCALE
  5
8C81
102
{ACAD_REACTORS
330
8C69
102
}
330
8C69
100
AcDbScale
 70
     0
300
3/16" = 1'-0"
140
0.1875
141
12.0
290
     0
  0
SCALE
  5
8C82
102
{ACAD_REACTORS
330
8C69
102
}
330
8C69
100
AcDbScale
 70
     0
300
1/4" = 1'-0"
140
0.25
141
12.0
290
     0
  0
SCALE
  5
8C83
102
{ACAD_REACTORS
330
8C69
102
}
330
8C69
100
AcDbScale
 70
     0
300
3/8" = 1'-0"
140
0.375
141
12.0
290
     0
  0
SCALE
  5
8C84
102
{ACAD_REACTORS
330
8C69
102
}
330
8C69
100
AcDbScale
 70
     0
300
1/2" = 1'-0"
140
0.5
141
12.0
290
     0
  0
SCALE
  5
8C85
102
{ACAD_REACTORS
330
8C69
102
}
330
8C69
100
AcDbScale
 70
     0
300
3/4" = 1'-0"
140
0.75
141
12.0
290
     0
  0
SCALE
  5
8C86
102
{ACAD_REACTORS
330
8C69
102
}
330
8C69
100
AcDbScale
 70
     0
300
1" = 1'-0"
140
1.0
141
12.0
290
     0
  0
SCALE
  5
8C87
102
{ACAD_REACTORS
330
8C69
102
}
330
8C69
100
AcDbScale
 70
     0
300
1-1/2" = 1'-0"
140
1.5
141
12.0
290
     0
  0
SCALE
  5
8C88
102
{ACAD_REACTORS
330
8C69
102
}
330
8C69
100
AcDbScale
 70
     0
300
3" = 1'-0"
140
3.0
141
12.0
290
     0
  0
SCALE
  5
8C89
102
{ACAD_REACTORS
330
8C69
102
}
330
8C69
100
AcDbScale
 70
     0
300
6" = 1'-0"
140
6.0
141
12.0
290
     0
  0
SCALE
  5
8C8A
102
{ACAD_REACTORS
330
8C69
102
}
330
8C69
100
AcDbScale
 70
     0
300
1'-0" = 1'-0"
140
12.0
141
12.0
290
     0
  0
TABLESTYLE
  5
4BB
102
{ACAD_XDICTIONARY
360
8CA0
102
}
102
{ACAD_REACTORS
330
4BA
102
}
330
4BA
100
AcDbTableStyle
  3
Standard
 70
     0
 71
     0
 40
0.06
 41
0.06
280
     0
281
     0
  7
Standard
140
0.18
170
     2
 62
     0
 63
     7
283
     0
274
    -2
284
     1
 64
     0
275
    -2
285
     1
 65
     0
276
    -2
286
     1
 66
     0
277
    -2
287
     1
 67
     0
278
    -2
288
     1
 68
     0
279
    -2
289
     1
 69
     0
  7
Standard
140
0.25
170
     5
 62
     0
 63
     7
283
     0
274
    -2
284
     1
 64
     0
275
    -2
285
     1
 65
     0
276
    -2
286
     1
 66
     0
277
    -2
287
     1
 67
     0
278
    -2
288
     1
 68
     0
279
    -2
289
     1
 69
     0
  7
Standard
140
0.18
170
     5
 62
     0
 63
     7
283
     0
274
    -2
284
     1
 64
     0
275
    -2
285
     1
 65
     0
276
    -2
286
     1
 66
     0
277
    -2
287
     1
 67
     0
278
    -2
288
     1
 68
     0
279
    -2
289
     1
 69
     0
  0
VISUALSTYLE
  5
2F
102
{ACAD_XDICTIONARY
360
49A
102
}
102
{ACAD_REACTORS
330
2A
102
}
330
2A
100
AcDbVisualStyle
  2
2dWireframe
 70
     4
 71
     0
 72
     2
 73
     0
 90
        0
 40
-0.6
 41
-30.0
 62
     5
 63
     7
 74
     1
 91
        4
 64
     7
 65
   257
 75
     1
175
     1
 42
1.0
 92
        0
 66
   257
 43
1.0
 76
     1
 77
     6
 78
     2
 67
     7
 79
     5
170
     0
171
     0
290
     0
174
     0
 93
        1
 44
0.0
173
     0
291
     0
 45
0.0
1001
ACAD
1000
AcDbSavedByObjectVersion
1070
     0
  0
VISUALSTYLE
  5
A47
102
{ACAD_REACTORS
330
2A
102
}
330
2A
100
AcDbVisualStyle
  2
3D Hidden
 70
     6
 71
     1
 72
     2
 73
     2
 90
        0
 40
-0.6
 41
-30.0
 62
     5
 63
     7
 74
     2
 91
        2
 64
     7
 65
   257
 75
     2
175
     1
 42
40.0
 92
        0
 66
   257
 43
1.0
 76
     1
 77
     6
 78
     2
 67
     7
 79
     3
170
     0
171
     0
290
     0
174
     0
 93
        1
 44
0.0
173
     0
291
     0
 45
0.0
1001
ACAD
1000
AcDbSavedByObjectVersion
1070
     0
  0
VISUALSTYLE
  5
A48
102
{ACAD_XDICTIONARY
360
A49
102
}
102
{ACAD_REACTORS
330
2A
102
}
330
2A
100
AcDbVisualStyle
  2
3dWireframe
 70
     5
 71
     0
 72
     2
 73
     0
 90
        0
 40
-0.6
 41
-30.0
 62
     5
 63
     7
 74
     1
 91
        4
 64
     7
 65
   257
 75
     1
175
     1
 42
1.0
 92
        0
 66
   257
 43
1.0
 76
     1
 77
     6
 78
     2
 67
     7
 79
     5
170
     0
171
     0
290
     0
174
     0
 93
        1
 44
0.0
173
     0
291
     0
 45
0.0
1001
ACAD
1000
AcDbSavedByObjectVersion
1070
     0
  0
VISUALSTYLE
  5
32
102
{ACAD_XDICTIONARY
360
4A0
102
}
102
{ACAD_REACTORS
330
2A
102
}
330
2A
100
AcDbVisualStyle
  2
Basic
 70
     7
 71
     1
 72
     0
 73
     1
 90
        0
 40
-0.6
 41
-30.0
 62
     5
 63
     7
 74
     0
 91
        4
 64
     7
 65
   257
 75
     1
175
     1
 42
1.0
 92
        8
 66
     7
 43
1.0
 76
     1
 77
     6
 78
     2
 67
     7
 79
     5
170
     0
171
     0
290
     0
174
     0
 93
        1
 44
0.0
173
     0
291
     1
 45
0.0
1001
ACAD
1000
AcDbSavedByObjectVersion
1070
     0
  0
VISUALSTYLE
  5
36
102
{ACAD_XDICTIONARY
360
4A8
102
}
102
{ACAD_REACTORS
330
2A
102
}
330
2A
100
AcDbVisualStyle
  2
Brighten
 70
    12
 71
     2
 72
     2
 73
     0
 90
        0
 40
-0.6
 41
-30.0
 62
     5
 63
     7
 74
     1
 91
        4
 64
     7
 65
   257
 75
     1
175
     1
 42
1.0
 92
        8
 66
     7
 43
1.0
 76
     1
 77
     6
 78
     2
 67
     7
 79
     5
170
     0
171
     0
290
     0
174
     0
 93
        1
 44
50.0
173
     0
291
     1
 45
0.0
1001
ACAD
1000
AcDbSavedByObjectVersion
1070
     0
  0
VISUALSTYLE
  5
3A
102
{ACAD_XDICTIONARY
360
4B0
102
}
102
{ACAD_REACTORS
330
2A
102
}
330
2A
100
AcDbVisualStyle
  2
ColorChange
 70
    16
 71
     2
 72
     2
 73
     3
 90
        0
 40
-0.6
 41
-30.0
 62
     5
 63
     8
 74
     1
 91
        4
 64
     7
 65
   257
 75
     1
175
     1
 42
1.0
 92
        8
 66
     8
 43
1.0
 76
     1
 77
     6
 78
     2
 67
     7
 79
     5
170
     0
171
     0
290
     0
174
     0
 93
        1
 44
0.0
173
     0
291
     1
 45
0.0
1001
ACAD
1000
AcDbSavedByObjectVersion
1070
     0
  0
VISUALSTYLE
  5
A4B
102
{ACAD_REACTORS
330
2A
102
}
330
2A
100
AcDbVisualStyle
  2
Conceptual
 70
     9
 71
     3
 72
     2
 73
     0
 90
        0
 40
-0.6
 41
-30.0
 62
     5
 63
     7
 74
     2
 91
        2
 64
     7
 65
   257
 75
     1
175
     1
 42
40.0
 92
        8
 66
     7
 43
1.0
 76
     1
 77
     6
 78
     2
 67
     7
 79
     3
170
     0
171
     0
290
     0
174
     0
 93
        1
 44
0.0
173
     0
291
     0
 45
0.0
1001
ACAD
1000
AcDbSavedByObjectVersion
1070
     0
  0
VISUALSTYLE
  5
35
102
{ACAD_XDICTIONARY
360
4A6
102
}
102
{ACAD_REACTORS
330
2A
102
}
330
2A
100
AcDbVisualStyle
  2
Dim
 70
    11
 71
     2
 72
     2
 73
     0
 90
        0
 40
-0.6
 41
-30.0
 62
     5
 63
     7
 74
     1
 91
        4
 64
     7
 65
   257
 75
     1
175
     1
 42
1.0
 92
        8
 66
     7
 43
1.0
 76
     1
 77
     6
 78
     2
 67
     7
 79
     5
170
     0
171
     0
290
     0
174
     0
 93
        1
 44
-50.0
173
     0
291
     1
 45
0.0
1001
ACAD
1000
AcDbSavedByObjectVersion
1070
     0
  0
VISUALSTYLE
  5
39
102
{ACAD_XDICTIONARY
360
4AE
102
}
102
{ACAD_REACTORS
330
2A
102
}
330
2A
100
AcDbVisualStyle
  2
Facepattern
 70
    15
 71
     2
 72
     2
 73
     0
 90
        0
 40
-0.6
 41
-30.0
 62
     5
 63
     7
 74
     1
 91
        4
 64
     7
 65
   257
 75
     1
175
     1
 42
1.0
 92
        8
 66
     7
 43
1.0
 76
     1
 77
     6
 78
     2
 67
     7
 79
     5
170
     0
171
     0
290
     0
174
     0
 93
        1
 44
0.0
173
     0
291
     1
 45
0.0
1001
ACAD
1000
AcDbSavedByObjectVersion
1070
     0
  0
VISUALSTYLE
  5
2B
102
{ACAD_XDICTIONARY
360
492
102
}
102
{ACAD_REACTORS
330
2A
102
}
330
2A
100
AcDbVisualStyle
  2
Flat
 70
     0
 71
     2
 72
     1
 73
     1
 90
        2
 40
-0.6
 41
30.0
 62
     5
 63
     7
 74
     0
 91
        4
 64
     7
 65
   257
 75
     1
175
     1
 42
1.0
 92
        8
 66
     7
 43
1.0
 76
     1
 77
     6
 78
     2
 67
     7
 79
     5
170
     0
171
     0
290
     0
174
     0
 93
       13
 44
0.0
173
     0
291
     1
 45
0.0
1001
ACAD
1000
AcDbSavedByObjectVersion
1070
     0
  0
VISUALSTYLE
  5
2C
102
{ACAD_XDICTIONARY
360
494
102
}
102
{ACAD_REACTORS
330
2A
102
}
330
2A
100
AcDbVisualStyle
  2
FlatWithEdges
 70
     1
 71
     2
 72
     1
 73
     1
 90
        2
 40
-0.6
 41
30.0
 62
     5
 63
     7
 74
     1
 91
        4
 64
     7
 65
   257
 75
     1
175
     1
 42
1.0
 92
        0
 66
   257
 43
1.0
 76
     1
 77
     6
 78
     2
 67
     7
 79
     5
170
     0
171
     0
290
     0
174
     0
 93
       13
 44
0.0
173
     0
291
     1
 45
0.0
1001
ACAD
1000
AcDbSavedByObjectVersion
1070
     0
  0
VISUALSTYLE
  5
2D
102
{ACAD_XDICTIONARY
360
496
102
}
102
{ACAD_REACTORS
330
2A
102
}
330
2A
100
AcDbVisualStyle
  2
Gouraud
 70
     2
 71
     2
 72
     2
 73
     1
 90
        2
 40
-0.6
 41
30.0
 62
     5
 63
     7
 74
     0
 91
        4
 64
     7
 65
   257
 75
     1
175
     1
 42
1.0
 92
        0
 66
     7
 43
1.0
 76
     1
 77
     6
 78
     2
 67
     7
 79
     5
170
     0
171
     0
290
     0
174
     0
 93
       13
 44
0.0
173
     0
291
     1
 45
0.0
1001
ACAD
1000
AcDbSavedByObjectVersion
1070
     0
  0
VISUALSTYLE
  5
2E
102
{ACAD_XDICTIONARY
360
498
102
}
102
{ACAD_REACTORS
330
2A
102
}
330
2A
100
AcDbVisualStyle
  2
GouraudWithEdges
 70
     3
 71
     2
 72
     2
 73
     1
 90
        2
 40
-0.6
 41
30.0
 62
     5
 63
     7
 74
     1
 91
        4
 64
     7
 65
   257
 75
     1
175
     1
 42
1.0
 92
        0
 66
   257
 43
1.0
 76
     1
 77
     6
 78
     2
 67
     7
 79
     5
170
     0
171
     0
290
     0
174
     0
 93
       13
 44
0.0
173
     0
291
     1
 45
0.0
1001
ACAD
1000
AcDbSavedByObjectVersion
1070
     0
  0
VISUALSTYLE
  5
38
102
{ACAD_XDICTIONARY
360
4AC
102
}
102
{ACAD_REACTORS
330
2A
102
}
330
2A
100
AcDbVisualStyle
  2
Linepattern
 70
    14
 71
     2
 72
     2
 73
     0
 90
        0
 40
-0.6
 41
-30.0
 62
     5
 63
     7
 74
     1
 91
        4
 64
     7
 65
   257
 75
     7
175
     7
 42
1.0
 92
        8
 66
     7
 43
1.0
 76
     1
 77
     6
 78
     2
 67
     7
 79
     5
170
     0
171
     0
290
     0
174
     0
 93
        1
 44
0.0
173
     0
291
     1
 45
0.0
1001
ACAD
1000
AcDbSavedByObjectVersion
1070
     0
  0
VISUALSTYLE
  5
A4C
102
{ACAD_XDICTIONARY
360
A4D
102
}
102
{ACAD_REACTORS
330
2A
102
}
330
2A
100
AcDbVisualStyle
  2
Realistic
 70
     8
 71
     2
 72
     2
 73
     0
 90
        0
 40
-0.6
 41
-30.0
 62
     5
 63
     7
 74
     1
 91
        0
 64
     7
 65
   257
 75
     1
175
     1
 42
1.0
 92
        8
 66
     8
 43
1.0
 76
     1
 77
     6
 78
     2
 67
     7
 79
     5
170
     0
171
     0
290
     0
174
     0
 93
       13
 44
0.0
173
     0
291
     0
 45
0.0
1001
ACAD
1000
AcDbSavedByObjectVersion
1070
     0
  0
VISUALSTYLE
  5
37
102
{ACAD_XDICTIONARY
360
4AA
102
}
102
{ACAD_REACTORS
330
2A
102
}
330
2A
100
AcDbVisualStyle
  2
Thicken
 70
    13
 71
     2
 72
     2
 73
     0
 90
        0
 40
-0.6
 41
-30.0
 62
     5
 63
     7
 74
     1
 91
        4
 64
     7
 65
   257
 75
     1
175
     1
 42
1.0
 92
       12
 66
     7
 43
1.0
 76
     1
 77
     6
 78
     2
 67
     7
 79
     5
170
     0
171
     0
290
     0
174
     0
 93
        1
 44
0.0
173
     0
291
     1
 45
0.0
1001
ACAD
1000
AcDbSavedByObjectVersion
1070
     0
  0
DICTIONARYVAR
  5
8CA5
102
{ACAD_REACTORS
330
487
102
}
330
487
100
DictionaryVariables
280
     0
  1
1:1
  0
DICTIONARYVAR
  5
8CA3
102
{ACAD_REACTORS
330
487
102
}
330
487
100
DictionaryVariables
280
     0
  1
STANDARD
  0
DICTIONARYVAR
  5
5FE
102
{ACAD_REACTORS
330
487
102
}
330
487
100
DictionaryVariables
280
     0
  1
STANDARD
  0
DICTIONARYVAR
  5
48A
102
{ACAD_REACTORS
330
487
102
}
330
487
100
DictionaryVariables
280
     0
  1
2
  0
DICTIONARYVAR
  5
48B
102
{ACAD_REACTORS
330
487
102
}
330
487
100
DictionaryVariables
280
     0
  1
1
  0
DICTIONARYVAR
  5
86B
102
{ACAD_REACTORS
330
487
102
}
330
487
100
DictionaryVariables
280
     0
  1
0
  0
DICTIONARYVAR
  5
8CA6
102
{ACAD_REACTORS
330
487
102
}
330
487
100
DictionaryVariables
280
     0
  1
0
  0
DICTIONARYVAR
  5
8CA4
102
{ACAD_REACTORS
330
487
102
}
330
487
100
DictionaryVariables
280
     0
  1
0
  0
DICTIONARYVAR
  5
86A
102
{ACAD_REACTORS
330
487
102
}
330
487
100
DictionaryVariables
280
     0
  1
127
  0
DICTIONARY
  5
7D4
330
1E
100
AcDbDictionary
280
     1
281
     1
  3
ADSK_XREC_LAYOUTTHUMBNAIL
360
7D5
  0
DICTIONARY
  5
991B
330
3D
100
AcDbDictionary
280
     1
281
     1
  3
ACAD_XREC_ROUNDTRIP
360
991C
  0
DICTIONARY
  5
9919
330
3C
100
AcDbDictionary
280
     1
281
     1
  3
ACAD_XREC_ROUNDTRIP
360
991A
  0
DICTIONARY
  5
991D
330
3E
100
AcDbDictionary
280
     1
281
     1
  3
ACAD_XREC_ROUNDTRIP
360
991E
  0
DICTIONARY
  5
8CA0
330
4BB
100
AcDbDictionary
280
     1
281
     1
  3
ACAD_ROUNDTRIP_2008_TABLESTYLE_CELLSTYLEMAP
360
9918
  3
ACAD_XREC_ROUNDTRIP
360
991F
  0
DICTIONARY
  5
49A
330
2F
100
AcDbDictionary
280
     1
281
     1
  3
ACAD_XREC_ROUNDTRIP
360
49B
  0
DICTIONARY
  5
A49
330
A48
100
AcDbDictionary
280
     1
281
     1
  3
ACAD_XREC_ROUNDTRIP
360
A4A
  0
DICTIONARY
  5
4A0
330
32
100
AcDbDictionary
280
     1
281
     1
  3
ACAD_XREC_ROUNDTRIP
360
4A1
  0
DICTIONARY
  5
4A8
330
36
100
AcDbDictionary
280
     1
281
     1
  3
ACAD_XREC_ROUNDTRIP
360
4A9
  0
DICTIONARY
  5
4B0
330
3A
100
AcDbDictionary
280
     1
281
     1
  3
ACAD_XREC_ROUNDTRIP
360
4B1
  0
DICTIONARY
  5
4A6
330
35
100
AcDbDictionary
280
     1
281
     1
  3
ACAD_XREC_ROUNDTRIP
360
4A7
  0
DICTIONARY
  5
4AE
330
39
100
AcDbDictionary
280
     1
281
     1
  3
ACAD_XREC_ROUNDTRIP
360
4AF
  0
DICTIONARY
  5
492
330
2B
100
AcDbDictionary
280
     1
281
     1
  3
ACAD_XREC_ROUNDTRIP
360
493
  0
DICTIONARY
  5
494
330
2C
100
AcDbDictionary
280
     1
281
     1
  3
ACAD_XREC_ROUNDTRIP
360
495
  0
DICTIONARY
  5
496
330
2D
100
AcDbDictionary
280
     1
281
     1
  3
ACAD_XREC_ROUNDTRIP
360
497
  0
DICTIONARY
  5
498
330
2E
100
AcDbDictionary
280
     1
281
     1
  3
ACAD_XREC_ROUNDTRIP
360
499
  0
DICTIONARY
  5
4AC
330
38
100
AcDbDictionary
280
     1
281
     1
  3
ACAD_XREC_ROUNDTRIP
360
4AD
  0
DICTIONARY
  5
A4D
330
A4C
100
AcDbDictionary
280
     1
281
     1
  3
ACAD_XREC_ROUNDTRIP
360
A4E
  0
DICTIONARY
  5
4AA
330
37
100
AcDbDictionary
280
     1
281
     1
  3
ACAD_XREC_ROUNDTRIP
360
4AB
  0
XRECORD
  5
7D5
102
{ACAD_REACTORS
330
7D4
102
}
330
7D4
100
AcDbXrecord
280
     1
310
28000000B40000007F00000001000800000000004C59000000000000000000000001000000000000FFFFFF0000000000FFFFFF000000000000000000000000000000000000000000000000000000000000000000330000006600000099000000CC000000FF00000000330000333300006633000099330000CC330000FF3300
310
0000660000336600006666000099660000CC660000FF66000000990000339900006699000099990000CC990000FF99000000CC000033CC000066CC000099CC0000CCCC0000FFCC000000FF000033FF000066FF000099FF0000CCFF0000FFFF000000003300330033006600330099003300CC003300FF003300003333003333
310
33006633330099333300CC333300FF33330000663300336633006666330099663300CC663300FF66330000993300339933006699330099993300CC993300FF99330000CC330033CC330066CC330099CC3300CCCC3300FFCC330000FF330033FF330066FF330099FF3300CCFF3300FFFF330000006600330066006600660099
310
006600CC006600FF00660000336600333366006633660099336600CC336600FF33660000666600336666006666660099666600CC666600FF66660000996600339966006699660099996600CC996600FF99660000CC660033CC660066CC660099CC6600CCCC6600FFCC660000FF660033FF660066FF660099FF6600CCFF6600
310
FFFF660000009900330099006600990099009900CC009900FF00990000339900333399006633990099339900CC339900FF33990000669900336699006666990099669900CC669900FF66990000999900339999006699990099999900CC999900FF99990000CC990033CC990066CC990099CC9900CCCC9900FFCC990000FF99
310
0033FF990066FF990099FF9900CCFF9900FFFF99000000CC003300CC006600CC009900CC00CC00CC00FF00CC000033CC003333CC006633CC009933CC00CC33CC00FF33CC000066CC003366CC006666CC009966CC00CC66CC00FF66CC000099CC003399CC006699CC009999CC00CC99CC00FF99CC0000CCCC0033CCCC0066CC
310
CC0099CCCC00CCCCCC00FFCCCC0000FFCC0033FFCC0066FFCC0099FFCC00CCFFCC00FFFFCC000000FF003300FF006600FF009900FF00CC00FF00FF00FF000033FF003333FF006633FF009933FF00CC33FF00FF33FF000066FF003366FF006666FF009966FF00CC66FF00FF66FF000099FF003399FF006699FF009999FF00CC
310
99FF00FF99FF0000CCFF0033CCFF0066CCFF0099CCFF00CCCCFF00FFCCFF0000FFFF0033FFFF0066FFFF0099FFFF00CCFFFF00FFFFFF00000000000D0D0D001A1A1A00282828003535350043434300505050005D5D5D006B6B6B00787878008686860093939300A1A1A100AEAEAE00BBBBBB00C9C9C900D6D6D600E4E4E400
310
F1F1F100FFFFFF0000000000000000000000000000000000000000000000000000000000000000000000000000000000E2E2E2E2E2E2E2E2E2E2E2E2E2E2E2E2E2E2E2E2E2E2E2E2E2E2E2E2E2E2E2E2E2E2E2E2E2E2E2E2E2E2E2E2E2E2E2E2E2E2E2E2E2E2E2E2E2E2E2E2E2E2E2E2E2E2E2E2E2E2E2E2E2E2E2E2E2E2E2
310
E2E2E2E2E2E2E2E2E2E2E2E2E2E2E2E2E2E2E2E2E2E2E2E2E2E2E2E2E2E2E2E2E2E2E2E2E2E2E2E2E2E2E2E2E2E2E2E2E2E2E2E2E2E2E2E2E2E2E2E2E2E2E2E2E2E2E2E2E2E2E2E2E2E2E2E2E2E2E2E2E2E2E2E2E2E2E2E2E2E2E2E2E2E2E2E2E2E2E2E2E2E2F5E2E2E2E2E2E2E2E2E2E2E2E2E2E2E2E2E2E2E2E2E2E2E2E2
310
E2E2E2E2E2E2E2E2E2E2E2E2E2E2E2E2E2E2E2E2E2E2E2E2E2E2E2E2E2E2E2E2E2E2E2E2E2E2E2E2E2E2E2E2E2E2E2E2E2E2E2E2E2E2E2E2E2E2E2E2E2E2E2E2E2E2E2E2E2E2E2E2E2E2E2E2E2E2E2E2E2E2E2E2E2E2E2E2E2E2E2E2E2E2E2E2E2E2E2E2E2E2E2E2E2E2E2E2E2E2E2E2E2E2E2E2E2E2E2E2E2E2E2E2E2E2E2
310
E2E2E2E2E2E2E2E2E2E2E2E2E2E2E2E2E2E2E2E2E2E2E2E2E2F5E2E2F5E2F5F5F5F5F5F5F5F5F5F5F5F5F5F5F5F5F5F5F5F5F5F5F5F5F5F5F5F5F5F5E2F5F5F5F5F5F5F5F5F5F5F5F5F5F5F5F5F5F5F5F5F5F5F5F5F5F5F5F5F5F5F5F5F5F5F5F5F5F5F5F5F5F5F5F5F5F5F5F5F5F5F5F5F5F5F5F5F5F5F5F5F5F5F5F5F5F5
310
F5F5F5F5F5F5F5F5F5F5F5F5F5F5F5F5F5F5F5F5F5F5F5F5F5F5F5F5F5F5F5F5F5F5F5F5F5F5F5F5F5F5F5F5F5F5F5F5F5F5F5F5F5F5F5F5F5F5F5F5F5F5F5F5F5F5F5F5F5F5F5F5F5F5F5F5E2E2F5E2E2F5E2F5F5F5F5F5F5F5F5F5F5F5F5F5F5F5F5F5F5F5F5F5F5F5F5F5F5F5F5E2E2E2E2E2F5F5F5F5F5F5F5F5F5F5F5
310
F5F5F5F5E2E2E2E2F5F5F5E2E2E2E2E2E2E2E2E2F5F5F5E2E2E2E2E2E2E2E2E2E2E2E2E2F5F5F5E2E2E2E2E2E2E2E2F5F5F5E2E2E2E2E2E2E2E2E2F5F5F5E2E2E2E2E2E2E2E2E2F5F5F5F5F5F5F5F5F5F5F5F5F5F5F5F5F5F5F5F5F5F5F5F5F5F5F5F5F5F5F5F5F5F5F5F5F5F5F5F5F5F5F5F5F5F5F5F5F5F5F5F5F5F5F5F5
310
F5F5E2E2F5E2E2F5E2F5F5F5F5F5F5F5F5F5F5F5F5F5F5F5F5F5F5F5F5F5F5F5F5F5F5F5F5F5BEE2F5F5F5F5F5F5F5F5F5F5F5F5F5F5F5F5F5E2F5F5F5F5F5F5F5F5F5F5F5F5F5F5F5F5F5F5F5F5F5F5F5F5F5F5F5F5F5F5F5F5F5F5F5F5F5F5F5F5F5F5F5F5F5F5F5F5F5F5F5F5F5F5F5F5F5F5F5F5F5F5F5F5F5E2F5F5F5
310
F5F5F5F5F5F5F5F5F5F5F5F5F5F5F5F5F5F5F5F5F5F5F5F5F5F5F5F5F5F5F5F5F5F5F5F5F5F5F5F5F5F5F5F5F5F5F5F5F5F5F5F5F5F5F5E2E2F5E2E2F5E2F5F5F5F5F5F5F5F5F5F5F5F5F5F5F5F5F5F5F5F5F5F5F5F5F5F5F5F5F5F5E2F5F5F5F5F5F5F5F5F5F5F5F5F5F5F5F5F5E2F5F5F5F5F5F5F5F5F5F5F5F5F5F5F5F5
310
F5F5F5F5F5F5F5F5F5F5F5F5F5F5F5F5F5F5F5F5F5F5F5F5F5F5F5F5F5F5F5F5F5F5F5F5F5F5F5F5F5F5F5F5F5F5F5F5F5E2F5F5F5F5F5F5F5F5F5F5F5F5F5F5F5F5F5F5F5F5F5F5F5F5F5F5F5F5F5F5F5F5F5F5F5F5F5F5F5F5F5F5F5F5F5F5F5F5F5F5F5F5F5F5F5F5F5F5E2E2F5E2E2F5E2F5F5F5F5F5F5F5F5F5F5F5F5
310
F5F5F5F5F5F5F5F5F5F5F5F5F5F5F5F5F5F5E2F5F5F5F5F5F5F5F5F5F5F5F5F5F5F5F5F5E2F5F5F5F5F5F5F5F5F5F5F5F5F5F5F5F5F5F5F5F5F5F5F5F5F5F5F5F5F5F5F5F5F5F5F5F5F5F5F5F5F5F5F5F5F5F5F5F5F5F5F5F5F5F5F5F5F5F5F5F5F5F5F5F5F5E2F5F5F5F5F5F5F5F5F5F5F5F5F5F5F5F5F5F5F5F5F5F5F5F5
310
F5F5F5F5F5F5F5F5F5F5F5F5F5F5F5F5F5F5F5F5F5F5F5F5F5F5F5F5F5F5F5F5F5F5E2E2F5E2E2F5E2F5F5F5F5F5F5F5F5F5F5F5F5F5F5F5F5F5F5F5F5F5F5F5F5F5F5F5F5F5F5E2F5F5F5F5F5F5F5F5F5F5F5F5F5F5F5F5F5E2F5F5F5F5F5F5F5F5F5F5F5F5F5F5F5F5F5F5F5F5F5F5F5F5F5F5F5F5F5F5F5F5F5F5F5F5F5
310
F5F5F5F5F5F5F5F5F5F5F5F5F5F5F5F5F5F5F5F5F5F5F5F5F5F5F5F5E2F5F5F5F5F5F5F5F5F5F5F5F5F5F5F5F5F5F5F5F5F5F5F5F5F5F5F5F5F5F5F5F5F5F5F5F5F5F5F5F5F5F5F5F5F5F5F5F5F5F5F5F5F5F5F5F5F5F5E2E2F5E2E2F5E2F5F5F5F5F5F5F5F5F5F5F5F5F5F5F5F5F5F5F5F5F5F5F5F5F5F5F5F5F5F5E2F5F5
310
F5F5F5F5F5F5F5F5F5F5F5F5F5F5F5E2F5F5F5F5F5F5F5F5F5F5F5F5F5F5F5F5F5F5F5F5F5F5F5F5F5F5F5F5F5F5F5F5F5F5F5F5F5F5F5F5F5F5F5F5F5F5F5F5F5F5F5F5F5F5F5F5F5F5F5F5F5F5F5F5F5E2F5F5F5F5F5F5F5F5F5F5F5F5F5F5F5F5F5F5F5F5F5F5F5F5F5F5F5F5F5F5F5F5F5F5F5F5F5F5F5F5F5F5F5F5F5
310
F5F5F5F5F5F5F5F5F5F5F5F5F5E2E2F5E2E2F5E2F5F5F5F5F5F5F5F5F5F5F5F5F5F5F5F5F5F5F5F5F5F5F5F5F5F5F5F5F5F5E2F5F5F5F5F5F5F5F5F5F5F5F5F5F5F5F5F5E2F5F5F5F5F5F5F5F5F5F5F5F5F5F5F5F5F5F5F5F5F5F5F5F5F5F5F5F5F5F5F5F5F5F5F5F5F5F5F5F5F5F5F5F5F5F5F5F5F5F5F5F5F5F5F5F5F5F5
310
F5F5F5F5F5F5F5E2F5F5F5F5F5F5F5F5F5F5F5F5F5F5F5F5F5F5F5F5F5F5F5F5F5F5F5F5F5F5F5F5F5F5F5F5F5F5F5F5F5F5F5F5F5F5F5F5F5F5F5F5F5F5F5F5F5F5E2F5F5E2E2F5E2F5F5F5F5F5F5F5F5F5F5F5F5F5F5F5F5F5F5F5F5F5F5F5F5F5F5F5F5F5F5E2F5F5F5F5F5F5F5F5F5F5F5F5F5F5F5F5F5E2F5F5F5F5F5
310
F5F5F5F5F5F5F5F5F5F5F5F5F5F5F5F5F5F5F5F5F5F5F5F5F5F5F5F5F5F5F5F5F5F5F5F5F5F5F5F5F5F5F5F5F5F5F5F5F5F5F5F5F5F5F5F5F5F5F5F5E2F5F5F5F5F5F5F5F5F5F5F5F5F5F5F5F5F5F5F5F5F5F5F5F5F5F5F5F5F5F5F5F5F5F5F5F5F5F5F5F5F5F5F5F5F5F5F5F5F5F5F5F5F5F5F5F5F5F5E2F5F5E2E2F5E2F5
310
F5F5F5F5F5F5F5F5F5F5F5F5F5F5F5F5F5F5F5F5F5F5F5F5F5F5F5F5F5E2F5F5F5F5F5F5F5F5F5F5F5F5F5F5F5F5F5E2F5F5F5F5F5F5F5F5F5F5F5F5F5F5F5F5F5F5F5F5F5F5F5F5F5F5F5F5F5F5F5F5F5F5F5F5F5F5F5F5F5F5F5F5F5F5F5F5F5F5F5F5F5F5F5F5F5F5F5F5F5F5F5F5F5E2F5F5F5F5F5F5F5F5F5F5F5F5F5
310
F5F5F5F5F5F5F5F5F5F5F5F5F5F5F5F5F5F5F5F5F5F5F5F5F5F5F5F5F5F5F5F5F5F5F5F5F5F5F5F5F5F5F5F5F5E2F5F5E2E2F5E2F5F5F5F5F5F5F5F5F5F5F5F5F5F5F5F5F5F5F5F5F5F5F5F5F5F5F5F5F5F5E2F5F5F5F5F5F5F5F5F5F5F5F5E2E2E2E2E2E2F5F5F5F5F5F5F5F5F5F5F5F5F5F5F5F5F5F5F5F5F5F5F5F5F5F5
310
F5F5F5F5F5F5F5F5F5F5F5F5F5F5F5F5F5F5F5F5F5F5F5F5F5F5F5F5F5F5F5F5F5F5F5F5F5F5F5E2F5F5F5F5F5F5F5F5F5F5F5F5F5F5F5F5F5F5F5F5F5F5F5F5F5F5F5F5F5F5F5F5F5F5F5F5F5F5F5F5F5F5F5F5F5F5F5F5F5F5F5F5F5F5F5F5F5F5E2F5F5E2E2F5E2F5F5F5F5F5F5F5F5F5F5F5F5F5F5F5F5F5F5F5F5F5F5
310
F5F5F5F5F5F5F5F5E2F5F5F5F5F5F5F5F5F5F5F5F5E2F5F5F5F5F5F5F5F5F5F5F5F5F5F5F5F5F5F5F5F5F5F5F5F5F5F5F5F5F5F5F5F5F5F5F5F5F5F5F5F5F5F5F5F5F5F5F5F5F5F5F5F5F5F5F5F5F5F5F5F5F5F5F5F5F5F5F5F5F5F5E2E2E2E2E2E2F5F5F5E2E2E2E2E2E2E2E2E2F5F5F5E2E2E2E2E2E2E2E2F5F5F5E2E2E2
310
E2E2E2E2F5F5F5F5F5F5F5F5F5F5F5F5F5F5F5F5F5F5F5F5E2F5F5E2E2F5E2F5F5F5F5F5F5F5F5F5F5F5F5F5F5F5F5F5F5F5F5F5F5F5F5F5F5F5F5F5F5E2F5F5F5F5F5F5F5F5F5F5F5F5E2F5F5F5F5F5F5F5F5F5F5F5F5F5F5F5F5F5F5F5F5F5F5F5F5F5F5F5F5F5F5F5F5F5F5F5F5F5F5F5F5F5F5F5F5F5F5F5F5F5F5F5F5
310
F5F5F5F5F5F5F5F5F5F5F5F5F5F5F5F5F5F5F5F5F5F5F5F5F5F5F5F5F5F5F5F5F5F5F5F5F5F5F5F5F5F5F5F5F5F5F5F5F5F5F5F5F5F5F5F5E2F5F5F5F5F5F5F5F5F5F5F5F5F5F5F5F5F5F5F5F5E2F5F5E2E2F5E2F5F5F5F5F5F5F5F5F5F5F5F5F5F5F5F5F5F5F5F5F5F5F5F5F5F5F5F5F5F5E2F5F5F5F5F5F5F5F5F5F5F5F5
310
E2F5F5F5F5F5F5F5F5F5F5F5F5F5F5F5F5F5F5F5F5F5F5F5F5F5F5F5F5F5F5F5F5F5F5F5F5F5F5F5F5F5F5F5F5F5F5F5F5F5F5F5F5F5F5F5F5F5F5F5F5F5F5F5F5F5F5F5F5F5F5F5F5F5F5F5F5F5F5F5F5F5F5F5F5F5F5F5F5F5F5F5F5F5F5F5F5F5F5F5F5F5F5F5F5F5F5F5F5E2F5F5F5F5F5F5F5F5F5F5F5F5F5F5F5F5F5
310
F5F5F5E2F5F5E2E2F5E2F5F5F5F5F5F5F5F5F5F5F5F5F5F5F5F5F5F5F5F5F5F5F5F5F5F5F5F5F5F5E2F5F5F5F5F5F5F5F5F5F5F5F5E2F5F5F5F5F5F5F5F5F5F5F5F5F5F5F5F5F5F5F5F5F5F5F5F5F5F5F5F5F5F5F5F5F5F5F5F5F5F5F5F5F5F5F5F5F5F5F5F5F5F5F5F5F5F5F5F5F5F5F5F5F5F5F5F5F5F5F5F5F5F5F5F5F5
310
F5F5F5F5F5F5F5F5F5F5F5F5F5F5F5F5F5F5F5F5F5F5F5F5F5F5F5F5F5F5F5F5F5F5F5E2F5F5F5F5F5F5F5F5F5F5F5F5F5F5F5F5F5F5F5F5E2F5F5E2E2F5E2F5F5F5F5F5F5F5F5F5F5F5F5F5F5F5F5F5F5F5F5F5F5F5F5F5F5F5F5F5F5E2F5F5F5F5F5F5F5F5F5F5F5F5E2F5F5F5F5F5F5F5F5F5F5F5F5F5F5F5F5F5F5F5F5
310
F5F5F5F5F5F5F5F5F5F5F5F5F5F5F5F5F5F5F5F5F5F5F5F5F5F5F5F5F5F5F5F5F5F5F5F5F5F5F5F5F5F5F5F5F5F5F5F5F5F5F5F5F5F5F5F5F5F5F5F5F5F5F5F5F5F5F5F5F5F5F5F5F5F5F5F5F5F5F5F5F5F5F5F5F5F5F5F5E2F5F5F5F5F5F5F5F5F5F5F5F5F5F5F5F5F5F5F5F5E2F5F5E2E2F5E2F5F5F5F5F5F5F5F5F5F5F5
310
F5F5F5F5F5F5F5F5F5F5F5F5F5F5F5F5F5F5F5E2F5F5F5F5F5F5F5F5F5F5F5F5E2F5F5F5F5F5F5F5F5F5F5F5F5F5F5F5F5F5F5F5F5F5F5F5F5F5F5F5F5F5F5F5F5F5F5F5F5F5F5F5F5F5F5F5F5F5F5F5F5F5F5F5F5F5F5F5F5F5F5F5F5F5F5F5F5F5F5F5F5F5F5F5F5F5F5F5F5F5F5F5F5F5F5F5F5F5F5F5F5F5F5F5F5F5F5
310
F5F5F5F5F5F5F5F5F5F5F5F5F5F5E2F5F5F5F5F5F5F5F5F5F5F5F5F5F5F5F5F5F5F5F5E2E2F5E2E2F5E2F5F5F5F5F5F5F5F5F5F5F5F5F5F5F5F5F5F5F5F5F5F5F5F5F5F5F5F5F5F5E2F5F5F5F5F5F5F5F5F5F5F5F5E2F5F5F5F5F5F5F5F5F5F5F5F5F5F5F5F5F5F5F5F5F5F5F5F5F5F5F5F5F5F5F5F5F5F5F5F5F5F5F5F5F5
310
F5F5F5F5F5F5F5F5F5F5F5F5F5F5F5F5F5F5F5F5F5F5F5F5F5F5F5F5F5F5F5F5F5F5F5F5F5F5F5F5F5F5F5F5F5F5F5F5F5F5F5F5F5F5F5F5F5F5F5F5F5F5F5F5F5F5F5E2F5F5F5F5F5F5F5F5F5F5F5F5F5F5F5F5F5F5F5F5E2E2F5E2E2F5E2F5F5F5F5F5F5F5F5F5F5F5F5F5F5F5F5F5F5F5F5F5F5F5F5F5F5F5F5F5F5E2F5
310
F5F5F5F5F5F5F5F5F5F5F5E2F5F5F5F5F5F5F5F5F5F5F5F5F5F5F5F5F5F5F5F5F5F5F5F5F5F5F5F5F5F5F5F5F5F5F5F5F5F5F5F5F5F5F5F5F5F5F5F5F5F5F5F5F5F5F5F5F5F5F5F5F5F5F5F5F5F5F5F5F5F5F5F5F5F5F5F5F5F5F5F5F5F5F5F5F5F5F5F5F5F5F5F5F5F5F5F5F5F5F5F5F5F5F5F5F5F5F5F5E2F5F5F5F5F5F5
310
F5F5F5F5F5F5F5F5F5F5F5F5F5F5E2E2F5E2E2F5E2F5F5F5F5F5F5F5F5F5F5F5F5F5F5F5F5F5F5F5F5F5F5F5F5F5F5F5F5F5F5E2F5F5F5F5F5F5F5F5F5F5F5F5E2F5F5F5F5F5F5F5F5F5F5F5F5F5F5F5F5F5F5F5F5F5F5F5F5F5F5F5F5F5F5F5F5F5F5F5F5F5F5F5F5F5F5F5F5F5F5F5F5F5F5F5F5F5F5F5F5F5F5F5F5F5F5
310
F5F5F5F5F5F5F5F5F5F5F5F5F5F5F5F5F5F5F5F5F5F5F5F5F5F5F5F5F5F5F5F5F5F5F5F5F5F5F5F5F5F5F5F5F5F5F5F5F5F5F5F5F5F5F5F5F5F5F5F5F5F5F5F5F5F5F5E2E2F5E2E2F5E2F5F5F5F5F5F5F5F5F5F5F5F5F5F5F5F5F5F5F5F5F5F5F5F5F5F5F5F5F5F5E2F5F5F5F5F5F5F5F5F5F5F5F5E2F5F5F5F5F5F5F5F5F5
310
F5F5F5F5F5F5F5F5F5F5F5F5F5F5F5F5F5F5F5F5F5F5F5F5F5F5F5F5F5F5F5F5F5F5F5F5F5F5F5F5F5F5F5F5F5F5F5F5F5F5F5F5F5F5F5F5F5F5F5F5F5F5F5F5F5F5F5F5F5F5F5F5F5F5F5F5F5F5F5F5F5F5F5F5F5F5F5F5F5F5F5F5F5F5F5F5F5F5F5F5F5F5F5F5F5F5F5F5F5F5F5F5F5F5F5F5F5F5F5F5E2E2F5E2E2F5E2
310
F5F5F5F5F5F5F5F5F5F5F5F5F5F5F5F5F5F5F5F5F5F5F5F5F5F5F5F5F5F5E2F5F5F5F5F5F5F5F5F5F5F5F5F5F5F5F5F5F5F5F5F5F5F5F5F5F5F5F5F5F5F5F5F5F5F5F5F5F5F5F5F5F5F5F5F5F5F5F5F5F5F5F5F5F5F5F5F5F5F5F5F5F5F5F5F5F5F5F5F5F5F5F5F5F5F5F5F5F5F5F5F5F5F5F5F5F5F5F5F5F5F5F5F5F5F5F5
310
F5F5F5F5F5F5F5F5F5F5F5F5F5F5F5F5F5F5F5F5F5F5F5F5F5F5F5F5F5F5F5F5F5F5F5F5F5F5F5F5F5F5F5F5F5F5E2E2F5E2E2F5E2F5F5F5F5F5F5F5F5F5F5F5F5F5F5F5F5F5F5F5F5F5F5F5F5F5F5F5F5F5F5E2F5F5F5F5F5F5F5F5F5F5F5F5F5F5F5F5F5F5F5F5F5F5F5F5F5F5F5F5F5F5F5F5F5F5F5F5F5F5F5F5F5F5F5
310
F5F5F5F5F5F5F5F5F5F5F5F5F5F5F5F5F5F5F5F5F5F5F5F5F5F5F5F5F5F5F5F5F5F5F5F5F5F5F5F5F5F5F5F5F5F5F5F5F5F5F5F5F5F5F5F5F5F5F5F5F5F5F5F5F5F5F5F5F5F5F5F5F5F5F5F5F5F5E2F5F5F5F5F5F5F5F5F5F5F5F5F5F5F5F5F5F5F5F5E2E2F5E2E2F5E2F5F5F5F5F5F5F5F5F5F5F5F5F5F5F5F5F5F5F5F5F5
310
F5F5F5F5F5F5F5F5F5E2F5F5F5F5F5F5F5F5F5F5F5F5F5F5F5F5F5F5F5F5F5F5F5F5F5F5F5F5F5F5F5F5F5F5F5F5F5F5F5F5E2E2E2E2E2E2E2E2E2E2E2E2E2E2E2E2E2E2E2E2F5F5F5F5F5F5F5F5F5F5F5F5F5F5F5F5F5F5F5F5F5F5F5F5F5F5F5F5F5F5F5F5F5F5F5F5F5F5F5F5F5F5F5F5F5F5F5F5F5F5F5F5F5F5F5F5F5
310
F5F5F5F5E2F5F5F5F5F5F5F5F5F5F5F5F5F5F5F5F5F5F5F5F5E2E2F5E2E2F5E2F5F5F5F5F5F5F5F5F5F5F5F5F5F5F5F5F5F5F5F5F5F5F5F5F5F5F5F5F5F5E2F5F5F5F5F5F5F5F5F5F5F5F5E2F5F5F5F5F5F5F5F5F5F5F5F5F5F5F5F5F5F5F5F5F5F5F5F5F5F5F5E2E2F5E2E2F5E2E2F5E2E2F5E2E2F5E2F5E2E2F5E2F5F5F5
310
F5F5F5F5F5F5F5F5F5F5F5F5F5F5F5F5F5F5F5F5F5F5F5F5F5F5F5F5F5F5F5F5F5F5F5F5F5F5F5F5F5F5F5F5F5F5F5F5F5F5F5F5F5F5F5F5F5E2F5F5F5F5F5F5F5F5F5F5F5F5F5F5F5F5F5F5F5F5E2E2F5E2E2F5E2F5F5F5F5F5F5F5F5F5F5F5F5F5F5F5F5F5F5F5F5F5F5F5F5F5F5F5F5F5F5E2F5F5F5F5F5F5F5F5F5F5F5
310
F5E2F5F5F5F5F5F5F5F5F5F5F5F5F5F5F5F5F5F5F5F5F5F5F5F5F5F5F5E2E2F5E2E2F5E2E2F5E2E2F5E2E2F5E2F5E2E2E2E2F5F5F5F5F5F5F5F5F5F5F5F5F5F5F5F5F5F5F5F5F5F5F5F5F5F5F5F5F5F5F5F5F5F5F5F5F5F5F5F5F5F5F5F5F5F5F5F5F5F5F5F5F5F5F5F5F5F5F5F5E2F5F5F5F5F5F5F5F5F5F5F5F5F5F5F5F5
310
F5F5F5F5E2E2F5E2E2F5E2F5F5F5F5F5F5F5F5F5F5F5F5F5F5F5F5F5F5F5F5F5F5F5F5F5F5F5F5F5F5E2F5F5F5F5F5F5F5F5F5F5F5F5E2F5F5F5F5F5F5F5F5F5F5F5F5F5F5F5F5F5F5F5F5F5F5F5F5F5F5F5E2E2E2E2E2E2E2E2E2E2E2E2E2E2E2E2E2E2E2E2E2F5F5F5F5F5F5F5F5F5F5F5F5F5F5F5F5F5F5F5F5F5F5F5F5
310
F5F5F5F5F5F5F5F5F5F5F5F5F5F5F5F5F5F5F5F5F5F5F5F5F5F5F5F5F5F5F5F5F5F5F5F5E2F5F5F5F5F5F5F5F5F5F5F5F5F5F5F5F5F5F5F5F5E2E2F5E2E2F5E2F5F5F5F5F5F5F5F5F5F5F5F5F5F5F5F5F5F5F5F5F5F5F5F5F5F5F5F5F5F5E2F5F5F5F5F5F5F5F5F5F5F5F5E2F5F5F5F5F5F5F5F5F5F5F5F5F5F5F5F5F5F5F5
310
F5F5F5F5F5F5F5F5E2E2F5E2E2F5E2E2F5E2E2F5E2E2F5E2F5E2E2F5E2F5F5F5F5F5F5F5F5F5F5F5F5F5F5F5F5F5F5F5F5F5F5F5F5F5F5F5F5F5F5F5F5F5F5F5F5F5F5F5F5F5F5F5F5F5F5F5F5F5F5F5F5F5F5F5F5F5F5F5F5E2F5F5F5F5F5F5F5F5F5F5F5F5F5F5F5F5F5F5F5F5E2E2F5E2E2F5E2F5F5F5F5F5F5F5F5F5F5
310
F5F5F5F5F5F5F5F5F5F5F5F5F5F5F5F5F5F5F5F5E2F5F5F5F5F5F5F5F5F5F5F5F5E2F5F5F5F5F5F5F5F5F5F5F5F5F5F5F5F5F5F5F5F5F5F5F5F5F5F5F5E2E2F5E2E2F5E2E2F5E2E2F5E2E2F5E2F5E2E2F5E2F5F5F5F5F5F5F5F5F5F5F5F5F5F5F5F5F5F5F5F5F5F5F5F5F5F5F5F5F5F5F5F5F5F5F5F5F5F5F5F5F5F5F5F5F5
310
F5F5F5F5F5F5F5F5F5F5F5F5F5F5F5E2F5F5F5F5F5F5F5F5F5F5F5F5F5F5F5F5F5F5F5F5E2E2F5E2E2F5E2F5F5F5F5F5F5F5F5F5F5F5F5F5F5F5F5F5F5F5F5F5F5F5F5F5F5F5F5F5F5E2F5F5F5F5F5F5F5F5F5F5F5F5E2F5F5F5F5F5F5F5F5F5F5F5F5F5F5F5F5F5F5F5F5F5F5F5F5F5F5F5E2E2F5E2E2F5E2E2F5E2E2F5E2
310
E2F5E2F5E2E2F5E2E2E2E2E2E2E2E2E2E2E2E2E2E2E2E2E2E2E2E2E2E2E2E2E2E2E2E2E2E2F5F5F5F5F5F5F5F5F5F5F5F5F5F5F5F5F5F5F5F5F5F5F5F5F5F5F5F5F5F5F5E2F5F5F5F5F5F5F5F5F5F5F5F5F5F5F5F5F5F5F5F5E2E2F5E2E2F5E2F5F5F5F5F5F5F5F5F5F5F5F5F5F5F5F5F5F5F5F5F5F5F5F5F5F5F5F5F5F5E2
310
F5F5F5F5F5F5F5F5F5F5F5F5E2F5F5F5F5F5F5F5F5F5F5F5F5F5F5F5F5F5F5F5F5F5F5F5F5F5F5F5E2E2F5E2E2F5E2E2F5E2E2F5E2E2F5E2F5E2E2F5E2F5F5F5F5F5F5F5F5F5F5F5F5F5F5F5F5F5F5F5F5F5F5F5E2F5F5F5F5E2F5F5F5F5F5F5F5F5F5F5F5F5F5F5F5F5F5F5F5F5F5F5F5F5F5F5F5F5F5F5F5E2F5F5F5F5F5
310
F5F5F5F5F5F5F5F5F5F5F5F5F5F5F5E2E2F5E2E2F5E2F5F5F5F5F5F5F5F5F5F5F5F5F5F5F5F5F5F5F5F5F5F5F5F5F5F5F5F5F5F5E2F5F5F5F5F5F5F5F5F5F5F5F5E2F5F5F5F5F5F5F5F5F5F5F5F5F5F5F5F5F5F5F5F5F5F5F5F5F5F5F5E2E2E2E2E2E2E2E2E2E2E2E2E2E2E2E2E2E2E2E2E2F5F5F5F5F5F5F5F5F5F5F5F5F5
310
F5F5F5F5F5F5F5F5F5F5E2F5F5F5F5E2F5F5F5F5F5F5F5F5F5F5F5F5F5F5F5F5F5F5F5F5F5F5F5F5F5F5F5F5F5F5F5E2F5F5F5F5F5F5F5F5F5F5F5F5F5F5F5F5F5F5F5F5E2E2F5E2E2F5E2F5F5F5F5F5F5F5F5F5F5F5F5F5F5F5F5F5F5F5F5F5F5F5F5F5F5F5F5F5F5E2F5F5F5F5F5F5F5F5F5F5F5F5F5F5F5F5F5F5F5F5F5
310
F5F5F5F5F5F5F5F5F5F5F5F5F5F5F5F5F5F5F5E2E2E2E2E2E2E2E2E2E2E2E2E2E2E2E2E2E2E2F5E2F5F5F5F5F5F5F5F5F5F5F5F5F5F5F5F5F5F5F5F5F5F5F5E2F5F5F5F5E2F5F5F5F5F5F5F5F5F5F5F5F5F5F5F5F5F5F5F5F5F5F5F5F5F5F5F5F5F5F5F5E2F5F5F5F5F5F5F5F5F5F5F5F5F5F5F5F5F5F5F5F5E2F5F5E2E2F5
310
E2F5F5F5F5F5F5F5F5F5F5F5F5F5F5F5F5F5F5F5F5F5F5F5F5F5F5F5F5F5F5E2F5F5F5F5F5F5F5F5F5F5F5F5F5F5F5F5F5F5F5F5F5F5F5F5F5F5F5F5F5F5F5F5F5F5F5E2E2E2E2E2E2E2E2E2E2E2E2E2E2E2E2E2E2E2E2E2E2E2E2E2E2F5F5F5F5F5F5F5F5F5F5F5F5F5F5F5F5F5F5F5F5F5F5F5E2F5F5F5F5E2F5F5F5F5F5
310
F5F5F5F5F5F5F5F5F5F5F5F5F5F5F5F5F5F5F5F5F5F5F5F5F5F5E2F5F5F5F5F5F5F5F5F5F5F5F5F5F5F5F5F5F5F5F5E2F5F5E2E2F5E2F5F5F5F5F5F5F5F5F5F5F5F5F5F5F5F5F5F5F5F5F5F5F5F5F5F5F5F5F5F5E2F5F5F5F5F5F5F5F5F5F5F5F5F5F5F5F5F5F5F5F5F5F5F5F5F5F5F5F5F5F5F5F5F5F5F5F5F5F5F5F5E2E2
310
F5E2E2F5E2E2F5E2E2F5E2E2F5E2F5E2E2F5E2F5F5F5F5F5F5F5F5F5F5F5F5F5F5F5F5F5F5F5F5F5F5F5E2F5F5F5F5E2F5F5F5F5F5F5F5F5F5F5F5F5F5F5F5F5F5F5F5F5F5F5F5F5F5F5F5F5F5F5F5E2F5F5F5F5F5F5F5F5F5F5F5F5F5F5F5F5F5F5F5F5E2F5F5E2E2F5E2F5F5F5F5F5F5F5F5F5F5F5F5F5F5F5F5F5F5F5F5
310
F5F5F5F5F5F5F5F5F5F5E2F5F5F5F5F5F5F5F5F5F5F5F5E2F5F5F5F5F5F5F5F5F5F5F5F5F5F5F5F5F5F5F5F5F5F5F5F5F5F5F5E2E2E2E2E2E2E2E2E2E2E2E2E2E2E2E2E2E2E2E2E2F5F5F5F5F5F5F5F5F5F5F5F5F5F5F5F5F5F5F5F5F5F5F5E2F5F5F5F5E2F5F5F5F5F5F5F5F5F5F5F5F5F5F5F5F5F5F5F5F5F5F5F5F5F5F5
310
F5F5F5F5F5E2F5F5F5F5F5F5F5F5F5F5F5F5F5F5F5F5F5F5F5F5E2F5F5E2E2F5E2F5F5F5F5F5F5F5F5F5F5F5F5F5F5F5F5F5F5F5F5F5F5F5F5F5F5F5F5F5F5E2F5F5F5F5F5F5F5F5F5F5F5F5E2F5F5F5F5F5F5F5F5F5F5F5F5F5F5F5F5F5F5F5F5F5F5F5F5F5F5F5E2E2F5E2E2F5E2E2F5E2E2F5E2E2F5E2F5E2E2F5E2F5F5
310
F5F5F5F5F5F5F5F5F5F5F5F5F5F5F5F5F5F5F5F5F5E2F5F5F5F5E2F5F5F5F5F5F5F5F5F5F5F5F5F5F5F5F5F5F5F5F5F5F5F5F5F5F5F5F5F5F5F5F5F5F5F5F5F5F5F5F5F5F5F5F5F5F5F5F5F5F5F5F5E2F5F5E2E2F5E2F5F5F5F5F5F5F5F5F5F5F5F5F5F5F5F5F5F5F5F5F5F5F5F5F5F5F5F5F5F5E2F5F5F5F5F5F5F5F5F5F5
310
F5F5E2F5F5F5F5F5F5F5F5F5F5F5F5F5F5F5F5F5F5F5F5F5F5F5F5F5F5F5E2E2F5E2E2F5E2E2F5E2E2F5E2E2F5E2F5E2E2F5E2E2E2E2E2E2E2E2E2E2E2E2E2E2E2E2E2E2E2E2E2E2E2E2E2E2E2E2E2E2F5F5F5F5F5F5F5F5F5F5F5F5F5F5F5F5F5F5F5F5F5F5F5F5F5F5F5F5F5F5F5F5F5F5F5F5F5F5F5F5F5F5F5F5F5F5F5
310
F5F5F5F5F5E2F5F5E2E2F5E2F5F5F5F5F5F5F5F5F5F5F5F5F5F5F5F5F5F5F5F5F5F5F5F5F5F5F5F5F5F5E2F5F5F5F5F5F5F5F5F5F5F5F5E2F5F5F5F5F5F5F5F5F5F5F5F5F5F5F5F5F5F5F5F5F5F5F5F5F5F5F5E2E2F5E2E2F5E2E2F5E2E2F5E2E2F5E2F5E2E2F5E2F5F5F5F5F5F5F5F5F5F5F5F5F5F5F5F5F5F5F5F5F5F5F5
310
F5F5F5F5F5F5F5F5F5F5F5F5F5F5F5F5F5F5F5F5F5F5F5F5F5F5F5F5F5F5F5F5F5F5F5F5F5F5F5F5F5F5F5F5F5F5F5F5F5F5F5F5F5F5F5F5F5F5E2F5F5E2E2F5E2F5F5F5F5F5F5F5F5F5F5F5F5F5F5F5F5F5F5F5F5F5F5F5F5F5F5F5F5F5F5E2F5F5F5F5F5F5F5F5F5F5F5F5E2F5F5F5F5F5F5F5F5F5F5F5F5F5F5F5F5F5F5
310
F5F5F5F5F5F5F5F5F5E2E2F5E2E2F5E2E2F5E2E2F5E2E2F5E2F5E2E2F5E2F5F5F5F5F5F5F5F5F5F5F5F5F5F5F5F5F5F5F5F5F5F5F5F5F5F5F5F5F5F5F5F5F5F5F5F5F5F5F5F5F5F5F5F5F5F5F5F5F5F5F5F5F5F5F5F5F5F5F5F5E2F5F5F5F5F5F5F5F5F5F5F5F5F5F5F5F5F5F5F5F5E2F5F5E2E2F5E2F5F5F5F5F5F5F5F5F5
310
F5F5F5F5F5F5F5F5F5F5F5F5F5F5F5F5F5F5F5F5F5E2F5F5F5F5F5F5F5F5F5F5F5F5E2F5F5F5F5F5F5F5F5F5F5F5F5F5F5F5F5F5F5F5F5F5F5F5F5F5F5F5E2E2E2E2E2E2E2E2E2E2E2E2E2E2E2E2E2E2E2E2E2F5F5F5F5F5F5F5F5F5F5F5F5F5F5F5F5F5F5F5F5F5F5F5F5F5F5F5F5F5F5F5F5F5F5F5F5F5F5F5F5F5F5F5F5
310
F5F5F5F5F5F5F5F5F5F5F5F5F5F5F5F5E2F5F5F5F5F5F5F5F5F5F5F5F5F5F5F5F5F5F5F5F5E2F5F5E2E2F5E2F5F5F5F5F5F5F5F5F5F5F5F5F5F5F5F5F5F5F5F5F5F5F5F5F5F5F5F5F5F5E2F5F5F5F5F5F5F5F5F5F5F5F5E2F5F5F5F5F5F5F5F5F5F5F5F5F5F5F5F5F5F5F5F5F5F5F5F5F5F5F5E2E2E2E2E2E2E2E2E2E2E2E2
310
E2E2E2E2E2E2E2E2E2F5F5F5F5F5F5F5F5F5F5F5F5F5F5F5F5F5F5F5F5F5F5F5F5F5F5F5F5F5F5F5F5F5F5F5F5F5F5F5F5F5F5F5F5F5F5F5F5F5F5F5F5F5F5F5F5F5F5F5F5E2F5F5F5F5F5F5F5F5F5F5F5F5F5F5F5F5F5F5F5F5E2E2F5E2E2F5E2F5F5F5F5F5F5F5F5F5F5F5F5F5F5F5F5F5F5F5F5F5F5F5F5F5F5F5F5F5F5
310
E2F5F5F5F5F5F5F5F5F5F5F5F5E2F5F5F5F5F5F5F5F5F5F5F5F5F5F5F5F5F5F5F5F5F5F5F5F5F5F5F5E2E2F5E2E2F5E2E2F5E2E2F5E2E2F5E2F5E2E2F5E2F5F5F5F5F5F5F5F5F5F5F5F5F5F5F5F5F5F5F5F5F5F5F5F5F5F5F5F5F5F5F5F5F5F5F5F5F5F5F5F5F5F5F5F5F5F5F5F5F5F5F5F5F5F5F5F5F5F5F5F5E2F5F5F5F5
310
F5F5F5F5F5F5F5F5F5F5F5F5F5F5F5F5E2E2F5E2E2F5E2F5F5F5F5F5F5F5F5F5F5F5F5F5F5F5F5F5F5F5F5F5F5F5F5F5F5F5F5F5F5E2F5F5F5F5F5F5F5F5F5F5F5F5E2F5F5F5F5F5F5F5F5F5F5F5F5F5F5F5F5F5F5F5F5F5F5F5F5F5F5F5E2E2E2E2E2E2E2E2E2E2E2E2E2E2E2E2E2E2E2E2F5F5F5F5F5F5F5F5F5F5F5F5F5
310
F5F5F5F5F5F5F5F5F5F5F5F5F5F5F5F5F5F5F5F5F5F5F5F5F5F5F5F5F5F5F5F5F5F5F5F5F5F5F5F5F5F5F5F5F5F5F5F5E2F5F5F5F5F5F5F5F5F5F5F5F5F5F5F5F5F5F5F5F5E2E2F5E2E2F5E2F5F5F5F5F5F5F5F5F5F5F5F5F5F5F5F5F5F5F5F5F5F5F5F5F5F5F5F5F5F5E2F5F5F5F5F5F5F5F5F5F5F5F5F5F5F5F5F5F5F5F5
310
F5F5F5F5F5F5F5F5F5F5F5F5F5F5F5F5F5F5F5F5F5F5F5E2E2E2E2E2E2E2E2E2E2E2E2E2E2E2E2F5F5F5F5F5F5F5F5F5F5F5F5F5F5F5F5F5F5F5F5F5F5F5F5F5F5F5F5F5F5F5F5F5F5F5F5F5F5F5F5F5F5F5F5F5F5F5F5F5F5F5F5F5F5F5F5F5F5F5F5F5F5E2F5F5F5F5F5F5F5F5F5F5F5F5F5F5F5F5F5F5F5F5E2E2F5E2E2
310
F5E2F5F5F5F5F5F5F5F5F5F5F5F5F5F5F5F5F5F5F5F5F5F5F5F5F5F5F5F5F5F5E2F5F5F5F5F5F5F5F5F5F5F5F5F5F5F5F5F5F5F5F5F5F5F5F5F5F5F5F5F5F5F5F5F5F5F5F5F5F5F5F5F5F5F5E2E2F5F5F5F5F5F5F5F5F5F5F5F5E2E2F5F5F5F5F5F5F5F5F5F5F5F5F5F5F5F5F5F5F5F5F5F5F5F5F5F5F5F5F5F5F5F5F5F5F5
310
F5F5F5F5F5F5F5F5F5F5F5F5F5F5F5F5F5F5F5F5F5F5F5F5F5F5F5E2F5F5F5F5F5F5F5F5F5F5F5F5F5F5F5F5F5F5F5F5E2E2F5E2E2F5E2F5F5F5F5F5F5F5F5F5F5F5F5F5F5F5F5F5F5F5F5F5F5F5F5F5F5F5F5F5F5E2F5F5F5F5F5F5F5F5F5F5F5F5F5F5F5F5F5F5F5F5F5F5F5F5F5F5F5F5F5F5F5F5F5F5F5F5F5F5F5F5F5
310
F5F5E2E2E2E2E2E2E2E2E2E2E2E2E2E2E2E2F5F5F5F5F5F5F5F5F5F5F5F5F5F5F5F5F5F5F5F5F5F5F5F5F5F5F5F5F5F5F5F5F5F5F5F5F5F5F5F5F5F5F5F5F5F5F5F5F5F5F5F5F5F5F5F5F5F5F5F5F5F5E2F5F5F5F5F5F5F5F5F5F5F5F5F5F5F5F5F5F5F5F5E2E2F5E2E2F5E2F5F5F5F5F5F5F5F5F5F5F5F5F5F5F5F5F5F5F5
310
F5F5F5F5F5F5F5F5F5F5F5E2F5F5F5F5F5F5F5F5F5F5F5F5E2F5F5F5F5F5F5F5F5F5F5F5F5F5F5F5F5F5F5F5F5F5F5F5F5F5F5F5F5F5F5E2E2F5F5F5F5F5F5F5F5F5F5F5F5E2E2F5F5F5F5F5F5F5F5F5F5F5F5F5F5F5F5F5F5F5F5F5F5F5F5F5F5F5F5F5F5F5F5F5F5F5F5F5F5F5F5F5F5F5F5F5F5F5F5F5F5F5F5F5F5F5F5
310
F5F5F5F5F5F5F5F5F5F5F5F5F5F5F5F5F5F5F5F5F5F5F5F5F5F5F5E2E2F5E2E2F5E2F5F5F5F5F5F5F5F5F5F5F5F5F5F5F5F5F5F5F5F5F5F5F5F5F5F5F5F5F5F5E2F5F5F5F5F5F5F5F5F5F5F5F5E2F5F5F5F5F5F5F5F5F5F5F5F5F5F5F5F5F5F5F5F5F5F5F5F5F5F5F5F5F5F5E2E2E2E2E2E2E2E2E2E2E2E2E2E2E2E2F5F5F5
310
F5F5F5F5F5F5F5F5F5F5F5F5F5F5F5F5F5F5F5F5F5F5F5F5F5F5F5F5F5F5F5F5F5F5F5F5F5F5F5F5F5F5F5F5F5F5F5F5F5F5F5F5F5F5F5F5F5F5F5F5F5F5F5F5F5F5F5F5F5F5F5F5F5F5F5F5F5F5F5F5E2E2F5E2E2F5E2F5F5F5F5F5F5F5F5F5F5F5F5F5F5F5F5F5F5F5F5F5F5F5F5F5F5F5F5F5F5E2F5F5F5F5F5F5F5F5F5
310
F5F5F5E2F5F5F5F5F5F5F5F5F5F5F5F5F5F5F5F5F5F5F5F5F5F5F5F5F5F5F5F5F5F5E2E2E2E2E2E2E2E2E2E2E2E2E2E2E2E2F5F5F5F5F5F5F5F5F5F5F5F5F5F5F5F5F5F5F5F5F5F5F5F5F5F5F5F5F5F5F5F5F5F5F5F5F5F5F5F5F5F5F5F5F5F5F5F5F5F5F5F5F5F5F5F5F5F5F5F5F5F5F5F5F5F5F5F5F5F5F5F5F5F5F5F5F5
310
F5F5F5F5F5F5E2E2F5E2E2F5E2F5F5F5F5F5F5F5F5F5F5F5F5F5F5F5F5F5F5F5F5F5F5F5F5F5E2E2E2E2F5E2F5F5F5F5F5F5F5F5F5F5F5F5E2F5F5F5F5F5F5F5F5F5F5F5F5F5F5F5F5F5F5F5F5F5F5F5F5F5F5F5F5F5F5E2E2F5F5F5F5F5F5F5F5F5F5F5F5E2E2F5F5F5F5F5F5F5F5F5F5F5F5F5F5F5F5F5F5F5F5F5F5F5F5
310
F5F5F5F5F5F5F5F5F5F5F5F5F5F5F5F5F5F5F5F5F5F5F5F5F5F5F5F5F5F5F5F5F5F5F5F5F5F5E2F5F5F5F5F5F5F5F5F5F5F5F5F5F5F5F5F5F5F5F5E2E2F5E2E2F5E2F5F5F5F5F5F5F5F5F5F5F5F5F5F5F5F5F5F5F5F5F5F5F5F5F5E2E2E2E2F5E2F5F5F5F5F5F5F5F5F5F5F5F5E2F5F5F5F5F5F5F5F5F5F5F5F5F5F5F5F5F5
310
F5F5F5F5F5F5F5F5F5F5F5F5F5E2E2E2E2E2E2E2E2E2E2E2E2E2E2E2E2F5F5F5F5F5F5F5F5F5F5F5F5F5F5F5F5F5F5F5F5F5F5F5F5F5F5F5F5F5F5F5F5F5F5F5F5F5F5F5F5F5F5F5F5F5F5F5F5F5F5F5F5F5F5F5F5F5F5F5F5F5F5E2F5F5F5F5F5F5F5F5F5F5F5F5F5F5F5F5F5F5F5F5E2E2F5E2E2F5E2F5F5F5F5F5F5F5F5
310
F5F5F5F5F5F5F5F5F5F5F5F5F5F5F5F5F5E2E2E2E2F5E2F5F5F5F5F5F5F5F5F5F5F5F5E2F5F5F5F5F5F5F5F5F5F5F5F5F5F5F5F5F5F5F5F5F5F5F5F5F5F5F5F5F5F5E2E2F5F5F5F5F5F5F5F5F5F5F5F5E2E2F5F5F5F5F5F5F5F5F5F5F5F5F5F5F5F5F5F5F5F5F5F5F5F5F5F5F5F5F5F5F5F5F5F5F5F5F5F5F5F5F5F5F5F5F5
310
F5F5F5F5F5F5F5F5F5F5F5F5F5F5F5F5F5E2F5F5F5F5F5F5F5F5F5F5F5F5F5F5F5F5F5F5F5F5E2E2F5E2E2F5E2F5F5F5F5F5F5F5F5F5F5F5F5F5F5F5F5F5F5F5F5F5F5F5F5F5E2E2E2E2F5E2F5F5F5F5F5F5F5F5F5F5F5F5E2F5F5F5F5F5F5F5F5F5F5F5F5F5F5F5F5F5F5F5F5F5F5F5F5F5F5F5F5F5F5E2E2E2E2E2E2E2E2
310
E2E2E2E2E2E2E2E2F5F5F5F5F5F5F5F5F5F5F5F5F5F5F5F5F5F5F5F5F5F5F5F5F5F5F5F5F5F5F5F5F5F5F5F5F5F5F5F5F5F5F5F5F5F5F5F5F5F5F5F5F5F5F5F5F5F5F5F5F5F5E2F5F5F5F5F5F5F5F5F5F5F5F5F5F5F5F5F5F5F5F5E2E2F5E2E2F5E2F5F5F5F5F5F5F5F5F5F5F5F5F5F5F5F5F5F5F5F5F5F5F5F5F5E2E2E2E2
310
F5E2F5F5F5F5F5F5F5F5F5F5F5F5E2F5F5F5F5F5F5F5F5F5F5F5F5F5F5F5F5F5F5F5F5F5F5F5F5F5F5F5F5F5F5E2E2F5F5F5F5F5F5F5F5F5F5F5F5E2E2F5F5F5F5F5F5F5F5F5F5F5F5F5F5F5F5F5F5F5F5F5F5F5F5F5F5F5F5F5F5F5F5F5F5F5F5F5F5F5F5F5F5F5F5F5F5F5F5F5F5F5F5F5F5F5F5F5F5F5F5F5F5E2F5F5F5
310
F5F5F5F5F5F5F5F5F5F5F5F5F5F5F5F5F5E2E2F5E2E2F5E2F5F5F5F5F5F5F5F5F5F5F5F5F5F5F5F5F5F5F5F5F5F5F5F5F5E2E2E2E2F5E2F5F5F5F5F5F5F5F5F5F5F5F5E2F5F5F5F5F5F5F5F5F5F5F5F5F5F5F5F5F5F5F5F5F5F5F5F5F5F5F5F5F5F5E2E2E2E2E2E2E2E2E2E2E2E2E2E2E2E2F5F5F5F5F5F5F5F5F5F5F5F5F5
310
F5F5F5F5F5F5F5F5F5F5F5F5F5F5F5F5F5F5F5F5F5F5F5F5F5F5F5F5F5F5F5F5F5F5F5F5F5F5F5F5F5F5F5F5F5F5F5F5F5E2F5F5F5F5F5F5F5F5F5F5F5F5F5F5F5F5F5F5F5F5E2E2F5E2E2F5E2F5F5F5F5F5F5F5F5F5F5F5F5F5F5F5F5F5F5F5F5F5F5F5F5F5F5F5F5F5F5E2F5F5F5F5F5F5F5F5F5F5F5F5E2E2E2E2E2E2F5
310
F5F5F5F5F5F5F5F5F5F5F5F5F5F5F5F5F5F5F5F5F5F5F5F5E2E2F5F5F5F5F5F5F5F5F5F5F5F5E2E2F5F5F5F5F5F5F5F5F5F5F5F5F5F5F5F5F5F5F5F5F5F5F5F5F5F5F5F5F5F5F5E2E2E2E2E2E2E2E2E2F5F5F5E2E2E2E2E2E2E2E2E2F5F5E2E2E2E2E2E2E2E2E2F5F5F5F5F5F5F5F5F5F5F5F5F5F5F5F5F5F5F5F5E2E2F5E2
310
E2F5E2F5F5F5F5F5F5F5F5F5F5F5F5F5F5F5F5F5F5F5F5F5F5F5F5F5F5F5F5F5F5E2F5F5F5F5F5F5F5F5F5F5F5F5F5F5F5F5F5E2F5F5F5F5F5F5F5F5F5F5F5F5F5F5F5F5F5F5F5F5F5F5F5F5F5E2E2E2E2E2E2E2E2E2E2E2E2E2E2E2E2F5F5F5F5F5F5F5F5F5F5F5F5F5F5F5F5F5F5F5F5F5F5F5F5F5F5F5F5F5F5F5E2F5F5
310
F5F5F5F5F5F5F5F5F5F5F5F5F5F5F5F5F5F5F5F5F5F5F5F5F5F5F5F5F5F5F5F5F5F5F5F5F5F5F5F5F5F5F5F5F5F5F5F5F5E2F5F5E2E2F5E2F5F5F5F5F5F5F5F5F5F5F5F5F5F5F5F5F5F5F5F5F5F5F5F5F5F5F5F5F5F5E2F5F5F5F5F5F5F5F5F5F5F5F5F5F5F5F5F5E2F5F5F5F5F5F5F5F5F5F5F5F5F5F5F5F5F5F5F5F5F5F5
310
F5F5F5E2E2F5F5F5F5F5F5F5F5F5F5F5F5E2E2F5F5F5F5F5F5F5F5F5F5F5F5F5F5F5F5F5F5F5F5F5F5F5F5F5F5F5F5F5F5F5E2F5F5F5F5F5F5F5F5F5F5F5F5F5F5F5F5F5F5F5F5F5F5F5F5F5F5F5F5F5F5F5F5F5F5F5F5F5F5F5F5F5F5F5F5F5F5F5F5F5F5F5E2F5F5E2E2F5E2F5F5F5F5F5F5F5F5F5F5F5F5F5F5F5F5F5F5
310
F5F5F5F5F5F5F5F5F5F5F5F5E2F5F5F5F5F5F5F5F5F5F5F5F5F5F5F5F5F5E2F5F5F5F5F5F5F5F5F5F5F5F5F5F5F5F5F5F5F5F5F5F5F5F5F5E2E2E2E2E2E2E2E2E2E2E2E2E2E2E2E2F5F5F5F5F5F5F5F5F5F5F5F5F5F5F5F5F5F5F5F5F5F5F5F5F5F5F5F5F5F5F5E2F5F5F5F5F5F5F5F5F5F5F5F5F5F5F5F5F5F5F5F5F5F5F5
310
F5F5F5F5F5F5F5F5F5F5F5F5F5F5F5F5F5F5F5F5F5F5F5F5F5F5F5F5E2F5F5E2E2F5E2F5F5F5F5F5F5F5F5F5F5F5F5F5F5F5F5F5F5F5F5F5F5F5F5F5F5F5F5F5F5E2F5F5F5F5F5F5F5F5F5F5F5F5F5F5F5F5F5E2F5F5F5F5F5F5F5F5F5F5F5F5F5F5F5F5F5F5F5F5F5F5F5F5F5E2E2E2E2E2E2E2E2E2E2E2E2E2E2E2E2F5F5
310
F5F5F5F5F5F5F5F5F5F5F5F5F5F5F5F5F5F5F5F5F5F5F5F5F5F5F5F5F5E2F5F5F5F5F5F5F5F5F5F5F5F5F5F5F5F5F5F5F5F5F5F5F5F5F5F5F5F5F5F5F5F5F5F5F5F5F5F5F5F5F5F5F5F5F5F5F5F5F5F5F5E2F5F5E2E2F5E2F5F5F5F5F5F5F5F5F5F5F5F5F5F5F5F5F5F5F5F5F5F5F5F5F5F5F5F5F5F5E2F5F5F5F5F5F5F5F5
310
F5F5F5F5F5F5F5F5F5E2F5F5F5F5F5F5F5F5F5F5F5F5F5F5F5F5F5F5F5F5F5F5F5F5F5E2E2F5F5F5F5F5F5F5F5F5F5F5F5E2E2F5F5F5F5F5F5F5F5F5F5F5F5F5F5F5F5F5F5F5F5F5F5F5F5F5F5F5F5F5F5F5E2F5F5F5F5F5F5F5F5F5F5F5F5F5F5F5F5F5F5F5F5F5F5F5F5F5F5F5F5F5F5F5F5F5F5F5F5F5F5F5F5F5F5F5F5
310
F5F5F5F5F5F5F5E2F5F5E2E2F5E2F5F5F5F5F5F5F5F5F5F5F5F5F5F5F5F5F5F5F5F5F5F5F5F5F5F5F5F5F5F5E2F5F5F5F5F5F5F5F5F5F5F5F5F5F5F5F5F5F5F5F5F5F5F5F5F5F5F5F5F5F5F5F5F5F5F5F5F5F5F5F5F5F5F5E2E2E2E2E2E2E2E2E2E2E2E2E2E2E2E2F5F5F5F5F5F5F5F5F5F5F5F5F5F5F5F5F5F5F5F5F5F5F5
310
F5F5F5F5F5F5F5F5F5F5F5F5F5F5F5F5F5F5F5F5F5F5F5F5F5F5F5F5F5F5F5F5F5F5F5F5F5F5F5F5F5F5F5F5F5F5F5F5F5F5F5F5F5F5F5F5F5F5F5F5E2F5F5E2E2F5E2F5F5F5F5F5F5F5F5F5F5F5F5F5F5F5F5F5F5F5F5F5F5F5F5F5F5F5F5F5F5E2F5F5F5F5F5F5F5F5F5F5F5F5F5F5F5F5F5F5F5F5F5F5F5F5F5F5F5F5F5
310
F5F5F5F5F5F5F5F5F5F5F5F5F5F5E2E2F5F5F5F5F5F5F5F5F5F5F5F5E2E2F5F5F5F5F5F5F5F5F5F5F5F5F5F5F5F5F5F5F5F5F5F5F5F5F5F5F5F5F5F5F5F5F5F5F5F5F5F5F5F5F5F5F5F5F5F5F5F5F5F5F5F5F5F5F5F5F5F5F5F5F5F5F5F5F5F5F5F5F5F5F5F5F5F5F5F5F5F5F5F5F5F5F5E2F5F5E2E2F5E2F5F5F5F5F5F5F5
310
F5F5F5F5F5F5F5F5F5F5F5F5F5F5F5F5F5F5F5F5F5F5F5E2F5F5F5F5F5F5F5F5F5F5F5F5F5F5F5F5F5F5F5F5F5F5F5F5F5F5F5F5F5F5F5F5F5F5F5F5F5F5F5F5F5F5F5E2E2E2E2E2E2E2E2E2E2E2E2E2E2E2E2F5F5F5F5F5F5F5F5F5F5F5F5F5F5F5F5F5F5F5F5F5F5F5F5F5F5F5F5F5F5F5F5F5F5F5F5F5F5F5F5F5F5F5F5
310
F5F5F5F5F5F5F5F5F5F5F5F5F5F5F5F5F5F5F5F5F5F5F5F5F5F5F5F5F5F5F5F5F5F5F5F5F5F5F5E2F5F5E2E2F5E2F5F5F5F5F5F5F5F5F5F5F5F5F5F5F5F5F5F5F5F5F5F5F5F5F5F5F5F5F5F5E2F5F5F5F5F5F5F5F5F5F5F5F5F5F5F5F5F5E2F5F5F5F5F5F5F5F5F5F5F5F5F5F5F5F5F5F5F5F5F5F5F5F5F5E2E2F5F5F5F5F5
310
F5F5F5F5F5F5F5E2E2F5F5F5F5F5F5F5F5F5F5F5F5F5F5F5F5F5F5F5F5F5F5F5F5F5F5F5F5F5F5F5E2F5F5F5F5F5F5F5F5F5F5F5F5F5F5F5F5F5F5F5F5F5F5F5F5F5F5F5F5F5F5F5F5F5F5F5F5F5F5F5F5F5F5F5F5F5F5F5F5F5F5F5E2F5F5E2E2F5E2F5F5F5F5F5F5F5F5F5F5F5F5F5F5F5F5F5F5F5F5F5F5F5F5F5F5F5F5
310
F5F5E2F5F5F5F5F5F5F5F5F5F5F5F5F5F5F5F5F5E2F5F5F5F5F5F5F5F5F5F5F5F5F5F5F5F5F5F5F5F5F5F5F5F5F5E2E2E2E2E2E2E2E2E2E2E2E2E2E2E2E2F5F5F5F5F5F5F5F5F5F5F5F5F5F5F5F5F5F5F5F5F5F5F5F5F5F5F5F5F5F5F5E2F5F5F5F5F5F5F5F5F5F5F5F5F5F5F5F5F5F5F5F5F5F5F5F5F5F5F5F5F5F5F5F5F5
310
F5F5F5F5F5F5F5F5F5F5F5F5F5F5F5F5F5F5E2E2F5E2E2F5E2F5F5F5F5F5F5F5F5F5F5F5F5F5F5F5F5F5F5F5F5F5F5F5F5F5F5F5F5F5F5E2F5F5F5F5F5F5F5F5F5F5F5F5F5F5F5F5F5E2F5F5F5F5F5F5F5F5F5F5F5F5F5F5F5F5F5F5F5F5F5F5F5F5F5E2E2F5F5F5F5F5F5F5F5F5F5F5F5E2E2E2E2E2E2E2E2E2E2E2F5F5F5
310
F5F5F5F5F5F5F5F5F5F5F5F5F5F5F5F5F5F5F5E2F5F5F5F5F5F5F5F5F5F5F5F5F5F5F5F5F5F5F5F5F5F5F5F5F5F5F5F5F5F5F5F5F5F5F5F5F5F5F5F5F5F5F5F5F5F5F5F5F5F5F5E2E2F5E2E2F5E2F5F5F5F5F5F5F5F5F5F5F5F5F5F5F5F5F5F5F5F5F5F5F5F5F5F5F5F5F5F5E2F5F5F5F5F5F5F5F5F5F5F5F5F5F5F5F5F5E2
310
F5F5F5F5F5F5F5F5F5F5F5F5F5F5F5F5F5F5F5F5F5F5F5F5F5E2E2E2E2E2E2E2E2E2E2E2E2E2E2E2E2E2E2E2E2E2E2E2E2E2F5F5F5F5F5F5F5F5F5F5F5F5F5F5F5F5F5F5F5F5F5F5E2F5F5F5F5F5F5F5F5F5F5F5F5F5F5F5F5F5F5F5F5F5F5F5F5F5F5F5F5F5F5F5F5F5F5F5F5F5F5F5F5F5F5F5F5F5F5F5F5F5F5F5E2E2F5
310
E2E2F5E2F5F5F5F5F5F5F5F5F5F5F5F5F5F5F5F5F5F5F5F5F5F5F5F5F5F5F5F5F5F5E2F5F5F5F5F5F5F5F5F5F5F5F5F5F5F5F5F5E2F5F5F5F5F5F5F5F5F5F5F5F5F5F5F5F5F5F5F5F5F5F5F5F5F5E2E2E2E2E2E2E2E2E2E2E2E2E2E2E2E2F5E2F5F5E2F5F5E2F5F5F5F5F5F5F5F5F5F5F5F5F5F5F5F5F5F5F5F5F5F5F5E2F5
310
F5F5F5F5F5F5F5F5F5F5F5F5F5F5F5F5F5F5F5F5F5F5F5F5F5F5F5F5F5F5F5F5F5F5F5F5F5F5F5F5F5F5F5F5F5F5F5F5F5F5E2E2F5E2E2F5E2F5F5F5F5F5F5F5F5F5F5F5F5F5F5F5F5F5F5F5F5F5F5F5F5F5F5F5F5F5F5E2F5F5F5F5F5F5F5F5F5F5F5F5F5F5F5F5F5E2F5F5F5F5F5F5F5F5F5F5F5F5F5F5F5F5F5F5F5F5F5
310
F5F5F5F5E2E2E2E2E2E2E2E2E2E2E2E2E2E2E2E2F5E2F5F5E2F5F5E2F5F5F5F5F5F5F5F5F5F5F5F5F5F5F5F5F5F5F5F5F5F5F5E2F5F5F5F5F5F5F5F5F5F5F5F5F5F5F5F5F5F5F5F5F5F5F5F5F5F5F5F5F5F5F5F5F5F5F5F5F5F5F5F5F5F5F5F5F5F5F5F5F5F5F5E2E2F5E2E2F5E2F5F5F5F5F5F5F5F5F5F5F5F5F5F5F5F5F5
310
F5F5F5F5F5F5F5F5F5F5F5F5F5E2F5F5F5F5F5F5F5F5F5F5F5F5F5F5F5F5F5E2F5F5F5F5F5F5F5F5F5F5F5F5F5F5F5F5F5F5F5F5F5F5F5F5F5E2E2F5F5F5F5F5F5F5F5F5F5F5F5E2E2F5E2F5F5E2F5F5E2F5F5F5F5F5F5F5F5F5F5F5F5F5F5F5F5F5F5F5F5F5F5F5E2F5F5F5F5F5F5F5F5F5F5F5F5F5F5F5F5F5F5F5F5F5F5
310
F5F5F5F5F5F5F5F5F5F5F5F5F5F5F5F5F5F5F5F5F5F5F5F5F5F5F5F5F5E2E2F5E2E2F5E2F5F5F5F5F5F5F5F5F5F5F5F5F5F5F5F5F5F5F5F5F5F5F5F5F5F5F5F5F5F5E2F5F5F5F5F5F5F5F5F5F5F5F5F5F5F5F5F5E2F5F5F5F5F5F5F5F5F5F5F5F5F5F5F5F5F5F5F5F5F5F5F5F5F5E2E2E2E2E2E2E2E2E2E2E2E2E2E2E2E2F5
310
E2F5F5E2F5F5E2F5F5F5F5F5F5F5F5F5F5F5F5F5F5F5F5F5F5F5F5F5F5F5E2F5F5F5F5F5F5F5F5F5F5F5F5F5F5F5F5F5F5F5F5F5F5F5F5F5F5F5F5F5F5F5F5F5F5F5F5F5F5F5F5F5F5F5F5F5F5F5F5F5F5F5E2E2F5E2E2F5E2F5F5F5F5F5F5F5F5F5F5F5F5F5F5F5F5F5F5F5F5F5F5F5F5F5F5F5F5F5F5E2F5F5F5F5F5F5F5
310
F5F5F5F5F5F5F5F5F5F5E2F5F5F5F5F5F5F5F5F5F5F5F5F5F5F5F5F5F5F5F5F5F5F5F5F5E2E2E2E2E2E2E2E2E2E2E2E2E2E2E2E2F5E2F5F5E2F5F5E2F5F5F5F5F5F5F5F5F5F5F5F5F5F5F5F5F5F5F5F5F5F5F5E2F5F5F5F5F5F5F5F5F5F5F5F5F5F5F5F5F5F5F5F5F5F5F5F5F5F5F5F5F5F5F5F5F5F5F5F5F5F5F5F5F5F5F5
310
F5F5F5F5F5F5F5F5E2E2F5E2E2F5E2F5F5F5F5F5F5F5F5F5F5F5F5F5F5F5F5F5F5F5F5F5F5F5F5F5F5F5F5F5F5E2F5F5F5F5F5F5F5F5F5F5F5F5F5F5F5F5F5F5F5F5F5F5F5F5F5F5F5F5F5F5F5F5F5F5F5F5F5F5F5F5F5F5F5E2E2F5F5F5F5F5F5F5F5F5F5F5F5E2E2F5E2F5F5E2F5F5E2F5F5F5F5F5F5F5F5F5F5F5F5F5F5
310
F5F5F5F5F5F5F5F5F5F5F5F5F5F5F5F5F5F5F5F5F5F5F5F5F5F5F5F5F5F5F5F5F5F5F5F5F5F5F5F5F5F5F5F5F5F5F5F5F5F5F5F5F5F5F5F5F5F5F5F5F5E2E2F5E2E2F5E2F5F5F5F5F5F5F5F5F5F5F5F5F5F5F5F5F5F5F5F5F5F5F5F5F5F5F5F5F5F5E2F5F5F5F5F5F5F5F5F5F5F5F5F5F5F5F5F5F5F5F5F5F5F5F5F5F5F5F5
310
F5F5F5F5F5F5F5F5F5F5F5F5F5F5F5E2E2E2E2E2E2E2E2E2E2E2E2E2E2E2E2F5E2F5F5E2F5F5E2F5F5F5F5F5F5F5F5F5F5F5F5F5F5F5F5F5F5F5F5F5F5F5F5F5F5F5F5F5F5F5F5F5F5F5F5F5F5F5F5F5F5F5F5F5F5F5F5F5F5F5F5F5F5F5F5F5F5F5F5F5F5F5F5F5F5F5F5F5F5F5F5F5F5F5E2E2F5E2E2F5E2F5F5F5F5F5F5
310
F5F5F5F5F5F5F5F5F5F5F5F5F5F5F5F5F5F5F5F5F5F5F5F5E2F5F5F5F5F5F5F5F5F5F5F5F5F5F5F5F5F5F5F5F5F5F5F5F5F5F5F5F5F5F5F5F5F5F5F5F5F5F5F5F5F5F5F5E2E2F5F5F5F5F5F5F5F5F5F5F5F5E2E2F5E2F5F5E2F5F5E2F5F5F5F5F5F5F5F5F5F5F5F5F5F5F5F5F5F5F5F5F5F5F5E2F5F5F5F5F5F5F5F5F5F5F5
310
F5F5F5F5F5F5F5F5F5F5F5F5F5F5F5F5F5F5F5F5F5F5F5F5F5F5F5F5F5F5F5F5F5F5F5F5F5F5F5F5E2E2F5E2E2F5E2F5F5F5F5F5F5F5F5F5F5F5F5F5F5F5F5F5F5F5F5F5F5F5F5F5F5F5F5F5F5E2F5F5F5F5F5F5F5F5F5F5F5F5F5F5F5F5F5E2F5F5F5F5F5F5F5F5F5F5F5F5F5F5F5F5F5F5F5F5F5F5F5F5F5E2E2E2E2E2E2
310
E2E2E2E2E2E2E2E2E2E2F5E2F5F5E2F5F5E2F5F5F5F5F5F5F5F5F5F5F5F5F5F5F5F5F5F5F5F5F5F5F5E2F5F5F5F5F5F5F5F5F5F5F5F5F5F5F5F5F5F5F5F5F5F5F5F5F5F5F5F5F5F5F5F5F5F5F5F5F5F5F5F5F5F5F5F5F5F5F5F5F5F5F5E2E2F5E2E2F5E2F5F5F5F5F5F5F5F5F5F5F5F5F5F5F5F5F5F5F5F5F5F5F5F5F5F5F5
310
F5F5F5E2F5F5F5F5F5F5F5F5F5F5F5F5F5F5F5F5F5E2F5F5F5F5F5F5F5F5F5F5F5F5F5F5F5F5F5F5F5F5F5F5F5F5F5E2E2E2E2E2E2E2E2E2E2E2E2E2E2E2E2F5E2F5F5E2F5F5E2F5F5F5F5F5F5F5F5F5F5F5F5F5F5F5F5F5F5F5F5F5F5F5E2F5F5F5F5F5F5F5F5F5F5F5F5F5F5F5F5F5F5F5F5F5F5F5F5F5F5F5F5F5F5F5F5
310
F5F5F5F5F5F5F5F5F5F5F5F5F5F5F5F5F5F5F5E2E2F5E2E2F5E2F5F5F5F5F5F5F5F5F5F5F5F5F5F5F5F5F5F5F5F5F5F5F5F5F5F5F5F5F5F5E2F5F5F5F5F5F5F5F5F5F5F5F5F5F5F5F5F5E2F5F5F5F5F5F5F5F5F5F5F5F5F5F5F5F5F5F5F5F5F5F5F5F5F5E2E2F5F5F5F5F5F5F5F5F5F5F5F5E2E2F5E2F5F5E2F5F5E2F5F5F5
310
F5F5F5F5F5F5F5F5F5F5F5F5F5F5F5F5F5F5F5F5E2F5F5F5F5F5F5F5F5F5F5F5F5F5F5F5F5F5F5F5F5F5F5F5F5F5F5F5F5F5F5F5F5F5F5F5F5F5F5F5F5F5F5F5F5F5F5F5F5F5F5F5E2E2F5E2E2F5E2F5F5F5F5F5F5F5F5F5F5F5F5F5F5F5F5F5F5F5F5F5F5F5F5F5F5F5F5F5F5E2F5F5F5F5F5F5F5F5F5F5F5F5F5F5F5F5F5
310
E2F5F5F5F5F5F5F5F5F5F5F5F5F5F5F5F5F5F5F5F5F5F5F5F5F5E2E2E2E2E2E2E2E2E2E2E2E2E2E2E2E2E2E2E2E2E2E2E2E2E2F5F5F5F5F5F5F5F5F5F5F5F5F5F5F5F5F5F5F5F5F5F5E2F5F5F5F5F5F5F5F5F5F5F5F5F5F5F5F5F5F5F5F5F5F5F5F5F5F5F5F5F5F5F5F5F5F5F5F5F5F5F5F5F5F5F5F5F5F5F5F5F5F5F5E2E2
310
F5E2E2F5E2F5F5F5F5F5F5F5F5F5F5F5F5F5F5F5F5F5F5F5F5F5F5F5F5F5F5F5F5F5F5E2F5F5F5F5F5F5F5F5F5F5F5F5F5F5F5F5F5E2F5F5F5F5F5F5F5F5F5F5F5F5F5F5F5F5F5F5F5F5F5F5F5F5F5E2F5E2E2E2E2E2E2E2E2E2E2E2E2E2E2E2E2E2E2E2E2E2E2E2F5F5F5F5F5F5F5F5F5F5F5F5F5F5F5F5F5F5F5F5F5F5E2
310
F5F5F5F5F5F5F5F5F5F5F5F5F5F5F5F5F5F5F5F5F5F5F5F5F5F5F5F5F5F5F5F5F5F5F5F5F5F5F5F5F5F5F5F5F5F5F5F5F5F5F5E2E2F5E2E2F5E2F5F5F5F5F5F5F5F5F5F5F5F5F5F5F5F5F5F5F5F5F5F5F5F5F5F5F5F5F5F5E2F5F5F5F5F5F5F5F5F5F5F5F5F5F5F5F5F5E2F5F5F5F5F5F5F5F5F5F5F5F5F5F5F5F5F5F5F5F5
310
F5F5F5F5F5E2E2E2F5F5F5F5F5F5F5F5F5F5F5E2E2F5F5F5F5F5F5F5F5F5F5F5F5F5F5F5F5F5F5F5F5F5F5F5F5F5F5F5F5F5F5F5E2F5F5F5F5F5F5F5F5F5F5F5F5F5F5F5F5F5F5F5F5F5F5F5F5F5F5F5F5F5F5F5F5F5F5F5F5F5F5F5F5F5F5F5F5F5F5F5F5F5F5F5E2F5F5E2E2F5E2F5F5F5F5F5F5F5F5F5F5F5F5F5F5F5F5
310
F5F5F5F5F5F5F5F5F5F5F5F5F5F5E2F5F5F5F5F5F5F5F5F5F5F5F5F5F5F5F5F5E2F5F5F5F5F5F5F5F5F5F5F5F5F5F5F5F5F5F5F5F5F5F5F5F5F5F5F5F5F5F5F5F5F5F5F5F5F5F5F5F5F5F5F5F5F5F5F5F5F5F5F5F5F5F5F5F5F5F5F5F5F5F5F5F5F5F5F5F5F5F5F5F5E2F5F5F5F5F5F5F5F5F5F5F5F5F5F5F5F5F5F5F5F5F5
310
F5F5F5F5F5F5F5F5F5F5F5F5F5F5F5F5F5F5F5F5F5F5F5F5F5F5F5F5F5F5E2F5F5E2E2F5E2F5F5F5F5F5F5F5F5F5F5F5F5F5F5F5F5F5F5F5F5F5F5F5F5F5F5F5F5F5F5E2F5F5F5F5F5F5F5F5F5F5F5F5F5F5F5F5F5E2F5F5F5F5F5F5F5F5F5F5F5F5F5F5F5F5F5F5F5F5F5F5F5F5F5F5F5F5F5F5F5F5F5F5F5F5F5F5F5F5F5
310
F5F5F5F5F5F5F5F5F5F5F5F5F5F5F5F5F5F5F5F5F5F5F5F5F5F5F5F5F5F5F5E2F5F5F5F5F5F5F5F5F5F5F5F5F5F5F5F5F5F5F5F5F5F5F5F5F5F5F5F5F5F5F5F5F5F5F5F5F5F5F5F5F5F5F5F5F5F5F5F5F5F5F5E2F5F5E2E2F5E2F5F5F5F5F5F5F5F5F5F5F5F5F5F5F5F5F5F5F5F5F5F5F5F5F5F5F5F5F5F5E2F5F5F5F5F5F5
310
F5F5F5F5F5F5F5F5F5F5F5F5F5F5F5F5F5F5F5F5F5F5F5F5F5F5F5F5F5F5F5F5F5F5F5F5F5F5F5F5F5F5F5F5F5F5F5F5F5F5F5F5F5F5F5F5F5F5F5F5F5F5F5F5F5F5F5F5F5F5F5F5F5F5F5F5F5F5F5F5F5F5F5F5F5F5F5F5F5F5F5F5F5F5F5F5F5F5F5F5F5F5F5F5F5F5F5F5F5F5F5F5F5F5F5F5F5F5F5F5F5F5F5F5F5F5F5
310
F5F5F5F5F5F5F5F5F5E2F5F5E2E2F5E2F5F5F5F5F5F5F5F5F5F5F5F5F5F5F5F5F5F5F5F5F5F5F5F5F5F5F5F5F5F5E2F5F5F5F5F5F5F5F5F5F5F5F5F5F5F5F5F5F5F5F5F5F5F5F5F5F5F5F5F5F5F5F5F5F5F5F5F5F5F5F5F5F5F5F5F5F5F5F5F5F5F5F5F5F5F5F5F5F5F5F5F5F5F5F5F5F5F5F5F5F5F5F5F5F5F5F5F5F5F5F5
310
F5F5F5F5F5F5F5F5F5F5F5F5F5F5F5F5F5F5F5F5F5F5F5F5F5F5F5F5F5F5F5F5F5F5F5F5F5F5F5F5F5F5F5F5F5F5F5F5F5F5F5F5F5F5F5F5F5F5F5F5F5F5E2F5F5E2E2F5E2F5F5F5F5F5F5F5F5F5F5F5F5F5F5F5F5F5F5F5F5F5F5F5F5F5F5F5F5F5F5E2F5F5F5F5F5F5F5F5F5F5F5F5F5F5F5F5F5F5F5F5F5F5F5F5F5F5F5
310
F5F5F5F5F5F5F5F5F5F5F5F5F5F5F5F5F5F5F5F5F5F5F5F5F5F5F5F5F5F5F5F5F5F5F5F5F5F5F5F5F5F5F5F5F5F5F5F5F5F5F5F5F5F5F5F5F5F5F5F5F5F5F5F5F5F5F5F5F5F5F5F5F5F5F5F5F5F5F5F5F5F5F5F5F5F5F5F5F5F5F5F5F5F5F5F5F5F5F5F5F5F5F5F5F5F5F5F5F5F5F5F5F5F5F5E2F5F5E2E2F5E2F5F5F5F5F5
310
F5F5F5F5F5F5F5F5F5F5F5F5F5F5F5F5F5F5F5F5F5F5F5F5F5E2F5F5F5F5F5F5F5F5F5F5F5F5F5F5F5F5F5E2F5F5F5F5F5F5F5F5F5F5F5F5F5F5F5F5F5F5F5F5F5F5F5F5F5F5F5F5F5F5F5F5F5F5F5F5F5F5F5F5F5F5F5F5F5F5F5F5F5F5F5F5F5F5F5F5F5F5F5F5F5F5F5F5F5F5F5F5F5F5F5F5E2F5F5F5F5F5F5F5F5F5F5
310
F5F5F5F5F5F5F5F5F5F5F5F5F5F5F5F5F5F5F5F5F5F5F5F5F5F5F5F5F5F5F5F5F5F5F5F5F5F5F5F5F5E2F5F5E2E2F5E2F5F5F5F5F5F5F5F5F5F5F5F5F5F5F5F5F5F5F5F5F5F5F5F5F5F5F5F5F5F5E2F5F5F5F5F5F5F5F5F5F5F5F5F5F5F5F5F5E2F5F5F5F5F5F5F5F5F5F5F5F5F5F5F5F5F5F5F5F5F5F5F5F5F5F5F5F5F5F5
310
F5F5F5F5F5F5F5F5F5F5F5F5F5F5F5F5F5F5F5F5F5F5F5F5F5F5F5F5F5F5F5F5F5F5F5F5F5F5F5F5F5F5E2F5F5F5F5F5F5F5F5F5F5F5F5F5F5F5F5F5F5F5F5F5F5F5F5F5F5F5F5F5F5F5F5F5F5F5F5F5F5F5F5F5F5F5F5F5F5F5F5F5F5F5E2F5F5E2E2F5E2F5F5F5F5F5F5F5F5F5F5F5F5F5F5F5F5F5F5F5F5F5F5F5F5F5F5
310
F5F5F5F5E2F5F5F5F5F5F5F5F5F5F5F5F5F5F5F5F5F5E2F5F5F5F5F5F5F5F5F5F5F5F5F5F5F5F5F5F5F5F5F5F5F5F5F5F5F5F5F5F5F5F5F5F5F5F5F5F5F5F5F5F5F5F5F5F5F5F5F5F5F5F5F5F5F5F5F5F5F5F5F5F5F5F5F5F5F5F5F5F5F5F5E2F5F5F5F5F5F5F5F5F5F5F5F5F5F5F5F5F5F5F5F5F5F5F5F5F5F5F5F5F5F5F5
310
F5F5F5F5F5F5F5F5F5F5F5F5F5F5F5F5F5F5F5F5E2F5F5E2E2F5E2F5F5F5F5F5F5F5F5F5F5F5F5F5F5F5F5F5F5F5F5F5F5F5F5F5F5F5F5F5F5E2F5F5F5F5F5F5F5F5F5F5F5F5F5F5F5F5F5E2F5F5F5F5F5F5F5F5F5F5F5F5F5F5F5F5F5F5F5F5F5F5F5F5F5F5F5F5F5F5F5F5F5F5F5F5F5F5F5F5F5F5F5F5F5F5F5F5F5F5F5
310
F5F5F5F5F5F5F5F5F5F5F5F5F5F5F5F5F5F5F5F5F5E2F5F5F5F5F5F5F5F5F5F5F5F5F5F5F5F5F5F5F5F5F5F5F5F5F5F5F5F5F5F5F5F5F5F5F5F5F5F5F5F5F5F5F5F5F5F5F5F5F5F5F5E2E2F5E2E2F5E2F5F5F5F5F5F5F5F5F5F5F5F5F5F5F5F5F5F5F5F5F5F5F5F5F5F5F5F5F5F5E2F5F5F5F5F5F5F5F5F5F5F5F5F5F5F5F5
310
F5E2F5F5F5F5F5F5F5F5F5F5F5F5F5F5F5F5F5F5F5F5F5F5F5F5F5F5F5F5F5F5F5F5F5F5F5F5F5F5F5F5F5F5F5F5F5F5F5F5F5F5F5F5F5F5F5F5F5F5F5F5F5F5F5F5F5F5F5F5F5F5F5F5E2F5F5F5F5F5F5F5F5F5F5F5F5F5F5F5F5F5F5F5F5F5F5F5F5F5F5F5F5F5F5F5F5F5F5F5F5F5F5F5F5F5F5F5F5F5F5F5F5F5F5F5E2
310
E2F5E2E2F5E2F5F5F5F5F5F5F5F5F5F5F5F5F5F5F5F5F5F5F5F5F5F5F5F5F5F5F5F5F5F5E2F5F5F5F5F5F5F5F5F5F5F5F5F5F5F5F5F5E2F5F5F5F5F5F5F5F5F5F5F5F5F5F5F5F5F5F5F5F5F5F5F5F5F5F5F5F5F5F5F5F5F5F5F5F5F5F5F5F5F5F5F5F5F5F5F5F5F5F5F5F5F5F5F5F5F5F5F5F5F5F5F5F5F5F5F5F5F5F5F5F5
310
E2F5F5F5F5F5F5F5F5F5F5F5F5F5F5F5F5F5F5F5F5F5F5F5F5F5F5F5F5F5F5F5F5F5F5F5F5F5F5F5F5F5F5F5F5F5F5F5F5F5F5F5E2E2F5E2E2F5E2F5F5F5F5F5F5F5F5F5F5F5F5F5F5F5F5F5F5F5F5F5F5F5F5F5F5F5F5F5F5E2F5F5F5F5F5F5F5F5F5F5F5F5F5F5F5F5F5E2F5F5F5F5F5F5F5F5F5F5F5F5F5F5F5F5F5F5F5
310
F5F5F5F5F5F5F5F5F5F5F5F5F5F5F5F5F5F5F5F5F5F5F5F5F5F5F5F5F5F5F5F5F5F5F5F5F5F5F5F5F5F5F5F5F5F5F5F5F5F5F5F5F5E2F5F5F5F5F5F5F5F5F5F5F5F5F5F5F5F5F5F5F5F5F5F5F5F5F5F5F5F5F5F5F5F5F5F5F5F5F5F5F5F5F5F5F5F5F5F5F5F5F5F5F5E2E2F5E2E2F5E2F5F5F5F5F5F5F5F5F5F5F5F5F5F5F5
310
F5F5F5F5F5F5F5F5F5F5F5F5F5F5F5E2F5F5F5F5F5F5F5F5F5F5F5F5F5F5F5F5F5E2F5F5F5F5F5F5F5F5F5F5F5F5F5F5F5F5F5F5F5F5F5F5F5F5F5F5F5F5F5F5F5F5F5F5F5F5F5F5F5F5F5F5F5F5F5F5F5F5F5F5F5F5F5F5F5F5F5F5F5F5F5F5F5F5F5F5F5F5F5F5F5F5E2F5F5F5F5F5F5F5F5F5F5F5F5F5F5F5F5F5F5F5F5
310
F5F5F5F5F5F5F5F5F5F5F5F5F5F5F5F5F5F5F5F5F5F5F5F5F5F5F5F5F5F5F5E2E2F5E2E2F5E2F5F5F5F5F5F5F5F5F5F5F5F5F5F5F5F5F5F5F5F5F5F5F5F5F5F5F5F5F5F5E2F5F5F5F5F5F5F5F5F5F5F5F5F5F5F5F5F5E2F5F5F5F5F5F5F5F5F5F5F5F5F5F5F5F5F5F5F5F5F5F5F5F5F5F5F5F5F5F5F5F5F5F5F5F5F5F5F5F5
310
F5F5F5F5F5F5F5F5F5F5F5F5F5F5F5F5F5F5F5F5F5F5F5F5F5F5F5F5F5F5F5F5E2F5F5F5F5F5F5F5F5F5F5F5F5F5F5F5F5F5F5F5F5F5F5F5F5F5F5F5F5F5F5F5F5F5F5F5F5F5F5F5F5F5F5F5F5F5F5F5F5F5F5F5E2E2F5E2E2F5E2F5F5F5F5F5F5F5F5F5F5F5F5F5F5F5F5F5F5F5F5F5F5F5F5F5F5F5F5F5F5E2F5F5F5F5F5
310
F5F5F5F5F5F5F5F5F5F5F5F5F5F5F5F5F5F5F5F5F5F5F5F5F5F5F5F5F5F5F5F5F5F5F5F5F5F5F5F5F5F5F5F5F5F5F5F5F5F5F5F5F5F5F5F5F5F5F5F5F5F5F5F5F5F5F5F5F5F5F5F5F5F5F5F5F5F5F5F5F5F5F5F5F5F5F5F5F5F5F5F5F5F5F5F5F5F5F5F5F5F5F5F5F5F5F5F5F5F5F5F5F5F5F5F5F5F5F5F5F5F5F5F5F5F5F5
310
F5F5F5F5F5F5F5F5F5F5E2E2F5E2E2F5E2F5F5F5F5F5F5F5F5F5F5F5F5F5F5F5F5F5F5F5F5F5F5F5F5F5F5F5F5F5F5E2F5F5F5F5F5F5F5F5F5F5F5F5F5F5F5F5F5F5F5F5F5F5F5F5F5F5F5F5F5F5F5F5F5F5F5F5F5F5F5F5F5F5F5F5F5F5F5F5F5F5F5F5F5F5F5F5F5F5F5F5F5F5F5F5F5F5F5F5F5F5F5F5F5F5F5F5F5F5F5
310
F5F5F5F5F5F5F5F5F5F5F5F5F5F5F5F5F5F5F5F5F5F5F5F5F5F5F5F5F5F5F5F5F5F5F5F5F5F5F5F5F5F5F5F5F5F5F5F5F5F5F5F5F5F5F5F5F5F5F5F5F5F5F5E2E2F5E2E2F5E2F5F5F5F5F5F5F5F5F5F5F5F5F5F5F5F5F5F5F5F5F5F5F5F5F5F5F5F5F5F5E2F5F5F5F5F5F5F5F5F5F5F5F5F5F5F5F5F5F5F5F5F5F5F5F5F5F5
310
F5F5F5F5F5F5F5F5F5F5F5F5F5F5F5F5F5F5F5F5F5F5F5F5F5F5F5F5F5F5F5F5F5F5F5F5F5F5F5F5F5F5F5F5F5F5F5F5F5F5F5F5F5F5F5F5F5F5F5F5F5F5F5F5E2F5F5F5F5F5F5F5F5F5F5F5F5F5F5F5F5F5F5F5F5F5F5F5F5F5F5F5F5F5F5F5F5F5F5F5F5F5F5F5F5F5F5F5F5F5F5F5F5F5F5F5E2E2F5E2E2F5E2F5F5F5F5
310
F5F5F5F5F5F5F5F5F5F5F5F5F5F5F5F5F5F5F5F5F5F5F5F5F5F5E2F5F5F5F5F5F5F5F5F5F5F5F5F5F5F5F5F5E2F5F5F5F5F5F5F5F5F5F5F5F5F5F5F5F5F5F5F5F5F5F5F5F5F5F5F5F5F5F5F5F5F5F5F5F5F5F5F5F5F5F5F5F5F5F5F5F5F5F5F5F5F5F5F5F5F5F5F5F5F5F5F5F5F5F5F5F5F5F5F5F5E2F5F5F5F5F5F5F5F5F5
310
F5F5F5F5F5F5F5F5F5F5F5F5F5F5F5F5F5F5F5F5F5F5F5F5F5F5F5F5F5F5F5F5F5F5F5F5F5F5F5F5F5F5E2E2F5E2E2F5E2F5F5F5F5F5F5F5F5F5F5F5F5F5F5F5F5F5F5F5F5F5F5F5F5F5F5F5F5F5F5E2F5F5F5F5F5F5F5F5F5F5F5F5F5F5F5F5F5E2F5F5F5F5F5F5F5F5F5F5F5F5F5F5F5F5F5F5F5F5F5F5F5F5F5F5F5F5F5
310
F5F5F5F5F5F5F5F5F5F5F5F5F5F5F5F5F5F5F5F5F5F5F5F5F5F5F5F5F5F5F5F5F5F5F5F5F5F5F5F5F5F5F5E2F5F5F5F5F5F5F5F5F5F5F5F5F5F5F5F5F5F5F5F5F5F5F5F5F5F5F5F5F5F5F5F5F5F5F5F5F5F5F5F5F5F5F5F5F5F5F5F5F5F5F5E2E2F5E2E2F5E2F5F5F5F5F5F5F5F5F5F5F5F5F5F5F5F5F5F5F5F5F5F5F5F5F5
310
F5F5F5F5F5E2F5F5F5F5F5F5F5F5F5F5F5F5F5F5F5F5F5E2F5F5F5F5F5F5F5F5F5F5F5F5F5F5F5F5F5F5F5F5F5F5F5F5F5F5F5F5F5F5F5F5F5F5F5F5F5F5F5F5F5F5F5F5F5F5F5F5F5F5F5F5F5F5F5F5F5F5F5F5F5F5F5F5F5F5F5F5F5F5F5F5E2F5F5F5F5F5F5F5F5F5F5F5F5F5F5F5F5F5F5F5F5F5F5F5F5F5F5F5F5F5F5
310
F5F5F5F5F5F5F5F5F5F5F5F5F5F5F5F5F5F5F5F5F5E2E2F5E2E2F5E2F5F5F5F5F5F5F5F5F5F5F5F5F5F5F5F5F5F5F5F5F5F5F5F5F5F5F5F5F5F5E2BEF5F5F5F5F5F5F5F5F5F5F5F5F5F5F5F5E2F5F5F5F5F5F5F5F5F5F5F5F5F5F5F5F5F5F5F5F5F5F5F5F5F5F5F5F5F5F5F5F5F5F5F5F5F5F5F5F5F5F5F5F5F5F5F5F5F5F5
310
F5F5F5F5F5F5F5F5F5F5F5F5F5F5F5F5F5F5F5F5F5F5E2F5F5F5F5F5F5F5F5F5F5F5F5F5F5F5F5F5F5F5F5F5F5F5F5F5F5F5F5F5F5F5F5F5F5F5F5F5F5F5F5F5F5F5F5F5F5F5F5F5F5F5E2E2F5E2E2F5E2F5F5F5F5F5F5F5F5F5F5F5F5F5F5F5F5F5F5F5F5F5F5F5F5F5F5F5F5F5F5E2F5F5F5F5F5F5F5F5F5F5F5F5F5F5F5
310
F5F5E2F5F5F5F5F5F5F5F5F5F5F5F5F5F5F5F5F5F5F5F5F5F5F5F5F5F5F5F5F5F5F5F5F5F5F5F5F5F5F5F5F5F5F5F5F5F5F5F5F5F5F5F5F5F5F5F5F5F5F5F5F5F5F5F5F5F5F5F5F5F5F5F5E2F5F5F5F5F5F5F5F5F5F5F5F5F5F5F5F5F5F5F5F5F5F5F5F5F5F5F5F5F5F5F5F5F5F5F5F5F5F5F5F5F5F5F5F5F5F5F5F5F5F5F5
310
E2E2F5E2E2F5E2F5F5F5F5F5F5F5F5F5F5F5F5F5F5F5F5F5F5F5F5F5F5F5F5F5F5F5F5E2E2E2E2E2F5F5F5F5F5F5F5F5F5F5F5F5F5F5F5E2E2E2E2E2E2E2F5F5F5E2E2E2E2E2E2E2E2F5F5F5E2E2E2E2E2E2E2E2E2F5F5F5E2E2E2E2E2E2E2E2F5F5F5E2E2E2E2E2E2E2E2E2F5F5F5E2E2E2E2E2E2E2E2F5F5F5E2E2E2E2E2
310
E2E2F5F5F5F5F5F5F5F5F5F5F5F5F5F5F5F5F5F5F5F5F5F5F5F5F5F5F5F5F5F5F5F5F5F5F5F5F5F5F5F5F5F5F5F5F5F5F5F5F5F5F5E2E2F5E2E2F5E2F5F5F5F5F5F5F5F5F5F5F5F5F5F5F5F5F5F5F5F5F5F5F5F5F5F5F5F5F5BEE2F5F5F5F5F5F5F5F5F5F5F5F5F5F5F5F5F5F5F5F5F5F5F5F5F5F5F5F5F5F5F5F5F5F5F5F5
310
F5F5F5F5F5F5F5F5F5F5F5F5F5F5F5F5F5F5F5F5F5F5F5F5F5F5F5F5F5F5F5F5F5F5F5F5F5F5F5F5F5F5F5F5F5F5F5F5F5F5F5F5F5F5F5F5F5F5F5F5F5F5F5F5F5F5F5F5F5F5F5F5F5F5F5F5F5F5F5F5F5F5F5F5F5F5F5F5F5F5F5F5F5F5F5F5F5F5F5F5F5F5F5F5F5F5E2E2F5E2E2F5E2F5F5F5F5F5F5F5F5F5F5F5F5F5F5
310
F5F5F5F5F5F5F5F5F5F5F5F5F5F5F5F5F5F5F5F5F5F5F5F5F5F5F5F5F5F5F5F5F5F5F5F5F5F5F5F5F5F5F5F5F5F5F5F5F5F5F5F5F5F5F5F5F5F5F5F5F5F5F5F5F5F5F5F5F5F5F5F5F5F5F5F5F5F5F5F5F5F5F5F5F5F5F5F5F5F5F5F5F5F5F5F5F5F5F5F5F5F5F5F5F5F5F5F5F5F5F5F5F5F5F5F5F5F5F5F5F5F5F5F5F5F5F5
310
F5F5F5F5F5F5F5F5F5F5F5F5F5F5F5F5F5F5F5F5F5F5F5F5F5F5F5F5F5F5F5F5E2F5F5E2E2F5E2F5F5F5F5F5F5F5F5F5F5F5F5F5F5F5F5F5F5F5F5F5F5F5F5F5F5F5F5F5F5F5F5F5F5F5F5F5F5F5F5F5F5F5F5F5F5F5F5F5F5F5F5F5F5F5F5F5F5F5F5F5F5F5F5F5F5F5F5F5F5F5F5F5F5F5F5F5F5F5F5F5F5F5F5F5F5F5F5
310
F5F5F5F5F5F5F5F5F5F5F5F5F5F5F5F5F5F5F5F5F5F5F5F5F5F5F5F5F5F5F5F5F5F5F5F5F5F5F5F5F5F5F5F5F5F5F5F5F5F5F5F5F5F5F5F5F5F5F5F5F5F5F5F5F5F5F5F5F5F5F5F5F5F5F5F5F5F5F5F5F5F5F5F5F5E2F5F5E2E2F5E2F5F5F5F5F5F5F5F5F5F5F5F5F5F5F5F5F5F5F5F5F5F5F5F5F5F5F5F5F5F5F5F5F5F5F5
310
F5F5F5F5F5F5F5F5F5F5F5F5F5F5F5F5F5F5F5F5F5F5F5F5F5F5F5F5F5F5F5F5F5F5F5F5F5F5F5F5F5F5F5F5F5F5F5F5F5F5F5F5F5F5F5F5F5F5F5F5F5F5F5F5F5F5F5F5F5F5F5F5F5F5F5F5F5F5F5F5F5F5F5F5F5F5F5F5F5F5F5F5F5F5F5F5F5F5F5F5F5F5F5F5F5F5F5F5F5F5F5F5F5F5F5F5F5F5F5F5F5F5F5F5F5F5F5
310
F5F5F5F5F5F5F5F5F5F5F5E2F5F5E2E2F5E2F5F5F5F5F5F5F5F5F5F5F5F5F5F5F5F5F5F5F5F5F5F5F5F5F5F5F5F5F5F5F5F5F5F5F5F5F5F5F5F5F5F5F5F5F5F5F5F5F5F5F5F5F5F5F5F5F5F5F5F5F5F5F5F5F5F5F5F5F5F5F5F5F5F5F5F5F5F5F5F5F5F5F5F5F5F5F5F5F5F5F5F5F5F5F5F5F5F5F5F5F5F5F5F5F5F5F5F5F5
310
F5F5F5F5F5F5F5F5F5F5F5F5F5F5F5F5F5F5F5F5F5F5F5F5F5F5F5F5F5F5F5F5F5F5F5F5F5F5F5F5F5F5F5F5F5F5F5F5F5F5F5F5F5F5F5F5F5F5F5F5F5F5F5F5E2F5F5E2E2F5E2F5F5F5F5F5F5F5F5F5F5F5F5F5F5F5F5F5F5F5F5F5F5F5F5F5F5F5F5F5F5F5F5F5F5F5F5F5F5F5F5F5F5F5E2F5F5F5F5F5F5F5F5F5F5F5F5
310
F5F5F5F5F5F5F5F5F5F5F5F5F5F5F5F5F5F5F5F5F5F5F5F5F5F5F5F5F5F5F5F5F5F5F5F5F5F5F5F5F5F5F5F5F5F5F5F5F5F5F5F5F5F5F5F5F5F5F5F5F5F5F5F5F5F5F5F5F5F5F5F5F5F5F5F5F5F5F5F5F5F5F5F5F5F5F5F5F5F5F5F5F5F5F5F5E2F5F5F5F5F5F5F5F5F5F5F5F5F5F5F5F5F5F5F5F5E2F5F5E2E2F5E2F5F5F5
310
F5F5F5F5F5F5F5F5F5F5F5F5F5F5F5F5F5F5F5F5F5F5F5F5F5F5F5F5F5F5F5F5F5F5F5F5F5F5F5BEE2F5F5F5F5F5F5F5F5F5F5F5F5F5F5F5F5F5F5F5F5F5F5F5F5F5F5F5F5F5F5F5F5F5F5F5F5F5F5F5F5F5F5F5F5F5F5F5F5F5F5F5F5F5F5F5F5F5F5F5F5F5F5F5F5F5F5F5F5F5F5F5F5F5F5F5F5F5F5F5F5F5F5F5F5F5F5
310
F5F5F5F5F5F5F5F5F5F5F5F5F5F5F5F5F5F5F5F5F5BEE2F5F5F5F5F5F5F5F5F5F5F5F5F5F5F5F5F5F5F5F5E2F5F5E2E2F5E2F5F5F5F5F5F5F5F5F5F5F5F5F5F5F5F5F5F5F5F5F5F5F5F5F5F5F5F5F5F5F5F5F5F5F5F5F5F5F5F5F5F5E2E2E2E2E2E2E2E2E2E2E2E2E2E2E2E2E2E2E2E2E2E2E2E2E2E2E2E2E2E2E2E2E2E2E2
310
E2E2E2E2E2E2E2E2E2E2E2E2E2E2E2E2E2E2E2E2E2E2E2E2E2E2E2E2E2E2E2E2E2E2E2E2E2E2E2E2E2E2E2E2E2E2E2E2E2E2E2E2E2E2E2E2E2E2E2E2E2E2E2E2E2E2E2E2E2E2E2E2E2E2E2E2E2F5F5F5F5F5F5F5F5F5F5F5F5F5F5F5F5F5F5F5E2F5F5E2E2F5E2F5F5F5F5F5F5F5F5F5F5F5F5F5F5F5F5F5F5F5F5F5F5F5F5
310
F5F5F5F5F5F5F5F5F5F5F5F5F5F5F5F5F5F5F5E2BEF5F5F5F5F5F5F5F5F5F5F5F5F5F5F5F5F5F5F5F5F5F5F5F5F5F5F5F5F5F5F5F5F5F5F5F5F5F5F5F5F5F5F5F5F5F5F5F5F5F5F5F5F5F5F5F5F5F5F5F5F5F5F5F5F5F5F5F5F5F5F5F5F5F5F5F5F5F5F5F5F5F5F5F5F5F5F5F5F5F5F5F5F5F5F5F5F5F5F5F5F5F5F5F5F5F5
310
F5BEF5F5F5F5F5F5F5F5F5F5F5F5F5F5F5F5F5F5F5F5E2F5F5E2E2F5E2F5F5F5F5F5F5F5F5F5F5F5F5F5F5F5F5F5F5F5F5F5F5F5F5F5F5F5F5F5F5F5F5F5F5F5F5F5F5F5F5F5F5F5E2F5BEF5F5F5F5F5F5F5F5F5F5F5F5F5F5F5F5F5F5F5F5F5F5F5F5F5F5F5F5F5F5F5F5F5F5F5F5F5F5F5F5F5F5F5F5F5F5F5F5E2E2E2E2
310
E2E2E2F5F5F5F5F5F5F5F5F5F5F5F5F5F5F5F5F5F5F5F5F5F5F5F5F5F5F5F5F5F5F5F5F5F5F5F5F5F5F5F5F5F5F5F5F5F5F5F5F5F5F5E2BEF5F5F5F5F5F5F5F5F5F5F5F5F5F5F5F5F5F5F5E2F5F5E2E2F5E2F5F5F5F5F5F5F5F5F5F5F5F5F5F5F5F5F5F5F5F5F5F5F5F5F5F5F5F5F5F5F5F5F5F5F5F5F5F5F5F5F5F5F5E2F5
310
F5F5F5F5F5F5F5F5F5F5F5F5F5F5F5F5F5F5F5F5F5F5F5F5F5F5F5F5F5F5F5F5F5F5F5F5F5F5F5F5F5F5F5F5F5F5F5F5F5E2E2E2E2E2E2E2F5F5F5F5F5F5F5F5F5F5F5F5F5F5F5F5F5F5F5F5F5F5F5F5F5F5F5F5F5F5F5F5F5F5F5F5F5F5F5F5F5F5F5F5F5F5F5F5F5F5F5E2F5F5F5F5F5F5F5F5F5F5F5F5F5F5F5F5F5F5F5
310
F5E2E2F5E2E2F5E2F5F5F5F5F5F5F5F5F5F5F5F5F5F5F5F5F5F5F5F5F5F5F5F5F5F5F5F5F5F5F5F5F5F5F5F5F5F5F5F5F5F5F5F5F5F5F5F5F5F5F5F5F5F5F5F5F5F5F5F5F5F5F5F5F5F5F5F5F5F5F5F5F5F5F5F5F5F5F5F5F5F5F5F5F5F5F5F5F5F5F5F5F5F5E2E2E2E2E2E2E2F5F5F5F5F5F5F5F5F5F5F5F5F5F5F5F5F5F5
310
F5F5F5F5F5F5F5F5F5F5F5F5F5F5F5F5F5F5F5F5F5F5F5F5F5F5F5F5F5F5F5F5F5F5F5F5F5F5F5F5F5F5F5F5F5F5F5F5F5F5F5F5F5F5E2E2F5E2E2F5E2F5F5F5F5F5F5F5F5F5F5F5F5F5F5F5F5F5F5F5F5F5F5F5F5F5F5F5F5F5F5F5F5F5F5F5F5F5F5F5F5F5F5F5F5F5F5F5F5F5F5F5F5F5F5F5F5F5F5F5F5F5F5F5F5F5F5
310
F5F5F5F5F5F5F5F5F5F5F5F5F5F5F5F5F5F5F5F5F5F5F5F5F5F5F5F5E2E2E2E2E2E2E2F5F5F5F5F5F5F5F5F5F5F5F5F5F5F5F5F5F5F5F5F5F5F5F5F5F5F5F5F5F5F5F5F5F5F5F5F5F5F5F5F5F5F5F5F5F5F5F5F5F5F5F5F5F5F5F5F5F5F5F5F5F5F5F5F5F5F5F5F5F5F5F5E2E2F5E2E2F5E2F5F5F5F5F5F5F5F5F5F5F5F5F5
310
F5F5F5F5F5F5F5F5F5F5F5F5F5F5F5F5F5F5F5F5F5F5F5F5F5F5F5F5F5F5F5F5F5F5F5F5F5F5F5F5F5F5F5F5F5F5F5F5F5F5F5F5F5F5F5F5F5F5F5F5F5F5F5F5F5F5F5F5F5F5F5F5F5F5F5F5F5F5F5F5F5F5F5F5F5F5F5F5F5F5F5F5F5F5F5F5F5F5F5F5F5F5F5F5F5F5F5F5F5F5F5F5F5F5F5F5F5F5F5F5F5F5F5F5F5F5F5
310
F5F5F5F5F5F5F5F5F5F5F5F5F5F5F5F5F5F5F5F5F5F5F5F5F5F5F5F5F5F5F5F5F5E2E2F5E2E2F5E2F5F5F5F5F5F5F5F5F5F5F5F5F5F5F5F5F5F5F5F5F5F5F5F5F5F5F5F5F5F5F5F5F5F5F5F5F5F5F5F5F5F5F5F5F5F5F5F5F5F5F5F5F5F5F5F5F5F5F5F5F5F5F5F5F5F5F5F5F5F5F5F5F5F5F5F5F5F5F5F5F5F5F5F5F5F5F5
310
F5F5F5F5F5F5F5F5F5F5F5F5F5F5F5F5F5F5F5F5F5F5F5F5F5F5F5F5F5F5F5F5F5F5F5F5F5F5F5F5F5F5F5F5F5F5F5F5F5F5F5F5F5F5F5F5F5F5F5F5F5F5F5F5F5F5F5F5F5F5F5F5F5F5F5F5F5F5F5F5F5F5F5F5F5F5E2E2F5E2E2F5E2E2E2E2E2E2E2E2E2E2E2E2E2E2E2E2E2E2E2E2E2E2E2E2E2E2E2E2E2E2E2E2E2E2E2
310
E2E2E2E2E2E2E2E2E2E2E2E2E2E2E2E2E2E2E2E2E2E2E2E2E2E2E2E2E2E2E2E2E2E2E2E2E2E2E2E2E2E2E2E2E2E2E2E2E2E2E2E2E2E2E2E2E2E2E2E2E2E2E2E2E2E2E2E2E2E2E2E2E2E2E2E2E2E2E2E2E2E2E2E2E2E2E2E2E2E2E2E2E2E2E2E2E2E2E2E2E2E2E2E2E2E2E2E2E2E2E2E2E2E2E2E2E2E2E2E2E2E2E2E2E2E2E2
310
E2E2E2E2E2E2E2E2E2E2E2E2E2E2F5E2E2F5E2F5F5F5F5F5F5F5F5F5F5F5F5F5F5F5F5F5F5F5F5F5F5F5F5F5F5F5F5F5F5F5F5F5F5F5F5F5F5F5F5F5F5F5F5F5F5F5F5F5F5F5F5F5F5F5F5F5F5F5F5F5F5F5F5F5F5F5F5F5F5F5F5F5F5F5F5F5F5F5F5F5F5F5F5F5F5F5F5F5F5F5F5F5F5F5F5F5F5F5F5F5F5F5F5F5F5F5F5
310
F5F5F5F5F5F5F5F5F5F5F5F5F5F5F5F5F5F5F5F5F5F5F5F5F5F5F5F5F5F5F5F5F5F5F5F5F5F5F5F5F5F5F5F5F5F5F5F5F5F5F5F5F5F5F5F5F5F5F5F5F5F5F5F5F5F5E2F5E2E2F5E2E2E2E2E2E2E2E2E2F5F5F5F5F5F5F5F5F5E2E2E2E2E2E2E2E2E2E2E2E2E2E2E2E2F5F5F5F5F5F5F5F5F5E2E2E2E2E2E2E2E2E2E2E2E2E2
310
E2E2E2F5F5F5F5F5F5F5F5F5E2E2E2E2E2E2E2E2E2E2E2E2E2E2E2E2F5F5F5F5F5F5F5F5F5E2E2E2E2E2E2E2E2E2E2E2E2E2E2E2E2F5F5F5F5F5F5F5F5F5E2E2E2E2E2E2E2E2E2E2E2E2E2E2E2E2F5F5F5F5F5F5F5F5F5E2E2E2E2E2E2E2E2E2E2E2E2E2E2E2E2F5F5F5F5F5F5F5F5F5E2E2E2E2E2E2E2E2F5E2E2E2E2E2E2
310
E2E2E2E2E2E2E2E2E2E2E2E2E2E2E2E2E2E2E2E2E2E2E2E2E2E2E2E2E2E2E2E2E2E2E2E2E2E2E2E2E2E2E2E2E2E2E2E2E2E2E2E2E2E2E2E2E2E2E2E2E2E2E2E2E2E2E2E2E2E2E2E2E2E2E2E2E2E2E2E2E2E2E2E2E2E2E2E2E2E2E2E2E2E2E2E2E2E2E2E2E2E2E2E2E2E2E2E2E2E2E2E2E2E2E2E2E2E2E2E2E2E2E2E2E2E2E2
310
E2E2E2E2E2E2E2E2E2E2E2E2E2E2E2E2E2E2E2E2E2E2E2E2E2E2E2E2E2E2E2E2E2E2E2E2E2E2E2E2E2E2E2E2E2E2E2E2
  0
XRECORD
  5
991C
102
{ACAD_REACTORS
330
991B
102
}
330
991B
100
AcDbXrecord
280
     1
102
MATERIAL
148
0.0
149
0.0
149
0.0
 93
        0
 94
      127
282
     0
 72
     1
 77
     1
171
     1
175
     1
179
     1
273
     0
  0
XRECORD
  5
991A
102
{ACAD_REACTORS
330
9919
102
}
330
9919
100
AcDbXrecord
280
     1
102
MATERIAL
148
0.0
149
0.0
149
0.0
 93
        0
 94
      127
282
     0
 72
     1
 77
     1
171
     1
175
     1
179
     1
273
     0
  0
XRECORD
  5
991E
102
{ACAD_REACTORS
330
991D
102
}
330
991D
100
AcDbXrecord
280
     1
102
MATERIAL
148
0.0
149
0.0
149
0.0
 93
        0
 94
      127
282
     0
 72
     1
 77
     1
171
     1
175
     1
179
     1
273
     0
  0
CELLSTYLEMAP
  5
9918
102
{ACAD_REACTORS
330
8CA0
102
}
330
8CA0
100
AcDbCellStyleMap
 90
        3
300
CELLSTYLE
  1
TABLEFORMAT_BEGIN
 90
        5
170
     1
 91
        0
 92
    32768
 62
   257
 93
        1
300
CONTENTFORMAT
  1
CONTENTFORMAT_BEGIN
 90
        0
 91
        0
 92
      512
 93
        0
300

 40
0.0
140
1.0
 94
        5
 62
     0
340
11
144
0.25
309
CONTENTFORMAT_END
171
     0
 94
        6
 95
        1
302
GRIDFORMAT
  1
GRIDFORMAT_BEGIN
 90
        0
 91
        1
 62
     0
 92
       -2
340
0
 93
        0
 40
0.045
309
GRIDFORMAT_END
 95
        2
302
GRIDFORMAT
  1
GRIDFORMAT_BEGIN
 90
        0
 91
        1
 62
     0
 92
       -2
340
0
 93
        0
 40
0.045
309
GRIDFORMAT_END
 95
        4
302
GRIDFORMAT
  1
GRIDFORMAT_BEGIN
 90
        0
 91
        1
 62
     0
 92
       -2
340
0
 93
        0
 40
0.045
309
GRIDFORMAT_END
 95
        8
302
GRIDFORMAT
  1
GRIDFORMAT_BEGIN
 90
        0
 91
        1
 62
     0
 92
       -2
340
0
 93
        0
 40
0.045
309
GRIDFORMAT_END
 95
       16
302
GRIDFORMAT
  1
GRIDFORMAT_BEGIN
 90
        0
 91
        1
 62
     0
 92
       -2
340
0
 93
        0
 40
0.045
309
GRIDFORMAT_END
 95
       32
302
GRIDFORMAT
  1
GRIDFORMAT_BEGIN
 90
        0
 91
        1
 62
     0
 92
       -2
340
0
 93
        0
 40
0.045
309
GRIDFORMAT_END
309
TABLEFORMAT_END
  1
CELLSTYLE_BEGIN
 90
        1
 91
        1
300
_TITLE
309
CELLSTYLE_END
300
CELLSTYLE
  1
TABLEFORMAT_BEGIN
 90
        5
170
     1
 91
        0
 92
        0
 62
   257
 93
        1
300
CONTENTFORMAT
  1
CONTENTFORMAT_BEGIN
 90
        0
 91
        0
 92
      512
 93
        0
300

 40
0.0
140
1.0
 94
        5
 62
     0
340
11
144
0.18
309
CONTENTFORMAT_END
171
     0
 94
        6
 95
        1
302
GRIDFORMAT
  1
GRIDFORMAT_BEGIN
 90
        0
 91
        1
 62
     0
 92
       -2
340
0
 93
        0
 40
0.045
309
GRIDFORMAT_END
 95
        2
302
GRIDFORMAT
  1
GRIDFORMAT_BEGIN
 90
        0
 91
        1
 62
     0
 92
       -2
340
0
 93
        0
 40
0.045
309
GRIDFORMAT_END
 95
        4
302
GRIDFORMAT
  1
GRIDFORMAT_BEGIN
 90
        0
 91
        1
 62
     0
 92
       -2
340
0
 93
        0
 40
0.045
309
GRIDFORMAT_END
 95
        8
302
GRIDFORMAT
  1
GRIDFORMAT_BEGIN
 90
        0
 91
        1
 62
     0
 92
       -2
340
0
 93
        0
 40
0.045
309
GRIDFORMAT_END
 95
       16
302
GRIDFORMAT
  1
GRIDFORMAT_BEGIN
 90
        0
 91
        1
 62
     0
 92
       -2
340
0
 93
        0
 40
0.045
309
GRIDFORMAT_END
 95
       32
302
GRIDFORMAT
  1
GRIDFORMAT_BEGIN
 90
        0
 91
        1
 62
     0
 92
       -2
340
0
 93
        0
 40
0.045
309
GRIDFORMAT_END
309
TABLEFORMAT_END
  1
CELLSTYLE_BEGIN
 90
        2
 91
        1
300
_HEADER
309
CELLSTYLE_END
300
CELLSTYLE
  1
TABLEFORMAT_BEGIN
 90
        5
170
     1
 91
        0
 92
        0
 62
   257
 93
        1
300
CONTENTFORMAT
  1
CONTENTFORMAT_BEGIN
 90
        0
 91
        0
 92
      512
 93
        0
300

 40
0.0
140
1.0
 94
        2
 62
     0
340
11
144
0.18
309
CONTENTFORMAT_END
171
     0
 94
        6
 95
        1
302
GRIDFORMAT
  1
GRIDFORMAT_BEGIN
 90
        0
 91
        1
 62
     0
 92
       -2
340
0
 93
        0
 40
0.045
309
GRIDFORMAT_END
 95
        2
302
GRIDFORMAT
  1
GRIDFORMAT_BEGIN
 90
        0
 91
        1
 62
     0
 92
       -2
340
0
 93
        0
 40
0.045
309
GRIDFORMAT_END
 95
        4
302
GRIDFORMAT
  1
GRIDFORMAT_BEGIN
 90
        0
 91
        1
 62
     0
 92
       -2
340
0
 93
        0
 40
0.045
309
GRIDFORMAT_END
 95
        8
302
GRIDFORMAT
  1
GRIDFORMAT_BEGIN
 90
        0
 91
        1
 62
     0
 92
       -2
340
0
 93
        0
 40
0.045
309
GRIDFORMAT_END
 95
       16
302
GRIDFORMAT
  1
GRIDFORMAT_BEGIN
 90
        0
 91
        1
 62
     0
 92
       -2
340
0
 93
        0
 40
0.045
309
GRIDFORMAT_END
 95
       32
302
GRIDFORMAT
  1
GRIDFORMAT_BEGIN
 90
        0
 91
        1
 62
     0
 92
       -2
340
0
 93
        0
 40
0.045
309
GRIDFORMAT_END
309
TABLEFORMAT_END
  1
CELLSTYLE_BEGIN
 90
        3
 91
        2
300
_DATA
309
CELLSTYLE_END
  0
XRECORD
  5
991F
102
{ACAD_REACTORS
330
8CA0
102
}
330
8CA0
100
AcDbXrecord
280
     1
102
ACAD_ROUNDTRIP_PRE2007_TABLESTYLE
 90
      512
 91
        0
  1

 92
      512
 93
        0
  2

 94
      512
 95
        0
  3

  0
XRECORD
  5
49B
102
{ACAD_REACTORS
330
49A
102
}
330
49A
100
AcDbXrecord
280
     1
102
RTVSPropertyOp0
 70
     1
102
RTVSPropertyOp1
 70
     1
102
RTVSPropertyOp2
 70
     1
102
RTVSPropertyOp3
 70
     1
102
RTVSPropertyOp4
 70
     1
102
RTVSPropertyOp5
 70
     1
102
RTVSPropertyOp6
 70
     1
102
RTVSPropertyOp7
 70
     1
102
RTVSPropertyOp8
 70
     1
102
RTVSPropertyOp9
 70
     1
102
RTVSPropertyOp10
 70
     1
102
RTVSPropertyOp11
 70
     1
102
RTVSPropertyOp12
 70
     1
102
RTVSPropertyOp13
 70
     1
102
RTVSPropertyOp14
 70
     1
102
RTVSPropertyOp15
 70
     1
102
RTVSPropertyOp16
 70
     1
102
RTVSPropertyOp17
 70
     1
102
RTVSPropertyOp18
 70
     1
102
RTVSPropertyOp19
 70
     1
102
RTVSPropertyOp20
 70
     1
102
RTVSPropertyOp21
 70
     1
102
RTVSPropertyOp22
 70
     1
102
RTVSPropertyOp23
 70
     1
102
RTVSPropertyOp24
 70
     1
102
RTVSPropertyOp25
 70
     1
102
RTVSPropertyOp26
 70
     1
102
RTVSPropertyOp27
 70
     1
  0
XRECORD
  5
A4A
102
{ACAD_REACTORS
330
A49
102
}
330
A49
100
AcDbXrecord
280
     1
102
RTVSPropertyOp0
 70
     1
102
RTVSPropertyOp1
 70
     1
102
RTVSPropertyOp2
 70
     1
102
RTVSPropertyOp3
 70
     1
102
RTVSPropertyOp4
 70
     1
102
RTVSPropertyOp5
 70
     1
102
RTVSPropertyOp6
 70
     1
102
RTVSPropertyOp7
 70
     1
102
RTVSPropertyOp8
 70
     1
102
RTVSPropertyOp9
 70
     1
102
RTVSPropertyOp10
 70
     1
102
RTVSPropertyOp11
 70
     1
102
RTVSPropertyOp12
 70
     1
102
RTVSPropertyOp13
 70
     1
102
RTVSPropertyOp14
 70
     1
102
RTVSPropertyOp15
 70
     1
102
RTVSPropertyOp16
 70
     1
102
RTVSPropertyOp17
 70
     1
102
RTVSPropertyOp18
 70
     1
102
RTVSPropertyOp19
 70
     1
102
RTVSPropertyOp20
 70
     1
102
RTVSPropertyOp21
 70
     1
102
RTVSPropertyOp22
 70
     1
102
RTVSPropertyOp23
 70
     1
102
RTVSPropertyOp24
 70
     1
102
RTVSPropertyOp25
 70
     1
102
RTVSPropertyOp26
 70
     1
102
RTVSPropertyOp27
 70
     1
  0
XRECORD
  5
4A1
102
{ACAD_REACTORS
330
4A0
102
}
330
4A0
100
AcDbXrecord
280
     1
102
RTVSPropertyOp0
 70
     1
102
RTVSPropertyOp1
 70
     1
102
RTVSPropertyOp2
 70
     1
102
RTVSPropertyOp3
 70
     1
102
RTVSPropertyOp4
 70
     1
102
RTVSPropertyOp5
 70
     1
102
RTVSPropertyOp6
 70
     1
102
RTVSPropertyOp7
 70
     1
102
RTVSPropertyOp8
 70
     1
102
RTVSPropertyOp9
 70
     1
102
RTVSPropertyOp10
 70
     1
102
RTVSPropertyOp11
 70
     1
102
RTVSPropertyOp12
 70
     1
102
RTVSPropertyOp13
 70
     1
102
RTVSPropertyOp14
 70
     1
102
RTVSPropertyOp15
 70
     1
102
RTVSPropertyOp16
 70
     1
102
RTVSPropertyOp17
 70
     1
102
RTVSPropertyOp18
 70
     1
102
RTVSPropertyOp19
 70
     1
102
RTVSPropertyOp20
 70
     1
102
RTVSPropertyOp21
 70
     1
102
RTVSPropertyOp22
 70
     1
102
RTVSPropertyOp23
 70
     1
102
RTVSPropertyOp24
 70
     1
102
RTVSPropertyOp25
 70
     1
102
RTVSPropertyOp26
 70
     1
102
RTVSPropertyOp27
 70
     1
  0
XRECORD
  5
4A9
102
{ACAD_REACTORS
330
4A8
102
}
330
4A8
100
AcDbXrecord
280
     1
102
RTVSPropertyOp0
 70
     1
102
RTVSPropertyOp1
 70
     1
102
RTVSPropertyOp2
 70
     1
102
RTVSPropertyOp3
 70
     1
102
RTVSPropertyOp4
 70
     1
102
RTVSPropertyOp5
 70
     1
102
RTVSPropertyOp6
 70
     1
102
RTVSPropertyOp7
 70
     1
102
RTVSPropertyOp8
 70
     1
102
RTVSPropertyOp9
 70
     1
102
RTVSPropertyOp10
 70
     1
102
RTVSPropertyOp11
 70
     1
102
RTVSPropertyOp12
 70
     1
102
RTVSPropertyOp13
 70
     1
102
RTVSPropertyOp14
 70
     1
102
RTVSPropertyOp15
 70
     1
102
RTVSPropertyOp16
 70
     1
102
RTVSPropertyOp17
 70
     1
102
RTVSPropertyOp18
 70
     1
102
RTVSPropertyOp19
 70
     1
102
RTVSPropertyOp20
 70
     1
102
RTVSPropertyOp21
 70
     1
102
RTVSPropertyOp22
 70
     1
102
RTVSPropertyOp23
 70
     1
102
RTVSPropertyOp24
 70
     1
102
RTVSPropertyOp25
 70
     1
102
RTVSPropertyOp26
 70
     1
102
RTVSPropertyOp27
 70
     1
  0
XRECORD
  5
4B1
102
{ACAD_REACTORS
330
4B0
102
}
330
4B0
100
AcDbXrecord
280
     1
102
RTVSPropertyOp0
 70
     1
102
RTVSPropertyOp1
 70
     1
102
RTVSPropertyOp2
 70
     1
102
RTVSPropertyOp3
 70
     1
102
RTVSPropertyOp4
 70
     1
102
RTVSPropertyOp5
 70
     1
102
RTVSPropertyOp6
 70
     1
102
RTVSPropertyOp7
 70
     1
102
RTVSPropertyOp8
 70
     1
102
RTVSPropertyOp9
 70
     1
102
RTVSPropertyOp10
 70
     1
102
RTVSPropertyOp11
 70
     1
102
RTVSPropertyOp12
 70
     1
102
RTVSPropertyOp13
 70
     1
102
RTVSPropertyOp14
 70
     1
102
RTVSPropertyOp15
 70
     1
102
RTVSPropertyOp16
 70
     1
102
RTVSPropertyOp17
 70
     1
102
RTVSPropertyOp18
 70
     1
102
RTVSPropertyOp19
 70
     1
102
RTVSPropertyOp20
 70
     1
102
RTVSPropertyOp21
 70
     1
102
RTVSPropertyOp22
 70
     1
102
RTVSPropertyOp23
 70
     1
102
RTVSPropertyOp24
 70
     1
102
RTVSPropertyOp25
 70
     1
102
RTVSPropertyOp26
 70
     1
102
RTVSPropertyOp27
 70
     1
  0
XRECORD
  5
4A7
102
{ACAD_REACTORS
330
4A6
102
}
330
4A6
100
AcDbXrecord
280
     1
102
RTVSPropertyOp0
 70
     1
102
RTVSPropertyOp1
 70
     1
102
RTVSPropertyOp2
 70
     1
102
RTVSPropertyOp3
 70
     1
102
RTVSPropertyOp4
 70
     1
102
RTVSPropertyOp5
 70
     1
102
RTVSPropertyOp6
 70
     1
102
RTVSPropertyOp7
 70
     1
102
RTVSPropertyOp8
 70
     1
102
RTVSPropertyOp9
 70
     1
102
RTVSPropertyOp10
 70
     1
102
RTVSPropertyOp11
 70
     1
102
RTVSPropertyOp12
 70
     1
102
RTVSPropertyOp13
 70
     1
102
RTVSPropertyOp14
 70
     1
102
RTVSPropertyOp15
 70
     1
102
RTVSPropertyOp16
 70
     1
102
RTVSPropertyOp17
 70
     1
102
RTVSPropertyOp18
 70
     1
102
RTVSPropertyOp19
 70
     1
102
RTVSPropertyOp20
 70
     1
102
RTVSPropertyOp21
 70
     1
102
RTVSPropertyOp22
 70
     1
102
RTVSPropertyOp23
 70
     1
102
RTVSPropertyOp24
 70
     1
102
RTVSPropertyOp25
 70
     1
102
RTVSPropertyOp26
 70
     1
102
RTVSPropertyOp27
 70
     1
  0
XRECORD
  5
4AF
102
{ACAD_REACTORS
330
4AE
102
}
330
4AE
100
AcDbXrecord
280
     1
102
RTVSPropertyOp0
 70
     1
102
RTVSPropertyOp1
 70
     1
102
RTVSPropertyOp2
 70
     1
102
RTVSPropertyOp3
 70
     1
102
RTVSPropertyOp4
 70
     1
102
RTVSPropertyOp5
 70
     1
102
RTVSPropertyOp6
 70
     1
102
RTVSPropertyOp7
 70
     1
102
RTVSPropertyOp8
 70
     1
102
RTVSPropertyOp9
 70
     1
102
RTVSPropertyOp10
 70
     1
102
RTVSPropertyOp11
 70
     1
102
RTVSPropertyOp12
 70
     1
102
RTVSPropertyOp13
 70
     1
102
RTVSPropertyOp14
 70
     1
102
RTVSPropertyOp15
 70
     1
102
RTVSPropertyOp16
 70
     1
102
RTVSPropertyOp17
 70
     1
102
RTVSPropertyOp18
 70
     1
102
RTVSPropertyOp19
 70
     1
102
RTVSPropertyOp20
 70
     1
102
RTVSPropertyOp21
 70
     1
102
RTVSPropertyOp22
 70
     1
102
RTVSPropertyOp23
 70
     1
102
RTVSPropertyOp24
 70
     1
102
RTVSPropertyOp25
 70
     1
102
RTVSPropertyOp26
 70
     1
102
RTVSPropertyOp27
 70
     1
  0
XRECORD
  5
493
102
{ACAD_REACTORS
330
492
102
}
330
492
100
AcDbXrecord
280
     1
102
RTVSPropertyOp0
 70
     1
102
RTVSPropertyOp1
 70
     1
102
RTVSPropertyOp2
 70
     1
102
RTVSPropertyOp3
 70
     1
102
RTVSPropertyOp4
 70
     1
102
RTVSPropertyOp5
 70
     1
102
RTVSPropertyOp6
 70
     1
102
RTVSPropertyOp7
 70
     1
102
RTVSPropertyOp8
 70
     1
102
RTVSPropertyOp9
 70
     1
102
RTVSPropertyOp10
 70
     1
102
RTVSPropertyOp11
 70
     1
102
RTVSPropertyOp12
 70
     1
102
RTVSPropertyOp13
 70
     1
102
RTVSPropertyOp14
 70
     1
102
RTVSPropertyOp15
 70
     1
102
RTVSPropertyOp16
 70
     1
102
RTVSPropertyOp17
 70
     1
102
RTVSPropertyOp18
 70
     1
102
RTVSPropertyOp19
 70
     1
102
RTVSPropertyOp20
 70
     1
102
RTVSPropertyOp21
 70
     1
102
RTVSPropertyOp22
 70
     1
102
RTVSPropertyOp23
 70
     1
102
RTVSPropertyOp24
 70
     1
102
RTVSPropertyOp25
 70
     1
102
RTVSPropertyOp26
 70
     1
102
RTVSPropertyOp27
 70
     1
  0
XRECORD
  5
495
102
{ACAD_REACTORS
330
494
102
}
330
494
100
AcDbXrecord
280
     1
102
RTVSPropertyOp0
 70
     1
102
RTVSPropertyOp1
 70
     1
102
RTVSPropertyOp2
 70
     1
102
RTVSPropertyOp3
 70
     1
102
RTVSPropertyOp4
 70
     1
102
RTVSPropertyOp5
 70
     1
102
RTVSPropertyOp6
 70
     1
102
RTVSPropertyOp7
 70
     1
102
RTVSPropertyOp8
 70
     1
102
RTVSPropertyOp9
 70
     1
102
RTVSPropertyOp10
 70
     1
102
RTVSPropertyOp11
 70
     1
102
RTVSPropertyOp12
 70
     1
102
RTVSPropertyOp13
 70
     1
102
RTVSPropertyOp14
 70
     1
102
RTVSPropertyOp15
 70
     1
102
RTVSPropertyOp16
 70
     1
102
RTVSPropertyOp17
 70
     1
102
RTVSPropertyOp18
 70
     1
102
RTVSPropertyOp19
 70
     1
102
RTVSPropertyOp20
 70
     1
102
RTVSPropertyOp21
 70
     1
102
RTVSPropertyOp22
 70
     1
102
RTVSPropertyOp23
 70
     1
102
RTVSPropertyOp24
 70
     1
102
RTVSPropertyOp25
 70
     1
102
RTVSPropertyOp26
 70
     1
102
RTVSPropertyOp27
 70
     1
  0
XRECORD
  5
497
102
{ACAD_REACTORS
330
496
102
}
330
496
100
AcDbXrecord
280
     1
102
RTVSPropertyOp0
 70
     1
102
RTVSPropertyOp1
 70
     1
102
RTVSPropertyOp2
 70
     1
102
RTVSPropertyOp3
 70
     1
102
RTVSPropertyOp4
 70
     1
102
RTVSPropertyOp5
 70
     1
102
RTVSPropertyOp6
 70
     1
102
RTVSPropertyOp7
 70
     1
102
RTVSPropertyOp8
 70
     1
102
RTVSPropertyOp9
 70
     1
102
RTVSPropertyOp10
 70
     1
102
RTVSPropertyOp11
 70
     1
102
RTVSPropertyOp12
 70
     1
102
RTVSPropertyOp13
 70
     1
102
RTVSPropertyOp14
 70
     1
102
RTVSPropertyOp15
 70
     1
102
RTVSPropertyOp16
 70
     1
102
RTVSPropertyOp17
 70
     1
102
RTVSPropertyOp18
 70
     1
102
RTVSPropertyOp19
 70
     1
102
RTVSPropertyOp20
 70
     1
102
RTVSPropertyOp21
 70
     1
102
RTVSPropertyOp22
 70
     1
102
RTVSPropertyOp23
 70
     1
102
RTVSPropertyOp24
 70
     1
102
RTVSPropertyOp25
 70
     1
102
RTVSPropertyOp26
 70
     1
102
RTVSPropertyOp27
 70
     1
  0
XRECORD
  5
499
102
{ACAD_REACTORS
330
498
102
}
330
498
100
AcDbXrecord
280
     1
102
RTVSPropertyOp0
 70
     1
102
RTVSPropertyOp1
 70
     1
102
RTVSPropertyOp2
 70
     1
102
RTVSPropertyOp3
 70
     1
102
RTVSPropertyOp4
 70
     1
102
RTVSPropertyOp5
 70
     1
102
RTVSPropertyOp6
 70
     1
102
RTVSPropertyOp7
 70
     1
102
RTVSPropertyOp8
 70
     1
102
RTVSPropertyOp9
 70
     1
102
RTVSPropertyOp10
 70
     1
102
RTVSPropertyOp11
 70
     1
102
RTVSPropertyOp12
 70
     1
102
RTVSPropertyOp13
 70
     1
102
RTVSPropertyOp14
 70
     1
102
RTVSPropertyOp15
 70
     1
102
RTVSPropertyOp16
 70
     1
102
RTVSPropertyOp17
 70
     1
102
RTVSPropertyOp18
 70
     1
102
RTVSPropertyOp19
 70
     1
102
RTVSPropertyOp20
 70
     1
102
RTVSPropertyOp21
 70
     1
102
RTVSPropertyOp22
 70
     1
102
RTVSPropertyOp23
 70
     1
102
RTVSPropertyOp24
 70
     1
102
RTVSPropertyOp25
 70
     1
102
RTVSPropertyOp26
 70
     1
102
RTVSPropertyOp27
 70
     1
  0
XRECORD
  5
4AD
102
{ACAD_REACTORS
330
4AC
102
}
330
4AC
100
AcDbXrecord
280
     1
102
RTVSPropertyOp0
 70
     1
102
RTVSPropertyOp1
 70
     1
102
RTVSPropertyOp2
 70
     1
102
RTVSPropertyOp3
 70
     1
102
RTVSPropertyOp4
 70
     1
102
RTVSPropertyOp5
 70
     1
102
RTVSPropertyOp6
 70
     1
102
RTVSPropertyOp7
 70
     1
102
RTVSPropertyOp8
 70
     1
102
RTVSPropertyOp9
 70
     1
102
RTVSPropertyOp10
 70
     1
102
RTVSPropertyOp11
 70
     1
102
RTVSPropertyOp12
 70
     1
102
RTVSPropertyOp13
 70
     1
102
RTVSPropertyOp14
 70
     1
102
RTVSPropertyOp15
 70
     1
102
RTVSPropertyOp16
 70
     1
102
RTVSPropertyOp17
 70
     1
102
RTVSPropertyOp18
 70
     1
102
RTVSPropertyOp19
 70
     1
102
RTVSPropertyOp20
 70
     1
102
RTVSPropertyOp21
 70
     1
102
RTVSPropertyOp22
 70
     1
102
RTVSPropertyOp23
 70
     1
102
RTVSPropertyOp24
 70
     1
102
RTVSPropertyOp25
 70
     1
102
RTVSPropertyOp26
 70
     1
102
RTVSPropertyOp27
 70
     1
  0
XRECORD
  5
A4E
102
{ACAD_REACTORS
330
A4D
102
}
330
A4D
100
AcDbXrecord
280
     1
102
RTVSPropertyOp0
 70
     1
102
RTVSPropertyOp1
 70
     1
102
RTVSPropertyOp2
 70
     1
102
RTVSPropertyOp3
 70
     1
102
RTVSPropertyOp4
 70
     1
102
RTVSPropertyOp5
 70
     1
102
RTVSPropertyOp6
 70
     1
102
RTVSPropertyOp7
 70
     1
102
RTVSPropertyOp8
 70
     1
102
RTVSPropertyOp9
 70
     1
102
RTVSPropertyOp10
 70
     1
102
RTVSPropertyOp11
 70
     1
102
RTVSPropertyOp12
 70
     1
102
RTVSPropertyOp13
 70
     1
102
RTVSPropertyOp14
 70
     1
102
RTVSPropertyOp15
 70
     1
102
RTVSPropertyOp16
 70
     1
102
RTVSPropertyOp17
 70
     1
102
RTVSPropertyOp18
 70
     1
102
RTVSPropertyOp19
 70
     1
102
RTVSPropertyOp20
 70
     1
102
RTVSPropertyOp21
 70
     1
102
RTVSPropertyOp22
 70
     1
102
RTVSPropertyOp23
 70
     1
102
RTVSPropertyOp24
 70
     1
102
RTVSPropertyOp25
 70
     1
102
RTVSPropertyOp26
 70
     1
102
RTVSPropertyOp27
 70
     1
  0
XRECORD
  5
4AB
102
{ACAD_REACTORS
330
4AA
102
}
330
4AA
100
AcDbXrecord
280
     1
102
RTVSPropertyOp0
 70
     1
102
RTVSPropertyOp1
 70
     1
102
RTVSPropertyOp2
 70
     1
102
RTVSPropertyOp3
 70
     1
102
RTVSPropertyOp4
 70
     1
102
RTVSPropertyOp5
 70
     1
102
RTVSPropertyOp6
 70
     1
102
RTVSPropertyOp7
 70
     1
102
RTVSPropertyOp8
 70
     1
102
RTVSPropertyOp9
 70
     1
102
RTVSPropertyOp10
 70
     1
102
RTVSPropertyOp11
 70
     1
102
RTVSPropertyOp12
 70
     1
102
RTVSPropertyOp13
 70
     1
102
RTVSPropertyOp14
 70
     1
102
RTVSPropertyOp15
 70
     1
102
RTVSPropertyOp16
 70
     1
102
RTVSPropertyOp17
 70
     1
102
RTVSPropertyOp18
 70
     1
102
RTVSPropertyOp19
 70
     1
102
RTVSPropertyOp20
 70
     1
102
RTVSPropertyOp21
 70
     1
102
RTVSPropertyOp22
 70
     1
102
RTVSPropertyOp23
 70
     1
102
RTVSPropertyOp24
 70
     1
102
RTVSPropertyOp25
 70
     1
102
RTVSPropertyOp26
 70
     1
102
RTVSPropertyOp27
 70
     1
  0
ENDSEC
  0
EOF
