  0
SECTION
  2
HEADER
  9
$ACADVER
  1
AC1018
  9
$ACADMAINTVER
 70
   104
  9
$DWGCODEPAGE
  3
ANSI_1250
  9
$LASTSAVEDBY
  1
bonzo
  9
$INSBASE
 10
0.0
 20
0.0
 30
0.0
  9
$EXTMIN
 10
7.717695112200837
 20
3.515344297546108
 30
0.0
  9
$EXTMAX
 10
14.18330946212341
 20
11.81111185592339
 30
0.0
  9
$LIMMIN
 10
0.0
 20
0.0
  9
$LIMMAX
 10
12.0
 20
9.0
  9
$ORTHOMODE
 70
     1
  9
$REGENMODE
 70
     1
  9
$FILLMODE
 70
     1
  9
$QTEXTMODE
 70
     0
  9
$MIRRTEXT
 70
     1
  9
$LTSCALE
 40
1.0
  9
$ATTMODE
 70
     1
  9
$TEXTSIZE
 40
0.2
  9
$TRACEWID
 40
0.05
  9
$TEXTSTYLE
  7
Standard
  9
$CLAYER
  8
WYMIAR
  9
$CELTYPE
  6
ByLayer
  9
$CECOLOR
 62
   256
  9
$CELTSCALE
 40
1.0
  9
$DISPSILH
 70
     0
  9
$DIMSCALE
 40
0.02
  9
$DIMASZ
 40
3.0
  9
$DIMEXO
 40
20.0
  9
$DIMDLI
 40
0.0
  9
$DIMRND
 40
0.1
  9
$DIMDLE
 40
0.0
  9
$DIMEXE
 40
5.0
  9
$DIMTP
 40
0.0
  9
$DIMTM
 40
0.0
  9
$DIMTXT
 40
9.0
  9
$DIMCEN
 40
12.0
  9
$DIMTSZ
 40
0.0
  9
$DIMTOL
 70
     0
  9
$DIMLIM
 70
     0
  9
$DIMTIH
 70
     0
  9
$DIMTOH
 70
     0
  9
$DIMSE1
 70
     1
  9
$DIMSE2
 70
     1
  9
$DIMTAD
 70
     1
  9
$DIMZIN
 70
     1
  9
$DIMBLK
  1

  9
$DIMASO
 70
     1
  9
$DIMSHO
 70
     1
  9
$DIMPOST
  1

  9
$DIMAPOST
  1

  9
$DIMALT
 70
     0
  9
$DIMALTD
 70
     4
  9
$DIMALTF
 40
1.0
  9
$DIMLFAC
 40
1.0
  9
$DIMTOFL
 70
     1
  9
$DIMTVP
 40
0.0
  9
$DIMTIX
 70
     1
  9
$DIMSOXD
 70
     0
  9
$DIMSAH
 70
     1
  9
$DIMBLK1
  1
MAR-STRZ
  9
$DIMBLK2
  1
MAR-STRZ
  9
$DIMSTYLE
  2
AR SKALA 1-50
  9
$DIMCLRD
 70
   256
  9
$DIMCLRE
 70
   256
  9
$DIMCLRT
 70
   256
  9
$DIMTFAC
 40
0.01
  9
$DIMGAP
 40
6.0
  9
$DIMJUST
 70
     0
  9
$DIMSD1
 70
     0
  9
$DIMSD2
 70
     0
  9
$DIMTOLJ
 70
     1
  9
$DIMTZIN
 70
     0
  9
$DIMALTZ
 70
     0
  9
$DIMALTTZ
 70
     0
  9
$DIMUPT
 70
     0
  9
$DIMDEC
 70
     2
  9
$DIMTDEC
 70
     2
  9
$DIMALTU
 70
     2
  9
$DIMALTTD
 70
     4
  9
$DIMTXSTY
  7
AR 01 SWIS
  9
$DIMAUNIT
 70
     0
  9
$DIMADEC
 70
     1
  9
$DIMALTRND
 40
0.0
  9
$DIMAZIN
 70
     0
  9
$DIMDSEP
 70
    46
  9
$DIMATFIT
 70
     3
  9
$DIMFRAC
 70
     0
  9
$DIMLDRBLK
  1
MAR-STRZ
  9
$DIMLUNIT
 70
     2
  9
$DIMLWD
 70
    -2
  9
$DIMLWE
 70
    -2
  9
$DIMTMOVE
 70
     2
  9
$LUNITS
 70
     2
  9
$LUPREC
 70
     4
  9
$SKETCHINC
 40
0.1
  9
$FILLETRAD
 40
0.0
  9
$AUNITS
 70
     0
  9
$AUPREC
 70
     0
  9
$MENU
  1
.
  9
$ELEVATION
 40
0.0
  9
$PELEVATION
 40
0.0
  9
$THICKNESS
 40
0.0
  9
$LIMCHECK
 70
     0
  9
$CHAMFERA
 40
0.5
  9
$CHAMFERB
 40
0.5
  9
$CHAMFERC
 40
1.0
  9
$CHAMFERD
 40
0.0
  9
$SKPOLY
 70
     0
  9
$TDCREATE
 40
2455956.499359827
  9
$TDUCREATE
 40
2455956.416026493
  9
$TDUPDATE
 40
2459311.313242778
  9
$TDUUPDATE
 40
2459311.229909444
  9
$TDINDWG
 40
0.0961325116
  9
$TDUSRTIMER
 40
0.0961325116
  9
$USRTIMER
 70
     1
  9
$ANGBASE
 50
0.0
  9
$ANGDIR
 70
     0
  9
$PDMODE
 70
     0
  9
$PDSIZE
 40
0.0
  9
$PLINEWID
 40
0.0
  9
$SPLFRAME
 70
     0
  9
$SPLINETYPE
 70
     6
  9
$SPLINESEGS
 70
     8
  9
$HANDSEED
  5
364C
  9
$SURFTAB1
 70
     6
  9
$SURFTAB2
 70
     6
  9
$SURFTYPE
 70
     6
  9
$SURFU
 70
     6
  9
$SURFV
 70
     6
  9
$UCSBASE
  2

  9
$UCSNAME
  2

  9
$UCSORG
 10
0.0
 20
0.0
 30
0.0
  9
$UCSXDIR
 10
1.0
 20
0.0
 30
0.0
  9
$UCSYDIR
 10
0.0
 20
1.0
 30
0.0
  9
$UCSORTHOREF
  2

  9
$UCSORTHOVIEW
 70
     0
  9
$UCSORGTOP
 10
0.0
 20
0.0
 30
0.0
  9
$UCSORGBOTTOM
 10
0.0
 20
0.0
 30
0.0
  9
$UCSORGLEFT
 10
0.0
 20
0.0
 30
0.0
  9
$UCSORGRIGHT
 10
0.0
 20
0.0
 30
0.0
  9
$UCSORGFRONT
 10
0.0
 20
0.0
 30
0.0
  9
$UCSORGBACK
 10
0.0
 20
0.0
 30
0.0
  9
$PUCSBASE
  2

  9
$PUCSNAME
  2

  9
$PUCSORG
 10
0.0
 20
0.0
 30
0.0
  9
$PUCSXDIR
 10
1.0
 20
0.0
 30
0.0
  9
$PUCSYDIR
 10
0.0
 20
1.0
 30
0.0
  9
$PUCSORTHOREF
  2

  9
$PUCSORTHOVIEW
 70
     0
  9
$PUCSORGTOP
 10
0.0
 20
0.0
 30
0.0
  9
$PUCSORGBOTTOM
 10
0.0
 20
0.0
 30
0.0
  9
$PUCSORGLEFT
 10
0.0
 20
0.0
 30
0.0
  9
$PUCSORGRIGHT
 10
0.0
 20
0.0
 30
0.0
  9
$PUCSORGFRONT
 10
0.0
 20
0.0
 30
0.0
  9
$PUCSORGBACK
 10
0.0
 20
0.0
 30
0.0
  9
$USERI1
 70
     0
  9
$USERI2
 70
     0
  9
$USERI3
 70
     0
  9
$USERI4
 70
     0
  9
$USERI5
 70
     0
  9
$USERR1
 40
0.0
  9
$USERR2
 40
0.0
  9
$USERR3
 40
0.0
  9
$USERR4
 40
0.0
  9
$USERR5
 40
0.0
  9
$WORLDVIEW
 70
     1
  9
$SHADEDGE
 70
     3
  9
$SHADEDIF
 70
    70
  9
$TILEMODE
 70
     1
  9
$MAXACTVP
 70
    64
  9
$PINSBASE
 10
0.0
 20
0.0
 30
0.0
  9
$PLIMCHECK
 70
     0
  9
$PEXTMIN
 10
6.561544945354853
 20
3.282189374834842
 30
0.0
  9
$PEXTMAX
 10
296.6096419909582
 20
206.4421558651099
 30
0.0
  9
$PLIMMIN
 10
3.386557152386103
 20
0.1071894225185588
  9
$PLIMMAX
 10
300.4395661855892
 20
209.9958460387295
  9
$UNITMODE
 70
     0
  9
$VISRETAIN
 70
     1
  9
$PLINEGEN
 70
     0
  9
$PSLTSCALE
 70
     0
  9
$TREEDEPTH
 70
  3020
  9
$CMLSTYLE
  2
Standard
  9
$CMLJUST
 70
     0
  9
$CMLSCALE
 40
1.0
  9
$PROXYGRAPHICS
 70
     1
  9
$MEASUREMENT
 70
     0
  9
$CELWEIGHT
370
    -1
  9
$ENDCAPS
280
     0
  9
$JOINSTYLE
280
     0
  9
$LWDISPLAY
290
     0
  9
$INSUNITS
 70
     1
  9
$HYPERLINKBASE
  1

  9
$STYLESHEET
  1

  9
$XEDIT
290
     1
  9
$CEPSNTYPE
380
     0
  9
$PSTYLEMODE
290
     1
  9
$FINGERPRINTGUID
  2
{1B330B5B-CE04-4EC8-B886-8C8BFC3A02BF}
  9
$VERSIONGUID
  2
{593CE74D-54D2-4867-86F5-7262CBF9FE2A}
  9
$EXTNAMES
290
     1
  9
$PSVPSCALE
 40
0.0
  9
$OLESTARTUP
290
     0
  9
$SORTENTS
280
   127
  9
$INDEXCTL
280
     0
  9
$HIDETEXT
280
     1
  9
$XCLIPFRAME
290
     0
  9
$HALOGAP
280
     0
  9
$OBSCOLOR
 70
   257
  9
$OBSLTYPE
280
     0
  9
$INTERSECTIONDISPLAY
280
     0
  9
$INTERSECTIONCOLOR
 70
   257
  9
$DIMASSOC
280
     2
  9
$PROJECTNAME
  1

  0
ENDSEC
  0
SECTION
  2
CLASSES
  0
CLASS
  1
ACDBDICTIONARYWDFLT
  2
AcDbDictionaryWithDefault
  3
ObjectDBX Classes
 90
        0
 91
        1
280
     0
281
     0
  0
CLASS
  1
VISUALSTYLE
  2
AcDbVisualStyle
  3
ObjectDBX Classes
 90
     4095
 91
       16
280
     0
281
     0
  0
CLASS
  1
MATERIAL
  2
AcDbMaterial
  3
ObjectDBX Classes
 90
     1153
 91
        3
280
     0
281
     0
  0
CLASS
  1
DICTIONARYVAR
  2
AcDbDictionaryVar
  3
ObjectDBX Classes
 90
        0
 91
        9
280
     0
281
     0
  0
CLASS
  1
TABLESTYLE
  2
AcDbTableStyle
  3
ObjectDBX Classes
 90
     4095
 91
        1
280
     0
281
     0
  0
CLASS
  1
SORTENTSTABLE
  2
AcDbSortentsTable
  3
ObjectDBX Classes
 90
        0
 91
        1
280
     0
281
     0
  0
CLASS
  1
DIMASSOC
  2
AcDbDimAssoc
  3
"AcDbDimAssoc|Product Desc:     AcDim ARX App For Dimension|Company:          Autodesk, Inc.|WEB Address:      www.autodesk.com"
 90
        0
 91
        1
280
     0
281
     0
  0
CLASS
  1
SCALE
  2
AcDbScale
  3
ObjectDBX Classes
 90
     1153
 91
       33
280
     0
281
     0
  0
CLASS
  1
MLEADERSTYLE
  2
AcDbMLeaderStyle
  3
ACDB_MLEADERSTYLE_CLASS
 90
     4095
 91
        1
280
     0
281
     0
  0
CLASS
  1
CELLSTYLEMAP
  2
AcDbCellStyleMap
  3
ObjectDBX Classes
 90
     1152
 91
        2
280
     0
281
     0
  0
ENDSEC
  0
SECTION
  2
TABLES
  0
TABLE
  2
VPORT
  5
8
102
{ACAD_XDICTIONARY
360
84C
102
}
330
0
100
AcDbSymbolTable
 70
     1
  0
VPORT
  5
29
330
8
100
AcDbSymbolTableRecord
100
AcDbViewportTableRecord
  2
*Active
 70
     0
 10
0.0
 20
0.0
 11
1.0
 21
1.0
 12
11.36315752696023
 22
7.822068153453345
 13
0.0
 23
0.0
 14
0.5
 24
0.5
 15
0.5
 25
0.5
 16
0.0
 26
0.0
 36
1.0
 17
0.0
 27
0.0
 37
-1000.0
 40
9.519454623582298
 41
2.060556464811783
 42
50.0
 43
4.148984367261674
 44
9.217858496371269
 50
0.0
 51
0.0
 71
     0
 72
   100
 73
     1
 74
     3
 75
     0
 76
     0
 77
     0
 78
     0
281
     0
 65
     1
110
0.0
120
0.0
130
0.0
111
1.0
121
0.0
131
0.0
112
0.0
122
1.0
132
0.0
 79
     0
146
0.0
  0
ENDTAB
  0
TABLE
  2
LTYPE
  5
5
330
0
100
AcDbSymbolTable
 70
     2
  0
LTYPE
  5
14
330
5
100
AcDbSymbolTableRecord
100
AcDbLinetypeTableRecord
  2
ByBlock
 70
     0
  3

 72
    65
 73
     0
 40
0.0
  0
LTYPE
  5
15
330
5
100
AcDbSymbolTableRecord
100
AcDbLinetypeTableRecord
  2
ByLayer
 70
     0
  3

 72
    65
 73
     0
 40
0.0
  0
LTYPE
  5
16
330
5
100
AcDbSymbolTableRecord
100
AcDbLinetypeTableRecord
  2
Continuous
 70
     0
  3
Solid line
 72
    65
 73
     0
 40
0.0
  0
LTYPE
  5
886
330
5
100
AcDbSymbolTableRecord
100
AcDbLinetypeTableRecord
  2
DASHED
 70
     0
  3
Dashed __ __ __ __ __ __ __ __ __ __ __ __ __ _
 72
    65
 73
     2
 40
0.75
 49
0.5
 74
     0
 49
-0.25
 74
     0
  0
ENDTAB
  0
TABLE
  2
LAYER
  5
2
102
{ACAD_XDICTIONARY
360
7D1
102
}
330
0
100
AcDbSymbolTable
 70
     4
  0
LAYER
  5
10
102
{ACAD_XDICTIONARY
360
3489
102
}
330
2
100
AcDbSymbolTableRecord
100
AcDbLayerTableRecord
  2
0
 70
     0
 62
     7
  6
Continuous
370
    80
390
F
  0
LAYER
  5
87B
102
{ACAD_XDICTIONARY
360
348B
102
}
330
2
100
AcDbSymbolTableRecord
100
AcDbLayerTableRecord
  2
STREFA BEZPIECZEŃSTWA
 70
     0
 62
     7
  6
DASHED
370
    80
390
F
1001
AcAecLayerStandard
1000

1000

  0
LAYER
  5
87D
102
{ACAD_XDICTIONARY
360
348D
102
}
330
2
100
AcDbSymbolTableRecord
100
AcDbLayerTableRecord
  2
WYMIAR
 70
     0
 62
     7
  6
Continuous
370
    80
390
F
1001
AcAecLayerStandard
1000

1000

  0
LAYER
  5
8CC
330
2
100
AcDbSymbolTableRecord
100
AcDbLayerTableRecord
  2
Defpoints
 70
     0
 62
     7
  6
Continuous
290
     0
370
     5
390
F
1001
RAK
1000
{ACET-LAYISO
1070
     0
1070
     7
1000
Continuous
1071
        5
1071
        0
1005
F
1000
ACET-LAYISO}
  0
ENDTAB
  0
TABLE
  2
STYLE
  5
3
330
0
100
AcDbSymbolTable
 70
     2
  0
STYLE
  5
11
330
3
100
AcDbSymbolTableRecord
100
AcDbTextStyleTableRecord
  2
Standard
 70
     0
 40
0.0
 41
1.0
 50
0.0
 71
     0
 42
0.2
  3
txt
  4

  0
STYLE
  5
8CE
330
3
100
AcDbSymbolTableRecord
100
AcDbTextStyleTableRecord
  2
AR 01 SWIS
 70
     0
 40
0.0
 41
1.0
 50
0.0
 71
     0
 42
55.0
  3

  4

1001
ACAD
1000
Swis721 Cn BT
1071
       34
  0
ENDTAB
  0
TABLE
  2
VIEW
  5
6
330
0
100
AcDbSymbolTable
 70
     0
  0
ENDTAB
  0
TABLE
  2
UCS
  5
7
330
0
100
AcDbSymbolTable
 70
     0
  0
ENDTAB
  0
TABLE
  2
APPID
  5
9
330
0
100
AcDbSymbolTable
 70
     9
  0
APPID
  5
12
330
9
100
AcDbSymbolTableRecord
100
AcDbRegAppTableRecord
  2
ACAD
 70
     0
  0
APPID
  5
7CB
330
9
100
AcDbSymbolTableRecord
100
AcDbRegAppTableRecord
  2
ACAD_PSEXT
 70
     0
  0
APPID
  5
875
330
9
100
AcDbSymbolTableRecord
100
AcDbRegAppTableRecord
  2
ACAD_EXEMPT_FROM_CAD_STANDARDS
 70
     0
  0
APPID
  5
87C
330
9
100
AcDbSymbolTableRecord
100
AcDbRegAppTableRecord
  2
AcAecLayerStandard
 70
     0
  0
APPID
  5
8D4
330
9
100
AcDbSymbolTableRecord
100
AcDbRegAppTableRecord
  2
RAK
 70
     0
  0
APPID
  5
8D5
330
9
100
AcDbSymbolTableRecord
100
AcDbRegAppTableRecord
  2
ACAD_DSTYLE_DIMJOGGED_JOGANGLE_SYMBOL
 70
     0
  0
APPID
  5
8D6
330
9
100
AcDbSymbolTableRecord
100
AcDbRegAppTableRecord
  2
ACAD_DSTYLE_DIMJAG
 70
     0
  0
APPID
  5
8D7
330
9
100
AcDbSymbolTableRecord
100
AcDbRegAppTableRecord
  2
ACAD_DSTYLE_DIMTALN
 70
     0
  0
APPID
  5
347B
330
9
100
AcDbSymbolTableRecord
100
AcDbRegAppTableRecord
  2
ACAD_MLEADERVER
 70
     0
  0
ENDTAB
  0
TABLE
  2
DIMSTYLE
  5
A
330
0
100
AcDbSymbolTable
 70
     2
100
AcDbDimStyleTable
 71
     1
340
8CF
  0
DIMSTYLE
105
8CF
102
{ACAD_REACTORS
330
33C2
330
35F7
102
}
330
A
100
AcDbSymbolTableRecord
100
AcDbDimStyleTableRecord
  2
AR SKALA 1-50
 70
     0
 40
0.02
 41
3.0
 42
20.0
 43
0.0
 44
5.0
 45
0.1
 73
     0
 74
     0
 75
     1
 76
     1
 77
     1
 78
     1
140
9.0
141
12.0
143
1.0
146
0.01
147
6.0
171
     4
172
     1
173
     1
174
     1
176
   256
177
   256
178
   256
179
     1
271
     2
272
     2
274
     4
279
     2
340
8CE
341
8BC
343
8BC
344
8BC
  0
DIMSTYLE
105
A46
330
A
100
AcDbSymbolTableRecord
100
AcDbDimStyleTableRecord
  2
Standard
 70
     0
340
11
  0
ENDTAB
  0
TABLE
  2
BLOCK_RECORD
  5
1
330
0
100
AcDbSymbolTable
 70
     4
  0
BLOCK_RECORD
  5
1F
102
{ACAD_XDICTIONARY
360
5F8
102
}
330
1
100
AcDbSymbolTableRecord
100
AcDbBlockTableRecord
  2
*Model_Space
340
22
  0
BLOCK_RECORD
  5
1B
330
1
100
AcDbSymbolTableRecord
100
AcDbBlockTableRecord
  2
*Paper_Space
340
1E
  0
BLOCK_RECORD
  5
8BC
330
1
100
AcDbSymbolTableRecord
100
AcDbBlockTableRecord
  2
MAR-STRZ
340
0
310
2800000020000000200000000100080000000000000400000000000000000000000000000000000000000000000080000080000000808000800000008000800080800000C0C0C000C0DCC000F0CAA6000020400000206000002080000020A0000020C0000020E00000400000004020000040400000406000004080000040A0
310
000040C0000040E00000600000006020000060400000606000006080000060A0000060C0000060E00000800000008020000080400000806000008080000080A0000080C0000080E00000A0000000A0200000A0400000A0600000A0800000A0A00000A0C00000A0E00000C0000000C0200000C0400000C0600000C0800000C0
310
A00000C0C00000C0E00000E0000000E0200000E0400000E0600000E0800000E0A00000E0C00000E0E00040000000400020004000400040006000400080004000A0004000C0004000E00040200000402020004020400040206000402080004020A0004020C0004020E000404000004040200040404000404060004040800040
310
40A0004040C0004040E00040600000406020004060400040606000406080004060A0004060C0004060E00040800000408020004080400040806000408080004080A0004080C0004080E00040A0000040A0200040A0400040A0600040A0800040A0A00040A0C00040A0E00040C0000040C0200040C0400040C0600040C08000
310
40C0A00040C0C00040C0E00040E0000040E0200040E0400040E0600040E0800040E0A00040E0C00040E0E00080000000800020008000400080006000800080008000A0008000C0008000E00080200000802020008020400080206000802080008020A0008020C0008020E00080400000804020008040400080406000804080
310
008040A0008040C0008040E00080600000806020008060400080606000806080008060A0008060C0008060E00080800000808020008080400080806000808080008080A0008080C0008080E00080A0000080A0200080A0400080A0600080A0800080A0A00080A0C00080A0E00080C0000080C0200080C0400080C0600080C0
310
800080C0A00080C0C00080C0E00080E0000080E0200080E0400080E0600080E0800080E0A00080E0C00080E0E000C0000000C0002000C0004000C0006000C0008000C000A000C000C000C000E000C0200000C0202000C0204000C0206000C0208000C020A000C020C000C020E000C0400000C0402000C0404000C0406000C0
310
408000C040A000C040C000C040E000C0600000C0602000C0604000C0606000C0608000C060A000C060C000C060E000C0800000C0802000C0804000C0806000C0808000C080A000C080C000C080E000C0A00000C0A02000C0A04000C0A06000C0A08000C0A0A000C0A0C000C0A0E000C0C00000C0C02000C0C04000C0C06000
310
C0C08000C0C0A000F0FBFF00A4A0A000808080000000FF0000FF000000FFFF00FF000000FF00FF00FFFF0000FFFFFF00000000000000000000000000000000000000000000000000000000000000000000000000000000000000000000000000FF000000000000000000000000000000000000000000000000000000000000
310
00FF00000000000000000000000000000000000000000000000000000000000000FF00000000000000000000000000000000000000000000000000000000000000FF00000000000000000000000000000000000000000000000000000000000000FF000000000000000000000000000000000000000000F900000000000000
310
0000FF00000000000000000000000000000000000000000000F90000000000000000FF0000000000000000000000000000000000000000000000F900000000000000FF000000000000000000000000000000000000000000000000F9000000000000FF00000000000000000000000000000000000000000000000000F90000
310
000000FF0000000000000000000000000000000000000000000000000000F900000000FF000000000000000000000000000000000000000000000000000000F9000000FF00000000000000000000000000000000000000000000000000000000F90000FF000000000000000000000000000000000000000000000000000000
310
0000F900FF000000000000000000000000000000000000000000000000000000000000F9FF00000000000000000000000000000000000000000000FFFFFFFFFFFFFFFFFFFFFFFFFFFFFFFFFFFF0000000000000000000000000000000000000000000000FFF900000000000000000000000000000000000000000000000000
310
0000000000FF00F90000000000000000000000000000000000000000000000000000000000FF0000F900000000000000000000000000000000000000000000000000000000FF000000F9000000000000000000000000000000000000000000000000000000FF00000000F90000000000000000000000000000000000000000
310
000000000000FF0000000000F900000000000000000000000000000000000000000000000000FF000000000000F9000000000000000000000000000000000000000000000000FF00000000000000F90000000000000000000000000000000000000000000000FF0000000000000000F9000000000000000000000000000000
310
00000000000000FF00000000000000000000000000000000000000000000000000000000000000FF00000000000000000000000000000000000000000000000000000000000000FF00000000000000000000000000000000000000000000000000000000000000FF0000000000000000000000000000000000000000000000
310
0000000000000000FF0000000000000000000000000000000000000000000000000000000000000000000000000000000000000000000000
102
{BLKREFS
331
35E5
331
35E6
331
35EC
331
35ED
331
3604
331
3605
102
}
  0
BLOCK_RECORD
  5
33C3
330
1
100
AcDbSymbolTableRecord
100
AcDbBlockTableRecord
  2
*D1
340
0
  0
BLOCK_RECORD
  5
35F8
330
1
100
AcDbSymbolTableRecord
100
AcDbBlockTableRecord
  2
*D3
340
0
  0
ENDTAB
  0
ENDSEC
  0
SECTION
  2
BLOCKS
  0
BLOCK
  5
20
330
1F
100
AcDbEntity
  8
0
100
AcDbBlockBegin
  2
*Model_Space
 70
     0
 10
0.0
 20
0.0
 30
0.0
  3
*Model_Space
  1

  0
ENDBLK
  5
21
330
1F
100
AcDbEntity
  8
0
100
AcDbBlockEnd
  0
BLOCK
  5
1C
330
1B
100
AcDbEntity
 67
     1
  8
0
100
AcDbBlockBegin
  2
*Paper_Space
 70
     0
 10
0.0
 20
0.0
 30
0.0
  3
*Paper_Space
  1

  0
ENDBLK
  5
1D
330
1B
100
AcDbEntity
 67
     1
  8
0
100
AcDbBlockEnd
  0
BLOCK
  5
8BD
330
8BC
100
AcDbEntity
  8
0
100
AcDbBlockBegin
  2
MAR-STRZ
 70
     0
 10
0.0
 20
0.0
 30
0.0
  3
MAR-STRZ
  1

  0
LINE
  5
8BE
330
8BC
100
AcDbEntity
  8
0
100
AcDbLine
 10
0.0
 20
2.299999999999272
 30
0.0
 11
0.0
 21
-2.299999999999272
 31
0.0
  0
LINE
  5
8BF
330
8BC
100
AcDbEntity
  8
0
 62
    10
100
AcDbLine
 10
1.5
 20
1.5
 30
0.0
 11
-1.5
 21
-1.5
 31
0.0
  0
LINE
  5
8C0
330
8BC
100
AcDbEntity
  8
0
100
AcDbLine
 10
1.399999999999636
 20
0.0
 30
0.0
 11
-1.399999999999636
 21
0.0
 31
0.0
  0
ENDBLK
  5
8C1
330
8BC
100
AcDbEntity
  8
0
100
AcDbBlockEnd
  0
BLOCK
  5
33CB
330
33C3
100
AcDbEntity
  8
0
100
AcDbBlockBegin
  2
*D1
 70
     1
 10
0.0
 20
0.0
 30
0.0
  3
*D1
  1

  0
LINE
  5
35E4
330
33C3
100
AcDbEntity
  8
WYMIAR
370
    -2
100
AcDbLine
 10
8.653309462123415
 20
11.45880666111819
 30
0.0
 11
14.03330946212341
 21
11.45880666111819
 31
0.0
  0
INSERT
  5
35E5
330
33C3
100
AcDbEntity
  8
WYMIAR
370
    -2
100
AcDbBlockReference
  2
MAR-STRZ
 10
8.593309462123414
 20
11.45880666111819
 30
0.0
 41
0.06
 42
0.06
 43
0.06
 50
180.0
  0
INSERT
  5
35E6
330
33C3
100
AcDbEntity
  8
WYMIAR
370
    -2
100
AcDbBlockReference
  2
MAR-STRZ
 10
14.09330946212341
 20
11.45880666111819
 30
0.0
 41
0.06
 42
0.06
 43
0.06
  0
MTEXT
  5
35E7
330
33C3
100
AcDbEntity
  8
WYMIAR
100
AcDbMText
 10
11.34330946212341
 20
11.66880666111819
 30
0.0
 40
0.18
 41
0.0
 71
     5
 72
     1
  1
\A1;5.50
  7
AR 01 SWIS
 73
     1
 44
1.0
  0
POINT
  5
35E8
330
33C3
100
AcDbEntity
  8
Defpoints
 62
     0
100
AcDbPoint
 10
8.593309462123414
 20
10.91503363792419
 30
0.0
  0
POINT
  5
35E9
330
33C3
100
AcDbEntity
  8
Defpoints
 62
     0
100
AcDbPoint
 10
14.09330946212341
 20
10.91503363792419
 30
0.0
  0
POINT
  5
35EA
330
33C3
100
AcDbEntity
  8
Defpoints
 62
     0
100
AcDbPoint
 10
14.09330946212341
 20
11.45880666111819
 30
0.0
  0
ENDBLK
  5
33CC
330
33C3
100
AcDbEntity
  8
0
100
AcDbBlockEnd
  0
BLOCK
  5
35F9
330
35F8
100
AcDbEntity
  8
0
100
AcDbBlockBegin
  2
*D3
 70
     1
 10
0.0
 20
0.0
 30
0.0
  3
*D3
  1

  0
LINE
  5
3603
330
35F8
100
AcDbEntity
  8
WYMIAR
370
    -2
100
AcDbLine
 10
8.070000307006033
 20
10.9550336379242
 30
0.0
 11
8.070000307006033
 21
4.375033637924196
 31
0.0
  0
INSERT
  5
3604
330
35F8
100
AcDbEntity
  8
WYMIAR
370
    -2
100
AcDbBlockReference
  2
MAR-STRZ
 10
8.070000307006033
 20
11.0150336379242
 30
0.0
 41
0.06
 42
0.06
 43
0.06
 50
90.0
  0
INSERT
  5
3605
330
35F8
100
AcDbEntity
  8
WYMIAR
370
    -2
100
AcDbBlockReference
  2
MAR-STRZ
 10
8.070000307006033
 20
4.315033637924196
 30
0.0
 41
0.06
 42
0.06
 43
0.06
 50
270.0
  0
MTEXT
  5
3606
330
35F8
100
AcDbEntity
  8
WYMIAR
100
AcDbMText
 10
7.860000307006032
 20
7.665033637924199
 30
0.0
 40
0.18
 41
0.0
 71
     5
 72
     1
  1
\A1;6.70
  7
AR 01 SWIS
 11
0.0000000000000001
 21
1.0
 31
0.0
 73
     1
 44
1.0
  0
POINT
  5
3607
330
35F8
100
AcDbEntity
  8
Defpoints
 62
     0
100
AcDbPoint
 10
8.593309462123416
 20
11.0150336379242
 30
0.0
  0
POINT
  5
3608
330
35F8
100
AcDbEntity
  8
Defpoints
 62
     0
100
AcDbPoint
 10
8.593309462123414
 20
4.315033637924196
 30
0.0
  0
POINT
  5
3609
330
35F8
100
AcDbEntity
  8
Defpoints
 62
     0
100
AcDbPoint
 10
8.070000307006033
 20
4.315033637924196
 30
0.0
  0
ENDBLK
  5
35FA
330
35F8
100
AcDbEntity
  8
0
100
AcDbBlockEnd
  0
ENDSEC
  0
SECTION
  2
ENTITIES
  0
LINE
  5
3060
330
1F
100
AcDbEntity
  8
0
100
AcDbLine
 10
10.9053954739097
 20
8.212808573063302
 30
0.0
 11
10.9053954739097
 21
7.610154939041828
 31
0.0
  0
LINE
  5
309A
330
1F
100
AcDbEntity
  8
0
100
AcDbLine
 10
10.93574898557634
 20
8.212808573063302
 30
0.0
 11
10.93574898557634
 21
7.640508450708467
 31
0.0
  0
LINE
  5
309B
330
1F
100
AcDbEntity
  8
0
100
AcDbLine
 10
10.96544898557634
 20
8.212808573063302
 30
0.0
 11
10.96544898557634
 21
7.625823347654957
 31
0.0
  0
LINE
  5
309C
330
1F
100
AcDbEntity
  8
0
100
AcDbLine
 10
11.8813954739097
 20
8.2128085730633
 30
0.0
 11
11.8813954739097
 21
7.532761660673584
 31
0.0
  0
LINE
  5
309D
330
1F
100
AcDbEntity
  8
0
100
AcDbLine
 10
11.75645452165458
 20
7.476380931293201
 30
0.0
 11
11.75645452165458
 21
8.2128085730633
 31
0.0
  0
LINE
  5
309E
330
1F
100
AcDbEntity
  8
0
100
AcDbLine
 10
11.56092895605896
 20
7.476380931293201
 30
0.0
 11
11.56092895605896
 21
8.2128085730633
 31
0.0
  0
LINE
  5
309F
330
1F
100
AcDbEntity
  8
0
100
AcDbLine
 10
11.25233160970211
 20
8.212808573063302
 30
0.0
 11
11.2523316097021
 21
7.476380931293201
 31
0.0
  0
LINE
  5
30A0
330
1F
100
AcDbEntity
  8
0
100
AcDbLine
 10
11.85645452165458
 20
7.539538407268854
 30
0.0
 11
11.85645452165458
 21
8.2128085730633
 31
0.0
  0
LINE
  5
30A1
330
1F
100
AcDbEntity
  8
0
100
AcDbLine
 10
11.56092895605896
 20
7.476380931293201
 30
0.0
 11
11.56528412356206
 21
7.476380931293201
 31
0.0
  0
LINE
  5
30A2
330
1F
100
AcDbEntity
  8
0
100
AcDbLine
 10
11.23627979927142
 20
7.476380931293201
 30
0.0
 11
11.2523316097021
 21
7.476380931293201
 31
0.0
  0
LINE
  5
30A3
330
1F
100
AcDbEntity
  8
0
100
AcDbLine
 10
11.41082191936602
 20
8.246489866921296
 30
0.0
 11
11.41082191936602
 21
9.386489866921296
 31
0.0
  0
LINE
  5
30A4
330
1F
100
AcDbEntity
  8
0
100
AcDbLine
 10
11.38960871593043
 20
8.246489866921296
 30
0.0
 11
11.38960871593043
 21
9.386489866921296
 31
0.0
  0
LINE
  5
30A5
330
1F
100
AcDbEntity
  8
0
100
AcDbLine
 10
11.34960184736042
 20
8.316090317121405
 30
0.0
 11
11.35326210139827
 21
8.315408833647184
 31
0.0
  0
LINE
  5
30A6
330
1F
100
AcDbEntity
  8
0
100
AcDbLine
 10
11.35326210139827
 20
8.315408833647184
 30
0.0
 11
11.35667291517229
 21
8.313410825197093
 31
0.0
  0
LINE
  5
30A7
330
1F
100
AcDbEntity
  8
0
100
AcDbLine
 10
11.35667291517229
 20
8.313410825197093
 30
0.0
 11
11.35960184736042
 21
8.310232452745134
 31
0.0
  0
LINE
  5
30A8
330
1F
100
AcDbEntity
  8
0
100
AcDbLine
 10
11.35960184736042
 20
8.310232452745134
 30
0.0
 11
11.36184929607434
 21
8.306090317121403
 31
0.0
  0
LINE
  5
30A9
330
1F
100
AcDbEntity
  8
0
100
AcDbLine
 10
11.36184929607434
 20
8.306090317121403
 30
0.0
 11
11.36326210139827
 21
8.301266698023452
 31
0.0
  0
LINE
  5
30AA
330
1F
100
AcDbEntity
  8
0
100
AcDbLine
 10
11.36326210139827
 20
8.301266698023452
 30
0.0
 11
11.36374398298415
 21
8.296090317121402
 31
0.0
  0
LINE
  5
30AB
330
1F
100
AcDbEntity
  8
0
100
AcDbLine
 10
11.36374398298415
 20
8.296090317121402
 30
0.0
 11
11.36326210139827
 21
8.290913936219352
 31
0.0
  0
LINE
  5
30AC
330
1F
100
AcDbEntity
  8
0
100
AcDbLine
 10
11.36326210139827
 20
8.290913936219352
 30
0.0
 11
11.36184929607434
 21
8.286090317121404
 31
0.0
  0
LINE
  5
30AD
330
1F
100
AcDbEntity
  8
0
100
AcDbLine
 10
11.36184929607434
 20
8.286090317121404
 30
0.0
 11
11.35960184736042
 21
8.281948181497673
 31
0.0
  0
LINE
  5
30AE
330
1F
100
AcDbEntity
  8
0
100
AcDbLine
 10
11.35960184736042
 20
8.281948181497673
 30
0.0
 11
11.35667291517229
 21
8.278769809045714
 31
0.0
  0
LINE
  5
30AF
330
1F
100
AcDbEntity
  8
0
100
AcDbLine
 10
11.35667291517229
 20
8.278769809045714
 30
0.0
 11
11.35326210139827
 21
8.276771800595623
 31
0.0
  0
LINE
  5
30B0
330
1F
100
AcDbEntity
  8
0
100
AcDbLine
 10
11.35326210139827
 20
8.276771800595623
 30
0.0
 11
11.34960184736042
 21
8.276090317121402
 31
0.0
  0
LINE
  5
30B1
330
1F
100
AcDbEntity
  8
0
100
AcDbLine
 10
11.89664485277662
 20
8.242697484709536
 30
0.0
 11
11.89732633625084
 21
8.246357738747379
 31
0.0
  0
LINE
  5
30B2
330
1F
100
AcDbEntity
  8
0
100
AcDbLine
 10
11.90250271715289
 20
8.252697484709536
 30
0.0
 11
11.90664485277662
 21
8.254944933423452
 31
0.0
  0
LINE
  5
30B3
330
1F
100
AcDbEntity
  8
0
100
AcDbLine
 10
11.9359633693024
 20
8.246357738747379
 30
0.0
 11
11.93664485277662
 21
8.242697484709534
 31
0.0
  0
LINE
  5
30B4
330
1F
100
AcDbEntity
  8
0
100
AcDbLine
 10
11.89732633625084
 20
8.246357738747379
 30
0.0
 11
11.89932434470093
 21
8.2497685525214
 31
0.0
  0
LINE
  5
30B5
330
1F
100
AcDbEntity
  8
0
100
AcDbLine
 10
11.89932434470093
 20
8.2497685525214
 30
0.0
 11
11.90250271715289
 21
8.252697484709536
 31
0.0
  0
LINE
  5
30B6
330
1F
100
AcDbEntity
  8
0
100
AcDbLine
 10
11.90664485277662
 20
8.254944933423452
 30
0.0
 11
11.91146847187457
 21
8.256357738747379
 31
0.0
  0
LINE
  5
30B7
330
1F
100
AcDbEntity
  8
0
100
AcDbLine
 10
11.91146847187457
 20
8.256357738747379
 30
0.0
 11
11.91664485277662
 21
8.256839620333266
 31
0.0
  0
LINE
  5
30B8
330
1F
100
AcDbEntity
  8
0
100
AcDbLine
 10
11.91664485277662
 20
8.256839620333266
 30
0.0
 11
11.92182123367867
 21
8.256357738747379
 31
0.0
  0
LINE
  5
30B9
330
1F
100
AcDbEntity
  8
0
100
AcDbLine
 10
11.92182123367867
 20
8.256357738747379
 30
0.0
 11
11.92664485277662
 21
8.25494493342345
 31
0.0
  0
LINE
  5
30BA
330
1F
100
AcDbEntity
  8
0
100
AcDbLine
 10
11.92664485277662
 20
8.25494493342345
 30
0.0
 11
11.93078698840035
 21
8.252697484709536
 31
0.0
  0
LINE
  5
30BB
330
1F
100
AcDbEntity
  8
0
100
AcDbLine
 10
11.93078698840035
 20
8.252697484709536
 30
0.0
 11
11.93396536085231
 21
8.2497685525214
 31
0.0
  0
LINE
  5
30BC
330
1F
100
AcDbEntity
  8
0
100
AcDbLine
 10
11.93396536085231
 20
8.2497685525214
 30
0.0
 11
11.9359633693024
 21
8.246357738747379
 31
0.0
  0
LINE
  5
30BD
330
1F
100
AcDbEntity
  8
0
100
AcDbLine
 10
10.87264485277662
 20
8.242697484709532
 30
0.0
 11
10.87332633625084
 21
8.246357738747377
 31
0.0
  0
LINE
  5
30BE
330
1F
100
AcDbEntity
  8
0
100
AcDbLine
 10
10.87332633625084
 20
8.246357738747377
 30
0.0
 11
10.87532434470093
 21
8.249768552521398
 31
0.0
  0
LINE
  5
30BF
330
1F
100
AcDbEntity
  8
0
100
AcDbLine
 10
10.87532434470093
 20
8.249768552521398
 30
0.0
 11
10.87850271715289
 21
8.252697484709536
 31
0.0
  0
LINE
  5
30C0
330
1F
100
AcDbEntity
  8
0
100
AcDbLine
 10
10.87850271715289
 20
8.252697484709536
 30
0.0
 11
10.88264485277662
 21
8.25494493342345
 31
0.0
  0
LINE
  5
30C1
330
1F
100
AcDbEntity
  8
0
100
AcDbLine
 10
10.88264485277662
 20
8.25494493342345
 30
0.0
 11
10.88746847187457
 21
8.256357738747379
 31
0.0
  0
LINE
  5
30C2
330
1F
100
AcDbEntity
  8
0
100
AcDbLine
 10
10.88746847187457
 20
8.256357738747379
 30
0.0
 11
10.89264485277662
 21
8.256839620333266
 31
0.0
  0
LINE
  5
30C3
330
1F
100
AcDbEntity
  8
0
100
AcDbLine
 10
10.89264485277662
 20
8.256839620333266
 30
0.0
 11
10.89782123367867
 21
8.256357738747379
 31
0.0
  0
LINE
  5
30C4
330
1F
100
AcDbEntity
  8
0
100
AcDbLine
 10
10.89782123367867
 20
8.256357738747379
 30
0.0
 11
10.90264485277661
 21
8.254944933423448
 31
0.0
  0
LINE
  5
30C5
330
1F
100
AcDbEntity
  8
0
100
AcDbLine
 10
10.90264485277661
 20
8.254944933423448
 30
0.0
 11
10.90678698840035
 21
8.252697484709536
 31
0.0
  0
LINE
  5
30C6
330
1F
100
AcDbEntity
  8
0
100
AcDbLine
 10
10.90678698840035
 20
8.252697484709536
 30
0.0
 11
10.90996536085231
 21
8.249768552521398
 31
0.0
  0
LINE
  5
30C7
330
1F
100
AcDbEntity
  8
0
100
AcDbLine
 10
10.90996536085231
 20
8.249768552521398
 30
0.0
 11
10.9119633693024
 21
8.246357738747377
 31
0.0
  0
LINE
  5
30C8
330
1F
100
AcDbEntity
  8
0
100
AcDbLine
 10
10.9119633693024
 20
8.246357738747377
 30
0.0
 11
10.91264485277662
 21
8.242697484709534
 31
0.0
  0
LINE
  5
30C9
330
1F
100
AcDbEntity
  8
0
100
AcDbLine
 10
11.34960184736042
 20
9.354090317121405
 30
0.0
 11
11.35326210139827
 21
9.353408833647185
 31
0.0
  0
LINE
  5
30CA
330
1F
100
AcDbEntity
  8
0
100
AcDbLine
 10
11.35326210139827
 20
9.353408833647185
 30
0.0
 11
11.35667291517229
 21
9.351410825197094
 31
0.0
  0
LINE
  5
30CB
330
1F
100
AcDbEntity
  8
0
100
AcDbLine
 10
11.35667291517229
 20
9.351410825197094
 30
0.0
 11
11.35960184736042
 21
9.348232452745135
 31
0.0
  0
LINE
  5
30CC
330
1F
100
AcDbEntity
  8
0
100
AcDbLine
 10
11.35960184736042
 20
9.348232452745135
 30
0.0
 11
11.36184929607434
 21
9.344090317121404
 31
0.0
  0
LINE
  5
30CD
330
1F
100
AcDbEntity
  8
0
100
AcDbLine
 10
11.36184929607434
 20
9.344090317121404
 30
0.0
 11
11.36326210139827
 21
9.339266698023456
 31
0.0
  0
LINE
  5
30CE
330
1F
100
AcDbEntity
  8
0
100
AcDbLine
 10
11.36326210139827
 20
9.339266698023456
 30
0.0
 11
11.36374398298415
 21
9.334090317121406
 31
0.0
  0
LINE
  5
30CF
330
1F
100
AcDbEntity
  8
0
100
AcDbLine
 10
11.36374398298415
 20
9.334090317121406
 30
0.0
 11
11.36326210139827
 21
9.328913936219356
 31
0.0
  0
LINE
  5
30D0
330
1F
100
AcDbEntity
  8
0
100
AcDbLine
 10
11.36326210139827
 20
9.328913936219356
 30
0.0
 11
11.36184929607434
 21
9.324090317121404
 31
0.0
  0
LINE
  5
30D1
330
1F
100
AcDbEntity
  8
0
100
AcDbLine
 10
11.36184929607434
 20
9.324090317121404
 30
0.0
 11
11.35960184736042
 21
9.319948181497673
 31
0.0
  0
LINE
  5
30D2
330
1F
100
AcDbEntity
  8
0
100
AcDbLine
 10
11.35960184736042
 20
9.319948181497673
 30
0.0
 11
11.35667291517229
 21
9.316769809045714
 31
0.0
  0
LINE
  5
30D3
330
1F
100
AcDbEntity
  8
0
100
AcDbLine
 10
11.35667291517229
 20
9.316769809045714
 30
0.0
 11
11.35326210139827
 21
9.314771800595623
 31
0.0
  0
LINE
  5
30D4
330
1F
100
AcDbEntity
  8
0
100
AcDbLine
 10
11.35326210139827
 20
9.314771800595623
 30
0.0
 11
11.34960184736042
 21
9.314090317121406
 31
0.0
  0
LINE
  5
30D5
330
1F
100
AcDbEntity
  8
0
100
AcDbLine
 10
11.34253077954856
 20
9.354090317121405
 30
0.0
 11
11.3461910335864
 21
9.353408833647185
 31
0.0
  0
LINE
  5
30D6
330
1F
100
AcDbEntity
  8
0
100
AcDbLine
 10
11.3461910335864
 20
9.353408833647185
 30
0.0
 11
11.34960184736042
 21
9.351410825197094
 31
0.0
  0
LINE
  5
30D7
330
1F
100
AcDbEntity
  8
0
100
AcDbLine
 10
11.34960184736042
 20
9.351410825197094
 30
0.0
 11
11.35253077954856
 21
9.348232452745135
 31
0.0
  0
LINE
  5
30D8
330
1F
100
AcDbEntity
  8
0
100
AcDbLine
 10
11.35253077954856
 20
9.348232452745135
 30
0.0
 11
11.35477822826247
 21
9.344090317121404
 31
0.0
  0
LINE
  5
30D9
330
1F
100
AcDbEntity
  8
0
100
AcDbLine
 10
11.35477822826247
 20
9.344090317121404
 30
0.0
 11
11.3561910335864
 21
9.339266698023456
 31
0.0
  0
LINE
  5
30DA
330
1F
100
AcDbEntity
  8
0
100
AcDbLine
 10
11.3561910335864
 20
9.339266698023456
 30
0.0
 11
11.35667291517229
 21
9.334090317121406
 31
0.0
  0
LINE
  5
30DB
330
1F
100
AcDbEntity
  8
0
100
AcDbLine
 10
11.35667291517229
 20
9.334090317121406
 30
0.0
 11
11.3561910335864
 21
9.328913936219356
 31
0.0
  0
LINE
  5
30DC
330
1F
100
AcDbEntity
  8
0
100
AcDbLine
 10
11.3561910335864
 20
9.328913936219356
 30
0.0
 11
11.35477822826247
 21
9.324090317121408
 31
0.0
  0
LINE
  5
30DD
330
1F
100
AcDbEntity
  8
0
100
AcDbLine
 10
11.35477822826247
 20
9.324090317121408
 30
0.0
 11
11.35253077954856
 21
9.319948181497673
 31
0.0
  0
LINE
  5
30DE
330
1F
100
AcDbEntity
  8
0
100
AcDbLine
 10
11.35253077954856
 20
9.319948181497673
 30
0.0
 11
11.34960184736042
 21
9.316769809045714
 31
0.0
  0
LINE
  5
30DF
330
1F
100
AcDbEntity
  8
0
100
AcDbLine
 10
11.34960184736042
 20
9.316769809045714
 30
0.0
 11
11.3461910335864
 21
9.314771800595623
 31
0.0
  0
LINE
  5
30E0
330
1F
100
AcDbEntity
  8
0
100
AcDbLine
 10
11.3461910335864
 20
9.314771800595623
 30
0.0
 11
11.34253077954856
 21
9.314090317121406
 31
0.0
  0
LINE
  5
30E1
330
1F
100
AcDbEntity
  8
0
100
AcDbLine
 10
11.34253077954856
 20
9.314090317121406
 30
0.0
 11
11.33887052551071
 21
9.314771800595623
 31
0.0
  0
LINE
  5
30E2
330
1F
100
AcDbEntity
  8
0
100
AcDbLine
 10
11.33887052551071
 20
9.314771800595623
 30
0.0
 11
11.33545971173669
 21
9.316769809045714
 31
0.0
  0
LINE
  5
30E3
330
1F
100
AcDbEntity
  8
0
100
AcDbLine
 10
11.33545971173669
 20
9.316769809045714
 30
0.0
 11
11.33253077954856
 21
9.319948181497673
 31
0.0
  0
LINE
  5
30E4
330
1F
100
AcDbEntity
  8
0
100
AcDbLine
 10
11.33253077954856
 20
9.319948181497673
 30
0.0
 11
11.33028333083464
 21
9.324090317121404
 31
0.0
  0
LINE
  5
30E5
330
1F
100
AcDbEntity
  8
0
100
AcDbLine
 10
11.33028333083464
 20
9.324090317121404
 30
0.0
 11
11.32887052551071
 21
9.328913936219356
 31
0.0
  0
LINE
  5
30E6
330
1F
100
AcDbEntity
  8
0
100
AcDbLine
 10
11.32887052551071
 20
9.328913936219356
 30
0.0
 11
11.32838864392482
 21
9.334090317121406
 31
0.0
  0
LINE
  5
30E7
330
1F
100
AcDbEntity
  8
0
100
AcDbLine
 10
11.32838864392482
 20
9.334090317121406
 30
0.0
 11
11.32887052551071
 21
9.339266698023456
 31
0.0
  0
LINE
  5
30E8
330
1F
100
AcDbEntity
  8
0
100
AcDbLine
 10
11.32887052551071
 20
9.339266698023456
 30
0.0
 11
11.33028333083464
 21
9.344090317121404
 31
0.0
  0
LINE
  5
30E9
330
1F
100
AcDbEntity
  8
0
100
AcDbLine
 10
11.33028333083464
 20
9.344090317121404
 30
0.0
 11
11.33253077954855
 21
9.348232452745135
 31
0.0
  0
LINE
  5
30EA
330
1F
100
AcDbEntity
  8
0
100
AcDbLine
 10
11.33253077954855
 20
9.348232452745135
 30
0.0
 11
11.33545971173669
 21
9.351410825197094
 31
0.0
  0
LINE
  5
30EB
330
1F
100
AcDbEntity
  8
0
100
AcDbLine
 10
11.33545971173669
 20
9.351410825197094
 30
0.0
 11
11.33887052551071
 21
9.353408833647185
 31
0.0
  0
LINE
  5
30EC
330
1F
100
AcDbEntity
  8
0
100
AcDbLine
 10
11.33887052551071
 20
9.353408833647185
 30
0.0
 11
11.34253077954856
 21
9.354090317121405
 31
0.0
  0
LINE
  5
30ED
330
1F
100
AcDbEntity
  8
0
100
AcDbLine
 10
11.34960184736042
 20
9.354090317121405
 30
0.0
 11
11.34253077954856
 21
9.354090317121405
 31
0.0
  0
LINE
  5
30EE
330
1F
100
AcDbEntity
  8
0
100
AcDbLine
 10
11.34960184736042
 20
9.314090317121406
 30
0.0
 11
11.34253077954856
 21
9.314090317121406
 31
0.0
  0
LINE
  5
30EF
330
1F
100
AcDbEntity
  8
0
100
AcDbLine
 10
11.34253077954856
 20
8.316090317121405
 30
0.0
 11
11.3461910335864
 21
8.315408833647184
 31
0.0
  0
LINE
  5
30F0
330
1F
100
AcDbEntity
  8
0
100
AcDbLine
 10
11.3461910335864
 20
8.315408833647184
 30
0.0
 11
11.34960184736042
 21
8.313410825197093
 31
0.0
  0
LINE
  5
30F1
330
1F
100
AcDbEntity
  8
0
100
AcDbLine
 10
11.34960184736042
 20
8.313410825197093
 30
0.0
 11
11.35253077954856
 21
8.310232452745134
 31
0.0
  0
LINE
  5
30F2
330
1F
100
AcDbEntity
  8
0
100
AcDbLine
 10
11.35253077954856
 20
8.310232452745134
 30
0.0
 11
11.35477822826247
 21
8.306090317121403
 31
0.0
  0
LINE
  5
30F3
330
1F
100
AcDbEntity
  8
0
100
AcDbLine
 10
11.35477822826247
 20
8.306090317121403
 30
0.0
 11
11.3561910335864
 21
8.301266698023452
 31
0.0
  0
LINE
  5
30F4
330
1F
100
AcDbEntity
  8
0
100
AcDbLine
 10
11.3561910335864
 20
8.301266698023452
 30
0.0
 11
11.35667291517229
 21
8.296090317121402
 31
0.0
  0
LINE
  5
30F5
330
1F
100
AcDbEntity
  8
0
100
AcDbLine
 10
11.35667291517229
 20
8.296090317121402
 30
0.0
 11
11.3561910335864
 21
8.290913936219352
 31
0.0
  0
LINE
  5
30F6
330
1F
100
AcDbEntity
  8
0
100
AcDbLine
 10
11.3561910335864
 20
8.290913936219352
 30
0.0
 11
11.35477822826247
 21
8.286090317121404
 31
0.0
  0
LINE
  5
30F7
330
1F
100
AcDbEntity
  8
0
100
AcDbLine
 10
11.35477822826247
 20
8.286090317121404
 30
0.0
 11
11.35253077954856
 21
8.281948181497673
 31
0.0
  0
LINE
  5
30F8
330
1F
100
AcDbEntity
  8
0
100
AcDbLine
 10
11.35253077954856
 20
8.281948181497673
 30
0.0
 11
11.34960184736042
 21
8.278769809045714
 31
0.0
  0
LINE
  5
30F9
330
1F
100
AcDbEntity
  8
0
100
AcDbLine
 10
11.34960184736042
 20
8.278769809045714
 30
0.0
 11
11.3461910335864
 21
8.276771800595623
 31
0.0
  0
LINE
  5
30FA
330
1F
100
AcDbEntity
  8
0
100
AcDbLine
 10
11.3461910335864
 20
8.276771800595623
 30
0.0
 11
11.34253077954856
 21
8.276090317121402
 31
0.0
  0
LINE
  5
30FB
330
1F
100
AcDbEntity
  8
0
100
AcDbLine
 10
11.34253077954856
 20
8.276090317121402
 30
0.0
 11
11.33887052551071
 21
8.276771800595623
 31
0.0
  0
LINE
  5
30FC
330
1F
100
AcDbEntity
  8
0
100
AcDbLine
 10
11.33887052551071
 20
8.276771800595623
 30
0.0
 11
11.3354597117367
 21
8.278769809045714
 31
0.0
  0
LINE
  5
30FD
330
1F
100
AcDbEntity
  8
0
100
AcDbLine
 10
11.3354597117367
 20
8.278769809045714
 30
0.0
 11
11.33253077954856
 21
8.281948181497673
 31
0.0
  0
LINE
  5
30FE
330
1F
100
AcDbEntity
  8
0
100
AcDbLine
 10
11.33253077954856
 20
8.281948181497673
 30
0.0
 11
11.33028333083464
 21
8.286090317121404
 31
0.0
  0
LINE
  5
30FF
330
1F
100
AcDbEntity
  8
0
100
AcDbLine
 10
11.33028333083464
 20
8.286090317121404
 30
0.0
 11
11.32887052551071
 21
8.290913936219352
 31
0.0
  0
LINE
  5
3100
330
1F
100
AcDbEntity
  8
0
100
AcDbLine
 10
11.32887052551071
 20
8.290913936219352
 30
0.0
 11
11.32838864392482
 21
8.296090317121402
 31
0.0
  0
LINE
  5
3101
330
1F
100
AcDbEntity
  8
0
100
AcDbLine
 10
11.32838864392482
 20
8.296090317121402
 30
0.0
 11
11.32887052551071
 21
8.301266698023452
 31
0.0
  0
LINE
  5
3102
330
1F
100
AcDbEntity
  8
0
100
AcDbLine
 10
11.32887052551071
 20
8.301266698023452
 30
0.0
 11
11.33028333083464
 21
8.306090317121403
 31
0.0
  0
LINE
  5
3103
330
1F
100
AcDbEntity
  8
0
100
AcDbLine
 10
11.33028333083464
 20
8.306090317121403
 30
0.0
 11
11.33253077954856
 21
8.310232452745134
 31
0.0
  0
LINE
  5
3104
330
1F
100
AcDbEntity
  8
0
100
AcDbLine
 10
11.33253077954856
 20
8.310232452745134
 30
0.0
 11
11.3354597117367
 21
8.313410825197093
 31
0.0
  0
LINE
  5
3105
330
1F
100
AcDbEntity
  8
0
100
AcDbLine
 10
11.3354597117367
 20
8.313410825197093
 30
0.0
 11
11.33887052551071
 21
8.315408833647184
 31
0.0
  0
LINE
  5
3106
330
1F
100
AcDbEntity
  8
0
100
AcDbLine
 10
11.33887052551071
 20
8.315408833647184
 30
0.0
 11
11.34253077954856
 21
8.316090317121405
 31
0.0
  0
LINE
  5
3107
330
1F
100
AcDbEntity
  8
0
100
AcDbLine
 10
11.34960184736042
 20
8.316090317121405
 30
0.0
 11
11.34253077954856
 21
8.316090317121405
 31
0.0
  0
LINE
  5
3108
330
1F
100
AcDbEntity
  8
0
100
AcDbLine
 10
11.34960184736042
 20
8.276090317121402
 30
0.0
 11
11.34253077954856
 21
8.276090317121402
 31
0.0
  0
LINE
  5
3109
330
1F
100
AcDbEntity
  8
0
100
AcDbLine
 10
11.89664485277662
 20
8.23562641689767
 30
0.0
 11
11.89732633625084
 21
8.239286670935515
 31
0.0
  0
LINE
  5
310A
330
1F
100
AcDbEntity
  8
0
100
AcDbLine
 10
11.89732633625084
 20
8.239286670935515
 30
0.0
 11
11.89932434470093
 21
8.242697484709534
 31
0.0
  0
LINE
  5
310B
330
1F
100
AcDbEntity
  8
0
100
AcDbLine
 10
11.89932434470093
 20
8.242697484709534
 30
0.0
 11
11.90250271715289
 21
8.245626416897669
 31
0.0
  0
LINE
  5
310C
330
1F
100
AcDbEntity
  8
0
100
AcDbLine
 10
11.90250271715289
 20
8.245626416897669
 30
0.0
 11
11.90664485277662
 21
8.247873865611587
 31
0.0
  0
LINE
  5
310D
330
1F
100
AcDbEntity
  8
0
100
AcDbLine
 10
11.90664485277662
 20
8.247873865611587
 30
0.0
 11
11.91146847187457
 21
8.249286670935516
 31
0.0
  0
LINE
  5
310E
330
1F
100
AcDbEntity
  8
0
100
AcDbLine
 10
11.91146847187457
 20
8.249286670935516
 30
0.0
 11
11.91664485277662
 21
8.249768552521402
 31
0.0
  0
LINE
  5
310F
330
1F
100
AcDbEntity
  8
0
100
AcDbLine
 10
11.91664485277662
 20
8.249768552521402
 30
0.0
 11
11.92182123367867
 21
8.249286670935514
 31
0.0
  0
LINE
  5
3110
330
1F
100
AcDbEntity
  8
0
100
AcDbLine
 10
11.92182123367867
 20
8.249286670935514
 30
0.0
 11
11.92664485277662
 21
8.247873865611586
 31
0.0
  0
LINE
  5
3111
330
1F
100
AcDbEntity
  8
0
100
AcDbLine
 10
11.92664485277662
 20
8.247873865611586
 30
0.0
 11
11.93078698840035
 21
8.245626416897669
 31
0.0
  0
LINE
  5
3112
330
1F
100
AcDbEntity
  8
0
100
AcDbLine
 10
11.93078698840035
 20
8.245626416897669
 30
0.0
 11
11.93396536085231
 21
8.242697484709534
 31
0.0
  0
LINE
  5
3113
330
1F
100
AcDbEntity
  8
0
100
AcDbLine
 10
11.93396536085231
 20
8.242697484709534
 30
0.0
 11
11.9359633693024
 21
8.239286670935515
 31
0.0
  0
LINE
  5
3114
330
1F
100
AcDbEntity
  8
0
100
AcDbLine
 10
11.9359633693024
 20
8.239286670935515
 30
0.0
 11
11.93664485277662
 21
8.23562641689767
 31
0.0
  0
LINE
  5
3115
330
1F
100
AcDbEntity
  8
0
100
AcDbLine
 10
11.93664485277662
 20
8.23562641689767
 30
0.0
 11
11.9359633693024
 21
8.231966162859825
 31
0.0
  0
LINE
  5
3116
330
1F
100
AcDbEntity
  8
0
100
AcDbLine
 10
11.9359633693024
 20
8.231966162859825
 30
0.0
 11
11.93396536085231
 21
8.228555349085807
 31
0.0
  0
LINE
  5
3117
330
1F
100
AcDbEntity
  8
0
100
AcDbLine
 10
11.93396536085231
 20
8.228555349085807
 30
0.0
 11
11.93078698840035
 21
8.225626416897672
 31
0.0
  0
LINE
  5
3118
330
1F
100
AcDbEntity
  8
0
100
AcDbLine
 10
11.93078698840035
 20
8.225626416897672
 30
0.0
 11
11.92664485277662
 21
8.223378968183752
 31
0.0
  0
LINE
  5
3119
330
1F
100
AcDbEntity
  8
0
100
AcDbLine
 10
11.92664485277662
 20
8.223378968183752
 30
0.0
 11
11.92182123367867
 21
8.221966162859823
 31
0.0
  0
LINE
  5
311A
330
1F
100
AcDbEntity
  8
0
100
AcDbLine
 10
11.92182123367867
 20
8.221966162859823
 30
0.0
 11
11.91664485277662
 21
8.221484281273937
 31
0.0
  0
LINE
  5
311B
330
1F
100
AcDbEntity
  8
0
100
AcDbLine
 10
11.91664485277662
 20
8.221484281273937
 30
0.0
 11
11.91146847187457
 21
8.221966162859823
 31
0.0
  0
LINE
  5
311C
330
1F
100
AcDbEntity
  8
0
100
AcDbLine
 10
11.91146847187457
 20
8.221966162859823
 30
0.0
 11
11.90664485277662
 21
8.223378968183752
 31
0.0
  0
LINE
  5
311D
330
1F
100
AcDbEntity
  8
0
100
AcDbLine
 10
11.90664485277662
 20
8.223378968183752
 30
0.0
 11
11.90250271715289
 21
8.225626416897668
 31
0.0
  0
LINE
  5
311E
330
1F
100
AcDbEntity
  8
0
100
AcDbLine
 10
11.90250271715289
 20
8.225626416897668
 30
0.0
 11
11.89932434470093
 21
8.228555349085807
 31
0.0
  0
LINE
  5
311F
330
1F
100
AcDbEntity
  8
0
100
AcDbLine
 10
11.89932434470093
 20
8.228555349085807
 30
0.0
 11
11.89732633625084
 21
8.231966162859826
 31
0.0
  0
LINE
  5
3120
330
1F
100
AcDbEntity
  8
0
100
AcDbLine
 10
11.89732633625084
 20
8.231966162859826
 30
0.0
 11
11.89664485277662
 21
8.23562641689767
 31
0.0
  0
LINE
  5
3121
330
1F
100
AcDbEntity
  8
0
100
AcDbLine
 10
11.89664485277662
 20
8.242697484709536
 30
0.0
 11
11.89664485277662
 21
8.23562641689767
 31
0.0
  0
LINE
  5
3122
330
1F
100
AcDbEntity
  8
0
100
AcDbLine
 10
11.93664485277662
 20
8.242697484709534
 30
0.0
 11
11.93664485277662
 21
8.23562641689767
 31
0.0
  0
LINE
  5
3123
330
1F
100
AcDbEntity
  8
0
100
AcDbLine
 10
10.87264485277662
 20
8.23562641689767
 30
0.0
 11
10.87332633625084
 21
8.239286670935513
 31
0.0
  0
LINE
  5
3124
330
1F
100
AcDbEntity
  8
0
100
AcDbLine
 10
10.87332633625084
 20
8.239286670935513
 30
0.0
 11
10.87532434470093
 21
8.242697484709532
 31
0.0
  0
LINE
  5
3125
330
1F
100
AcDbEntity
  8
0
100
AcDbLine
 10
10.87532434470093
 20
8.242697484709532
 30
0.0
 11
10.87850271715289
 21
8.245626416897669
 31
0.0
  0
LINE
  5
3126
330
1F
100
AcDbEntity
  8
0
100
AcDbLine
 10
10.87850271715289
 20
8.245626416897669
 30
0.0
 11
10.88264485277662
 21
8.247873865611584
 31
0.0
  0
LINE
  5
3127
330
1F
100
AcDbEntity
  8
0
100
AcDbLine
 10
10.88264485277662
 20
8.247873865611584
 30
0.0
 11
10.88746847187457
 21
8.249286670935514
 31
0.0
  0
LINE
  5
3128
330
1F
100
AcDbEntity
  8
0
100
AcDbLine
 10
10.88746847187457
 20
8.249286670935514
 30
0.0
 11
10.89264485277662
 21
8.249768552521402
 31
0.0
  0
LINE
  5
3129
330
1F
100
AcDbEntity
  8
0
100
AcDbLine
 10
10.89264485277662
 20
8.249768552521402
 30
0.0
 11
10.89782123367867
 21
8.249286670935513
 31
0.0
  0
LINE
  5
312A
330
1F
100
AcDbEntity
  8
0
100
AcDbLine
 10
10.89782123367867
 20
8.249286670935513
 30
0.0
 11
10.90264485277661
 21
8.247873865611584
 31
0.0
  0
LINE
  5
312B
330
1F
100
AcDbEntity
  8
0
100
AcDbLine
 10
10.90264485277661
 20
8.247873865611584
 30
0.0
 11
10.90678698840035
 21
8.245626416897669
 31
0.0
  0
LINE
  5
312C
330
1F
100
AcDbEntity
  8
0
100
AcDbLine
 10
10.90678698840035
 20
8.245626416897669
 30
0.0
 11
10.90996536085231
 21
8.242697484709532
 31
0.0
  0
LINE
  5
312D
330
1F
100
AcDbEntity
  8
0
100
AcDbLine
 10
10.90996536085231
 20
8.242697484709532
 30
0.0
 11
10.9119633693024
 21
8.239286670935513
 31
0.0
  0
LINE
  5
312E
330
1F
100
AcDbEntity
  8
0
100
AcDbLine
 10
10.9119633693024
 20
8.239286670935513
 30
0.0
 11
10.91264485277662
 21
8.23562641689767
 31
0.0
  0
LINE
  5
312F
330
1F
100
AcDbEntity
  8
0
100
AcDbLine
 10
10.91264485277662
 20
8.23562641689767
 30
0.0
 11
10.9119633693024
 21
8.231966162859823
 31
0.0
  0
LINE
  5
3130
330
1F
100
AcDbEntity
  8
0
100
AcDbLine
 10
10.9119633693024
 20
8.231966162859823
 30
0.0
 11
10.90996536085231
 21
8.228555349085805
 31
0.0
  0
LINE
  5
3131
330
1F
100
AcDbEntity
  8
0
100
AcDbLine
 10
10.90996536085231
 20
8.228555349085805
 30
0.0
 11
10.90678698840035
 21
8.22562641689767
 31
0.0
  0
LINE
  5
3132
330
1F
100
AcDbEntity
  8
0
100
AcDbLine
 10
10.90678698840035
 20
8.22562641689767
 30
0.0
 11
10.90264485277662
 21
8.22337896818375
 31
0.0
  0
LINE
  5
3133
330
1F
100
AcDbEntity
  8
0
100
AcDbLine
 10
10.90264485277662
 20
8.22337896818375
 30
0.0
 11
10.89782123367867
 21
8.221966162859821
 31
0.0
  0
LINE
  5
3134
330
1F
100
AcDbEntity
  8
0
100
AcDbLine
 10
10.89782123367867
 20
8.221966162859821
 30
0.0
 11
10.89264485277662
 21
8.221484281273935
 31
0.0
  0
LINE
  5
3135
330
1F
100
AcDbEntity
  8
0
100
AcDbLine
 10
10.89264485277662
 20
8.221484281273935
 30
0.0
 11
10.88746847187457
 21
8.221966162859821
 31
0.0
  0
LINE
  5
3136
330
1F
100
AcDbEntity
  8
0
100
AcDbLine
 10
10.88746847187457
 20
8.221966162859821
 30
0.0
 11
10.88264485277662
 21
8.22337896818375
 31
0.0
  0
LINE
  5
3137
330
1F
100
AcDbEntity
  8
0
100
AcDbLine
 10
10.88264485277662
 20
8.22337896818375
 30
0.0
 11
10.87850271715288
 21
8.225626416897668
 31
0.0
  0
LINE
  5
3138
330
1F
100
AcDbEntity
  8
0
100
AcDbLine
 10
10.87850271715288
 20
8.225626416897668
 30
0.0
 11
10.87532434470093
 21
8.228555349085805
 31
0.0
  0
LINE
  5
3139
330
1F
100
AcDbEntity
  8
0
100
AcDbLine
 10
10.87532434470093
 20
8.228555349085805
 30
0.0
 11
10.87332633625084
 21
8.231966162859823
 31
0.0
  0
LINE
  5
313A
330
1F
100
AcDbEntity
  8
0
100
AcDbLine
 10
10.87332633625084
 20
8.231966162859823
 30
0.0
 11
10.87264485277662
 21
8.23562641689767
 31
0.0
  0
LINE
  5
313B
330
1F
100
AcDbEntity
  8
0
100
AcDbLine
 10
10.87264485277662
 20
8.242697484709532
 30
0.0
 11
10.87264485277662
 21
8.23562641689767
 31
0.0
  0
LINE
  5
313C
330
1F
100
AcDbEntity
  8
0
100
AcDbLine
 10
10.91264485277662
 20
8.242697484709534
 30
0.0
 11
10.91264485277662
 21
8.23562641689767
 31
0.0
  0
LINE
  5
314F
330
1F
100
AcDbEntity
  8
0
100
AcDbLine
 10
11.5836030434542
 20
7.007669289777092
 30
0.0
 11
11.77332347882956
 21
7.45899637077821
 31
0.0
  0
LINE
  5
3173
330
1F
100
AcDbEntity
  8
0
100
AcDbLine
 10
10.09315493817401
 20
6.797914403306137
 30
0.0
 11
10.89925666872667
 21
5.991812672753472
 31
0.0
  0
LINE
  5
3180
330
1F
100
AcDbEntity
  8
0
100
AcDbLine
 10
10.86979341479198
 20
6.063545230902846
 30
0.0
 11
10.87286348682889
 21
6.065651539767985
 31
0.0
  0
LINE
  5
3181
330
1F
100
AcDbEntity
  8
0
100
AcDbLine
 10
10.88100661822757
 20
6.066474163090981
 30
0.0
 11
10.88552473664169
 21
6.065134417128826
 31
0.0
  0
LINE
  5
3182
330
1F
100
AcDbEntity
  8
0
100
AcDbLine
 10
10.90018399490457
 20
6.038331031692297
 30
0.0
 11
10.89807768603944
 21
6.035260959655385
 31
0.0
  0
LINE
  5
3183
330
1F
100
AcDbEntity
  8
0
100
AcDbLine
 10
10.87286348682889
 20
6.065651539767985
 30
0.0
 11
10.87668810170179
 21
6.066650543993031
 31
0.0
  0
LINE
  5
3184
330
1F
100
AcDbEntity
  8
0
100
AcDbLine
 10
10.87668810170179
 20
6.066650543993031
 30
0.0
 11
10.88100661822757
 21
6.066474163090981
 31
0.0
  0
LINE
  5
3185
330
1F
100
AcDbEntity
  8
0
100
AcDbLine
 10
10.88552473664169
 20
6.065134417128826
 30
0.0
 11
10.88993455464075
 21
6.06272260757985
 31
0.0
  0
LINE
  5
3186
330
1F
100
AcDbEntity
  8
0
100
AcDbLine
 10
10.88993455464075
 20
6.06272260757985
 30
0.0
 11
10.89393555041571
 21
6.059403095279115
 31
0.0
  0
LINE
  5
3187
330
1F
100
AcDbEntity
  8
0
100
AcDbLine
 10
10.89393555041571
 20
6.059403095279115
 30
0.0
 11
10.89725506271644
 21
6.055402099504163
 31
0.0
  0
LINE
  5
3188
330
1F
100
AcDbEntity
  8
0
100
AcDbLine
 10
10.89725506271644
 20
6.055402099504163
 30
0.0
 11
10.89966687226541
 21
6.050992281505095
 31
0.0
  0
LINE
  5
3189
330
1F
100
AcDbEntity
  8
0
100
AcDbLine
 10
10.89966687226541
 20
6.050992281505095
 30
0.0
 11
10.90100661822757
 21
6.046474163090982
 31
0.0
  0
LINE
  5
318A
330
1F
100
AcDbEntity
  8
0
100
AcDbLine
 10
10.90100661822757
 20
6.046474163090982
 30
0.0
 11
10.90118299912962
 21
6.042155646565198
 31
0.0
  0
LINE
  5
318B
330
1F
100
AcDbEntity
  8
0
100
AcDbLine
 10
10.90118299912962
 20
6.042155646565198
 30
0.0
 11
10.90018399490457
 21
6.038331031692297
 31
0.0
  0
LINE
  5
318C
330
1F
100
AcDbEntity
  8
0
100
AcDbLine
 10
10.14571607085695
 20
6.787622574837869
 30
0.0
 11
10.14878614289386
 21
6.789728883703007
 31
0.0
  0
LINE
  5
318D
330
1F
100
AcDbEntity
  8
0
100
AcDbLine
 10
10.14878614289386
 20
6.789728883703007
 30
0.0
 11
10.15261075776676
 21
6.790727887928055
 31
0.0
  0
LINE
  5
318E
330
1F
100
AcDbEntity
  8
0
100
AcDbLine
 10
10.15261075776676
 20
6.790727887928055
 30
0.0
 11
10.15692927429255
 21
6.790551507026005
 31
0.0
  0
LINE
  5
318F
330
1F
100
AcDbEntity
  8
0
100
AcDbLine
 10
10.15692927429255
 20
6.790551507026005
 30
0.0
 11
10.16144739270666
 21
6.78921176106385
 31
0.0
  0
LINE
  5
3190
330
1F
100
AcDbEntity
  8
0
100
AcDbLine
 10
10.16144739270666
 20
6.78921176106385
 30
0.0
 11
10.16585721070573
 21
6.786799951514874
 31
0.0
  0
LINE
  5
3191
330
1F
100
AcDbEntity
  8
0
100
AcDbLine
 10
10.16585721070573
 20
6.786799951514874
 30
0.0
 11
10.16985820648068
 21
6.78348043921414
 31
0.0
  0
LINE
  5
3192
330
1F
100
AcDbEntity
  8
0
100
AcDbLine
 10
10.16985820648068
 20
6.78348043921414
 30
0.0
 11
10.17317771878142
 21
6.779479443439186
 31
0.0
  0
LINE
  5
3193
330
1F
100
AcDbEntity
  8
0
100
AcDbLine
 10
10.17317771878142
 20
6.779479443439186
 30
0.0
 11
10.17558952833039
 21
6.775069625440118
 31
0.0
  0
LINE
  5
3194
330
1F
100
AcDbEntity
  8
0
100
AcDbLine
 10
10.17558952833039
 20
6.775069625440118
 30
0.0
 11
10.17692927429255
 21
6.770551507026006
 31
0.0
  0
LINE
  5
3195
330
1F
100
AcDbEntity
  8
0
100
AcDbLine
 10
10.17692927429255
 20
6.770551507026006
 30
0.0
 11
10.1771056551946
 21
6.766232990500222
 31
0.0
  0
LINE
  5
3196
330
1F
100
AcDbEntity
  8
0
100
AcDbLine
 10
10.1771056551946
 20
6.766232990500222
 30
0.0
 11
10.17610665096955
 21
6.76240837562732
 31
0.0
  0
LINE
  5
3197
330
1F
100
AcDbEntity
  8
0
100
AcDbLine
 10
10.17610665096955
 20
6.76240837562732
 30
0.0
 11
10.17400034210441
 21
6.759338303590408
 31
0.0
  0
LINE
  5
31D8
330
1F
100
AcDbEntity
  8
0
100
AcDbLine
 10
10.86479341479198
 20
6.058545230902847
 30
0.0
 11
10.86786348682889
 21
6.060651539767985
 31
0.0
  0
LINE
  5
31D9
330
1F
100
AcDbEntity
  8
0
100
AcDbLine
 10
10.86786348682889
 20
6.060651539767985
 30
0.0
 11
10.87168810170179
 21
6.061650543993032
 31
0.0
  0
LINE
  5
31DA
330
1F
100
AcDbEntity
  8
0
100
AcDbLine
 10
10.87168810170179
 20
6.061650543993032
 30
0.0
 11
10.87600661822757
 21
6.061474163090982
 31
0.0
  0
LINE
  5
31DB
330
1F
100
AcDbEntity
  8
0
100
AcDbLine
 10
10.87600661822757
 20
6.061474163090982
 30
0.0
 11
10.88052473664168
 21
6.060134417128827
 31
0.0
  0
LINE
  5
31DC
330
1F
100
AcDbEntity
  8
0
100
AcDbLine
 10
10.88052473664168
 20
6.060134417128827
 30
0.0
 11
10.88493455464075
 21
6.057722607579851
 31
0.0
  0
LINE
  5
31DD
330
1F
100
AcDbEntity
  8
0
100
AcDbLine
 10
10.88493455464075
 20
6.057722607579851
 30
0.0
 11
10.88893555041571
 21
6.054403095279116
 31
0.0
  0
LINE
  5
31DE
330
1F
100
AcDbEntity
  8
0
100
AcDbLine
 10
10.88893555041571
 20
6.054403095279116
 30
0.0
 11
10.89225506271644
 21
6.050402099504164
 31
0.0
  0
LINE
  5
31DF
330
1F
100
AcDbEntity
  8
0
100
AcDbLine
 10
10.89225506271644
 20
6.050402099504164
 30
0.0
 11
10.89466687226542
 21
6.045992281505096
 31
0.0
  0
LINE
  5
31E0
330
1F
100
AcDbEntity
  8
0
100
AcDbLine
 10
10.89466687226542
 20
6.045992281505096
 30
0.0
 11
10.89600661822757
 21
6.041474163090981
 31
0.0
  0
LINE
  5
31E1
330
1F
100
AcDbEntity
  8
0
100
AcDbLine
 10
10.89600661822757
 20
6.041474163090981
 30
0.0
 11
10.89618299912962
 21
6.037155646565199
 31
0.0
  0
LINE
  5
31E2
330
1F
100
AcDbEntity
  8
0
100
AcDbLine
 10
10.89618299912962
 20
6.037155646565199
 30
0.0
 11
10.89518399490458
 21
6.033331031692297
 31
0.0
  0
LINE
  5
31E3
330
1F
100
AcDbEntity
  8
0
100
AcDbLine
 10
10.89518399490458
 20
6.033331031692297
 30
0.0
 11
10.89307768603944
 21
6.030260959655386
 31
0.0
  0
LINE
  5
31E4
330
1F
100
AcDbEntity
  8
0
100
AcDbLine
 10
10.89307768603944
 20
6.030260959655386
 30
0.0
 11
10.89000761400253
 21
6.028154650790246
 31
0.0
  0
LINE
  5
31E5
330
1F
100
AcDbEntity
  8
0
100
AcDbLine
 10
10.89000761400253
 20
6.028154650790246
 30
0.0
 11
10.88618299912963
 21
6.027155646565201
 31
0.0
  0
LINE
  5
31E6
330
1F
100
AcDbEntity
  8
0
100
AcDbLine
 10
10.88618299912963
 20
6.027155646565201
 30
0.0
 11
10.88186448260384
 21
6.027332027467251
 31
0.0
  0
LINE
  5
31E7
330
1F
100
AcDbEntity
  8
0
100
AcDbLine
 10
10.88186448260384
 20
6.027332027467251
 30
0.0
 11
10.87734636418973
 21
6.028671773429404
 31
0.0
  0
LINE
  5
31E8
330
1F
100
AcDbEntity
  8
0
100
AcDbLine
 10
10.87734636418973
 20
6.028671773429404
 30
0.0
 11
10.87293654619066
 21
6.031083582978379
 31
0.0
  0
LINE
  5
31E9
330
1F
100
AcDbEntity
  8
0
100
AcDbLine
 10
10.87293654619066
 20
6.031083582978379
 30
0.0
 11
10.86893555041571
 21
6.034403095279115
 31
0.0
  0
LINE
  5
31EA
330
1F
100
AcDbEntity
  8
0
100
AcDbLine
 10
10.86893555041571
 20
6.034403095279115
 30
0.0
 11
10.86561603811497
 21
6.038404091054068
 31
0.0
  0
LINE
  5
31EB
330
1F
100
AcDbEntity
  8
0
100
AcDbLine
 10
10.86561603811497
 20
6.038404091054068
 30
0.0
 11
10.863204228566
 21
6.042813909053135
 31
0.0
  0
LINE
  5
31EC
330
1F
100
AcDbEntity
  8
0
100
AcDbLine
 10
10.863204228566
 20
6.042813909053135
 30
0.0
 11
10.86186448260384
 21
6.047332027467248
 31
0.0
  0
LINE
  5
31ED
330
1F
100
AcDbEntity
  8
0
100
AcDbLine
 10
10.86186448260384
 20
6.047332027467248
 30
0.0
 11
10.86168810170179
 21
6.051650543993034
 31
0.0
  0
LINE
  5
31EE
330
1F
100
AcDbEntity
  8
0
100
AcDbLine
 10
10.86168810170179
 20
6.051650543993034
 30
0.0
 11
10.86268710592684
 21
6.055475158865935
 31
0.0
  0
LINE
  5
31EF
330
1F
100
AcDbEntity
  8
0
100
AcDbLine
 10
10.86268710592684
 20
6.055475158865935
 30
0.0
 11
10.86479341479198
 21
6.058545230902847
 31
0.0
  0
LINE
  5
31F0
330
1F
100
AcDbEntity
  8
0
100
AcDbLine
 10
10.86979341479198
 20
6.063545230902846
 30
0.0
 11
10.86479341479198
 21
6.058545230902847
 31
0.0
  0
LINE
  5
31F1
330
1F
100
AcDbEntity
  8
0
100
AcDbLine
 10
10.89807768603944
 20
6.035260959655385
 30
0.0
 11
10.89307768603944
 21
6.030260959655386
 31
0.0
  0
LINE
  5
31F2
330
1F
100
AcDbEntity
  8
0
100
AcDbLine
 10
10.14071607085695
 20
6.78262257483787
 30
0.0
 11
10.14378614289386
 21
6.784728883703008
 31
0.0
  0
LINE
  5
31F3
330
1F
100
AcDbEntity
  8
0
100
AcDbLine
 10
10.14378614289386
 20
6.784728883703008
 30
0.0
 11
10.14761075776676
 21
6.785727887928055
 31
0.0
  0
LINE
  5
31F4
330
1F
100
AcDbEntity
  8
0
100
AcDbLine
 10
10.14761075776676
 20
6.785727887928055
 30
0.0
 11
10.15192927429255
 21
6.785551507026005
 31
0.0
  0
LINE
  5
31F5
330
1F
100
AcDbEntity
  8
0
100
AcDbLine
 10
10.15192927429255
 20
6.785551507026005
 30
0.0
 11
10.15644739270666
 21
6.78421176106385
 31
0.0
  0
LINE
  5
31F6
330
1F
100
AcDbEntity
  8
0
100
AcDbLine
 10
10.15644739270666
 20
6.78421176106385
 30
0.0
 11
10.16085721070573
 21
6.781799951514874
 31
0.0
  0
LINE
  5
31F7
330
1F
100
AcDbEntity
  8
0
100
AcDbLine
 10
10.16085721070573
 20
6.781799951514874
 30
0.0
 11
10.16485820648068
 21
6.77848043921414
 31
0.0
  0
LINE
  5
31F8
330
1F
100
AcDbEntity
  8
0
100
AcDbLine
 10
10.16485820648068
 20
6.77848043921414
 30
0.0
 11
10.16817771878142
 21
6.774479443439187
 31
0.0
  0
LINE
  5
31F9
330
1F
100
AcDbEntity
  8
0
100
AcDbLine
 10
10.16817771878142
 20
6.774479443439187
 30
0.0
 11
10.17058952833039
 21
6.770069625440119
 31
0.0
  0
LINE
  5
31FA
330
1F
100
AcDbEntity
  8
0
100
AcDbLine
 10
10.17058952833039
 20
6.770069625440119
 30
0.0
 11
10.17192927429255
 21
6.765551507026005
 31
0.0
  0
LINE
  5
31FB
330
1F
100
AcDbEntity
  8
0
100
AcDbLine
 10
10.17192927429255
 20
6.765551507026005
 30
0.0
 11
10.1721056551946
 21
6.761232990500222
 31
0.0
  0
LINE
  5
31FC
330
1F
100
AcDbEntity
  8
0
100
AcDbLine
 10
10.1721056551946
 20
6.761232990500222
 30
0.0
 11
10.17110665096955
 21
6.75740837562732
 31
0.0
  0
LINE
  5
31FD
330
1F
100
AcDbEntity
  8
0
100
AcDbLine
 10
10.17110665096955
 20
6.75740837562732
 30
0.0
 11
10.16900034210441
 21
6.754338303590408
 31
0.0
  0
LINE
  5
31FE
330
1F
100
AcDbEntity
  8
0
100
AcDbLine
 10
10.16900034210441
 20
6.754338303590408
 30
0.0
 11
10.1659302700675
 21
6.75223199472527
 31
0.0
  0
LINE
  5
31FF
330
1F
100
AcDbEntity
  8
0
100
AcDbLine
 10
10.1659302700675
 20
6.75223199472527
 30
0.0
 11
10.1621056551946
 21
6.751232990500224
 31
0.0
  0
LINE
  5
3200
330
1F
100
AcDbEntity
  8
0
100
AcDbLine
 10
10.1621056551946
 20
6.751232990500224
 30
0.0
 11
10.15778713866882
 21
6.751409371402274
 31
0.0
  0
LINE
  5
3201
330
1F
100
AcDbEntity
  8
0
100
AcDbLine
 10
10.15778713866882
 20
6.751409371402274
 30
0.0
 11
10.1532690202547
 21
6.752749117364427
 31
0.0
  0
LINE
  5
3202
330
1F
100
AcDbEntity
  8
0
100
AcDbLine
 10
10.1532690202547
 20
6.752749117364427
 30
0.0
 11
10.14885920225563
 21
6.755160926913402
 31
0.0
  0
LINE
  5
3203
330
1F
100
AcDbEntity
  8
0
100
AcDbLine
 10
10.14885920225563
 20
6.755160926913402
 30
0.0
 11
10.14485820648068
 21
6.758480439214138
 31
0.0
  0
LINE
  5
3204
330
1F
100
AcDbEntity
  8
0
100
AcDbLine
 10
10.14485820648068
 20
6.758480439214138
 30
0.0
 11
10.14153869417994
 21
6.762481434989091
 31
0.0
  0
LINE
  5
3205
330
1F
100
AcDbEntity
  8
0
100
AcDbLine
 10
10.14153869417994
 20
6.762481434989091
 30
0.0
 11
10.13912688463097
 21
6.766891252988157
 31
0.0
  0
LINE
  5
3206
330
1F
100
AcDbEntity
  8
0
100
AcDbLine
 10
10.13912688463097
 20
6.766891252988157
 30
0.0
 11
10.13778713866881
 21
6.771409371402273
 31
0.0
  0
LINE
  5
3207
330
1F
100
AcDbEntity
  8
0
100
AcDbLine
 10
10.13778713866881
 20
6.771409371402273
 30
0.0
 11
10.13761075776677
 21
6.775727887928057
 31
0.0
  0
LINE
  5
3208
330
1F
100
AcDbEntity
  8
0
100
AcDbLine
 10
10.13761075776677
 20
6.775727887928057
 30
0.0
 11
10.13860976199181
 21
6.779552502800958
 31
0.0
  0
LINE
  5
3209
330
1F
100
AcDbEntity
  8
0
100
AcDbLine
 10
10.13860976199181
 20
6.779552502800958
 30
0.0
 11
10.14071607085695
 21
6.78262257483787
 31
0.0
  0
LINE
  5
320A
330
1F
100
AcDbEntity
  8
0
100
AcDbLine
 10
10.14571607085695
 20
6.787622574837869
 30
0.0
 11
10.14071607085695
 21
6.78262257483787
 31
0.0
  0
LINE
  5
320B
330
1F
100
AcDbEntity
  8
0
100
AcDbLine
 10
10.17400034210441
 20
6.759338303590408
 30
0.0
 11
10.16900034210441
 21
6.754338303590408
 31
0.0
  0
LINE
  5
3216
330
1F
100
AcDbEntity
  8
0
100
AcDbLine
 10
11.68609936304715
 20
6.878887415986242
 30
0.0
 11
11.68310641908567
 21
6.876858235196544
 31
0.0
  0
LINE
  5
3219
330
1F
100
AcDbEntity
  8
0
100
AcDbLine
 10
10.97946940243664
 20
7.565771127094412
 30
0.0
 11
10.98246234639812
 21
7.56780030788411
 31
0.0
  0
LINE
  5
321A
330
1F
100
AcDbEntity
  8
0
100
AcDbLine
 10
10.98246234639812
 20
7.56780030788411
 30
0.0
 11
10.98731334639811
 21
7.572651307884109
 31
0.0
  0
LINE
  5
321B
330
1F
100
AcDbEntity
  8
0
100
AcDbLine
 10
10.98432040243665
 20
7.570622127094412
 30
0.0
 11
10.98731334639811
 21
7.572651307884109
 31
0.0
  0
LINE
  5
321E
330
1F
100
AcDbEntity
  8
0
100
AcDbLine
 10
10.96202201911212
 20
7.602964759921269
 30
0.0
 11
10.95902907515065
 21
7.600935579131571
 31
0.0
  0
LINE
  5
3228
330
1F
100
AcDbEntity
  8
0
100
AcDbLine
 10
11.70295971303822
 20
6.875747765977316
 30
0.0
 11
11.69857966536506
 21
6.878189345852197
 31
0.0
  0
LINE
  5
3229
330
1F
100
AcDbEntity
  8
0
100
AcDbLine
 10
11.71341987112284
 20
6.851566907910553
 30
0.0
 11
11.71434700342332
 21
6.855319650858895
 31
0.0
  0
LINE
  5
3233
330
1F
100
AcDbEntity
  8
0
100
AcDbLine
 10
10.95214889436096
 20
7.593091635170101
 30
0.0
 11
10.95122176206047
 21
7.589338892221757
 31
0.0
  0
LINE
  5
3234
330
1F
100
AcDbEntity
  8
0
100
AcDbLine
 10
10.95699989436096
 20
7.5979426351701
 30
0.0
 11
10.95607276206047
 21
7.594189892221757
 31
0.0
  0
LINE
  5
3235
330
1F
100
AcDbEntity
  8
0
100
AcDbLine
 10
11.67553720471834
 20
6.861004749581741
 30
0.0
 11
11.67692430843002
 21
6.856533988917163
 31
0.0
  0
LINE
  5
3236
330
1F
100
AcDbEntity
  8
0
100
AcDbLine
 10
11.71410890470048
 20
6.859576449563883
 30
0.0
 11
11.71272180098879
 21
6.864047210228465
 31
0.0
  0
LINE
  5
3238
330
1F
100
AcDbEntity
  8
0
100
AcDbLine
 10
11.67825541908567
 20
6.872007235196543
 30
0.0
 11
11.67622623829598
 21
6.869014291235074
 31
0.0
  0
LINE
  5
3239
330
1F
100
AcDbEntity
  8
0
100
AcDbLine
 10
11.7069505547094
 20
6.872418099572813
 30
0.0
 11
11.70295971303822
 21
6.875747765977316
 31
0.0
  0
LINE
  5
323A
330
1F
100
AcDbEntity
  8
0
100
AcDbLine
 10
11.33717916872668
 20
6.429735172753471
 30
0.0
 11
11.33903875510225
 21
6.431594759129048
 31
0.0
  0
LINE
  5
323C
330
1F
100
AcDbEntity
  8
0
100
AcDbLine
 10
10.95631086078331
 20
7.589933093516767
 30
0.0
 11
10.957697964495
 21
7.585462332852189
 31
0.0
  0
LINE
  5
323D
330
1F
100
AcDbEntity
  8
0
100
AcDbLine
 10
11.67692430843002
 20
6.856533988917163
 30
0.0
 11
11.67936588830491
 21
6.852153941244
 31
0.0
  0
LINE
  5
323E
330
1F
100
AcDbEntity
  8
0
100
AcDbLine
 10
11.68177530843002
 20
6.861384988917162
 30
0.0
 11
11.6842168883049
 21
6.857004941244
 31
0.0
  0
LINE
  5
3240
330
1F
100
AcDbEntity
  8
0
100
AcDbLine
 10
10.95528854436988
 20
7.576231285179028
 30
0.0
 11
10.95861821077438
 21
7.57224044350784
 31
0.0
  0
LINE
  5
3241
330
1F
100
AcDbEntity
  8
0
100
AcDbLine
 10
10.96013954436988
 20
7.581082285179027
 30
0.0
 11
10.96346921077438
 21
7.577091443507839
 31
0.0
  0
LINE
  5
3242
330
1F
100
AcDbEntity
  8
0
100
AcDbLine
 10
11.71139069033314
 20
6.848573963949083
 30
0.0
 11
11.71341987112284
 21
6.851566907910553
 31
0.0
  0
LINE
  5
3243
330
1F
100
AcDbEntity
  8
0
100
AcDbLine
 10
11.70653969033313
 20
6.843722963949083
 30
0.0
 11
11.71139069033314
 21
6.848573963949083
 31
0.0
  0
LINE
  5
3249
330
1F
100
AcDbEntity
  8
0
100
AcDbLine
 10
10.95122176206047
 20
7.589338892221757
 30
0.0
 11
10.95145986078331
 21
7.585082093516768
 31
0.0
  0
LINE
  5
324B
330
1F
100
AcDbEntity
  8
0
100
AcDbLine
 10
10.95145986078331
 20
7.585082093516768
 30
0.0
 11
10.952846964495
 21
7.580611332852189
 31
0.0
  0
LINE
  5
324C
330
1F
100
AcDbEntity
  8
0
100
AcDbLine
 10
10.9902696594883
 20
7.579396994793923
 30
0.0
 11
10.99003156076546
 21
7.583653793498911
 31
0.0
  0
LINE
  5
324D
330
1F
100
AcDbEntity
  8
0
100
AcDbLine
 10
10.98864445705377
 20
7.588124554163494
 30
0.0
 11
10.98620287717889
 21
7.592504601836655
 31
0.0
  0
LINE
  5
324E
330
1F
100
AcDbEntity
  8
0
100
AcDbLine
 10
10.9757166594883
 20
7.564843994793925
 30
0.0
 11
10.97946940243664
 21
7.565771127094412
 31
0.0
  0
LINE
  5
324F
330
1F
100
AcDbEntity
  8
0
100
AcDbLine
 10
10.97003156076545
 20
7.603653793498914
 30
0.0
 11
10.96577476206047
 21
7.603891892221755
 31
0.0
  0
LINE
  5
3251
330
1F
100
AcDbEntity
  8
0
100
AcDbLine
 10
10.952846964495
 20
7.580611332852189
 30
0.0
 11
10.95528854436988
 21
7.576231285179028
 31
0.0
  0
LINE
  5
3252
330
1F
100
AcDbEntity
  8
0
100
AcDbLine
 10
10.96698910011873
 20
7.566469197228459
 30
0.0
 11
10.97145986078331
 21
7.565082093516767
 31
0.0
  0
LINE
  5
3253
330
1F
100
AcDbEntity
  8
0
100
AcDbLine
 10
10.97184010011873
 20
7.571320197228459
 30
0.0
 11
10.97631086078331
 21
7.569933093516767
 31
0.0
  0
LINE
  5
3255
330
1F
100
AcDbEntity
  8
0
100
AcDbLine
 10
11.70354674637167
 20
6.841693783159386
 30
0.0
 11
11.70653969033313
 21
6.843722963949083
 31
0.0
  0
LINE
  5
3258
330
1F
100
AcDbEntity
  8
0
100
AcDbLine
 10
10.95417807515065
 20
7.596084579131573
 30
0.0
 11
10.95214889436096
 21
7.593091635170101
 31
0.0
  0
LINE
  5
325B
330
1F
100
AcDbEntity
  8
0
100
AcDbLine
 10
11.68038820471833
 20
6.865855749581742
 30
0.0
 11
11.68177530843002
 21
6.861384988917162
 31
0.0
  0
LINE
  5
325D
330
1F
100
AcDbEntity
  8
0
100
AcDbLine
 10
10.95417807515065
 20
7.596084579131573
 30
0.0
 11
10.95902907515065
 21
7.600935579131571
 31
0.0
  0
LINE
  5
325F
330
1F
100
AcDbEntity
  8
0
100
AcDbLine
 10
11.69979400342332
 20
6.840766650858897
 30
0.0
 11
11.70354674637167
 21
6.841693783159386
 31
0.0
  0
LINE
  5
3260
330
1F
100
AcDbEntity
  8
0
100
AcDbLine
 10
11.68310641908567
 20
6.876858235196544
 30
0.0
 11
11.68107723829598
 21
6.873865291235074
 31
0.0
  0
LINE
  5
3261
330
1F
100
AcDbEntity
  8
0
100
AcDbLine
 10
11.67825541908567
 20
6.872007235196543
 30
0.0
 11
11.68310641908567
 21
6.876858235196544
 31
0.0
  0
LINE
  5
3262
330
1F
100
AcDbEntity
  8
0
100
AcDbLine
 10
10.98731334639811
 20
7.572651307884109
 30
0.0
 11
10.98934252718781
 21
7.575644251845581
 31
0.0
  0
LINE
  5
3263
330
1F
100
AcDbEntity
  8
0
100
AcDbLine
 10
11.67622623829598
 20
6.869014291235074
 30
0.0
 11
11.67529910599549
 21
6.86526154828673
 31
0.0
  0
LINE
  5
3266
330
1F
100
AcDbEntity
  8
0
100
AcDbLine
 10
11.69857966536506
 20
6.878189345852197
 30
0.0
 11
11.69410890470048
 21
6.879576449563888
 31
0.0
  0
LINE
  5
3267
330
1F
100
AcDbEntity
  8
0
100
AcDbLine
 10
10.957697964495
 20
7.585462332852189
 30
0.0
 11
10.96013954436988
 21
7.581082285179027
 31
0.0
  0
LINE
  5
3268
330
1F
100
AcDbEntity
  8
0
100
AcDbLine
 10
11.71434700342332
 20
6.855319650858895
 30
0.0
 11
11.71410890470048
 21
6.859576449563883
 31
0.0
  0
LINE
  5
326E
330
1F
100
AcDbEntity
  8
0
100
AcDbLine
 10
11.69553720471833
 20
6.841004749581742
 30
0.0
 11
11.69979400342332
 21
6.840766650858897
 31
0.0
  0
LINE
  5
326F
330
1F
100
AcDbEntity
  8
0
100
AcDbLine
 10
11.69106644405375
 20
6.842391853293433
 30
0.0
 11
11.69553720471833
 21
6.841004749581742
 31
0.0
  0
LINE
  5
3270
330
1F
100
AcDbEntity
  8
0
100
AcDbLine
 10
11.68668639638059
 20
6.844833433168313
 30
0.0
 11
11.69106644405375
 21
6.842391853293433
 31
0.0
  0
LINE
  5
3271
330
1F
100
AcDbEntity
  8
0
100
AcDbLine
 10
11.68269555470941
 20
6.848163099572813
 30
0.0
 11
11.68668639638059
 21
6.844833433168313
 31
0.0
  0
LINE
  5
3272
330
1F
100
AcDbEntity
  8
0
100
AcDbLine
 10
11.67936588830491
 20
6.852153941244
 30
0.0
 11
11.68269555470941
 21
6.848163099572813
 31
0.0
  0
LINE
  5
3273
330
1F
100
AcDbEntity
  8
0
100
AcDbLine
 10
11.67529910599549
 20
6.86526154828673
 30
0.0
 11
11.67553720471834
 21
6.861004749581741
 31
0.0
  0
LINE
  5
3274
330
1F
100
AcDbEntity
  8
0
100
AcDbLine
 10
10.97145986078331
 20
7.565082093516767
 30
0.0
 11
10.9757166594883
 21
7.564843994793925
 31
0.0
  0
LINE
  5
3275
330
1F
100
AcDbEntity
  8
0
100
AcDbLine
 10
10.96260905244557
 20
7.56891077710334
 30
0.0
 11
10.96698910011873
 21
7.566469197228459
 31
0.0
  0
LINE
  5
3276
330
1F
100
AcDbEntity
  8
0
100
AcDbLine
 10
10.95861821077438
 20
7.57224044350784
 30
0.0
 11
10.96260905244557
 21
7.56891077710334
 31
0.0
  0
LINE
  5
327C
330
1F
100
AcDbEntity
  8
0
100
AcDbLine
 10
11.71272180098879
 20
6.864047210228465
 30
0.0
 11
11.71028022111391
 21
6.868427257901628
 31
0.0
  0
LINE
  5
327D
330
1F
100
AcDbEntity
  8
0
100
AcDbLine
 10
10.98934252718781
 20
7.575644251845581
 30
0.0
 11
10.9902696594883
 21
7.579396994793923
 31
0.0
  0
LINE
  5
327F
330
1F
100
AcDbEntity
  8
0
100
AcDbLine
 10
10.96577476206047
 20
7.603891892221755
 30
0.0
 11
10.96202201911212
 21
7.602964759921269
 31
0.0
  0
LINE
  5
3280
330
1F
100
AcDbEntity
  8
0
100
AcDbLine
 10
11.68015010599549
 20
6.87011254828673
 30
0.0
 11
11.68038820471833
 21
6.865855749581742
 31
0.0
  0
LINE
  5
3281
330
1F
100
AcDbEntity
  8
0
100
AcDbLine
 10
10.97631086078331
 20
7.569933093516767
 30
0.0
 11
10.9805676594883
 21
7.569694994793925
 31
0.0
  0
LINE
  5
3282
330
1F
100
AcDbEntity
  8
0
100
AcDbLine
 10
10.95902907515065
 20
7.600935579131571
 30
0.0
 11
10.95699989436096
 21
7.5979426351701
 31
0.0
  0
LINE
  5
3283
330
1F
100
AcDbEntity
  8
0
100
AcDbLine
 10
10.95607276206047
 20
7.594189892221757
 30
0.0
 11
10.95631086078331
 21
7.589933093516767
 31
0.0
  0
LINE
  5
3284
330
1F
100
AcDbEntity
  8
0
100
AcDbLine
 10
10.96346921077438
 20
7.577091443507839
 30
0.0
 11
10.96746005244557
 21
7.57376177710334
 31
0.0
  0
LINE
  5
3285
330
1F
100
AcDbEntity
  8
0
100
AcDbLine
 10
10.96746005244557
 20
7.57376177710334
 30
0.0
 11
10.97184010011873
 21
7.571320197228459
 31
0.0
  0
LINE
  5
3286
330
1F
100
AcDbEntity
  8
0
100
AcDbLine
 10
10.9805676594883
 20
7.569694994793925
 30
0.0
 11
10.98432040243665
 21
7.570622127094412
 31
0.0
  0
LINE
  5
3287
330
1F
100
AcDbEntity
  8
0
100
AcDbLine
 10
10.99003156076546
 20
7.583653793498911
 30
0.0
 11
10.98864445705377
 21
7.588124554163494
 31
0.0
  0
LINE
  5
3288
330
1F
100
AcDbEntity
  8
0
100
AcDbLine
 10
10.98620287717889
 20
7.592504601836655
 30
0.0
 11
10.98287321077438
 21
7.596495443507842
 31
0.0
  0
LINE
  5
3289
330
1F
100
AcDbEntity
  8
0
100
AcDbLine
 10
10.98287321077438
 20
7.596495443507842
 30
0.0
 11
10.9788823691032
 21
7.599825109912343
 31
0.0
  0
LINE
  5
328A
330
1F
100
AcDbEntity
  8
0
100
AcDbLine
 10
10.9788823691032
 20
7.599825109912343
 30
0.0
 11
10.97450232143004
 21
7.602266689787223
 31
0.0
  0
LINE
  5
328B
330
1F
100
AcDbEntity
  8
0
100
AcDbLine
 10
10.97450232143004
 20
7.602266689787223
 30
0.0
 11
10.97003156076545
 21
7.603653793498914
 31
0.0
  0
LINE
  5
328F
330
1F
100
AcDbEntity
  8
0
100
AcDbLine
 10
11.68107723829598
 20
6.873865291235074
 30
0.0
 11
11.68015010599549
 21
6.87011254828673
 31
0.0
  0
LINE
  5
3290
330
1F
100
AcDbEntity
  8
0
100
AcDbLine
 10
11.6842168883049
 20
6.857004941244
 30
0.0
 11
11.6875465547094
 21
6.853014099572813
 31
0.0
  0
LINE
  5
3291
330
1F
100
AcDbEntity
  8
0
100
AcDbLine
 10
11.6875465547094
 20
6.853014099572813
 30
0.0
 11
11.69153739638059
 21
6.849684433168313
 31
0.0
  0
LINE
  5
3292
330
1F
100
AcDbEntity
  8
0
100
AcDbLine
 10
11.69153739638059
 20
6.849684433168313
 30
0.0
 11
11.69591744405375
 21
6.847242853293432
 31
0.0
  0
LINE
  5
3293
330
1F
100
AcDbEntity
  8
0
100
AcDbLine
 10
11.69591744405375
 20
6.847242853293432
 30
0.0
 11
11.70038820471833
 21
6.845855749581742
 31
0.0
  0
LINE
  5
3294
330
1F
100
AcDbEntity
  8
0
100
AcDbLine
 10
11.70038820471833
 20
6.845855749581742
 30
0.0
 11
11.70464500342332
 21
6.845617650858899
 31
0.0
  0
LINE
  5
3295
330
1F
100
AcDbEntity
  8
0
100
AcDbLine
 10
11.70464500342332
 20
6.845617650858899
 30
0.0
 11
11.70839774637166
 21
6.846544783159385
 31
0.0
  0
LINE
  5
3296
330
1F
100
AcDbEntity
  8
0
100
AcDbLine
 10
11.70839774637166
 20
6.846544783159385
 30
0.0
 11
11.71139069033314
 21
6.848573963949083
 31
0.0
  0
LINE
  5
3297
330
1F
100
AcDbEntity
  8
0
100
AcDbLine
 10
11.71028022111391
 20
6.868427257901628
 30
0.0
 11
11.7069505547094
 21
6.872418099572813
 31
0.0
  0
LINE
  5
3298
330
1F
100
AcDbEntity
  8
0
100
AcDbLine
 10
11.69410890470048
 20
6.879576449563888
 30
0.0
 11
11.68985210599549
 21
6.879814548286727
 31
0.0
  0
LINE
  5
3299
330
1F
100
AcDbEntity
  8
0
100
AcDbLine
 10
11.68985210599549
 20
6.879814548286727
 30
0.0
 11
11.68609936304715
 21
6.878887415986242
 31
0.0
  0
LINE
  5
32AA
330
1F
100
AcDbEntity
  8
0
100
AcDbLine
 10
11.18316305581733
 20
8.212808573063302
 30
0.0
 11
11.18316305581733
 21
7.510316347470088
 31
0.0
  0
LINE
  5
32AB
330
1F
100
AcDbEntity
  8
0
100
AcDbLine
 10
10.99752305581733
 20
7.593749277413973
 30
0.0
 11
10.99752305581733
 21
8.212808573063302
 31
0.0
  0
LINE
  5
32AD
330
1F
100
AcDbEntity
  8
0
100
AcDbLine
 10
11.41345177163876
 20
8.246489866921292
 30
0.0
 11
11.41345177163876
 21
9.386489866921293
 31
0.0
  0
LINE
  5
32AE
330
1F
100
AcDbEntity
  8
0
100
AcDbLine
 10
10.82820109772895
 20
9.415033637924196
 30
0.0
 11
11.96820109772895
 21
9.415033637924196
 31
0.0
  0
LINE
  5
32AF
330
1F
100
AcDbEntity
  8
0
100
AcDbLine
 10
11.45226643552538
 20
8.316090317121402
 30
0.0
 11
11.44871525705786
 21
8.315408833647181
 31
0.0
  0
LINE
  5
32B0
330
1F
100
AcDbEntity
  8
0
100
AcDbLine
 10
11.44871525705786
 20
8.315408833647181
 30
0.0
 11
11.44540608553431
 21
8.31341082519709
 31
0.0
  0
LINE
  5
32B1
330
1F
100
AcDbEntity
  8
0
100
AcDbLine
 10
11.44540608553431
 20
8.31341082519709
 30
0.0
 11
11.44256443552538
 21
8.310232452745131
 31
0.0
  0
LINE
  5
32B2
330
1F
100
AcDbEntity
  8
0
100
AcDbLine
 10
11.44256443552538
 20
8.310232452745131
 30
0.0
 11
11.44038396078314
 21
8.3060903171214
 31
0.0
  0
LINE
  5
32B3
330
1F
100
AcDbEntity
  8
0
100
AcDbLine
 10
11.44038396078314
 20
8.3060903171214
 30
0.0
 11
11.43901325705786
 21
8.301266698023452
 31
0.0
  0
LINE
  5
32B4
330
1F
100
AcDbEntity
  8
0
100
AcDbLine
 10
11.43901325705786
 20
8.301266698023452
 30
0.0
 11
11.43854573554324
 21
8.296090317121402
 31
0.0
  0
LINE
  5
32B5
330
1F
100
AcDbEntity
  8
0
100
AcDbLine
 10
11.43854573554324
 20
8.296090317121402
 30
0.0
 11
11.43901325705786
 21
8.290913936219352
 31
0.0
  0
LINE
  5
32B6
330
1F
100
AcDbEntity
  8
0
100
AcDbLine
 10
11.43901325705786
 20
8.290913936219352
 30
0.0
 11
11.44038396078314
 21
8.2860903171214
 31
0.0
  0
LINE
  5
32B7
330
1F
100
AcDbEntity
  8
0
100
AcDbLine
 10
11.44038396078314
 20
8.2860903171214
 30
0.0
 11
11.44256443552538
 21
8.28194818149767
 31
0.0
  0
LINE
  5
32B8
330
1F
100
AcDbEntity
  8
0
100
AcDbLine
 10
11.44256443552538
 20
8.28194818149767
 30
0.0
 11
11.44540608553431
 21
8.27876980904571
 31
0.0
  0
LINE
  5
32B9
330
1F
100
AcDbEntity
  8
0
100
AcDbLine
 10
11.44540608553431
 20
8.27876980904571
 30
0.0
 11
11.44871525705786
 21
8.27677180059562
 31
0.0
  0
LINE
  5
32BA
330
1F
100
AcDbEntity
  8
0
100
AcDbLine
 10
11.44871525705786
 20
8.27677180059562
 30
0.0
 11
11.45226643552538
 21
8.276090317121402
 31
0.0
  0
LINE
  5
32BB
330
1F
100
AcDbEntity
  8
0
100
AcDbLine
 10
11.89664485277662
 20
9.386035415845018
 30
0.0
 11
11.89732633625084
 21
9.382484237377502
 31
0.0
  0
LINE
  5
32BC
330
1F
100
AcDbEntity
  8
0
100
AcDbLine
 10
11.90250271715289
 20
9.376333415845017
 30
0.0
 11
11.90664485277662
 21
9.374152941102778
 31
0.0
  0
LINE
  5
32BD
330
1F
100
AcDbEntity
  8
0
100
AcDbLine
 10
11.9359633693024
 20
9.382484237377502
 30
0.0
 11
11.93664485277662
 21
9.386035415845018
 31
0.0
  0
LINE
  5
32BE
330
1F
100
AcDbEntity
  8
0
100
AcDbLine
 10
11.89732633625084
 20
9.382484237377502
 30
0.0
 11
11.89932434470093
 21
9.379175065853948
 31
0.0
  0
LINE
  5
32BF
330
1F
100
AcDbEntity
  8
0
100
AcDbLine
 10
11.89932434470093
 20
9.379175065853948
 30
0.0
 11
11.90250271715289
 21
9.376333415845017
 31
0.0
  0
LINE
  5
32C0
330
1F
100
AcDbEntity
  8
0
100
AcDbLine
 10
11.90664485277662
 20
9.374152941102778
 30
0.0
 11
11.91146847187457
 21
9.372782237377501
 31
0.0
  0
LINE
  5
32C1
330
1F
100
AcDbEntity
  8
0
100
AcDbLine
 10
11.91146847187457
 20
9.372782237377501
 30
0.0
 11
11.91664485277662
 21
9.372314715862874
 31
0.0
  0
LINE
  5
32C2
330
1F
100
AcDbEntity
  8
0
100
AcDbLine
 10
11.91664485277662
 20
9.372314715862874
 30
0.0
 11
11.92182123367867
 21
9.372782237377501
 31
0.0
  0
LINE
  5
32C3
330
1F
100
AcDbEntity
  8
0
100
AcDbLine
 10
11.92182123367867
 20
9.372782237377501
 30
0.0
 11
11.92664485277662
 21
9.374152941102778
 31
0.0
  0
LINE
  5
32C4
330
1F
100
AcDbEntity
  8
0
100
AcDbLine
 10
11.92664485277662
 20
9.374152941102778
 30
0.0
 11
11.93078698840035
 21
9.376333415845017
 31
0.0
  0
LINE
  5
32C5
330
1F
100
AcDbEntity
  8
0
100
AcDbLine
 10
11.93078698840035
 20
9.376333415845017
 30
0.0
 11
11.93396536085231
 21
9.379175065853946
 31
0.0
  0
LINE
  5
32C6
330
1F
100
AcDbEntity
  8
0
100
AcDbLine
 10
11.93396536085231
 20
9.379175065853946
 30
0.0
 11
11.9359633693024
 21
9.382484237377502
 31
0.0
  0
LINE
  5
32C7
330
1F
100
AcDbEntity
  8
0
100
AcDbLine
 10
10.87264485277662
 20
9.386035415845022
 30
0.0
 11
10.87332633625084
 21
9.382484237377507
 31
0.0
  0
LINE
  5
32C8
330
1F
100
AcDbEntity
  8
0
100
AcDbLine
 10
10.87332633625084
 20
9.382484237377507
 30
0.0
 11
10.87532434470093
 21
9.379175065853951
 31
0.0
  0
LINE
  5
32C9
330
1F
100
AcDbEntity
  8
0
100
AcDbLine
 10
10.87532434470093
 20
9.379175065853951
 30
0.0
 11
10.87850271715289
 21
9.376333415845021
 31
0.0
  0
LINE
  5
32CA
330
1F
100
AcDbEntity
  8
0
100
AcDbLine
 10
10.87850271715289
 20
9.376333415845021
 30
0.0
 11
10.88264485277662
 21
9.374152941102781
 31
0.0
  0
LINE
  5
32CB
330
1F
100
AcDbEntity
  8
0
100
AcDbLine
 10
10.88264485277662
 20
9.374152941102781
 30
0.0
 11
10.88746847187457
 21
9.372782237377505
 31
0.0
  0
LINE
  5
32CC
330
1F
100
AcDbEntity
  8
0
100
AcDbLine
 10
10.88746847187457
 20
9.372782237377505
 30
0.0
 11
10.89264485277662
 21
9.372314715862877
 31
0.0
  0
LINE
  5
32CD
330
1F
100
AcDbEntity
  8
0
100
AcDbLine
 10
10.89264485277662
 20
9.372314715862877
 30
0.0
 11
10.89782123367867
 21
9.372782237377506
 31
0.0
  0
LINE
  5
32CE
330
1F
100
AcDbEntity
  8
0
100
AcDbLine
 10
10.89782123367867
 20
9.372782237377506
 30
0.0
 11
10.90264485277662
 21
9.374152941102781
 31
0.0
  0
LINE
  5
32CF
330
1F
100
AcDbEntity
  8
0
100
AcDbLine
 10
10.90264485277662
 20
9.374152941102781
 30
0.0
 11
10.90678698840035
 21
9.376333415845021
 31
0.0
  0
LINE
  5
32D0
330
1F
100
AcDbEntity
  8
0
100
AcDbLine
 10
10.90678698840035
 20
9.376333415845021
 30
0.0
 11
10.90996536085231
 21
9.379175065853949
 31
0.0
  0
LINE
  5
32D1
330
1F
100
AcDbEntity
  8
0
100
AcDbLine
 10
10.90996536085231
 20
9.379175065853949
 30
0.0
 11
10.9119633693024
 21
9.382484237377505
 31
0.0
  0
LINE
  5
32D2
330
1F
100
AcDbEntity
  8
0
100
AcDbLine
 10
10.9119633693024
 20
9.382484237377505
 30
0.0
 11
10.91264485277662
 21
9.386035415845022
 31
0.0
  0
LINE
  5
32D3
330
1F
100
AcDbEntity
  8
0
100
AcDbLine
 10
11.45226643552538
 20
9.354090317121402
 30
0.0
 11
11.44871525705787
 21
9.353408833647185
 31
0.0
  0
LINE
  5
32D4
330
1F
100
AcDbEntity
  8
0
100
AcDbLine
 10
11.44871525705787
 20
9.353408833647185
 30
0.0
 11
11.44540608553431
 21
9.35141082519709
 31
0.0
  0
LINE
  5
32D5
330
1F
100
AcDbEntity
  8
0
100
AcDbLine
 10
11.44540608553431
 20
9.35141082519709
 30
0.0
 11
11.44256443552538
 21
9.348232452745135
 31
0.0
  0
LINE
  5
32D6
330
1F
100
AcDbEntity
  8
0
100
AcDbLine
 10
11.44256443552538
 20
9.348232452745135
 30
0.0
 11
11.44038396078314
 21
9.344090317121404
 31
0.0
  0
LINE
  5
32D7
330
1F
100
AcDbEntity
  8
0
100
AcDbLine
 10
11.44038396078314
 20
9.344090317121404
 30
0.0
 11
11.43901325705787
 21
9.339266698023452
 31
0.0
  0
LINE
  5
32D8
330
1F
100
AcDbEntity
  8
0
100
AcDbLine
 10
11.43901325705787
 20
9.339266698023452
 30
0.0
 11
11.43854573554324
 21
9.334090317121402
 31
0.0
  0
LINE
  5
32D9
330
1F
100
AcDbEntity
  8
0
100
AcDbLine
 10
11.43854573554324
 20
9.334090317121402
 30
0.0
 11
11.43901325705787
 21
9.328913936219352
 31
0.0
  0
LINE
  5
32DA
330
1F
100
AcDbEntity
  8
0
100
AcDbLine
 10
11.43901325705787
 20
9.328913936219352
 30
0.0
 11
11.44038396078314
 21
9.324090317121404
 31
0.0
  0
LINE
  5
32DB
330
1F
100
AcDbEntity
  8
0
100
AcDbLine
 10
11.44038396078314
 20
9.324090317121404
 30
0.0
 11
11.44256443552538
 21
9.31994818149767
 31
0.0
  0
LINE
  5
32DC
330
1F
100
AcDbEntity
  8
0
100
AcDbLine
 10
11.44256443552538
 20
9.31994818149767
 30
0.0
 11
11.44540608553431
 21
9.316769809045714
 31
0.0
  0
LINE
  5
32DD
330
1F
100
AcDbEntity
  8
0
100
AcDbLine
 10
11.44540608553431
 20
9.316769809045714
 30
0.0
 11
11.44871525705787
 21
9.31477180059562
 31
0.0
  0
LINE
  5
32DE
330
1F
100
AcDbEntity
  8
0
100
AcDbLine
 10
11.44871525705787
 20
9.31477180059562
 30
0.0
 11
11.45226643552538
 21
9.314090317121403
 31
0.0
  0
LINE
  5
32DF
330
1F
100
AcDbEntity
  8
0
100
AcDbLine
 10
11.45912678551645
 20
9.354090317121402
 30
0.0
 11
11.45557560704894
 21
9.353408833647185
 31
0.0
  0
LINE
  5
32E0
330
1F
100
AcDbEntity
  8
0
100
AcDbLine
 10
11.45557560704894
 20
9.353408833647185
 30
0.0
 11
11.45226643552538
 21
9.35141082519709
 31
0.0
  0
LINE
  5
32E1
330
1F
100
AcDbEntity
  8
0
100
AcDbLine
 10
11.45226643552538
 20
9.35141082519709
 30
0.0
 11
11.44942478551645
 21
9.348232452745135
 31
0.0
  0
LINE
  5
32E2
330
1F
100
AcDbEntity
  8
0
100
AcDbLine
 10
11.44942478551645
 20
9.348232452745135
 30
0.0
 11
11.44724431077421
 21
9.344090317121404
 31
0.0
  0
LINE
  5
32E3
330
1F
100
AcDbEntity
  8
0
100
AcDbLine
 10
11.44724431077421
 20
9.344090317121404
 30
0.0
 11
11.44587360704893
 21
9.339266698023452
 31
0.0
  0
LINE
  5
32E4
330
1F
100
AcDbEntity
  8
0
100
AcDbLine
 10
11.44587360704893
 20
9.339266698023452
 30
0.0
 11
11.44540608553431
 21
9.334090317121402
 31
0.0
  0
LINE
  5
32E5
330
1F
100
AcDbEntity
  8
0
100
AcDbLine
 10
11.44540608553431
 20
9.334090317121402
 30
0.0
 11
11.44587360704893
 21
9.328913936219352
 31
0.0
  0
LINE
  5
32E6
330
1F
100
AcDbEntity
  8
0
100
AcDbLine
 10
11.44587360704893
 20
9.328913936219352
 30
0.0
 11
11.44724431077421
 21
9.324090317121404
 31
0.0
  0
LINE
  5
32E7
330
1F
100
AcDbEntity
  8
0
100
AcDbLine
 10
11.44724431077421
 20
9.324090317121404
 30
0.0
 11
11.44942478551645
 21
9.31994818149767
 31
0.0
  0
LINE
  5
32E8
330
1F
100
AcDbEntity
  8
0
100
AcDbLine
 10
11.44942478551645
 20
9.31994818149767
 30
0.0
 11
11.45226643552538
 21
9.316769809045714
 31
0.0
  0
LINE
  5
32E9
330
1F
100
AcDbEntity
  8
0
100
AcDbLine
 10
11.45226643552538
 20
9.316769809045714
 30
0.0
 11
11.45557560704894
 21
9.31477180059562
 31
0.0
  0
LINE
  5
32EA
330
1F
100
AcDbEntity
  8
0
100
AcDbLine
 10
11.45557560704894
 20
9.31477180059562
 30
0.0
 11
11.45912678551645
 21
9.314090317121403
 31
0.0
  0
LINE
  5
32EB
330
1F
100
AcDbEntity
  8
0
100
AcDbLine
 10
11.45912678551645
 20
9.314090317121403
 30
0.0
 11
11.46267796398397
 21
9.31477180059562
 31
0.0
  0
LINE
  5
32EC
330
1F
100
AcDbEntity
  8
0
100
AcDbLine
 10
11.46267796398397
 20
9.31477180059562
 30
0.0
 11
11.46598713550752
 21
9.316769809045714
 31
0.0
  0
LINE
  5
32ED
330
1F
100
AcDbEntity
  8
0
100
AcDbLine
 10
11.46598713550752
 20
9.316769809045714
 30
0.0
 11
11.46882878551645
 21
9.31994818149767
 31
0.0
  0
LINE
  5
32EE
330
1F
100
AcDbEntity
  8
0
100
AcDbLine
 10
11.46882878551645
 20
9.31994818149767
 30
0.0
 11
11.47100926025869
 21
9.324090317121401
 31
0.0
  0
LINE
  5
32EF
330
1F
100
AcDbEntity
  8
0
100
AcDbLine
 10
11.47100926025869
 20
9.324090317121401
 30
0.0
 11
11.47237996398397
 21
9.328913936219352
 31
0.0
  0
LINE
  5
32F0
330
1F
100
AcDbEntity
  8
0
100
AcDbLine
 10
11.47237996398397
 20
9.328913936219352
 30
0.0
 11
11.4728474854986
 21
9.334090317121402
 31
0.0
  0
LINE
  5
32F1
330
1F
100
AcDbEntity
  8
0
100
AcDbLine
 10
11.4728474854986
 20
9.334090317121402
 30
0.0
 11
11.47237996398398
 21
9.339266698023452
 31
0.0
  0
LINE
  5
32F2
330
1F
100
AcDbEntity
  8
0
100
AcDbLine
 10
11.47237996398398
 20
9.339266698023452
 30
0.0
 11
11.47100926025869
 21
9.3440903171214
 31
0.0
  0
LINE
  5
32F3
330
1F
100
AcDbEntity
  8
0
100
AcDbLine
 10
11.47100926025869
 20
9.3440903171214
 30
0.0
 11
11.46882878551646
 21
9.348232452745135
 31
0.0
  0
LINE
  5
32F4
330
1F
100
AcDbEntity
  8
0
100
AcDbLine
 10
11.46882878551646
 20
9.348232452745135
 30
0.0
 11
11.46598713550752
 21
9.35141082519709
 31
0.0
  0
LINE
  5
32F5
330
1F
100
AcDbEntity
  8
0
100
AcDbLine
 10
11.46598713550752
 20
9.35141082519709
 30
0.0
 11
11.46267796398397
 21
9.353408833647185
 31
0.0
  0
LINE
  5
32F6
330
1F
100
AcDbEntity
  8
0
100
AcDbLine
 10
11.46267796398397
 20
9.353408833647185
 30
0.0
 11
11.45912678551645
 21
9.354090317121402
 31
0.0
  0
LINE
  5
32F7
330
1F
100
AcDbEntity
  8
0
100
AcDbLine
 10
11.45226643552538
 20
9.354090317121402
 30
0.0
 11
11.45912678551645
 21
9.354090317121402
 31
0.0
  0
LINE
  5
32F8
330
1F
100
AcDbEntity
  8
0
100
AcDbLine
 10
11.45226643552538
 20
9.314090317121403
 30
0.0
 11
11.45912678551645
 21
9.314090317121403
 31
0.0
  0
LINE
  5
32F9
330
1F
100
AcDbEntity
  8
0
100
AcDbLine
 10
11.45912678551645
 20
8.316090317121402
 30
0.0
 11
11.45557560704893
 21
8.315408833647181
 31
0.0
  0
LINE
  5
32FA
330
1F
100
AcDbEntity
  8
0
100
AcDbLine
 10
11.45557560704893
 20
8.315408833647181
 30
0.0
 11
11.45226643552538
 21
8.31341082519709
 31
0.0
  0
LINE
  5
32FB
330
1F
100
AcDbEntity
  8
0
100
AcDbLine
 10
11.45226643552538
 20
8.31341082519709
 30
0.0
 11
11.44942478551645
 21
8.310232452745131
 31
0.0
  0
LINE
  5
32FC
330
1F
100
AcDbEntity
  8
0
100
AcDbLine
 10
11.44942478551645
 20
8.310232452745131
 30
0.0
 11
11.44724431077421
 21
8.3060903171214
 31
0.0
  0
LINE
  5
32FD
330
1F
100
AcDbEntity
  8
0
100
AcDbLine
 10
11.44724431077421
 20
8.3060903171214
 30
0.0
 11
11.44587360704893
 21
8.301266698023452
 31
0.0
  0
LINE
  5
32FE
330
1F
100
AcDbEntity
  8
0
100
AcDbLine
 10
11.44587360704893
 20
8.301266698023452
 30
0.0
 11
11.44540608553431
 21
8.296090317121402
 31
0.0
  0
LINE
  5
32FF
330
1F
100
AcDbEntity
  8
0
100
AcDbLine
 10
11.44540608553431
 20
8.296090317121402
 30
0.0
 11
11.44587360704893
 21
8.290913936219352
 31
0.0
  0
LINE
  5
3300
330
1F
100
AcDbEntity
  8
0
100
AcDbLine
 10
11.44587360704893
 20
8.290913936219352
 30
0.0
 11
11.44724431077421
 21
8.2860903171214
 31
0.0
  0
LINE
  5
3301
330
1F
100
AcDbEntity
  8
0
100
AcDbLine
 10
11.44724431077421
 20
8.2860903171214
 30
0.0
 11
11.44942478551645
 21
8.28194818149767
 31
0.0
  0
LINE
  5
3302
330
1F
100
AcDbEntity
  8
0
100
AcDbLine
 10
11.44942478551645
 20
8.28194818149767
 30
0.0
 11
11.45226643552538
 21
8.27876980904571
 31
0.0
  0
LINE
  5
3303
330
1F
100
AcDbEntity
  8
0
100
AcDbLine
 10
11.45226643552538
 20
8.27876980904571
 30
0.0
 11
11.45557560704894
 21
8.27677180059562
 31
0.0
  0
LINE
  5
3304
330
1F
100
AcDbEntity
  8
0
100
AcDbLine
 10
11.45557560704894
 20
8.27677180059562
 30
0.0
 11
11.45912678551645
 21
8.276090317121402
 31
0.0
  0
LINE
  5
3305
330
1F
100
AcDbEntity
  8
0
100
AcDbLine
 10
11.45912678551645
 20
8.276090317121402
 30
0.0
 11
11.46267796398397
 21
8.27677180059562
 31
0.0
  0
LINE
  5
3306
330
1F
100
AcDbEntity
  8
0
100
AcDbLine
 10
11.46267796398397
 20
8.27677180059562
 30
0.0
 11
11.46598713550752
 21
8.278769809045714
 31
0.0
  0
LINE
  5
3307
330
1F
100
AcDbEntity
  8
0
100
AcDbLine
 10
11.46598713550752
 20
8.278769809045714
 30
0.0
 11
11.46882878551645
 21
8.28194818149767
 31
0.0
  0
LINE
  5
3308
330
1F
100
AcDbEntity
  8
0
100
AcDbLine
 10
11.46882878551645
 20
8.28194818149767
 30
0.0
 11
11.47100926025869
 21
8.2860903171214
 31
0.0
  0
LINE
  5
3309
330
1F
100
AcDbEntity
  8
0
100
AcDbLine
 10
11.47100926025869
 20
8.2860903171214
 30
0.0
 11
11.47237996398397
 21
8.290913936219352
 31
0.0
  0
LINE
  5
330A
330
1F
100
AcDbEntity
  8
0
100
AcDbLine
 10
11.47237996398397
 20
8.290913936219352
 30
0.0
 11
11.4728474854986
 21
8.296090317121402
 31
0.0
  0
LINE
  5
330B
330
1F
100
AcDbEntity
  8
0
100
AcDbLine
 10
11.4728474854986
 20
8.296090317121402
 30
0.0
 11
11.47237996398397
 21
8.301266698023452
 31
0.0
  0
LINE
  5
330C
330
1F
100
AcDbEntity
  8
0
100
AcDbLine
 10
11.47237996398397
 20
8.301266698023452
 30
0.0
 11
11.47100926025869
 21
8.3060903171214
 31
0.0
  0
LINE
  5
330D
330
1F
100
AcDbEntity
  8
0
100
AcDbLine
 10
11.47100926025869
 20
8.3060903171214
 30
0.0
 11
11.46882878551645
 21
8.310232452745131
 31
0.0
  0
LINE
  5
330E
330
1F
100
AcDbEntity
  8
0
100
AcDbLine
 10
11.46882878551645
 20
8.310232452745131
 30
0.0
 11
11.46598713550752
 21
8.31341082519709
 31
0.0
  0
LINE
  5
330F
330
1F
100
AcDbEntity
  8
0
100
AcDbLine
 10
11.46598713550752
 20
8.31341082519709
 30
0.0
 11
11.46267796398397
 21
8.315408833647181
 31
0.0
  0
LINE
  5
3310
330
1F
100
AcDbEntity
  8
0
100
AcDbLine
 10
11.46267796398397
 20
8.315408833647181
 30
0.0
 11
11.45912678551645
 21
8.316090317121402
 31
0.0
  0
LINE
  5
3311
330
1F
100
AcDbEntity
  8
0
100
AcDbLine
 10
11.45226643552538
 20
8.316090317121402
 30
0.0
 11
11.45912678551645
 21
8.316090317121402
 31
0.0
  0
LINE
  5
3312
330
1F
100
AcDbEntity
  8
0
100
AcDbLine
 10
11.45226643552538
 20
8.276090317121402
 30
0.0
 11
11.45912678551645
 21
8.276090317121402
 31
0.0
  0
LINE
  5
3313
330
1F
100
AcDbEntity
  8
0
100
AcDbLine
 10
11.89664485277662
 20
9.39289576583609
 30
0.0
 11
11.89732633625084
 21
9.389344587368572
 31
0.0
  0
LINE
  5
3314
330
1F
100
AcDbEntity
  8
0
100
AcDbLine
 10
11.89732633625084
 20
9.389344587368572
 30
0.0
 11
11.89932434470093
 21
9.386035415845018
 31
0.0
  0
LINE
  5
3315
330
1F
100
AcDbEntity
  8
0
100
AcDbLine
 10
11.89932434470093
 20
9.386035415845018
 30
0.0
 11
11.90250271715289
 21
9.383193765836089
 31
0.0
  0
LINE
  5
3316
330
1F
100
AcDbEntity
  8
0
100
AcDbLine
 10
11.90250271715289
 20
9.383193765836089
 30
0.0
 11
11.90664485277662
 21
9.381013291093848
 31
0.0
  0
LINE
  5
3317
330
1F
100
AcDbEntity
  8
0
100
AcDbLine
 10
11.90664485277662
 20
9.381013291093848
 30
0.0
 11
11.91146847187457
 21
9.379642587368572
 31
0.0
  0
LINE
  5
3318
330
1F
100
AcDbEntity
  8
0
100
AcDbLine
 10
11.91146847187457
 20
9.379642587368572
 30
0.0
 11
11.91664485277662
 21
9.379175065853946
 31
0.0
  0
LINE
  5
3319
330
1F
100
AcDbEntity
  8
0
100
AcDbLine
 10
11.91664485277662
 20
9.379175065853946
 30
0.0
 11
11.92182123367867
 21
9.379642587368572
 31
0.0
  0
LINE
  5
331A
330
1F
100
AcDbEntity
  8
0
100
AcDbLine
 10
11.92182123367867
 20
9.379642587368572
 30
0.0
 11
11.92664485277662
 21
9.381013291093848
 31
0.0
  0
LINE
  5
331B
330
1F
100
AcDbEntity
  8
0
100
AcDbLine
 10
11.92664485277662
 20
9.381013291093848
 30
0.0
 11
11.93078698840035
 21
9.383193765836089
 31
0.0
  0
LINE
  5
331C
330
1F
100
AcDbEntity
  8
0
100
AcDbLine
 10
11.93078698840035
 20
9.383193765836089
 30
0.0
 11
11.93396536085231
 21
9.386035415845018
 31
0.0
  0
LINE
  5
331D
330
1F
100
AcDbEntity
  8
0
100
AcDbLine
 10
11.93396536085231
 20
9.386035415845018
 30
0.0
 11
11.9359633693024
 21
9.389344587368572
 31
0.0
  0
LINE
  5
331E
330
1F
100
AcDbEntity
  8
0
100
AcDbLine
 10
11.9359633693024
 20
9.389344587368572
 30
0.0
 11
11.93664485277662
 21
9.39289576583609
 31
0.0
  0
LINE
  5
331F
330
1F
100
AcDbEntity
  8
0
100
AcDbLine
 10
11.93664485277662
 20
9.39289576583609
 30
0.0
 11
11.9359633693024
 21
9.396446944303606
 31
0.0
  0
LINE
  5
3320
330
1F
100
AcDbEntity
  8
0
100
AcDbLine
 10
11.9359633693024
 20
9.396446944303606
 30
0.0
 11
11.93396536085231
 21
9.399756115827159
 31
0.0
  0
LINE
  5
3321
330
1F
100
AcDbEntity
  8
0
100
AcDbLine
 10
11.93396536085231
 20
9.399756115827159
 30
0.0
 11
11.93078698840035
 21
9.402597765836087
 31
0.0
  0
LINE
  5
3322
330
1F
100
AcDbEntity
  8
0
100
AcDbLine
 10
11.93078698840035
 20
9.402597765836087
 30
0.0
 11
11.92664485277662
 21
9.404778240578334
 31
0.0
  0
LINE
  5
3323
330
1F
100
AcDbEntity
  8
0
100
AcDbLine
 10
11.92664485277662
 20
9.404778240578334
 30
0.0
 11
11.92182123367867
 21
9.406148944303609
 31
0.0
  0
LINE
  5
3324
330
1F
100
AcDbEntity
  8
0
100
AcDbLine
 10
11.92182123367867
 20
9.406148944303609
 30
0.0
 11
11.91664485277662
 21
9.406616465818235
 31
0.0
  0
LINE
  5
3325
330
1F
100
AcDbEntity
  8
0
100
AcDbLine
 10
11.91664485277662
 20
9.406616465818235
 30
0.0
 11
11.91146847187457
 21
9.406148944303609
 31
0.0
  0
LINE
  5
3326
330
1F
100
AcDbEntity
  8
0
100
AcDbLine
 10
11.91146847187457
 20
9.406148944303609
 30
0.0
 11
11.90664485277662
 21
9.404778240578334
 31
0.0
  0
LINE
  5
3327
330
1F
100
AcDbEntity
  8
0
100
AcDbLine
 10
11.90664485277662
 20
9.404778240578334
 30
0.0
 11
11.90250271715289
 21
9.402597765836093
 31
0.0
  0
LINE
  5
3328
330
1F
100
AcDbEntity
  8
0
100
AcDbLine
 10
11.90250271715289
 20
9.402597765836093
 30
0.0
 11
11.89932434470093
 21
9.399756115827159
 31
0.0
  0
LINE
  5
3329
330
1F
100
AcDbEntity
  8
0
100
AcDbLine
 10
11.89932434470093
 20
9.399756115827159
 30
0.0
 11
11.89732633625084
 21
9.396446944303606
 31
0.0
  0
LINE
  5
332A
330
1F
100
AcDbEntity
  8
0
100
AcDbLine
 10
11.89732633625084
 20
9.396446944303606
 30
0.0
 11
11.89664485277662
 21
9.39289576583609
 31
0.0
  0
LINE
  5
332B
330
1F
100
AcDbEntity
  8
0
100
AcDbLine
 10
11.89664485277662
 20
9.386035415845018
 30
0.0
 11
11.89664485277662
 21
9.39289576583609
 31
0.0
  0
LINE
  5
332C
330
1F
100
AcDbEntity
  8
0
100
AcDbLine
 10
11.93664485277662
 20
9.386035415845018
 30
0.0
 11
11.93664485277662
 21
9.39289576583609
 31
0.0
  0
LINE
  5
332D
330
1F
100
AcDbEntity
  8
0
100
AcDbLine
 10
10.87264485277662
 20
9.392895765836094
 30
0.0
 11
10.87332633625084
 21
9.389344587368576
 31
0.0
  0
LINE
  5
332E
330
1F
100
AcDbEntity
  8
0
100
AcDbLine
 10
10.87332633625084
 20
9.389344587368576
 30
0.0
 11
10.87532434470093
 21
9.386035415845022
 31
0.0
  0
LINE
  5
332F
330
1F
100
AcDbEntity
  8
0
100
AcDbLine
 10
10.87532434470093
 20
9.386035415845022
 30
0.0
 11
10.87850271715289
 21
9.383193765836093
 31
0.0
  0
LINE
  5
3330
330
1F
100
AcDbEntity
  8
0
100
AcDbLine
 10
10.87850271715289
 20
9.383193765836093
 30
0.0
 11
10.88264485277662
 21
9.381013291093852
 31
0.0
  0
LINE
  5
3331
330
1F
100
AcDbEntity
  8
0
100
AcDbLine
 10
10.88264485277662
 20
9.381013291093852
 30
0.0
 11
10.88746847187457
 21
9.379642587368575
 31
0.0
  0
LINE
  5
3332
330
1F
100
AcDbEntity
  8
0
100
AcDbLine
 10
10.88746847187457
 20
9.379642587368575
 30
0.0
 11
10.89264485277662
 21
9.379175065853948
 31
0.0
  0
LINE
  5
3333
330
1F
100
AcDbEntity
  8
0
100
AcDbLine
 10
10.89264485277662
 20
9.379175065853948
 30
0.0
 11
10.89782123367867
 21
9.379642587368577
 31
0.0
  0
LINE
  5
3334
330
1F
100
AcDbEntity
  8
0
100
AcDbLine
 10
10.89782123367867
 20
9.379642587368577
 30
0.0
 11
10.90264485277662
 21
9.381013291093852
 31
0.0
  0
LINE
  5
3335
330
1F
100
AcDbEntity
  8
0
100
AcDbLine
 10
10.90264485277662
 20
9.381013291093852
 30
0.0
 11
10.90678698840035
 21
9.383193765836093
 31
0.0
  0
LINE
  5
3336
330
1F
100
AcDbEntity
  8
0
100
AcDbLine
 10
10.90678698840035
 20
9.383193765836093
 30
0.0
 11
10.90996536085231
 21
9.386035415845022
 31
0.0
  0
LINE
  5
3337
330
1F
100
AcDbEntity
  8
0
100
AcDbLine
 10
10.90996536085231
 20
9.386035415845022
 30
0.0
 11
10.9119633693024
 21
9.389344587368576
 31
0.0
  0
LINE
  5
3338
330
1F
100
AcDbEntity
  8
0
100
AcDbLine
 10
10.9119633693024
 20
9.389344587368576
 30
0.0
 11
10.91264485277662
 21
9.392895765836094
 31
0.0
  0
LINE
  5
3339
330
1F
100
AcDbEntity
  8
0
100
AcDbLine
 10
10.91264485277662
 20
9.392895765836094
 30
0.0
 11
10.9119633693024
 21
9.396446944303612
 31
0.0
  0
LINE
  5
333A
330
1F
100
AcDbEntity
  8
0
100
AcDbLine
 10
10.9119633693024
 20
9.396446944303612
 30
0.0
 11
10.90996536085231
 21
9.399756115827162
 31
0.0
  0
LINE
  5
333B
330
1F
100
AcDbEntity
  8
0
100
AcDbLine
 10
10.90996536085231
 20
9.399756115827162
 30
0.0
 11
10.90678698840035
 21
9.402597765836093
 31
0.0
  0
LINE
  5
333C
330
1F
100
AcDbEntity
  8
0
100
AcDbLine
 10
10.90678698840035
 20
9.402597765836093
 30
0.0
 11
10.90264485277662
 21
9.404778240578337
 31
0.0
  0
LINE
  5
333D
330
1F
100
AcDbEntity
  8
0
100
AcDbLine
 10
10.90264485277662
 20
9.404778240578337
 30
0.0
 11
10.89782123367867
 21
9.406148944303613
 31
0.0
  0
LINE
  5
333E
330
1F
100
AcDbEntity
  8
0
100
AcDbLine
 10
10.89782123367867
 20
9.406148944303613
 30
0.0
 11
10.89264485277662
 21
9.406616465818238
 31
0.0
  0
LINE
  5
333F
330
1F
100
AcDbEntity
  8
0
100
AcDbLine
 10
10.89264485277662
 20
9.406616465818238
 30
0.0
 11
10.88746847187457
 21
9.406148944303613
 31
0.0
  0
LINE
  5
3340
330
1F
100
AcDbEntity
  8
0
100
AcDbLine
 10
10.88746847187457
 20
9.406148944303613
 30
0.0
 11
10.88264485277662
 21
9.404778240578337
 31
0.0
  0
LINE
  5
3341
330
1F
100
AcDbEntity
  8
0
100
AcDbLine
 10
10.88264485277662
 20
9.404778240578337
 30
0.0
 11
10.87850271715289
 21
9.402597765836095
 31
0.0
  0
LINE
  5
3342
330
1F
100
AcDbEntity
  8
0
100
AcDbLine
 10
10.87850271715289
 20
9.402597765836095
 30
0.0
 11
10.87532434470093
 21
9.399756115827164
 31
0.0
  0
LINE
  5
3343
330
1F
100
AcDbEntity
  8
0
100
AcDbLine
 10
10.87532434470093
 20
9.399756115827164
 30
0.0
 11
10.87332633625084
 21
9.396446944303612
 31
0.0
  0
LINE
  5
3344
330
1F
100
AcDbEntity
  8
0
100
AcDbLine
 10
10.87332633625084
 20
9.396446944303612
 30
0.0
 11
10.87264485277662
 21
9.392895765836094
 31
0.0
  0
LINE
  5
3345
330
1F
100
AcDbEntity
  8
0
100
AcDbLine
 10
10.87264485277662
 20
9.386035415845022
 30
0.0
 11
10.87264485277662
 21
9.392895765836094
 31
0.0
  0
LINE
  5
3346
330
1F
100
AcDbEntity
  8
0
100
AcDbLine
 10
10.91264485277662
 20
9.386035415845022
 30
0.0
 11
10.91264485277662
 21
9.392895765836094
 31
0.0
  0
LINE
  5
3348
330
1F
100
AcDbEntity
  8
0
100
AcDbLine
 10
11.8528047020029
 20
7.422032269326011
 30
0.0
 11
11.65329263099036
 21
6.937979702240942
 31
0.0
  0
LINE
  5
3349
330
1F
100
AcDbEntity
  8
0
100
AcDbLine
 10
11.80793451633858
 20
7.423258939898209
 30
0.0
 11
11.6211606819126
 21
6.970111651318697
 31
0.0
  0
LINE
  5
334C
330
1F
100
AcDbEntity
  8
0
100
AcDbLine
 10
10.94709918259525
 20
9.345025592233877
 30
0.0
 11
10.94378436570664
 21
9.344589188311447
 31
0.0
  0
LINE
  5
3357
330
1F
100
AcDbEntity
  8
0
100
AcDbLine
 10
11.65793391779007
 20
7.476380931293201
 30
0.0
 11
11.67215530470728
 21
7.476380931293201
 31
0.0
  0
LINE
  5
3358
330
1F
100
AcDbEntity
  8
0
100
AcDbLine
 10
11.67215530470728
 20
7.476380931293201
 30
0.0
 11
11.75645452165458
 21
7.476380931293201
 31
0.0
  0
LINE
  5
3359
330
1F
100
AcDbEntity
  8
0
100
AcDbLine
 10
11.65793391779007
 20
8.2128085730633
 30
0.0
 11
11.65793391779007
 21
7.480400781168814
 31
0.0
  0
LINE
  5
335A
330
1F
100
AcDbEntity
  8
0
100
AcDbLine
 10
11.65793391779007
 20
7.480400781168814
 30
0.0
 11
11.65793391779007
 21
7.476380931293201
 31
0.0
  0
LINE
  5
335B
330
1F
100
AcDbEntity
  8
0
100
AcDbLine
 10
11.45486984880439
 20
7.476380931293201
 30
0.0
 11
11.46005704992976
 21
7.476380931293201
 31
0.0
  0
LINE
  5
335C
330
1F
100
AcDbEntity
  8
0
100
AcDbLine
 10
11.46005704992976
 20
7.476380931293201
 30
0.0
 11
11.56092895605896
 21
7.476380931293201
 31
0.0
  0
LINE
  5
335D
330
1F
100
AcDbEntity
  8
0
100
AcDbLine
 10
11.45486984880439
 20
8.212808573063302
 30
0.0
 11
11.45486984880439
 21
7.480400781168814
 31
0.0
  0
LINE
  5
335E
330
1F
100
AcDbEntity
  8
0
100
AcDbLine
 10
11.45486984880439
 20
7.480400781168814
 30
0.0
 11
11.45486984880439
 21
7.476380931293201
 31
0.0
  0
LINE
  5
335F
330
1F
100
AcDbEntity
  8
0
100
AcDbLine
 10
11.35463695451324
 20
7.476380931293201
 30
0.0
 11
11.35463695451324
 21
7.480400781168814
 31
0.0
  0
LINE
  5
3360
330
1F
100
AcDbEntity
  8
0
100
AcDbLine
 10
11.35463695451324
 20
7.480400781168814
 30
0.0
 11
11.35463695451325
 21
8.212808573063302
 31
0.0
  0
LINE
  5
3361
330
1F
100
AcDbEntity
  8
0
100
AcDbLine
 10
11.2523316097021
 20
7.476380931293201
 30
0.0
 11
11.34500840407402
 21
7.476380931293201
 31
0.0
  0
LINE
  5
3362
330
1F
100
AcDbEntity
  8
0
100
AcDbLine
 10
11.34500840407402
 20
7.476380931293201
 30
0.0
 11
11.35463695451324
 21
7.476380931293201
 31
0.0
  0
LINE
  5
3363
330
1F
100
AcDbEntity
  8
0
100
AcDbLine
 10
11.14864565885018
 20
7.476380931293201
 30
0.0
 11
11.14864565885018
 21
7.480400781168814
 31
0.0
  0
LINE
  5
3364
330
1F
100
AcDbEntity
  8
0
100
AcDbLine
 10
11.14864565885018
 20
7.480400781168814
 30
0.0
 11
11.14864565885018
 21
7.510316347470087
 31
0.0
  0
LINE
  5
3365
330
1F
100
AcDbEntity
  8
0
100
AcDbLine
 10
11.1148914019381
 20
7.476380931293201
 30
0.0
 11
11.12530308365495
 21
7.476380931293201
 31
0.0
  0
LINE
  5
3366
330
1F
100
AcDbEntity
  8
0
100
AcDbLine
 10
11.12530308365495
 20
7.476380931293201
 30
0.0
 11
11.14864565885018
 21
7.476380931293201
 31
0.0
  0
LINE
  5
3367
330
1F
100
AcDbEntity
  8
0
100
AcDbLine
 10
11.75645452165458
 20
7.476380931293201
 30
0.0
 11
11.77332347882956
 21
7.476380931293201
 31
0.0
  0
LINE
  5
3369
330
1F
100
AcDbEntity
  8
0
100
AcDbLine
 10
10.82820109772894
 20
8.212808573063302
 30
0.0
 11
10.9053954739097
 21
8.212808573063302
 31
0.0
  0
LINE
  5
336E
330
1F
100
AcDbEntity
  8
0
100
AcDbLine
 10
11.5669739128538
 20
7.480400781168814
 30
0.0
 11
11.65793391779007
 21
7.480400781168814
 31
0.0
  0
LINE
  5
336F
330
1F
100
AcDbEntity
  8
0
100
AcDbLine
 10
11.65793391779007
 20
7.480400781168814
 30
0.0
 11
11.67384509399901
 21
7.480400781168814
 31
0.0
  0
LINE
  5
3370
330
1F
100
AcDbEntity
  8
0
100
AcDbLine
 10
11.35463695451324
 20
7.480400781168814
 30
0.0
 11
11.34669819336575
 21
7.480400781168814
 31
0.0
  0
LINE
  5
3371
330
1F
100
AcDbEntity
  8
0
100
AcDbLine
 10
11.23796958856315
 20
7.480400781168814
 30
0.0
 11
11.14864565885018
 21
7.480400781168814
 31
0.0
  0
LINE
  5
3372
330
1F
100
AcDbEntity
  8
0
100
AcDbLine
 10
11.14864565885018
 20
7.480400781168814
 30
0.0
 11
11.12699287294668
 21
7.480400781168814
 31
0.0
  0
LINE
  5
3373
330
1F
100
AcDbEntity
  8
0
100
AcDbLine
 10
11.5669739128538
 20
7.480400781168814
 30
0.0
 11
11.56528412356206
 21
7.476380931293201
 31
0.0
  0
LINE
  5
3374
330
1F
100
AcDbEntity
  8
0
100
AcDbLine
 10
11.56528412356206
 20
7.476380931293201
 30
0.0
 11
11.43198869529274
 21
7.15928363793856
 31
0.0
  0
LINE
  5
3375
330
1F
100
AcDbEntity
  8
0
100
AcDbLine
 10
11.50723094644762
 20
7.084041386783679
 30
0.0
 11
11.67215530470728
 21
7.476380931293201
 31
0.0
  0
LINE
  5
3376
330
1F
100
AcDbEntity
  8
0
100
AcDbLine
 10
11.67215530470728
 20
7.476380931293201
 30
0.0
 11
11.67384509399901
 21
7.480400781168814
 31
0.0
  0
LINE
  5
3377
330
1F
100
AcDbEntity
  8
0
100
AcDbLine
 10
11.34669819336575
 20
7.480400781168814
 30
0.0
 11
11.34500840407402
 21
7.476380931293201
 31
0.0
  0
LINE
  5
3378
330
1F
100
AcDbEntity
  8
0
100
AcDbLine
 10
11.34500840407402
 20
7.476380931293201
 30
0.0
 11
11.27690440754148
 21
7.314367925689823
 31
0.0
  0
LINE
  5
3379
330
1F
100
AcDbEntity
  8
0
100
AcDbLine
 10
11.35790397181825
 20
7.233368361413043
 30
0.0
 11
11.46005704992976
 21
7.476380931293201
 31
0.0
  0
LINE
  5
337A
330
1F
100
AcDbEntity
  8
0
100
AcDbLine
 10
11.46005704992976
 20
7.476380931293201
 30
0.0
 11
11.4617468392215
 21
7.480400781168814
 31
0.0
  0
LINE
  5
337B
330
1F
100
AcDbEntity
  8
0
100
AcDbLine
 10
11.12699287294668
 20
7.480400781168814
 30
0.0
 11
11.12530308365495
 21
7.476380931293201
 31
0.0
  0
LINE
  5
337C
330
1F
100
AcDbEntity
  8
0
100
AcDbLine
 10
11.12530308365495
 20
7.476380931293201
 30
0.0
 11
11.12222170709884
 21
7.469050626132457
 31
0.0
  0
LINE
  5
337D
330
1F
100
AcDbEntity
  8
0
100
AcDbLine
 10
11.20035444428093
 20
7.390917888950367
 30
0.0
 11
11.23627979927142
 21
7.476380931293201
 31
0.0
  0
LINE
  5
337E
330
1F
100
AcDbEntity
  8
0
100
AcDbLine
 10
11.23627979927142
 20
7.476380931293201
 30
0.0
 11
11.23796958856315
 21
7.480400781168814
 31
0.0
  0
LINE
  5
3385
330
1F
100
AcDbEntity
  8
0
100
AcDbLine
 10
10.11194189702539
 20
6.816701362157521
 30
0.0
 11
10.09315493817401
 21
6.797914403306137
 31
0.0
  0
LINE
  5
3386
330
1F
100
AcDbEntity
  8
0
100
AcDbLine
 10
10.53107743817401
 20
7.235836903306136
 30
0.0
 11
10.51871132048227
 21
7.223470785614392
 31
0.0
  0
LINE
  5
3387
330
1F
100
AcDbEntity
  8
0
100
AcDbLine
 10
10.51871132048227
 20
7.223470785614392
 30
0.0
 11
10.51607743817401
 21
7.220836903306137
 31
0.0
  0
LINE
  5
3388
330
1F
100
AcDbEntity
  8
0
100
AcDbLine
 10
10.53293702454959
 20
7.237696489681715
 30
0.0
 11
10.92153187117596
 21
7.62629133630809
 31
0.0
  0
LINE
  5
3389
330
1F
100
AcDbEntity
  8
0
100
AcDbLine
 10
10.93574898557634
 20
7.640508450708467
 30
0.0
 11
10.94325643404959
 21
7.648015899181712
 31
0.0
  0
LINE
  5
338A
330
1F
100
AcDbEntity
  8
0
100
AcDbLine
 10
10.94325643404959
 20
7.648015899181712
 30
0.0
 11
10.96544898557634
 21
7.625823347654957
 31
0.0
  0
LINE
  5
338B
330
1F
100
AcDbEntity
  8
0
100
AcDbLine
 10
11.7199969649114
 20
6.812552968938197
 30
0.0
 11
11.33903875510225
 21
6.431594759129048
 31
0.0
  0
LINE
  5
338C
330
1F
100
AcDbEntity
  8
0
100
AcDbLine
 10
10.53107743817401
 20
7.235836903306136
 30
0.0
 11
10.53293702454959
 21
7.237696489681715
 31
0.0
  0
LINE
  5
338D
330
1F
100
AcDbEntity
  8
0
100
AcDbLine
 10
11.18316305581733
 20
7.510316347470088
 30
0.0
 11
11.14864565885018
 21
7.510316347470087
 31
0.0
  0
LINE
  5
338E
330
1F
100
AcDbEntity
  8
0
100
AcDbLine
 10
11.14864565885018
 20
7.510316347470087
 30
0.0
 11
11.08095598576121
 21
7.510316347470087
 31
0.0
  0
LINE
  5
338F
330
1F
100
AcDbEntity
  8
0
100
AcDbLine
 10
10.82820109772895
 20
8.212808573063302
 30
0.0
 11
10.82820109772895
 21
9.387710598036214
 31
0.0
  0
LINE
  5
3390
330
1F
100
AcDbEntity
  8
0
100
AcDbLine
 10
11.96820109772894
 20
8.832124511831631
 30
0.0
 11
11.96820109772895
 21
8.834754364104377
 31
0.0
  0
LINE
  5
3392
330
1F
100
AcDbEntity
  8
0
100
AcDbLine
 10
10.9053954739097
 20
8.212808573063302
 30
0.0
 11
10.93574898557634
 21
8.212808573063302
 31
0.0
  0
LINE
  5
3397
330
1F
100
AcDbEntity
  8
0
100
AcDbLine
 10
11.4617468392215
 20
7.480400781168814
 30
0.0
 11
11.45486984880439
 21
7.480400781168814
 31
0.0
  0
LINE
  5
3398
330
1F
100
AcDbEntity
  8
0
100
AcDbLine
 10
11.45486984880439
 20
7.480400781168814
 30
0.0
 11
11.35463695451324
 21
7.480400781168814
 31
0.0
  0
LINE
  5
3399
330
1F
100
AcDbEntity
  8
0
100
AcDbLine
 10
10.92508652099431
 20
6.017642525021106
 30
0.0
 11
11.29658804349868
 21
6.389144047525484
 31
0.0
  0
LINE
  5
339B
330
1F
100
AcDbEntity
  8
0
100
AcDbLine
 10
10.48344341952977
 20
7.1882028846619
 30
0.0
 11
10.11194189702539
 21
6.816701362157521
 31
0.0
  0
LINE
  5
339C
330
1F
100
AcDbEntity
  8
0
100
AcDbLine
 10
10.93574898557634
 20
8.212808573063302
 30
0.0
 11
10.96544898557634
 21
8.212808573063302
 31
0.0
  0
LINE
  5
339E
330
1F
100
AcDbEntity
  8
0
100
AcDbLine
 10
11.29658804349868
 20
6.389144047525484
 30
0.0
 11
11.32217916872668
 21
6.414735172753472
 31
0.0
  0
LINE
  5
339F
330
1F
100
AcDbEntity
  8
0
100
AcDbLine
 10
10.51607743817401
 20
7.220836903306137
 30
0.0
 11
10.48589526962124
 21
7.190654734753369
 31
0.0
  0
LINE
  5
33A0
330
1F
100
AcDbEntity
  8
0
100
AcDbLine
 10
10.48589526962124
 20
7.190654734753369
 30
0.0
 11
10.48344341952977
 21
7.1882028846619
 31
0.0
  0
LINE
  5
33A1
330
1F
100
AcDbEntity
  8
0
100
AcDbLine
 10
11.43198869529274
 20
7.15928363793856
 30
0.0
 11
11.50723094644762
 21
7.084041386783679
 31
0.0
  0
LINE
  5
33A2
330
1F
100
AcDbEntity
  8
0
100
AcDbLine
 10
11.27690440754148
 20
7.314367925689823
 30
0.0
 11
11.35790397181825
 21
7.233368361413043
 31
0.0
  0
LINE
  5
33A3
330
1F
100
AcDbEntity
  8
0
100
AcDbLine
 10
11.35790397181825
 20
7.233368361413043
 30
0.0
 11
11.43198869529274
 21
7.15928363793856
 31
0.0
  0
LINE
  5
33A4
330
1F
100
AcDbEntity
  8
0
100
AcDbLine
 10
11.50723094644762
 20
7.084041386783679
 30
0.0
 11
11.5836030434542
 21
7.007669289777092
 31
0.0
  0
LINE
  5
33A5
330
1F
100
AcDbEntity
  8
0
100
AcDbLine
 10
11.45486984880439
 20
8.212808573063302
 30
0.0
 11
11.56092895605896
 21
8.2128085730633
 31
0.0
  0
LINE
  5
33A6
330
1F
100
AcDbEntity
  8
0
100
AcDbLine
 10
11.1148914019381
 20
7.476380931293201
 30
0.0
 11
11.12222170709884
 21
7.469050626132457
 31
0.0
  0
LINE
  5
33A7
330
1F
100
AcDbEntity
  8
0
100
AcDbLine
 10
11.12222170709884
 20
7.469050626132457
 30
0.0
 11
11.20035444428093
 21
7.390917888950367
 31
0.0
  0
LINE
  5
33A8
330
1F
100
AcDbEntity
  8
0
100
AcDbLine
 10
11.20035444428093
 20
7.390917888950367
 30
0.0
 11
11.27690440754148
 21
7.314367925689823
 31
0.0
  0
LINE
  5
33A9
330
1F
100
AcDbEntity
  8
0
100
AcDbLine
 10
11.65329263099036
 20
6.937979702240942
 30
0.0
 11
11.74935816460225
 21
6.841914168629048
 31
0.0
  0
LINE
  5
33AA
330
1F
100
AcDbEntity
  8
0
100
AcDbLine
 10
11.35463695451325
 20
8.212808573063302
 30
0.0
 11
11.45486984880439
 21
8.212808573063302
 31
0.0
  0
LINE
  5
33AB
330
1F
100
AcDbEntity
  8
0
100
AcDbLine
 10
11.56092895605896
 20
8.2128085730633
 30
0.0
 11
11.65793391779007
 21
8.2128085730633
 31
0.0
  0
LINE
  5
33AC
330
1F
100
AcDbEntity
  8
0
100
AcDbLine
 10
11.65793391779007
 20
8.2128085730633
 30
0.0
 11
11.75645452165458
 21
8.2128085730633
 31
0.0
  0
LINE
  5
33AD
330
1F
100
AcDbEntity
  8
0
100
AcDbLine
 10
11.75645452165458
 20
8.2128085730633
 30
0.0
 11
11.85645452165458
 21
8.2128085730633
 31
0.0
  0
LINE
  5
33AE
330
1F
100
AcDbEntity
  8
0
100
AcDbLine
 10
11.08095598576121
 20
7.510316347470087
 30
0.0
 11
11.1148914019381
 21
7.476380931293201
 31
0.0
  0
LINE
  5
33AF
330
1F
100
AcDbEntity
  8
0
100
AcDbLine
 10
11.5836030434542
 20
7.007669289777092
 30
0.0
 11
11.6211606819126
 21
6.970111651318697
 31
0.0
  0
LINE
  5
33B0
330
1F
100
AcDbEntity
  8
0
100
AcDbLine
 10
11.6211606819126
 20
6.970111651318697
 30
0.0
 11
11.65329263099036
 21
6.937979702240942
 31
0.0
  0
LINE
  5
33B1
330
1F
100
AcDbEntity
  8
0
100
AcDbLine
 10
11.25233160970211
 20
8.212808573063302
 30
0.0
 11
11.35463695451325
 21
8.212808573063302
 31
0.0
  0
LINE
  5
33B2
330
1F
100
AcDbEntity
  8
0
100
AcDbLine
 10
11.85645452165458
 20
8.2128085730633
 30
0.0
 11
11.8813954739097
 21
8.2128085730633
 31
0.0
  0
LINE
  5
33B3
330
1F
100
AcDbEntity
  8
0
100
AcDbLine
 10
11.8813954739097
 20
8.2128085730633
 30
0.0
 11
11.96820109772894
 21
8.2128085730633
 31
0.0
  0
LINE
  5
33B4
330
1F
100
AcDbEntity
  8
0
100
AcDbLine
 10
10.96544898557634
 20
7.625823347654957
 30
0.0
 11
10.99752305581733
 21
7.593749277413973
 31
0.0
  0
LINE
  5
33B5
330
1F
100
AcDbEntity
  8
0
100
AcDbLine
 10
10.99752305581733
 20
7.593749277413973
 30
0.0
 11
11.08095598576121
 21
7.510316347470087
 31
0.0
  0
LINE
  5
33B6
330
1F
100
AcDbEntity
  8
0
100
AcDbLine
 10
11.18316305581733
 20
8.212808573063302
 30
0.0
 11
11.25233160970211
 21
8.212808573063302
 31
0.0
  0
LINE
  5
33B7
330
1F
100
AcDbEntity
  8
0
100
AcDbLine
 10
10.96544898557634
 20
8.212808573063302
 30
0.0
 11
10.99752305581733
 21
8.212808573063302
 31
0.0
  0
LINE
  5
33B8
330
1F
100
AcDbEntity
  8
0
100
AcDbLine
 10
10.99752305581733
 20
8.212808573063302
 30
0.0
 11
11.18316305581733
 21
8.212808573063302
 31
0.0
  0
LINE
  5
33B9
330
1F
100
AcDbEntity
  8
0
100
AcDbLine
 10
11.96820109772894
 20
8.2128085730633
 30
0.0
 11
11.96820109772894
 21
8.810911308396036
 31
0.0
  0
LINE
  5
33BA
330
1F
100
AcDbEntity
  8
0
100
AcDbLine
 10
10.89925666872667
 20
5.991812672753472
 30
0.0
 11
10.92508652099431
 21
6.017642525021106
 31
0.0
  0
LINE
  5
33BB
330
1F
100
AcDbEntity
  8
0
100
AcDbLine
 10
10.92153187117596
 20
7.62629133630809
 30
0.0
 11
10.93574898557634
 21
7.640508450708467
 31
0.0
  0
LINE
  5
33BC
330
1F
100
AcDbEntity
  8
0
100
AcDbLine
 10
11.74935816460225
 20
6.841914168629048
 30
0.0
 11
11.7199969649114
 21
6.812552968938197
 31
0.0
  0
LINE
  5
33BD
330
1F
100
AcDbEntity
  8
0
100
AcDbLine
 10
11.33717916872668
 20
6.429735172753471
 30
0.0
 11
11.32217916872668
 21
6.414735172753472
 31
0.0
  0
LINE
  5
33BE
330
1F
100
AcDbEntity
  8
0
100
AcDbLine
 10
10.82820109772895
 20
9.387710598036214
 30
0.0
 11
10.82820109772895
 21
9.415033637924196
 31
0.0
  0
LINE
  5
33BF
330
1F
100
AcDbEntity
  8
0
100
AcDbLine
 10
11.96820109772895
 20
9.415033637924196
 30
0.0
 11
11.96820109772895
 21
8.834754364104377
 31
0.0
  0
LINE
  5
33C0
330
1F
100
AcDbEntity
  8
0
100
AcDbLine
 10
11.96820109772894
 20
8.832124511831631
 30
0.0
 11
11.96820109772894
 21
8.810911308396036
 31
0.0
  0
DIMENSION
  5
33C2
330
1F
100
AcDbEntity
  8
WYMIAR
100
AcDbDimension
  2
*D1
 10
14.09330946212341
 20
11.45880666111819
 30
0.0
 11
11.34330946212341
 21
11.66880666111819
 31
0.0
 70
    33
 71
     5
 42
5.5
  3
AR SKALA 1-50
100
AcDbAlignedDimension
 13
8.593309462123414
 23
10.91503363792419
 33
0.0
 14
14.09330946212341
 24
10.91503363792419
 34
0.0
  0
LINE
  5
353E
330
1F
100
AcDbEntity
  8
0
100
AcDbLine
 10
10.51343373728055
 20
6.426076132725272
 30
0.0
 11
11.31953546783321
 21
7.232177863277938
 31
0.0
  0
LINE
  5
353F
330
1F
100
AcDbEntity
  8
0
100
AcDbLine
 10
10.49843373728055
 20
6.441076132725273
 30
0.0
 11
11.30453546783321
 21
7.247177863277938
 31
0.0
  0
LINE
  5
3540
330
1F
100
AcDbEntity
  8
0
100
AcDbLine
 10
10.51935955953079
 20
6.518580211095295
 30
0.0
 11
10.52146586839593
 21
6.515510139058383
 31
0.0
  0
LINE
  5
3541
330
1F
100
AcDbEntity
  8
0
100
AcDbLine
 10
10.52146586839593
 20
6.515510139058383
 30
0.0
 11
10.52246487262098
 21
6.511685524185482
 31
0.0
  0
LINE
  5
3542
330
1F
100
AcDbEntity
  8
0
100
AcDbLine
 10
10.52246487262098
 20
6.511685524185482
 30
0.0
 11
10.52228849171893
 21
6.507367007659697
 31
0.0
  0
LINE
  5
3543
330
1F
100
AcDbEntity
  8
0
100
AcDbLine
 10
10.52228849171893
 20
6.507367007659697
 30
0.0
 11
10.52094874575677
 21
6.502848889245585
 31
0.0
  0
LINE
  5
3544
330
1F
100
AcDbEntity
  8
0
100
AcDbLine
 10
10.52094874575677
 20
6.502848889245585
 30
0.0
 11
10.5185369362078
 21
6.498439071246517
 31
0.0
  0
LINE
  5
3545
330
1F
100
AcDbEntity
  8
0
100
AcDbLine
 10
10.5185369362078
 20
6.498439071246517
 30
0.0
 11
10.51521742390706
 21
6.494438075471565
 31
0.0
  0
LINE
  5
3546
330
1F
100
AcDbEntity
  8
0
100
AcDbLine
 10
10.51521742390706
 20
6.494438075471565
 30
0.0
 11
10.51121642813211
 21
6.491118563170827
 31
0.0
  0
LINE
  5
3547
330
1F
100
AcDbEntity
  8
0
100
AcDbLine
 10
10.51121642813211
 20
6.491118563170827
 30
0.0
 11
10.50680661013304
 21
6.488706753621853
 31
0.0
  0
LINE
  5
3548
330
1F
100
AcDbEntity
  8
0
100
AcDbLine
 10
10.50680661013304
 20
6.488706753621853
 30
0.0
 11
10.50228849171893
 21
6.487367007659697
 31
0.0
  0
LINE
  5
3549
330
1F
100
AcDbEntity
  8
0
100
AcDbLine
 10
10.50228849171893
 20
6.487367007659697
 30
0.0
 11
10.49796997519315
 21
6.487190626757646
 31
0.0
  0
LINE
  5
354A
330
1F
100
AcDbEntity
  8
0
100
AcDbLine
 10
10.49796997519315
 20
6.487190626757646
 30
0.0
 11
10.49414536032024
 21
6.488189630982693
 31
0.0
  0
LINE
  5
354B
330
1F
100
AcDbEntity
  8
0
100
AcDbLine
 10
10.49414536032024
 20
6.488189630982693
 30
0.0
 11
10.49107528828333
 21
6.490295939847834
 31
0.0
  0
LINE
  5
354C
330
1F
100
AcDbEntity
  8
0
100
AcDbLine
 10
11.25333639840243
 20
7.252557049966933
 30
0.0
 11
11.25544270726757
 21
7.24948697793002
 31
0.0
  0
LINE
  5
354D
330
1F
100
AcDbEntity
  8
0
100
AcDbLine
 10
11.25544270726757
 20
7.24948697793002
 30
0.0
 11
11.25644171149261
 21
7.245662363057119
 31
0.0
  0
LINE
  5
354E
330
1F
100
AcDbEntity
  8
0
100
AcDbLine
 10
11.25644171149261
 20
7.245662363057119
 30
0.0
 11
11.25626533059056
 21
7.241343846531338
 31
0.0
  0
LINE
  5
354F
330
1F
100
AcDbEntity
  8
0
100
AcDbLine
 10
11.25626533059056
 20
7.241343846531338
 30
0.0
 11
11.25492558462841
 21
7.236825728117223
 31
0.0
  0
LINE
  5
3550
330
1F
100
AcDbEntity
  8
0
100
AcDbLine
 10
11.25492558462841
 20
7.236825728117223
 30
0.0
 11
11.25251377507944
 21
7.232415910118154
 31
0.0
  0
LINE
  5
3551
330
1F
100
AcDbEntity
  8
0
100
AcDbLine
 10
11.25251377507944
 20
7.232415910118154
 30
0.0
 11
11.2491942627787
 21
7.228414914343199
 31
0.0
  0
LINE
  5
3552
330
1F
100
AcDbEntity
  8
0
100
AcDbLine
 10
11.2491942627787
 20
7.228414914343199
 30
0.0
 11
11.24519326700375
 21
7.225095402042464
 31
0.0
  0
LINE
  5
3553
330
1F
100
AcDbEntity
  8
0
100
AcDbLine
 10
11.24519326700375
 20
7.225095402042464
 30
0.0
 11
11.24078344900468
 21
7.22268359249349
 31
0.0
  0
LINE
  5
3554
330
1F
100
AcDbEntity
  8
0
100
AcDbLine
 10
11.24078344900468
 20
7.22268359249349
 30
0.0
 11
11.23626533059057
 21
7.221343846531334
 31
0.0
  0
LINE
  5
3555
330
1F
100
AcDbEntity
  8
0
100
AcDbLine
 10
11.23626533059057
 20
7.221343846531334
 30
0.0
 11
11.23194681406478
 21
7.221167465629287
 31
0.0
  0
LINE
  5
3556
330
1F
100
AcDbEntity
  8
0
100
AcDbLine
 10
11.23194681406478
 20
7.221167465629287
 30
0.0
 11
11.22812219919188
 21
7.222166469854331
 31
0.0
  0
LINE
  5
3557
330
1F
100
AcDbEntity
  8
0
100
AcDbLine
 10
11.22812219919188
 20
7.222166469854331
 30
0.0
 11
11.22505212715497
 21
7.224272778719472
 31
0.0
  0
LINE
  5
3558
330
1F
100
AcDbEntity
  8
0
100
AcDbLine
 10
11.24833639840243
 20
7.257557049966932
 30
0.0
 11
11.25044270726757
 21
7.254486977930019
 31
0.0
  0
LINE
  5
3559
330
1F
100
AcDbEntity
  8
0
100
AcDbLine
 10
11.25044270726757
 20
7.254486977930019
 30
0.0
 11
11.25144171149262
 21
7.250662363057118
 31
0.0
  0
LINE
  5
355A
330
1F
100
AcDbEntity
  8
0
100
AcDbLine
 10
11.25144171149262
 20
7.250662363057118
 30
0.0
 11
11.25126533059057
 21
7.246343846531337
 31
0.0
  0
LINE
  5
355B
330
1F
100
AcDbEntity
  8
0
100
AcDbLine
 10
11.25126533059057
 20
7.246343846531337
 30
0.0
 11
11.24992558462841
 21
7.241825728117222
 31
0.0
  0
LINE
  5
355C
330
1F
100
AcDbEntity
  8
0
100
AcDbLine
 10
11.24992558462841
 20
7.241825728117222
 30
0.0
 11
11.24751377507943
 21
7.237415910118153
 31
0.0
  0
LINE
  5
355D
330
1F
100
AcDbEntity
  8
0
100
AcDbLine
 10
11.24751377507943
 20
7.237415910118153
 30
0.0
 11
11.2441942627787
 21
7.233414914343201
 31
0.0
  0
LINE
  5
355E
330
1F
100
AcDbEntity
  8
0
100
AcDbLine
 10
11.2441942627787
 20
7.233414914343201
 30
0.0
 11
11.24019326700375
 21
7.230095402042467
 31
0.0
  0
LINE
  5
355F
330
1F
100
AcDbEntity
  8
0
100
AcDbLine
 10
11.24019326700375
 20
7.230095402042467
 30
0.0
 11
11.23578344900468
 21
7.227683592493493
 31
0.0
  0
LINE
  5
3560
330
1F
100
AcDbEntity
  8
0
100
AcDbLine
 10
11.23578344900468
 20
7.227683592493493
 30
0.0
 11
11.23126533059056
 21
7.226343846531337
 31
0.0
  0
LINE
  5
3561
330
1F
100
AcDbEntity
  8
0
100
AcDbLine
 10
11.23126533059056
 20
7.226343846531337
 30
0.0
 11
11.22694681406478
 21
7.226167465629286
 31
0.0
  0
LINE
  5
3562
330
1F
100
AcDbEntity
  8
0
100
AcDbLine
 10
11.22694681406478
 20
7.226167465629286
 30
0.0
 11
11.22312219919188
 21
7.22716646985433
 31
0.0
  0
LINE
  5
3563
330
1F
100
AcDbEntity
  8
0
100
AcDbLine
 10
11.22312219919188
 20
7.22716646985433
 30
0.0
 11
11.22005212715497
 21
7.229272778719471
 31
0.0
  0
LINE
  5
3564
330
1F
100
AcDbEntity
  8
0
100
AcDbLine
 10
11.22005212715497
 20
7.229272778719471
 30
0.0
 11
11.21794581828983
 21
7.232342850756383
 31
0.0
  0
LINE
  5
3565
330
1F
100
AcDbEntity
  8
0
100
AcDbLine
 10
11.21794581828983
 20
7.232342850756383
 30
0.0
 11
11.21694681406478
 21
7.236167465629284
 31
0.0
  0
LINE
  5
3566
330
1F
100
AcDbEntity
  8
0
100
AcDbLine
 10
11.21694681406478
 20
7.236167465629284
 30
0.0
 11
11.21712319496684
 21
7.240485982155066
 31
0.0
  0
LINE
  5
3567
330
1F
100
AcDbEntity
  8
0
100
AcDbLine
 10
11.21712319496684
 20
7.240485982155066
 30
0.0
 11
11.21846294092899
 21
7.245004100569177
 31
0.0
  0
LINE
  5
3568
330
1F
100
AcDbEntity
  8
0
100
AcDbLine
 10
11.21846294092899
 20
7.245004100569177
 30
0.0
 11
11.22087475047796
 21
7.249413918568249
 31
0.0
  0
LINE
  5
3569
330
1F
100
AcDbEntity
  8
0
100
AcDbLine
 10
11.22087475047796
 20
7.249413918568249
 30
0.0
 11
11.2241942627787
 21
7.253414914343201
 31
0.0
  0
LINE
  5
356A
330
1F
100
AcDbEntity
  8
0
100
AcDbLine
 10
11.2241942627787
 20
7.253414914343201
 30
0.0
 11
11.22819525855365
 21
7.256734426643939
 31
0.0
  0
LINE
  5
356B
330
1F
100
AcDbEntity
  8
0
100
AcDbLine
 10
11.22819525855365
 20
7.256734426643939
 30
0.0
 11
11.23260507655272
 21
7.259146236192909
 31
0.0
  0
LINE
  5
356C
330
1F
100
AcDbEntity
  8
0
100
AcDbLine
 10
11.23260507655272
 20
7.259146236192909
 30
0.0
 11
11.23712319496683
 21
7.260485982155069
 31
0.0
  0
LINE
  5
356D
330
1F
100
AcDbEntity
  8
0
100
AcDbLine
 10
11.23712319496683
 20
7.260485982155069
 30
0.0
 11
11.24144171149262
 21
7.260662363057113
 31
0.0
  0
LINE
  5
356E
330
1F
100
AcDbEntity
  8
0
100
AcDbLine
 10
11.24144171149262
 20
7.260662363057113
 30
0.0
 11
11.24526632636552
 21
7.259663358832073
 31
0.0
  0
LINE
  5
356F
330
1F
100
AcDbEntity
  8
0
100
AcDbLine
 10
11.24526632636552
 20
7.259663358832073
 30
0.0
 11
11.24833639840243
 21
7.257557049966932
 31
0.0
  0
LINE
  5
3570
330
1F
100
AcDbEntity
  8
0
100
AcDbLine
 10
11.25333639840243
 20
7.252557049966933
 30
0.0
 11
11.24833639840243
 21
7.257557049966932
 31
0.0
  0
LINE
  5
3571
330
1F
100
AcDbEntity
  8
0
100
AcDbLine
 10
11.22505212715497
 20
7.224272778719472
 30
0.0
 11
11.22005212715497
 21
7.229272778719471
 31
0.0
  0
LINE
  5
3572
330
1F
100
AcDbEntity
  8
0
100
AcDbLine
 10
10.51435955953079
 20
6.523580211095294
 30
0.0
 11
10.51646586839593
 21
6.520510139058382
 31
0.0
  0
LINE
  5
3573
330
1F
100
AcDbEntity
  8
0
100
AcDbLine
 10
10.51646586839593
 20
6.520510139058382
 30
0.0
 11
10.51746487262098
 21
6.516685524185481
 31
0.0
  0
LINE
  5
3574
330
1F
100
AcDbEntity
  8
0
100
AcDbLine
 10
10.51746487262098
 20
6.516685524185481
 30
0.0
 11
10.51728849171893
 21
6.512367007659699
 31
0.0
  0
LINE
  5
3575
330
1F
100
AcDbEntity
  8
0
100
AcDbLine
 10
10.51728849171893
 20
6.512367007659699
 30
0.0
 11
10.51594874575678
 21
6.507848889245584
 31
0.0
  0
LINE
  5
3576
330
1F
100
AcDbEntity
  8
0
100
AcDbLine
 10
10.51594874575678
 20
6.507848889245584
 30
0.0
 11
10.5135369362078
 21
6.503439071246516
 31
0.0
  0
LINE
  5
3577
330
1F
100
AcDbEntity
  8
0
100
AcDbLine
 10
10.5135369362078
 20
6.503439071246516
 30
0.0
 11
10.51021742390706
 21
6.499438075471561
 31
0.0
  0
LINE
  5
3578
330
1F
100
AcDbEntity
  8
0
100
AcDbLine
 10
10.51021742390706
 20
6.499438075471561
 30
0.0
 11
10.50621642813211
 21
6.49611856317083
 31
0.0
  0
LINE
  5
3579
330
1F
100
AcDbEntity
  8
0
100
AcDbLine
 10
10.50621642813211
 20
6.49611856317083
 30
0.0
 11
10.50180661013304
 21
6.493706753621852
 31
0.0
  0
LINE
  5
357A
330
1F
100
AcDbEntity
  8
0
100
AcDbLine
 10
10.50180661013304
 20
6.493706753621852
 30
0.0
 11
10.49728849171893
 21
6.492367007659696
 31
0.0
  0
LINE
  5
357B
330
1F
100
AcDbEntity
  8
0
100
AcDbLine
 10
10.49728849171893
 20
6.492367007659696
 30
0.0
 11
10.49296997519315
 21
6.492190626757649
 31
0.0
  0
LINE
  5
357C
330
1F
100
AcDbEntity
  8
0
100
AcDbLine
 10
10.49296997519315
 20
6.492190626757649
 30
0.0
 11
10.48914536032024
 21
6.493189630982692
 31
0.0
  0
LINE
  5
357D
330
1F
100
AcDbEntity
  8
0
100
AcDbLine
 10
10.48914536032024
 20
6.493189630982692
 30
0.0
 11
10.48607528828333
 21
6.495295939847833
 31
0.0
  0
LINE
  5
357E
330
1F
100
AcDbEntity
  8
0
100
AcDbLine
 10
10.48607528828333
 20
6.495295939847833
 30
0.0
 11
10.48396897941819
 21
6.498366011884742
 31
0.0
  0
LINE
  5
357F
330
1F
100
AcDbEntity
  8
0
100
AcDbLine
 10
10.48396897941819
 20
6.498366011884742
 30
0.0
 11
10.48296997519315
 21
6.502190626757647
 31
0.0
  0
LINE
  5
3580
330
1F
100
AcDbEntity
  8
0
100
AcDbLine
 10
10.48296997519315
 20
6.502190626757647
 30
0.0
 11
10.4831463560952
 21
6.506509143283428
 31
0.0
  0
LINE
  5
3581
330
1F
100
AcDbEntity
  8
0
100
AcDbLine
 10
10.4831463560952
 20
6.506509143283428
 30
0.0
 11
10.48448610205735
 21
6.511027261697543
 31
0.0
  0
LINE
  5
3582
330
1F
100
AcDbEntity
  8
0
100
AcDbLine
 10
10.48448610205735
 20
6.511027261697543
 30
0.0
 11
10.48689791160633
 21
6.515437079696612
 31
0.0
  0
LINE
  5
3583
330
1F
100
AcDbEntity
  8
0
100
AcDbLine
 10
10.48689791160633
 20
6.515437079696612
 30
0.0
 11
10.49021742390706
 21
6.519438075471564
 31
0.0
  0
LINE
  5
3584
330
1F
100
AcDbEntity
  8
0
100
AcDbLine
 10
10.49021742390706
 20
6.519438075471564
 30
0.0
 11
10.49421841968201
 21
6.522757587772298
 31
0.0
  0
LINE
  5
3585
330
1F
100
AcDbEntity
  8
0
100
AcDbLine
 10
10.49421841968201
 20
6.522757587772298
 30
0.0
 11
10.49862823768108
 21
6.525169397321272
 31
0.0
  0
LINE
  5
3586
330
1F
100
AcDbEntity
  8
0
100
AcDbLine
 10
10.49862823768108
 20
6.525169397321272
 30
0.0
 11
10.5031463560952
 21
6.526509143283428
 31
0.0
  0
LINE
  5
3587
330
1F
100
AcDbEntity
  8
0
100
AcDbLine
 10
10.5031463560952
 20
6.526509143283428
 30
0.0
 11
10.50746487262098
 21
6.526685524185479
 31
0.0
  0
LINE
  5
3588
330
1F
100
AcDbEntity
  8
0
100
AcDbLine
 10
10.50746487262098
 20
6.526685524185479
 30
0.0
 11
10.51128948749388
 21
6.525686519960432
 31
0.0
  0
LINE
  5
3589
330
1F
100
AcDbEntity
  8
0
100
AcDbLine
 10
10.51128948749388
 20
6.525686519960432
 30
0.0
 11
10.51435955953079
 21
6.523580211095294
 31
0.0
  0
LINE
  5
358A
330
1F
100
AcDbEntity
  8
0
100
AcDbLine
 10
10.51935955953079
 20
6.518580211095295
 30
0.0
 11
10.51435955953079
 21
6.523580211095294
 31
0.0
  0
LINE
  5
358B
330
1F
100
AcDbEntity
  8
0
100
AcDbLine
 10
10.49107528828333
 20
6.490295939847834
 30
0.0
 11
10.48607528828333
 21
6.495295939847833
 31
0.0
  0
LINE
  5
358C
330
1F
100
AcDbEntity
  8
0
100
AcDbLine
 10
10.58095190039516
 20
6.448703598983469
 30
0.0
 11
10.57648113973058
 21
6.447316495271779
 31
0.0
  0
LINE
  5
358D
330
1F
100
AcDbEntity
  8
0
100
AcDbLine
 10
10.59976169910014
 20
6.434388697706316
 30
0.0
 11
10.59883456679966
 21
6.438141440654659
 31
0.0
  0
LINE
  5
358E
330
1F
100
AcDbEntity
  8
0
100
AcDbLine
 10
10.58837440871504
 20
6.413960582587895
 30
0.0
 11
10.59236525038623
 21
6.417290248992395
 31
0.0
  0
LINE
  5
358F
330
1F
100
AcDbEntity
  8
0
100
AcDbLine
 10
10.59569491679073
 20
6.421281090663585
 30
0.0
 11
10.59813649666561
 21
6.425661138336744
 31
0.0
  0
LINE
  5
3590
330
1F
100
AcDbEntity
  8
0
100
AcDbLine
 10
10.57151405872397
 20
6.410820932578969
 30
0.0
 11
10.57526680167231
 21
6.409893800278483
 31
0.0
  0
LINE
  5
3591
330
1F
100
AcDbEntity
  8
0
100
AcDbLine
 10
11.3259312248816
 20
7.179962223487764
 30
0.0
 11
11.3307822248816
 21
7.175111223487766
 31
0.0
  0
LINE
  5
3592
330
1F
100
AcDbEntity
  8
0
100
AcDbLine
 10
11.30116684297849
 20
7.162300198519686
 30
0.0
 11
11.2997797392668
 21
7.157829437855104
 31
0.0
  0
LINE
  5
3593
330
1F
100
AcDbEntity
  8
0
100
AcDbLine
 10
10.57648113973058
 20
6.447316495271779
 30
0.0
 11
10.57210109205742
 21
6.4448749153969
 31
0.0
  0
LINE
  5
3594
330
1F
100
AcDbEntity
  8
0
100
AcDbLine
 10
10.59680538600996
 20
6.441134384616129
 30
0.0
 11
10.59381244204849
 21
6.443163565405827
 31
0.0
  0
LINE
  5
3595
330
1F
100
AcDbEntity
  8
0
100
AcDbLine
 10
11.3197797392668
 20
7.177829437855107
 30
0.0
 11
11.31530897860222
 21
7.176442334143414
 31
0.0
  0
LINE
  5
3596
330
1F
100
AcDbEntity
  8
0
100
AcDbLine
 10
10.59195438600996
 20
6.445985384616127
 30
0.0
 11
10.58896144204849
 21
6.448014565405825
 31
0.0
  0
LINE
  5
3597
330
1F
100
AcDbEntity
  8
0
100
AcDbLine
 10
10.57210109205742
 20
6.4448749153969
 30
0.0
 11
10.56811025038623
 21
6.441545248992399
 31
0.0
  0
LINE
  5
3598
330
1F
100
AcDbEntity
  8
0
100
AcDbLine
 10
11.31092893092906
 20
7.174000754268535
 30
0.0
 11
11.30693808925787
 21
7.170671087864034
 31
0.0
  0
LINE
  5
3599
330
1F
100
AcDbEntity
  8
0
100
AcDbLine
 10
11.32403653797179
 20
7.178067536577946
 30
0.0
 11
11.3197797392668
 21
7.177829437855107
 31
0.0
  0
LINE
  5
359A
330
1F
100
AcDbEntity
  8
0
100
AcDbLine
 10
10.59005969910015
 20
6.444090697706313
 30
0.0
 11
10.58580290039516
 21
6.44385259898347
 31
0.0
  0
LINE
  5
359B
330
1F
100
AcDbEntity
  8
0
100
AcDbLine
 10
10.59813649666561
 20
6.425661138336744
 30
0.0
 11
10.5995236003773
 21
6.430131899001326
 31
0.0
  0
LINE
  5
359C
330
1F
100
AcDbEntity
  8
0
100
AcDbLine
 10
11.31530897860222
 20
7.176442334143414
 30
0.0
 11
11.31092893092906
 21
7.174000754268535
 31
0.0
  0
LINE
  5
359D
330
1F
100
AcDbEntity
  8
0
100
AcDbLine
 10
10.58896144204849
 20
6.448014565405825
 30
0.0
 11
10.58520869910015
 21
6.448941697706311
 31
0.0
  0
LINE
  5
359E
330
1F
100
AcDbEntity
  8
0
100
AcDbLine
 10
11.2997797392668
 20
7.157829437855104
 30
0.0
 11
11.29954164054395
 21
7.153572639150114
 31
0.0
  0
LINE
  5
359F
330
1F
100
AcDbEntity
  8
0
100
AcDbLine
 10
10.5995236003773
 20
6.430131899001326
 30
0.0
 11
10.59976169910014
 21
6.434388697706316
 31
0.0
  0
LINE
  5
35A0
330
1F
100
AcDbEntity
  8
0
100
AcDbLine
 10
10.59883456679966
 20
6.438141440654659
 30
0.0
 11
10.59680538600996
 21
6.441134384616129
 31
0.0
  0
LINE
  5
35A1
330
1F
100
AcDbEntity
  8
0
100
AcDbLine
 10
10.58520869910015
 20
6.448941697706311
 30
0.0
 11
10.58095190039516
 21
6.448703598983469
 31
0.0
  0
LINE
  5
35A2
330
1F
100
AcDbEntity
  8
0
100
AcDbLine
 10
10.58399436104188
 20
6.411519002713015
 30
0.0
 11
10.58837440871504
 21
6.413960582587895
 31
0.0
  0
LINE
  5
35A3
330
1F
100
AcDbEntity
  8
0
100
AcDbLine
 10
10.59195438600996
 20
6.445985384616127
 30
0.0
 11
10.59680538600996
 21
6.441134384616129
 31
0.0
  0
LINE
  5
35A4
330
1F
100
AcDbEntity
  8
0
100
AcDbLine
 10
11.30607793092905
 20
7.178851754268533
 30
0.0
 11
11.30208708925787
 21
7.175522087864033
 31
0.0
  0
LINE
  5
35A5
330
1F
100
AcDbEntity
  8
0
100
AcDbLine
 10
11.30360842285337
 20
7.166680246192848
 30
0.0
 11
11.30116684297849
 21
7.162300198519686
 31
0.0
  0
LINE
  5
35A6
330
1F
100
AcDbEntity
  8
0
100
AcDbLine
 10
10.56963158398173
 20
6.432703407321211
 30
0.0
 11
10.56719000410685
 21
6.428323359648048
 31
0.0
  0
LINE
  5
35A7
330
1F
100
AcDbEntity
  8
0
100
AcDbLine
 10
11.30693808925787
 20
7.170671087864034
 30
0.0
 11
11.30360842285337
 21
7.166680246192848
 31
0.0
  0
LINE
  5
35A8
330
1F
100
AcDbEntity
  8
0
100
AcDbLine
 10
11.32235124758668
 20
7.147937421459529
 30
0.0
 11
11.32634208925787
 21
7.151267087864033
 31
0.0
  0
LINE
  5
35A9
330
1F
100
AcDbEntity
  8
0
100
AcDbLine
 10
10.51529332365612
 20
6.424216546349695
 30
0.0
 11
11.32139505420879
 21
7.230318276902361
 31
0.0
  0
LINE
  5
35AA
330
1F
100
AcDbEntity
  8
0
100
AcDbLine
 10
11.32967175566237
 20
7.155257929535219
 30
0.0
 11
11.33211333553725
 21
7.159637977208381
 31
0.0
  0
LINE
  5
35AB
330
1F
100
AcDbEntity
  8
0
100
AcDbLine
 10
10.5616409339728
 20
6.420694057330139
 30
0.0
 11
10.5636701147625
 21
6.417701113368666
 31
0.0
  0
LINE
  5
35AC
330
1F
100
AcDbEntity
  8
0
100
AcDbLine
 10
10.5636701147625
 20
6.417701113368666
 30
0.0
 11
10.5685211147625
 21
6.412850113368667
 31
0.0
  0
LINE
  5
35AD
330
1F
100
AcDbEntity
  8
0
100
AcDbLine
 10
10.5664919339728
 20
6.415843057330137
 30
0.0
 11
10.5685211147625
 21
6.412850113368667
 31
0.0
  0
LINE
  5
35AE
330
1F
100
AcDbEntity
  8
0
100
AcDbLine
 10
10.57695209205742
 20
6.440023915396897
 30
0.0
 11
10.57296125038623
 21
6.436694248992397
 31
0.0
  0
LINE
  5
35AF
330
1F
100
AcDbEntity
  8
0
100
AcDbLine
 10
11.33211333553725
 20
7.159637977208381
 30
0.0
 11
11.33350043924894
 21
7.164108737872959
 31
0.0
  0
LINE
  5
35B0
330
1F
100
AcDbEntity
  8
0
100
AcDbLine
 10
11.29875742285337
 20
7.171531246192847
 30
0.0
 11
11.29631584297849
 21
7.167151198519684
 31
0.0
  0
LINE
  5
35B1
330
1F
100
AcDbEntity
  8
0
100
AcDbLine
 10
11.29469064054395
 20
7.158423639150116
 30
0.0
 11
11.29561777284444
 21
7.154670896201773
 31
0.0
  0
LINE
  5
35B2
330
1F
100
AcDbEntity
  8
0
100
AcDbLine
 10
11.32634208925787
 20
7.151267087864033
 30
0.0
 11
11.32967175566237
 21
7.155257929535219
 31
0.0
  0
LINE
  5
35B3
330
1F
100
AcDbEntity
  8
0
100
AcDbLine
 10
11.31918553797179
 20
7.182918536577949
 30
0.0
 11
11.3149287392668
 21
7.182680437855106
 31
0.0
  0
LINE
  5
35B4
330
1F
100
AcDbEntity
  8
0
100
AcDbLine
 10
11.33373853797178
 20
7.168365536577953
 30
0.0
 11
11.3328114056713
 21
7.172118279526292
 31
0.0
  0
LINE
  5
35B5
330
1F
100
AcDbEntity
  8
0
100
AcDbLine
 10
11.29561777284444
 20
7.154670896201773
 30
0.0
 11
11.29764695363414
 21
7.151677952240303
 31
0.0
  0
LINE
  5
35B6
330
1F
100
AcDbEntity
  8
0
100
AcDbLine
 10
11.2949287392668
 20
7.162680437855106
 30
0.0
 11
11.29469064054395
 21
7.158423639150116
 31
0.0
  0
LINE
  5
35B7
330
1F
100
AcDbEntity
  8
0
100
AcDbLine
 10
11.29631584297849
 20
7.167151198519684
 30
0.0
 11
11.2949287392668
 21
7.162680437855106
 31
0.0
  0
LINE
  5
35B8
330
1F
100
AcDbEntity
  8
0
100
AcDbLine
 10
11.30208708925787
 20
7.175522087864033
 30
0.0
 11
11.29875742285337
 21
7.171531246192847
 31
0.0
  0
LINE
  5
35B9
330
1F
100
AcDbEntity
  8
0
100
AcDbLine
 10
10.5685211147625
 20
6.412850113368667
 30
0.0
 11
10.57151405872397
 21
6.410820932578969
 31
0.0
  0
LINE
  5
35BA
330
1F
100
AcDbEntity
  8
0
100
AcDbLine
 10
11.29954164054395
 20
7.153572639150114
 30
0.0
 11
11.30046877284444
 21
7.149819896201774
 31
0.0
  0
LINE
  5
35BB
330
1F
100
AcDbEntity
  8
0
100
AcDbLine
 10
10.56071380167231
 20
6.424446800278479
 30
0.0
 11
10.5616409339728
 21
6.420694057330139
 31
0.0
  0
LINE
  5
35BC
330
1F
100
AcDbEntity
  8
0
100
AcDbLine
 10
10.56095190039516
 20
6.428703598983469
 30
0.0
 11
10.56071380167231
 21
6.424446800278479
 31
0.0
  0
LINE
  5
35BD
330
1F
100
AcDbEntity
  8
0
100
AcDbLine
 10
10.56233900410685
 20
6.433174359648051
 30
0.0
 11
10.56095190039516
 21
6.428703598983469
 31
0.0
  0
LINE
  5
35BE
330
1F
100
AcDbEntity
  8
0
100
AcDbLine
 10
10.56478058398173
 20
6.43755440732121
 30
0.0
 11
10.56233900410685
 21
6.433174359648051
 31
0.0
  0
LINE
  5
35BF
330
1F
100
AcDbEntity
  8
0
100
AcDbLine
 10
10.56811025038623
 20
6.441545248992399
 30
0.0
 11
10.56478058398173
 21
6.43755440732121
 31
0.0
  0
LINE
  5
35C0
330
1F
100
AcDbEntity
  8
0
100
AcDbLine
 10
11.3259312248816
 20
7.179962223487764
 30
0.0
 11
11.32293828092013
 21
7.181991404277463
 31
0.0
  0
LINE
  5
35C1
330
1F
100
AcDbEntity
  8
0
100
AcDbLine
 10
11.31045797860222
 20
7.181293334143413
 30
0.0
 11
11.30607793092905
 21
7.178851754268533
 31
0.0
  0
LINE
  5
35C2
330
1F
100
AcDbEntity
  8
0
100
AcDbLine
 10
11.3149287392668
 20
7.182680437855106
 30
0.0
 11
11.31045797860222
 21
7.181293334143413
 31
0.0
  0
LINE
  5
35C3
330
1F
100
AcDbEntity
  8
0
100
AcDbLine
 10
11.32293828092013
 20
7.181991404277463
 30
0.0
 11
11.31918553797179
 21
7.182918536577949
 31
0.0
  0
LINE
  5
35C4
330
1F
100
AcDbEntity
  8
0
100
AcDbLine
 10
11.30046877284444
 20
7.149819896201774
 30
0.0
 11
11.30249795363414
 21
7.146826952240301
 31
0.0
  0
LINE
  5
35C5
330
1F
100
AcDbEntity
  8
0
100
AcDbLine
 10
11.30924364054395
 20
7.143870639150117
 30
0.0
 11
11.31350043924894
 21
7.144108737872963
 31
0.0
  0
LINE
  5
35C6
330
1F
100
AcDbEntity
  8
0
100
AcDbLine
 10
11.30249795363414
 20
7.146826952240301
 30
0.0
 11
11.30549089759561
 21
7.144797771450603
 31
0.0
  0
LINE
  5
35C7
330
1F
100
AcDbEntity
  8
0
100
AcDbLine
 10
11.29764695363414
 20
7.151677952240303
 30
0.0
 11
11.30249795363414
 21
7.146826952240301
 31
0.0
  0
LINE
  5
35C8
330
1F
100
AcDbEntity
  8
0
100
AcDbLine
 10
10.59236525038623
 20
6.417290248992395
 30
0.0
 11
10.59569491679073
 21
6.421281090663585
 31
0.0
  0
LINE
  5
35C9
330
1F
100
AcDbEntity
  8
0
100
AcDbLine
 10
11.31797119991352
 20
7.145495841584653
 30
0.0
 11
11.32235124758668
 21
7.147937421459529
 31
0.0
  0
LINE
  5
35CA
330
1F
100
AcDbEntity
  8
0
100
AcDbLine
 10
10.5795236003773
 20
6.410131899001326
 30
0.0
 11
10.58399436104188
 21
6.411519002713015
 31
0.0
  0
LINE
  5
35CB
330
1F
100
AcDbEntity
  8
0
100
AcDbLine
 10
11.31350043924894
 20
7.144108737872963
 30
0.0
 11
11.31797119991352
 21
7.145495841584653
 31
0.0
  0
LINE
  5
35CC
330
1F
100
AcDbEntity
  8
0
100
AcDbLine
 10
11.3307822248816
 20
7.175111223487766
 30
0.0
 11
11.32778928092013
 21
7.177140404277464
 31
0.0
  0
LINE
  5
35CD
330
1F
100
AcDbEntity
  8
0
100
AcDbLine
 10
11.32778928092013
 20
7.177140404277464
 30
0.0
 11
11.32403653797179
 21
7.178067536577946
 31
0.0
  0
LINE
  5
35CE
330
1F
100
AcDbEntity
  8
0
100
AcDbLine
 10
11.30549089759561
 20
7.144797771450603
 30
0.0
 11
11.30924364054395
 21
7.143870639150117
 31
0.0
  0
LINE
  5
35CF
330
1F
100
AcDbEntity
  8
0
100
AcDbLine
 10
11.33350043924894
 20
7.164108737872959
 30
0.0
 11
11.33373853797178
 21
7.168365536577953
 31
0.0
  0
LINE
  5
35D0
330
1F
100
AcDbEntity
  8
0
100
AcDbLine
 10
11.3328114056713
 20
7.172118279526292
 30
0.0
 11
11.3307822248816
 21
7.175111223487766
 31
0.0
  0
LINE
  5
35D1
330
1F
100
AcDbEntity
  8
0
100
AcDbLine
 10
10.56719000410685
 20
6.428323359648048
 30
0.0
 11
10.56580290039516
 21
6.42385259898347
 31
0.0
  0
LINE
  5
35D2
330
1F
100
AcDbEntity
  8
0
100
AcDbLine
 10
10.57296125038623
 20
6.436694248992397
 30
0.0
 11
10.56963158398173
 21
6.432703407321211
 31
0.0
  0
LINE
  5
35D3
330
1F
100
AcDbEntity
  8
0
100
AcDbLine
 10
10.56580290039516
 20
6.42385259898347
 30
0.0
 11
10.56556480167231
 21
6.41959580027848
 31
0.0
  0
LINE
  5
35D4
330
1F
100
AcDbEntity
  8
0
100
AcDbLine
 10
10.56556480167231
 20
6.41959580027848
 30
0.0
 11
10.5664919339728
 21
6.415843057330137
 31
0.0
  0
LINE
  5
35D5
330
1F
100
AcDbEntity
  8
0
100
AcDbLine
 10
10.58133213973058
 20
6.442465495271781
 30
0.0
 11
10.57695209205742
 21
6.440023915396897
 31
0.0
  0
LINE
  5
35D6
330
1F
100
AcDbEntity
  8
0
100
AcDbLine
 10
10.58580290039516
 20
6.44385259898347
 30
0.0
 11
10.58133213973058
 21
6.442465495271781
 31
0.0
  0
LINE
  5
35D7
330
1F
100
AcDbEntity
  8
0
100
AcDbLine
 10
10.59381244204849
 20
6.443163565405827
 30
0.0
 11
10.59005969910015
 21
6.444090697706313
 31
0.0
  0
LINE
  5
35F2
330
1F
100
AcDbEntity
  8
STREFA BEZPIECZEŃSTWA
100
AcDbLine
 10
8.593309462123414
 20
4.415033637924196
 30
0.0
 11
8.593309462123414
 21
4.315033637924196
 31
0.0
  0
LINE
  5
35F3
330
1F
100
AcDbEntity
  8
STREFA BEZPIECZEŃSTWA
100
AcDbLine
 10
8.593309462123414
 20
4.315033637924196
 30
0.0
 11
14.09330946212342
 21
4.315033637924198
 31
0.0
  0
LINE
  5
35F4
330
1F
100
AcDbEntity
  8
STREFA BEZPIECZEŃSTWA
100
AcDbLine
 10
14.09330946212342
 20
4.315033637924198
 30
0.0
 11
14.09330946212342
 21
11.0150336379242
 31
0.0
  0
LINE
  5
35F5
330
1F
100
AcDbEntity
  8
STREFA BEZPIECZEŃSTWA
100
AcDbLine
 10
14.09330946212342
 20
11.0150336379242
 30
0.0
 11
8.593309462123416
 21
11.0150336379242
 31
0.0
  0
LINE
  5
35F6
102
{ACAD_REACTORS
330
360A
102
}
330
1F
100
AcDbEntity
  8
STREFA BEZPIECZEŃSTWA
100
AcDbLine
 10
8.593309462123416
 20
11.0150336379242
 30
0.0
 11
8.593309462123414
 21
4.315033637924196
 31
0.0
  0
DIMENSION
  5
35F7
102
{ACAD_XDICTIONARY
360
3602
102
}
102
{ACAD_REACTORS
330
360A
102
}
330
1F
100
AcDbEntity
  8
WYMIAR
100
AcDbDimension
  2
*D3
 10
8.070000307006033
 20
4.315033637924196
 30
0.0
 11
7.860000307006032
 21
7.665033637924199
 31
0.0
 70
    32
 71
     5
 42
6.700000000000004
  3
AR SKALA 1-50
100
AcDbAlignedDimension
 13
8.593309462123416
 23
11.0150336379242
 33
0.0
 14
8.593309462123414
 24
4.315033637924196
 34
0.0
 50
90.0
100
AcDbRotatedDimension
  0
LWPOLYLINE
  5
361B
330
1F
100
AcDbEntity
  8
0
100
AcDbPolyline
 90
        4
 70
     1
 43
0.0
 10
11.77332347882956
 20
7.532761660673584
 10
11.88986871788727
 20
7.532761660673584
 10
11.88986871788727
 20
7.423258939898209
 10
11.77332347882956
 20
7.423258939898209
  0
VIEWPORT
  5
7CA
330
1B
100
AcDbEntity
 67
     1
  8
0
100
AcDbViewport
 10
243.901373445621
 20
123.0363382941305
 30
0.0
 40
680.2479180929341
 41
344.3596247880171
 68
     1
 69
     1
 12
243.901373445621
 22
123.0363382941305
 13
0.0
 23
0.0
 14
10.0
 24
10.0
 15
10.0
 25
10.0
 16
0.0
 26
0.0
 36
1.0
 17
0.0
 27
0.0
 37
0.0
 42
50.0
 43
0.0
 44
0.0
 45
344.3596247880171
 50
0.0
 51
0.0
 72
   100
 90
   819232
  1

281
     0
 71
     1
 74
     0
110
0.0
120
0.0
130
0.0
111
1.0
121
0.0
131
0.0
112
0.0
122
1.0
132
0.0
 79
     0
146
0.0
170
     0
  0
VIEWPORT
  5
99A
330
1B
100
AcDbEntity
 67
     1
  8
Defpoints
100
AcDbViewport
 10
151.5855934681565
 20
104.8621726199724
 30
0.0
 40
290.0480970456033
 41
203.1599664902751
 68
     2
 69
     2
 12
11.89198244027003
 22
7.596804574712935
 13
0.0
 23
0.0
 14
0.5
 24
0.5
 15
0.5
 25
0.5
 16
0.0
 26
0.0
 36
1.0
 17
0.0
 27
0.0
 37
-1000.0
 42
50.0
 43
4.148984367261674
 44
9.217858496371269
 45
10.15799926224799
 50
0.0
 51
0.0
 72
   100
 90
   819296
  1

281
     0
 71
     1
 74
     0
110
0.0
120
0.0
130
0.0
111
1.0
121
0.0
131
0.0
112
0.0
122
1.0
132
0.0
 79
     0
146
0.0
170
     0
  0
ENDSEC
  0
SECTION
  2
OBJECTS
  0
DICTIONARY
  5
C
330
0
100
AcDbDictionary
281
     1
  3
ACAD_COLOR
350
4B9
  3
ACAD_GROUP
350
D
  3
ACAD_LAYOUT
350
1A
  3
ACAD_MATERIAL
350
3B
  3
ACAD_MLEADERSTYLE
350
489
  3
ACAD_MLINESTYLE
350
17
  3
ACAD_PLOTSETTINGS
350
19
  3
ACAD_PLOTSTYLENAME
350
E
  3
ACAD_SCALELIST
350
3458
  3
ACAD_TABLESTYLE
350
4BA
  3
ACAD_VISUALSTYLE
350
2A
  3
ACDB_RECOMPOSE_DATA
350
3491
  3
AcDbVariableDictionary
350
487
  0
DICTIONARY
  5
84C
330
8
100
AcDbDictionary
280
     1
281
     1
  0
DICTIONARY
  5
7D1
330
2
100
AcDbDictionary
280
     1
281
     1
  3
ACAD_LAYERFILTERS
360
3627
  3
ACAD_LAYERSTATES
360
7D2
  3
ACLYDICTIONARY
360
3626
  0
DICTIONARY
  5
3489
330
10
100
AcDbDictionary
280
     1
281
     1
  3
ADSK_XREC_LAYER_RECONCILED
360
348A
  0
DICTIONARY
  5
348B
330
87B
100
AcDbDictionary
280
     1
281
     1
  3
ADSK_XREC_LAYER_RECONCILED
360
348C
  0
DICTIONARY
  5
348D
330
87D
100
AcDbDictionary
280
     1
281
     1
  3
ADSK_XREC_LAYER_RECONCILED
360
348E
  0
DICTIONARY
  5
5F8
330
1F
100
AcDbDictionary
280
     1
281
     1
  3
ACAD_SORTENTS
360
5F9
  0
DICTIONARY
  5
3602
330
35F7
100
AcDbDictionary
280
     1
281
     1
  3
ACAD_DIMASSOC
360
360A
  0
DICTIONARY
  5
4B9
102
{ACAD_REACTORS
330
C
102
}
330
C
100
AcDbDictionary
281
     1
  0
DICTIONARY
  5
D
102
{ACAD_REACTORS
330
C
102
}
330
C
100
AcDbDictionary
281
     1
  0
DICTIONARY
  5
1A
102
{ACAD_REACTORS
330
C
102
}
330
C
100
AcDbDictionary
281
     1
  3
Layout1
350
1E
  3
Model
350
22
  0
DICTIONARY
  5
3B
102
{ACAD_REACTORS
330
C
102
}
330
C
100
AcDbDictionary
281
     1
  3
ByBlock
350
3D
  3
ByLayer
350
3C
  3
Global
350
3E
  0
DICTIONARY
  5
489
102
{ACAD_REACTORS
330
C
102
}
330
C
100
AcDbDictionary
281
     1
  3
Standard
350
347A
  0
DICTIONARY
  5
17
102
{ACAD_REACTORS
330
C
102
}
330
C
100
AcDbDictionary
281
     1
  3
Standard
350
18
  0
DICTIONARY
  5
19
102
{ACAD_REACTORS
330
C
102
}
330
C
100
AcDbDictionary
281
     1
  0
ACDBDICTIONARYWDFLT
  5
E
102
{ACAD_REACTORS
330
C
102
}
330
C
100
AcDbDictionary
281
     1
  3
Normal
350
F
100
AcDbDictionaryWithDefault
340
F
  0
DICTIONARY
  5
3458
102
{ACAD_REACTORS
330
C
102
}
330
C
100
AcDbDictionary
281
     1
  3
A0
350
3459
  3
A1
350
345A
  3
A2
350
345B
  3
A3
350
345C
  3
A4
350
345D
  3
A5
350
345E
  3
A6
350
345F
  3
A7
350
3460
  3
A8
350
3461
  3
A9
350
3462
  3
B0
350
3463
  3
B1
350
3464
  3
B2
350
3465
  3
B3
350
3466
  3
B4
350
3467
  3
B5
350
3468
  3
B6
350
3469
  3
B7
350
346A
  3
B8
350
346B
  3
B9
350
346C
  3
C0
350
346D
  3
C1
350
346E
  3
C2
350
346F
  3
C3
350
3470
  3
C4
350
3471
  3
C5
350
3472
  3
C6
350
3473
  3
C7
350
3474
  3
C8
350
3475
  3
C9
350
3476
  3
D0
350
3477
  3
D1
350
3478
  3
D2
350
3479
  0
DICTIONARY
  5
4BA
102
{ACAD_REACTORS
330
C
102
}
330
C
100
AcDbDictionary
281
     1
  3
Standard
350
4BB
  0
DICTIONARY
  5
2A
102
{ACAD_REACTORS
330
C
102
}
330
C
100
AcDbDictionary
281
     1
  3
2dWireframe
350
2F
  3
3D Hidden
350
A47
  3
3dWireframe
350
A48
  3
Basic
350
32
  3
Brighten
350
36
  3
ColorChange
350
3A
  3
Conceptual
350
A4B
  3
Dim
350
35
  3
Facepattern
350
39
  3
Flat
350
2B
  3
FlatWithEdges
350
2C
  3
Gouraud
350
2D
  3
GouraudWithEdges
350
2E
  3
Linepattern
350
38
  3
Realistic
350
A4C
  3
Thicken
350
37
  0
XRECORD
  5
3491
102
{ACAD_REACTORS
330
C
102
}
330
C
100
AcDbXrecord
280
     1
 90
        1
330
4BB
  0
DICTIONARY
  5
487
102
{ACAD_REACTORS
330
C
102
}
330
C
100
AcDbDictionary
281
     1
  3
CANNOSCALE
350
3494
  3
CMLEADERSTYLE
350
3492
  3
CTABLESTYLE
350
5FE
  3
DIMASSOC
350
48A
  3
HIDETEXT
350
48B
  3
INDEXCTL
350
86B
  3
LIGHTINGUNITS
350
3495
  3
MSLTSCALE
350
3493
  3
SORTENTS
350
86A
  0
DICTIONARY
  5
3627
102
{ACAD_REACTORS
330
7D1
102
}
330
7D1
100
AcDbDictionary
281
     1
  0
DICTIONARY
  5
7D2
102
{ACAD_REACTORS
330
7D1
102
}
330
7D1
100
AcDbDictionary
281
     1
  0
DICTIONARY
  5
3626
102
{ACAD_REACTORS
330
7D1
102
}
330
7D1
100
AcDbDictionary
281
     1
1001
ACAD
1000
<All
  0
XRECORD
  5
348A
102
{ACAD_REACTORS
330
3489
102
}
330
3489
100
AcDbXrecord
280
     1
290
     1
  0
XRECORD
  5
348C
102
{ACAD_REACTORS
330
348B
102
}
330
348B
100
AcDbXrecord
280
     1
290
     1
  0
XRECORD
  5
348E
102
{ACAD_REACTORS
330
348D
102
}
330
348D
100
AcDbXrecord
280
     1
290
     1
  0
SORTENTSTABLE
  5
5F9
102
{ACAD_REACTORS
330
5F8
102
}
330
5F8
100
AcDbSortentsTable
330
1F
331
30A8
  5
30A8
331
3195
  5
3195
331
3253
  5
3253
331
30EF
  5
30EF
331
3126
  5
3126
331
30B0
  5
30B0
331
325B
  5
325B
331
30B8
  5
30B8
331
30F7
  5
30F7
331
312E
  5
312E
331
31DD
  5
31DD
331
358A
  5
358E
331
35C9
  5
35CD
331
3136
  5
3136
331
31E5
  5
31E5
331
30C0
  5
30C0
331
30FF
  5
30FF
331
3263
  5
3263
331
3592
  5
3596
331
35D1
  5
35D5
331
359A
  5
359E
331
35A2
  5
35A6
331
32D5
  5
32D5
331
330C
  5
330C
331
338A
  5
338A
331
3557
  5
355B
331
32DD
  5
32DD
331
3314
  5
3314
331
3296
  5
3296
331
355F
  5
3563
331
32E5
  5
32E5
331
331C
  5
331C
331
335B
  5
335B
331
3392
  5
3392
331
3567
  5
356B
331
3324
  5
3324
331
32AE
  5
32AE
331
30C8
  5
30C8
331
30D0
  5
30D0
331
3107
  5
3107
331
31ED
  5
31ED
331
3234
  5
3234
331
323C
  5
323C
331
30D8
  5
30D8
331
310F
  5
310F
331
31F5
  5
31F5
331
35AA
  5
35AE
331
356B
  5
356F
331
3186
  5
3186
331
30E0
  5
30E0
331
3117
  5
3117
331
31FD
  5
31FD
331
30A1
  5
30A1
331
35B2
  5
35B6
331
324C
  5
324C
331
3573
  5
3577
331
318E
  5
318E
331
311F
  5
311F
331
3205
  5
3205
331
35BA
  5
35BE
331
357B
  5
357F
331
3583
  5
3587
331
35C2
  5
35C6
331
33A2
  5
33A2
331
32ED
  5
32ED
331
332C
  5
332C
331
326F
  5
326F
331
32B6
  5
32B6
331
3363
  5
3363
331
33AA
  5
33AA
331
32BE
  5
32BE
331
32F5
  5
32F5
331
3334
  5
3334
331
3540
  5
3544
331
333C
  5
333C
331
3373
  5
3373
331
32C6
  5
32C6
331
32FD
  5
32FD
331
33B2
  5
33B2
331
327F
  5
327F
331
33BA
  5
33BA
331
3344
  5
3344
331
337B
  5
337B
331
3548
  5
354C
331
3287
  5
3287
331
32CE
  5
32CE
331
3305
  5
3305
331
30A9
  5
30A9
331
30E8
  5
30E8
331
3127
  5
3127
331
3196
  5
3196
331
30B1
  5
30B1
331
30F0
  5
30F0
331
30F8
  5
30F8
331
312F
  5
312F
331
31DE
  5
31DE
331
30B9
  5
30B9
331
30C1
  5
30C1
331
3137
  5
3137
331
31E6
  5
31E6
331
358B
  5
358F
331
35CA
  5
35CE
331
35D2
  5
35D6
331
3593
  5
3597
331
359B
  5
359F
331
35A3
  5
35A7
331
3550
  5
3554
331
32D6
  5
32D6
331
330D
  5
330D
331
328F
  5
328F
331
334C
  5
334C
331
33C2
  5
3540
331
338B
  5
338B
331
3558
  5
355C
331
32DE
  5
32DE
331
3315
  5
3315
331
3297
  5
3297
331
335C
  5
335C
331
3560
  5
3564
331
32E6
  5
32E6
331
331D
  5
331D
331
339B
  5
339B
331
32AF
  5
32AF
331
3325
  5
3325
331
30C9
  5
30C9
331
3100
  5
3100
331
3235
  5
3235
331
314F
  5
314F
331
30D1
  5
30D1
331
3108
  5
3108
331
31EE
  5
31EE
331
31F6
  5
31F6
331
323D
  5
323D
331
309A
  5
309A
331
30D9
  5
30D9
331
3110
  5
3110
331
35AB
  5
35AF
331
31FE
  5
31FE
331
30E1
  5
30E1
331
3118
  5
3118
331
30A2
  5
30A2
331
3187
  5
3187
331
356C
  5
3570
331
324D
  5
324D
331
3574
  5
3578
331
318F
  5
318F
331
3206
  5
3206
331
35B3
  5
35B7
331
35BB
  5
35BF
331
357C
  5
3580
331
35C3
  5
35C7
331
3584
  5
3588
331
3268
  5
3268
331
332D
  5
332D
331
3364
  5
3364
331
32B7
  5
32B7
331
32EE
  5
32EE
331
33A3
  5
33A3
331
3270
  5
3270
331
33AB
  5
33AB
331
32F6
  5
32F6
331
3335
  5
3335
331
32BF
  5
32BF
331
3541
  5
3545
331
33B3
  5
33B3
331
32FE
  5
32FE
331
333D
  5
333D
331
3280
  5
3280
331
32C7
  5
32C7
331
3374
  5
3374
331
33BB
  5
33BB
331
3345
  5
3345
331
337C
  5
337C
331
3549
  5
354D
331
32CF
  5
32CF
331
3306
  5
3306
331
30E9
  5
30E9
331
3120
  5
3120
331
30AA
  5
30AA
331
3197
  5
3197
331
3255
  5
3255
331
30F1
  5
30F1
331
3128
  5
3128
331
30B2
  5
30B2
331
325D
  5
325D
331
30BA
  5
30BA
331
30F9
  5
30F9
331
3130
  5
3130
331
31DF
  5
31DF
331
3216
  5
3216
331
358C
  5
3590
331
31E7
  5
31E7
331
321E
  5
321E
331
3138
  5
3138
331
35CB
  5
35CF
331
30C2
  5
30C2
331
3594
  5
3598
331
35D3
  5
35D7
331
359C
  5
35A0
331
35A4
  5
35A8
331
3288
  5
3288
331
3551
  5
3555
331
32D7
  5
32D7
331
330E
  5
330E
331
3290
  5
3290
331
338C
  5
338C
331
3559
  5
355D
331
3298
  5
3298
331
32DF
  5
32DF
331
3316
  5
3316
331
3561
  5
3565
331
32E7
  5
32E7
331
331E
  5
331E
331
335D
  5
335D
331
339C
  5
339C
331
3326
  5
3326
331
30CA
  5
30CA
331
3101
  5
3101
331
30D2
  5
30D2
331
3109
  5
3109
331
31EF
  5
31EF
331
3236
  5
3236
331
323E
  5
323E
331
3180
  5
3180
331
30DA
  5
30DA
331
3111
  5
3111
331
31F7
  5
31F7
331
309B
  5
309B
331
35AC
  5
35B0
331
356D
  5
3571
331
3188
  5
3188
331
30E2
  5
30E2
331
3119
  5
3119
331
31FF
  5
31FF
331
30A3
  5
30A3
331
35B4
  5
35B8
331
3207
  5
3207
331
324E
  5
324E
331
3575
  5
3579
331
35BC
  5
35C0
331
357D
  5
3581
331
3585
  5
3589
331
35C4
  5
35C8
331
32B0
  5
32B0
331
3365
  5
3365
331
33A4
  5
33A4
331
32EF
  5
32EF
331
332E
  5
332E
331
3271
  5
3271
331
32B8
  5
32B8
331
33AC
  5
33AC
331
32C0
  5
32C0
331
32F7
  5
32F7
331
3336
  5
3336
331
3542
  5
3546
331
333E
  5
333E
331
3375
  5
3375
331
32C8
  5
32C8
331
32FF
  5
32FF
331
33B4
  5
33B4
331
3281
  5
3281
331
33BC
  5
33BC
331
3307
  5
3307
331
3346
  5
3346
331
337D
  5
337D
331
354A
  5
354E
331
3190
  5
3190
331
30AB
  5
30AB
331
30EA
  5
30EA
331
3121
  5
3121
331
30F2
  5
30F2
331
3129
  5
3129
331
31D8
  5
31D8
331
30B3
  5
30B3
331
30FA
  5
30FA
331
3131
  5
3131
331
31E0
  5
31E0
331
30BB
  5
30BB
331
35CC
  5
35D0
331
3266
  5
3266
331
358D
  5
3591
331
30C3
  5
30C3
331
3139
  5
3139
331
35D4
  5
35DF
331
3595
  5
3599
331
359D
  5
35A1
331
35A5
  5
35A9
331
3289
  5
3289
331
32D0
  5
32D0
331
3552
  5
3556
331
32D8
  5
32D8
331
330F
  5
330F
331
3291
  5
3291
331
3385
  5
3385
331
338D
  5
338D
331
355A
  5
355E
331
32E0
  5
32E0
331
3317
  5
3317
331
3299
  5
3299
331
335E
  5
335E
331
3562
  5
3566
331
331F
  5
331F
331
3327
  5
3327
331
30CB
  5
30CB
331
3102
  5
3102
331
31E8
  5
31E8
331
30D3
  5
30D3
331
310A
  5
310A
331
31F0
  5
31F0
331
31F8
  5
31F8
331
3181
  5
3181
331
309C
  5
309C
331
30DB
  5
30DB
331
3112
  5
3112
331
356E
  5
3572
331
3189
  5
3189
331
30E3
  5
30E3
331
311A
  5
311A
331
3200
  5
3200
331
30A4
  5
30A4
331
35AD
  5
35B1
331
324F
  5
324F
331
3576
  5
357A
331
35B5
  5
35B9
331
35BD
  5
35C1
331
357E
  5
3582
331
35C5
  5
35C9
331
3586
  5
358A
331
32B1
  5
32B1
331
32E8
  5
32E8
331
332F
  5
332F
331
3366
  5
3366
331
32B9
  5
32B9
331
32F0
  5
32F0
331
33A5
  5
33A5
331
3272
  5
3272
331
33AD
  5
33AD
331
32F8
  5
32F8
331
3337
  5
3337
331
32C1
  5
32C1
331
336E
  5
336E
331
3543
  5
3547
331
3376
  5
3376
331
33B5
  5
33B5
331
32C9
  5
32C9
331
3300
  5
3300
331
3282
  5
3282
331
333F
  5
333F
331
33BD
  5
33BD
331
337E
  5
337E
331
354B
  5
354F
331
3191
  5
3191
331
30EB
  5
30EB
331
3122
  5
3122
331
3208
  5
3208
331
30AC
  5
30AC
331
30F3
  5
30F3
331
312A
  5
312A
331
31D9
  5
31D9
331
30B4
  5
30B4
331
325F
  5
325F
331
30BC
  5
30BC
331
30FB
  5
30FB
331
3132
  5
3132
331
31E1
  5
31E1
331
3267
  5
3267
331
358E
  5
3592
331
313A
  5
313A
331
3228
  5
3228
331
35CD
  5
35D1
331
30C4
  5
30C4
331
3596
  5
359A
331
35D5
  5
35E0
331
359E
  5
35A2
331
35A6
  5
35AA
331
32D1
  5
32D1
331
3308
  5
3308
331
328A
  5
328A
331
3386
  5
3386
331
3553
  5
3557
331
32D9
  5
32D9
331
3310
  5
3310
331
3292
  5
3292
331
3318
  5
3318
331
3357
  5
3357
331
338E
  5
338E
331
32E1
  5
32E1
331
355B
  5
355F
331
3563
  5
3567
331
3320
  5
3320
331
32AA
  5
32AA
331
335F
  5
335F
331
339E
  5
339E
331
3103
  5
3103
331
31E9
  5
31E9
331
30CC
  5
30CC
331
30D4
  5
30D4
331
310B
  5
310B
331
31F1
  5
31F1
331
3238
  5
3238
331
3240
  5
3240
331
3182
  5
3182
331
30DC
  5
30DC
331
3113
  5
3113
331
31F9
  5
31F9
331
309D
  5
309D
331
35AE
  5
35B2
331
356F
  5
3573
331
318A
  5
318A
331
30A5
  5
30A5
331
30E4
  5
30E4
331
311B
  5
311B
331
3201
  5
3201
331
35B6
  5
35BA
331
3577
  5
357B
331
357F
  5
3583
331
35BE
  5
35C2
331
3587
  5
358B
331
35C6
  5
35CA
331
32E9
  5
32E9
331
3328
  5
3328
331
32B2
  5
32B2
331
3367
  5
3367
331
33A6
  5
33A6
331
32BA
  5
32BA
331
32F1
  5
32F1
331
3273
  5
3273
331
3330
  5
3330
331
336F
  5
336F
331
33AE
  5
33AE
331
32C2
  5
32C2
331
32F9
  5
32F9
331
3338
  5
3338
331
3544
  5
3548
331
3340
  5
3340
331
3377
  5
3377
331
32CA
  5
32CA
331
3301
  5
3301
331
33B6
  5
33B6
331
3283
  5
3283
331
354C
  5
3550
331
33BE
  5
33BE
331
3209
  5
3209
331
3192
  5
3192
331
30AD
  5
30AD
331
30EC
  5
30EC
331
3123
  5
3123
331
3258
  5
3258
331
30F4
  5
30F4
331
312B
  5
312B
331
31DA
  5
31DA
331
30B5
  5
30B5
331
3260
  5
3260
331
30FC
  5
30FC
331
3133
  5
3133
331
31E2
  5
31E2
331
3219
  5
3219
331
30BD
  5
30BD
331
35CE
  5
35D2
331
3229
  5
3229
331
358F
  5
3593
331
30C5
  5
30C5
331
313B
  5
313B
331
35D6
  5
35E1
331
3597
  5
359B
331
359F
  5
35A3
331
35A7
  5
35AB
331
3309
  5
3309
331
3348
  5
3348
331
328B
  5
328B
331
32D2
  5
32D2
331
3387
  5
3387
331
3554
  5
3558
331
32DA
  5
32DA
331
3311
  5
3311
331
3293
  5
3293
331
3358
  5
3358
331
338F
  5
338F
331
355C
  5
3560
331
32E2
  5
32E2
331
3319
  5
3319
331
3397
  5
3397
331
3564
  5
3568
331
32AB
  5
32AB
331
3321
  5
3321
331
339F
  5
339F
331
30CD
  5
30CD
331
3104
  5
3104
331
31EA
  5
31EA
331
3239
  5
3239
331
3173
  5
3173
331
30D5
  5
30D5
331
310C
  5
310C
331
31F2
  5
31F2
331
31FA
  5
31FA
331
3241
  5
3241
331
3114
  5
3114
331
3183
  5
3183
331
3568
  5
356C
331
309E
  5
309E
331
30DD
  5
30DD
331
3570
  5
3574
331
35AF
  5
35B3
331
318B
  5
318B
331
30E5
  5
30E5
331
311C
  5
311C
331
3202
  5
3202
331
30A6
  5
30A6
331
3249
  5
3249
331
3578
  5
357C
331
35B7
  5
35BB
331
35BF
  5
35C3
331
3580
  5
3584
331
35C7
  5
35CB
331
3329
  5
3329
331
3360
  5
3360
331
32B3
  5
32B3
331
32EA
  5
32EA
331
3331
  5
3331
331
32BB
  5
32BB
331
32F2
  5
32F2
331
33A7
  5
33A7
331
3274
  5
3274
331
33AF
  5
33AF
331
32FA
  5
32FA
331
3339
  5
3339
331
327C
  5
327C
331
32C3
  5
32C3
331
3370
  5
3370
331
3545
  5
3549
331
3378
  5
3378
331
33B7
  5
33B7
331
32CB
  5
32CB
331
3302
  5
3302
331
3284
  5
3284
331
3341
  5
3341
331
33BF
  5
33BF
331
354D
  5
3551
331
3251
  5
3251
331
3193
  5
3193
331
30ED
  5
30ED
331
3124
  5
3124
331
320A
  5
320A
331
30AE
  5
30AE
331
30B6
  5
30B6
331
30F5
  5
30F5
331
312C
  5
312C
331
31DB
  5
31DB
331
3588
  5
358C
331
321A
  5
321A
331
3261
  5
3261
331
30BE
  5
30BE
331
30FD
  5
30FD
331
3134
  5
3134
331
31E3
  5
31E3
331
3590
  5
3594
331
313C
  5
313C
331
35CF
  5
35D3
331
30C6
  5
30C6
331
3598
  5
359C
331
35D7
  5
35E2
331
35A0
  5
35A4
331
3349
  5
3349
331
32D3
  5
32D3
331
330A
  5
330A
331
3388
  5
3388
331
3555
  5
3559
331
32DB
  5
32DB
331
3312
  5
3312
331
3294
  5
3294
331
355D
  5
3561
331
331A
  5
331A
331
3359
  5
3359
331
3390
  5
3390
331
32E3
  5
32E3
331
3398
  5
3398
331
3565
  5
3569
331
3322
  5
3322
331
3105
  5
3105
331
31EB
  5
31EB
331
30CE
  5
30CE
331
323A
  5
323A
331
30D6
  5
30D6
331
310D
  5
310D
331
31F3
  5
31F3
331
3242
  5
3242
331
3569
  5
356D
331
3184
  5
3184
331
30DE
  5
30DE
331
3115
  5
3115
331
31FB
  5
31FB
331
309F
  5
309F
331
35A8
  5
35AC
331
35B0
  5
35B4
331
3571
  5
3575
331
318C
  5
318C
331
30A7
  5
30A7
331
30E6
  5
30E6
331
311D
  5
311D
331
3203
  5
3203
331
35B8
  5
35BC
331
3579
  5
357D
331
3581
  5
3585
331
35C0
  5
35C4
331
33A0
  5
33A0
331
32EB
  5
32EB
331
332A
  5
332A
331
32B4
  5
32B4
331
3361
  5
3361
331
3369
  5
3369
331
33A8
  5
33A8
331
32BC
  5
32BC
331
32F3
  5
32F3
331
3275
  5
3275
331
3332
  5
3332
331
353E
  5
3542
331
333A
  5
333A
331
3371
  5
3371
331
32C4
  5
32C4
331
32FB
  5
32FB
331
33B0
  5
33B0
331
327D
  5
327D
331
33B8
  5
33B8
331
3342
  5
3342
331
3379
  5
3379
331
3546
  5
354A
331
32CC
  5
32CC
331
3303
  5
3303
331
3285
  5
3285
331
354E
  5
3552
331
320B
  5
320B
331
3125
  5
3125
331
3194
  5
3194
331
30AF
  5
30AF
331
30EE
  5
30EE
331
3252
  5
3252
331
30F6
  5
30F6
331
312D
  5
312D
331
31DC
  5
31DC
331
30B7
  5
30B7
331
3262
  5
3262
331
3589
  5
358D
331
30FE
  5
30FE
331
3135
  5
3135
331
31E4
  5
31E4
331
321B
  5
321B
331
30BF
  5
30BF
331
35C8
  5
35CC
331
35D0
  5
35D4
331
30C7
  5
30C7
331
3591
  5
3595
331
3599
  5
359D
331
35A1
  5
35A5
331
32D4
  5
32D4
331
330B
  5
330B
331
33C0
  5
33C0
331
3389
  5
3389
331
3556
  5
355A
331
32DC
  5
32DC
331
3313
  5
3313
331
3295
  5
3295
331
335A
  5
335A
331
355E
  5
3562
331
32E4
  5
32E4
331
331B
  5
331B
331
3399
  5
3399
331
3566
  5
356A
331
32AD
  5
32AD
331
3323
  5
3323
331
3233
  5
3233
331
3060
  5
3060
331
30CF
  5
30CF
331
3106
  5
3106
331
31EC
  5
31EC
331
30D7
  5
30D7
331
310E
  5
310E
331
31F4
  5
31F4
331
35A9
  5
35AD
331
31FC
  5
31FC
331
3243
  5
3243
331
3116
  5
3116
331
3185
  5
3185
331
356A
  5
356E
331
30A0
  5
30A0
331
30DF
  5
30DF
331
324B
  5
324B
331
3572
  5
3576
331
318D
  5
318D
331
30E7
  5
30E7
331
311E
  5
311E
331
3204
  5
3204
331
35B1
  5
35B5
331
357A
  5
357E
331
35B9
  5
35BD
331
35C1
  5
35C5
331
3582
  5
3586
331
332B
  5
332B
331
3362
  5
3362
331
32B5
  5
32B5
331
32EC
  5
32EC
331
326E
  5
326E
331
33A1
  5
33A1
331
33A9
  5
33A9
331
3333
  5
3333
331
3276
  5
3276
331
32BD
  5
32BD
331
32F4
  5
32F4
331
353F
  5
3543
331
33B1
  5
33B1
331
32FC
  5
32FC
331
333B
  5
333B
331
32C5
  5
32C5
331
3372
  5
3372
331
33B9
  5
33B9
331
3343
  5
3343
331
337A
  5
337A
331
3547
  5
354B
331
32CD
  5
32CD
331
3304
  5
3304
331
3286
  5
3286
331
354F
  5
3553
  0
DIMASSOC
  5
360A
102
{ACAD_REACTORS
330
3602
102
}
330
3602
100
AcDbDimAssoc
330
35F7
 90
        3
 70
     0
 71
     0
  1
AcDbOsnapPointRef
 72
    13
331
35F6
 73
     2
 91
        0
 40
0.0
 10
0.0
 20
0.0
 30
2.000000000000000E+50
 75
     0
  1
AcDbOsnapPointRef
 72
     1
331
35F6
 73
     2
 91
        0
 40
1.0
 10
0.0
 20
0.0
 30
2.000000000000000E+50
 75
     0
  0
LAYOUT
  5
1E
102
{ACAD_XDICTIONARY
360
7D4
102
}
102
{ACAD_REACTORS
330
1A
102
}
330
1A
100
AcDbPlotSettings
  1

  2
Bullzip PDF Printer
  4
A4
  6

 40
3.174999952316284
 41
3.174999952316284
 42
3.175003051757812
 43
3.17498779296875
 44
209.8886566162109
 45
297.0530090332031
 46
0.0
 47
0.0
 48
6.561544945354853
 49
3.282189374834842
140
296.6096419909582
141
206.4421558651099
142
1.0
143
1.0
 70
   672
 72
     1
 73
     1
 74
     4
  7
monochrome.ctb
 75
    16
147
25.4
 76
     0
 77
     2
 78
   300
148
-6.561544945354853
149
-3.282189374834842
100
AcDbLayout
  1
Layout1
 70
     0
 71
     1
 10
3.386557152386103
 20
0.1071894225185588
 11
300.4395661855892
 21
209.9958460387295
 12
0.0
 22
0.0
 32
0.0
 14
6.561544945354853
 24
3.282189374834842
 34
0.0
 15
296.6096419909582
 25
206.4421558651099
 35
0.0
146
0.0
 13
0.0
 23
0.0
 33
0.0
 16
1.0
 26
0.0
 36
0.0
 17
0.0
 27
1.0
 37
0.0
 76
     0
330
1B
331
7CA
1001
ACAD_PSEXT
1000
Bullzip PDF Printer
1000
Bullzip PDF Printer
1000
BULLZIP
1000
Bullzip PDF Printer 7.2.0.1338
1070
     0
  0
LAYOUT
  5
22
102
{ACAD_REACTORS
330
1A
102
}
330
1A
100
AcDbPlotSettings
  1

  2
none_device
  4
Letter_(8.50_x_11.00_Inches)
  6

 40
6.349999904632568
 41
6.349999904632568
 42
6.350006103515625
 43
6.350006103515625
 44
215.8999938964844
 45
279.3999938964844
 46
0.0
 47
0.0
 48
0.0
 49
0.0
140
0.0
141
0.0
142
1.0
143
1.868130919704682
 70
 11952
 72
     0
 73
     1
 74
     0
  7

 75
     0
147
0.5352943894093256
 76
     0
 77
     2
 78
   300
148
-39.5089543552573
149
-77.78345737821979
100
AcDbLayout
  1
Model
 70
     1
 71
     0
 10
0.0
 20
0.0
 11
12.0
 21
9.0
 12
0.0
 22
0.0
 32
0.0
 14
1.000000000000000E+20
 24
1.000000000000000E+20
 34
1.000000000000000E+20
 15
-1.000000000000000E+20
 25
-1.000000000000000E+20
 35
-1.000000000000000E+20
146
0.0
 13
0.0
 23
0.0
 33
0.0
 16
1.0
 26
0.0
 36
0.0
 17
0.0
 27
1.0
 37
0.0
 76
     0
330
1F
331
29
1001
ACAD_PSEXT
1000
Brak
1000
Brak
1000
Nie można zastosować.
1000
Arkusz nie zostanie wydrukowany dopóki nie wybrano konfiguracji plotera.
1070
     0
  0
MATERIAL
  5
3D
102
{ACAD_XDICTIONARY
360
3647
102
}
102
{ACAD_REACTORS
330
3B
102
}
330
3B
100
AcDbMaterial
  1
ByBlock
 73
     1
 78
     1
172
     1
176
     1
270
     1
274
     1
  0
MATERIAL
  5
3C
102
{ACAD_XDICTIONARY
360
3645
102
}
102
{ACAD_REACTORS
330
3B
102
}
330
3B
100
AcDbMaterial
  1
ByLayer
 73
     1
 78
     1
172
     1
176
     1
270
     1
274
     1
  0
MATERIAL
  5
3E
102
{ACAD_XDICTIONARY
360
3649
102
}
102
{ACAD_REACTORS
330
3B
102
}
330
3B
100
AcDbMaterial
  1
Global
 73
     1
 78
     1
172
     1
176
     1
270
     1
274
     1
  0
MLEADERSTYLE
  5
347A
102
{ACAD_REACTORS
330
489
102
}
330
489
100
AcDbMLeaderStyle
170
     2
171
     1
172
     0
 90
        2
 40
0.0
 41
0.0
173
     1
 91
-1056964608
340
14
 92
       -2
290
     1
 42
0.09
291
     1
 43
0.36
  3
Standard
 44
0.18
300

342
11
174
     1
178
     6
175
     1
176
     0
 93
-1056964608
 45
0.18
292
     0
297
     0
 46
0.18
 94
-1056964608
 47
1.0
 49
1.0
140
1.0
293
     1
141
0.0
294
     1
177
     0
142
1.0
295
     0
296
     0
143
0.125
1001
ACAD_MLEADERVER
1070
     2
  0
MLINESTYLE
  5
18
102
{ACAD_REACTORS
330
17
102
}
330
17
100
AcDbMlineStyle
  2
STANDARD
 70
     0
  3

 62
   256
 51
90.0
 52
90.0
 71
     2
 49
0.5
 62
   256
  6
BYLAYER
 49
-0.5
 62
   256
  6
BYLAYER
  0
ACDBPLACEHOLDER
  5
F
102
{ACAD_REACTORS
330
E
102
}
330
E
  0
SCALE
  5
3459
102
{ACAD_REACTORS
330
3458
102
}
330
3458
100
AcDbScale
 70
     0
300
1:1
140
1.0
141
1.0
290
     1
  0
SCALE
  5
345A
102
{ACAD_REACTORS
330
3458
102
}
330
3458
100
AcDbScale
 70
     0
300
1:2
140
1.0
141
2.0
290
     0
  0
SCALE
  5
345B
102
{ACAD_REACTORS
330
3458
102
}
330
3458
100
AcDbScale
 70
     0
300
1:4
140
1.0
141
4.0
290
     0
  0
SCALE
  5
345C
102
{ACAD_REACTORS
330
3458
102
}
330
3458
100
AcDbScale
 70
     0
300
1:5
140
1.0
141
5.0
290
     0
  0
SCALE
  5
345D
102
{ACAD_REACTORS
330
3458
102
}
330
3458
100
AcDbScale
 70
     0
300
1:8
140
1.0
141
8.0
290
     0
  0
SCALE
  5
345E
102
{ACAD_REACTORS
330
3458
102
}
330
3458
100
AcDbScale
 70
     0
300
1:10
140
1.0
141
10.0
290
     0
  0
SCALE
  5
345F
102
{ACAD_REACTORS
330
3458
102
}
330
3458
100
AcDbScale
 70
     0
300
1:16
140
1.0
141
16.0
290
     0
  0
SCALE
  5
3460
102
{ACAD_REACTORS
330
3458
102
}
330
3458
100
AcDbScale
 70
     0
300
1:20
140
1.0
141
20.0
290
     0
  0
SCALE
  5
3461
102
{ACAD_REACTORS
330
3458
102
}
330
3458
100
AcDbScale
 70
     0
300
1:30
140
1.0
141
30.0
290
     0
  0
SCALE
  5
3462
102
{ACAD_REACTORS
330
3458
102
}
330
3458
100
AcDbScale
 70
     0
300
1:40
140
1.0
141
40.0
290
     0
  0
SCALE
  5
3463
102
{ACAD_REACTORS
330
3458
102
}
330
3458
100
AcDbScale
 70
     0
300
1:50
140
1.0
141
50.0
290
     0
  0
SCALE
  5
3464
102
{ACAD_REACTORS
330
3458
102
}
330
3458
100
AcDbScale
 70
     0
300
1:100
140
1.0
141
100.0
290
     0
  0
SCALE
  5
3465
102
{ACAD_REACTORS
330
3458
102
}
330
3458
100
AcDbScale
 70
     0
300
2:1
140
2.0
141
1.0
290
     0
  0
SCALE
  5
3466
102
{ACAD_REACTORS
330
3458
102
}
330
3458
100
AcDbScale
 70
     0
300
4:1
140
4.0
141
1.0
290
     0
  0
SCALE
  5
3467
102
{ACAD_REACTORS
330
3458
102
}
330
3458
100
AcDbScale
 70
     0
300
8:1
140
8.0
141
1.0
290
     0
  0
SCALE
  5
3468
102
{ACAD_REACTORS
330
3458
102
}
330
3458
100
AcDbScale
 70
     0
300
10:1
140
10.0
141
1.0
290
     0
  0
SCALE
  5
3469
102
{ACAD_REACTORS
330
3458
102
}
330
3458
100
AcDbScale
 70
     0
300
100:1
140
100.0
141
1.0
290
     0
  0
SCALE
  5
346A
102
{ACAD_REACTORS
330
3458
102
}
330
3458
100
AcDbScale
 70
     0
300
1/128" = 1'-0"
140
0.0078125
141
12.0
290
     0
  0
SCALE
  5
346B
102
{ACAD_REACTORS
330
3458
102
}
330
3458
100
AcDbScale
 70
     0
300
1/64" = 1'-0"
140
0.015625
141
12.0
290
     0
  0
SCALE
  5
346C
102
{ACAD_REACTORS
330
3458
102
}
330
3458
100
AcDbScale
 70
     0
300
1/32" = 1'-0"
140
0.03125
141
12.0
290
     0
  0
SCALE
  5
346D
102
{ACAD_REACTORS
330
3458
102
}
330
3458
100
AcDbScale
 70
     0
300
1/16" = 1'-0"
140
0.0625
141
12.0
290
     0
  0
SCALE
  5
346E
102
{ACAD_REACTORS
330
3458
102
}
330
3458
100
AcDbScale
 70
     0
300
3/32" = 1'-0"
140
0.09375
141
12.0
290
     0
  0
SCALE
  5
346F
102
{ACAD_REACTORS
330
3458
102
}
330
3458
100
AcDbScale
 70
     0
300
1/8" = 1'-0"
140
0.125
141
12.0
290
     0
  0
SCALE
  5
3470
102
{ACAD_REACTORS
330
3458
102
}
330
3458
100
AcDbScale
 70
     0
300
3/16" = 1'-0"
140
0.1875
141
12.0
290
     0
  0
SCALE
  5
3471
102
{ACAD_REACTORS
330
3458
102
}
330
3458
100
AcDbScale
 70
     0
300
1/4" = 1'-0"
140
0.25
141
12.0
290
     0
  0
SCALE
  5
3472
102
{ACAD_REACTORS
330
3458
102
}
330
3458
100
AcDbScale
 70
     0
300
3/8" = 1'-0"
140
0.375
141
12.0
290
     0
  0
SCALE
  5
3473
102
{ACAD_REACTORS
330
3458
102
}
330
3458
100
AcDbScale
 70
     0
300
1/2" = 1'-0"
140
0.5
141
12.0
290
     0
  0
SCALE
  5
3474
102
{ACAD_REACTORS
330
3458
102
}
330
3458
100
AcDbScale
 70
     0
300
3/4" = 1'-0"
140
0.75
141
12.0
290
     0
  0
SCALE
  5
3475
102
{ACAD_REACTORS
330
3458
102
}
330
3458
100
AcDbScale
 70
     0
300
1" = 1'-0"
140
1.0
141
12.0
290
     0
  0
SCALE
  5
3476
102
{ACAD_REACTORS
330
3458
102
}
330
3458
100
AcDbScale
 70
     0
300
1-1/2" = 1'-0"
140
1.5
141
12.0
290
     0
  0
SCALE
  5
3477
102
{ACAD_REACTORS
330
3458
102
}
330
3458
100
AcDbScale
 70
     0
300
3" = 1'-0"
140
3.0
141
12.0
290
     0
  0
SCALE
  5
3478
102
{ACAD_REACTORS
330
3458
102
}
330
3458
100
AcDbScale
 70
     0
300
6" = 1'-0"
140
6.0
141
12.0
290
     0
  0
SCALE
  5
3479
102
{ACAD_REACTORS
330
3458
102
}
330
3458
100
AcDbScale
 70
     0
300
1'-0" = 1'-0"
140
12.0
141
12.0
290
     0
  0
TABLESTYLE
  5
4BB
102
{ACAD_XDICTIONARY
360
348F
102
}
102
{ACAD_REACTORS
330
4BA
102
}
330
4BA
100
AcDbTableStyle
  3
Standard
 70
     0
 71
     0
 40
0.06
 41
0.06
280
     0
281
     0
  7
Standard
140
0.18
170
     2
 62
     0
 63
     7
283
     0
274
    -2
284
     1
 64
     0
275
    -2
285
     1
 65
     0
276
    -2
286
     1
 66
     0
277
    -2
287
     1
 67
     0
278
    -2
288
     1
 68
     0
279
    -2
289
     1
 69
     0
  7
Standard
140
0.25
170
     5
 62
     0
 63
     7
283
     0
274
    -2
284
     1
 64
     0
275
    -2
285
     1
 65
     0
276
    -2
286
     1
 66
     0
277
    -2
287
     1
 67
     0
278
    -2
288
     1
 68
     0
279
    -2
289
     1
 69
     0
  7
Standard
140
0.18
170
     5
 62
     0
 63
     7
283
     0
274
    -2
284
     1
 64
     0
275
    -2
285
     1
 65
     0
276
    -2
286
     1
 66
     0
277
    -2
287
     1
 67
     0
278
    -2
288
     1
 68
     0
279
    -2
289
     1
 69
     0
  0
VISUALSTYLE
  5
2F
102
{ACAD_XDICTIONARY
360
49A
102
}
102
{ACAD_REACTORS
330
2A
102
}
330
2A
100
AcDbVisualStyle
  2
2dWireframe
 70
     4
 71
     0
 72
     2
 73
     0
 90
        0
 40
-0.6
 41
-30.0
 62
     5
 63
     7
 74
     1
 91
        4
 64
     7
 65
   257
 75
     1
175
     1
 42
1.0
 92
        0
 66
   257
 43
1.0
 76
     1
 77
     6
 78
     2
 67
     7
 79
     5
170
     0
171
     0
290
     0
174
     0
 93
        1
 44
0.0
173
     0
291
     0
 45
0.0
1001
ACAD
1000
AcDbSavedByObjectVersion
1070
     0
  0
VISUALSTYLE
  5
A47
102
{ACAD_REACTORS
330
2A
102
}
330
2A
100
AcDbVisualStyle
  2
3D Hidden
 70
     6
 71
     1
 72
     2
 73
     2
 90
        0
 40
-0.6
 41
-30.0
 62
     5
 63
     7
 74
     2
 91
        2
 64
     7
 65
   257
 75
     2
175
     1
 42
40.0
 92
        0
 66
   257
 43
1.0
 76
     1
 77
     6
 78
     2
 67
     7
 79
     3
170
     0
171
     0
290
     0
174
     0
 93
        1
 44
0.0
173
     0
291
     0
 45
0.0
1001
ACAD
1000
AcDbSavedByObjectVersion
1070
     0
  0
VISUALSTYLE
  5
A48
102
{ACAD_XDICTIONARY
360
A49
102
}
102
{ACAD_REACTORS
330
2A
102
}
330
2A
100
AcDbVisualStyle
  2
3dWireframe
 70
     5
 71
     0
 72
     2
 73
     0
 90
        0
 40
-0.6
 41
-30.0
 62
     5
 63
     7
 74
     1
 91
        4
 64
     7
 65
   257
 75
     1
175
     1
 42
1.0
 92
        0
 66
   257
 43
1.0
 76
     1
 77
     6
 78
     2
 67
     7
 79
     5
170
     0
171
     0
290
     0
174
     0
 93
        1
 44
0.0
173
     0
291
     0
 45
0.0
1001
ACAD
1000
AcDbSavedByObjectVersion
1070
     0
  0
VISUALSTYLE
  5
32
102
{ACAD_XDICTIONARY
360
4A0
102
}
102
{ACAD_REACTORS
330
2A
102
}
330
2A
100
AcDbVisualStyle
  2
Basic
 70
     7
 71
     1
 72
     0
 73
     1
 90
        0
 40
-0.6
 41
-30.0
 62
     5
 63
     7
 74
     0
 91
        4
 64
     7
 65
   257
 75
     1
175
     1
 42
1.0
 92
        8
 66
     7
 43
1.0
 76
     1
 77
     6
 78
     2
 67
     7
 79
     5
170
     0
171
     0
290
     0
174
     0
 93
        1
 44
0.0
173
     0
291
     1
 45
0.0
1001
ACAD
1000
AcDbSavedByObjectVersion
1070
     0
  0
VISUALSTYLE
  5
36
102
{ACAD_XDICTIONARY
360
4A8
102
}
102
{ACAD_REACTORS
330
2A
102
}
330
2A
100
AcDbVisualStyle
  2
Brighten
 70
    12
 71
     2
 72
     2
 73
     0
 90
        0
 40
-0.6
 41
-30.0
 62
     5
 63
     7
 74
     1
 91
        4
 64
     7
 65
   257
 75
     1
175
     1
 42
1.0
 92
        8
 66
     7
 43
1.0
 76
     1
 77
     6
 78
     2
 67
     7
 79
     5
170
     0
171
     0
290
     0
174
     0
 93
        1
 44
50.0
173
     0
291
     1
 45
0.0
1001
ACAD
1000
AcDbSavedByObjectVersion
1070
     0
  0
VISUALSTYLE
  5
3A
102
{ACAD_XDICTIONARY
360
4B0
102
}
102
{ACAD_REACTORS
330
2A
102
}
330
2A
100
AcDbVisualStyle
  2
ColorChange
 70
    16
 71
     2
 72
     2
 73
     3
 90
        0
 40
-0.6
 41
-30.0
 62
     5
 63
     8
 74
     1
 91
        4
 64
     7
 65
   257
 75
     1
175
     1
 42
1.0
 92
        8
 66
     8
 43
1.0
 76
     1
 77
     6
 78
     2
 67
     7
 79
     5
170
     0
171
     0
290
     0
174
     0
 93
        1
 44
0.0
173
     0
291
     1
 45
0.0
1001
ACAD
1000
AcDbSavedByObjectVersion
1070
     0
  0
VISUALSTYLE
  5
A4B
102
{ACAD_REACTORS
330
2A
102
}
330
2A
100
AcDbVisualStyle
  2
Conceptual
 70
     9
 71
     3
 72
     2
 73
     0
 90
        0
 40
-0.6
 41
-30.0
 62
     5
 63
     7
 74
     2
 91
        2
 64
     7
 65
   257
 75
     1
175
     1
 42
40.0
 92
        8
 66
     7
 43
1.0
 76
     1
 77
     6
 78
     2
 67
     7
 79
     3
170
     0
171
     0
290
     0
174
     0
 93
        1
 44
0.0
173
     0
291
     0
 45
0.0
1001
ACAD
1000
AcDbSavedByObjectVersion
1070
     0
  0
VISUALSTYLE
  5
35
102
{ACAD_XDICTIONARY
360
4A6
102
}
102
{ACAD_REACTORS
330
2A
102
}
330
2A
100
AcDbVisualStyle
  2
Dim
 70
    11
 71
     2
 72
     2
 73
     0
 90
        0
 40
-0.6
 41
-30.0
 62
     5
 63
     7
 74
     1
 91
        4
 64
     7
 65
   257
 75
     1
175
     1
 42
1.0
 92
        8
 66
     7
 43
1.0
 76
     1
 77
     6
 78
     2
 67
     7
 79
     5
170
     0
171
     0
290
     0
174
     0
 93
        1
 44
-50.0
173
     0
291
     1
 45
0.0
1001
ACAD
1000
AcDbSavedByObjectVersion
1070
     0
  0
VISUALSTYLE
  5
39
102
{ACAD_XDICTIONARY
360
4AE
102
}
102
{ACAD_REACTORS
330
2A
102
}
330
2A
100
AcDbVisualStyle
  2
Facepattern
 70
    15
 71
     2
 72
     2
 73
     0
 90
        0
 40
-0.6
 41
-30.0
 62
     5
 63
     7
 74
     1
 91
        4
 64
     7
 65
   257
 75
     1
175
     1
 42
1.0
 92
        8
 66
     7
 43
1.0
 76
     1
 77
     6
 78
     2
 67
     7
 79
     5
170
     0
171
     0
290
     0
174
     0
 93
        1
 44
0.0
173
     0
291
     1
 45
0.0
1001
ACAD
1000
AcDbSavedByObjectVersion
1070
     0
  0
VISUALSTYLE
  5
2B
102
{ACAD_XDICTIONARY
360
492
102
}
102
{ACAD_REACTORS
330
2A
102
}
330
2A
100
AcDbVisualStyle
  2
Flat
 70
     0
 71
     2
 72
     1
 73
     1
 90
        2
 40
-0.6
 41
30.0
 62
     5
 63
     7
 74
     0
 91
        4
 64
     7
 65
   257
 75
     1
175
     1
 42
1.0
 92
        8
 66
     7
 43
1.0
 76
     1
 77
     6
 78
     2
 67
     7
 79
     5
170
     0
171
     0
290
     0
174
     0
 93
       13
 44
0.0
173
     0
291
     1
 45
0.0
1001
ACAD
1000
AcDbSavedByObjectVersion
1070
     0
  0
VISUALSTYLE
  5
2C
102
{ACAD_XDICTIONARY
360
494
102
}
102
{ACAD_REACTORS
330
2A
102
}
330
2A
100
AcDbVisualStyle
  2
FlatWithEdges
 70
     1
 71
     2
 72
     1
 73
     1
 90
        2
 40
-0.6
 41
30.0
 62
     5
 63
     7
 74
     1
 91
        4
 64
     7
 65
   257
 75
     1
175
     1
 42
1.0
 92
        0
 66
   257
 43
1.0
 76
     1
 77
     6
 78
     2
 67
     7
 79
     5
170
     0
171
     0
290
     0
174
     0
 93
       13
 44
0.0
173
     0
291
     1
 45
0.0
1001
ACAD
1000
AcDbSavedByObjectVersion
1070
     0
  0
VISUALSTYLE
  5
2D
102
{ACAD_XDICTIONARY
360
496
102
}
102
{ACAD_REACTORS
330
2A
102
}
330
2A
100
AcDbVisualStyle
  2
Gouraud
 70
     2
 71
     2
 72
     2
 73
     1
 90
        2
 40
-0.6
 41
30.0
 62
     5
 63
     7
 74
     0
 91
        4
 64
     7
 65
   257
 75
     1
175
     1
 42
1.0
 92
        0
 66
     7
 43
1.0
 76
     1
 77
     6
 78
     2
 67
     7
 79
     5
170
     0
171
     0
290
     0
174
     0
 93
       13
 44
0.0
173
     0
291
     1
 45
0.0
1001
ACAD
1000
AcDbSavedByObjectVersion
1070
     0
  0
VISUALSTYLE
  5
2E
102
{ACAD_XDICTIONARY
360
498
102
}
102
{ACAD_REACTORS
330
2A
102
}
330
2A
100
AcDbVisualStyle
  2
GouraudWithEdges
 70
     3
 71
     2
 72
     2
 73
     1
 90
        2
 40
-0.6
 41
30.0
 62
     5
 63
     7
 74
     1
 91
        4
 64
     7
 65
   257
 75
     1
175
     1
 42
1.0
 92
        0
 66
   257
 43
1.0
 76
     1
 77
     6
 78
     2
 67
     7
 79
     5
170
     0
171
     0
290
     0
174
     0
 93
       13
 44
0.0
173
     0
291
     1
 45
0.0
1001
ACAD
1000
AcDbSavedByObjectVersion
1070
     0
  0
VISUALSTYLE
  5
38
102
{ACAD_XDICTIONARY
360
4AC
102
}
102
{ACAD_REACTORS
330
2A
102
}
330
2A
100
AcDbVisualStyle
  2
Linepattern
 70
    14
 71
     2
 72
     2
 73
     0
 90
        0
 40
-0.6
 41
-30.0
 62
     5
 63
     7
 74
     1
 91
        4
 64
     7
 65
   257
 75
     7
175
     7
 42
1.0
 92
        8
 66
     7
 43
1.0
 76
     1
 77
     6
 78
     2
 67
     7
 79
     5
170
     0
171
     0
290
     0
174
     0
 93
        1
 44
0.0
173
     0
291
     1
 45
0.0
1001
ACAD
1000
AcDbSavedByObjectVersion
1070
     0
  0
VISUALSTYLE
  5
A4C
102
{ACAD_XDICTIONARY
360
A4D
102
}
102
{ACAD_REACTORS
330
2A
102
}
330
2A
100
AcDbVisualStyle
  2
Realistic
 70
     8
 71
     2
 72
     2
 73
     0
 90
        0
 40
-0.6
 41
-30.0
 62
     5
 63
     7
 74
     1
 91
        0
 64
     7
 65
   257
 75
     1
175
     1
 42
1.0
 92
        8
 66
     8
 43
1.0
 76
     1
 77
     6
 78
     2
 67
     7
 79
     5
170
     0
171
     0
290
     0
174
     0
 93
       13
 44
0.0
173
     0
291
     0
 45
0.0
1001
ACAD
1000
AcDbSavedByObjectVersion
1070
     0
  0
VISUALSTYLE
  5
37
102
{ACAD_XDICTIONARY
360
4AA
102
}
102
{ACAD_REACTORS
330
2A
102
}
330
2A
100
AcDbVisualStyle
  2
Thicken
 70
    13
 71
     2
 72
     2
 73
     0
 90
        0
 40
-0.6
 41
-30.0
 62
     5
 63
     7
 74
     1
 91
        4
 64
     7
 65
   257
 75
     1
175
     1
 42
1.0
 92
       12
 66
     7
 43
1.0
 76
     1
 77
     6
 78
     2
 67
     7
 79
     5
170
     0
171
     0
290
     0
174
     0
 93
        1
 44
0.0
173
     0
291
     1
 45
0.0
1001
ACAD
1000
AcDbSavedByObjectVersion
1070
     0
  0
DICTIONARYVAR
  5
3494
102
{ACAD_REACTORS
330
487
102
}
330
487
100
DictionaryVariables
280
     0
  1
1:1
  0
DICTIONARYVAR
  5
3492
102
{ACAD_REACTORS
330
487
102
}
330
487
100
DictionaryVariables
280
     0
  1
STANDARD
  0
DICTIONARYVAR
  5
5FE
102
{ACAD_REACTORS
330
487
102
}
330
487
100
DictionaryVariables
280
     0
  1
STANDARD
  0
DICTIONARYVAR
  5
48A
102
{ACAD_REACTORS
330
487
102
}
330
487
100
DictionaryVariables
280
     0
  1
2
  0
DICTIONARYVAR
  5
48B
102
{ACAD_REACTORS
330
487
102
}
330
487
100
DictionaryVariables
280
     0
  1
1
  0
DICTIONARYVAR
  5
86B
102
{ACAD_REACTORS
330
487
102
}
330
487
100
DictionaryVariables
280
     0
  1
0
  0
DICTIONARYVAR
  5
3495
102
{ACAD_REACTORS
330
487
102
}
330
487
100
DictionaryVariables
280
     0
  1
0
  0
DICTIONARYVAR
  5
3493
102
{ACAD_REACTORS
330
487
102
}
330
487
100
DictionaryVariables
280
     0
  1
0
  0
DICTIONARYVAR
  5
86A
102
{ACAD_REACTORS
330
487
102
}
330
487
100
DictionaryVariables
280
     0
  1
127
  0
DICTIONARY
  5
7D4
330
1E
100
AcDbDictionary
280
     1
281
     1
  3
ADSK_XREC_LAYOUTTHUMBNAIL
360
7D5
  0
DICTIONARY
  5
3647
330
3D
100
AcDbDictionary
280
     1
281
     1
  3
ACAD_XREC_ROUNDTRIP
360
3648
  0
DICTIONARY
  5
3645
330
3C
100
AcDbDictionary
280
     1
281
     1
  3
ACAD_XREC_ROUNDTRIP
360
3646
  0
DICTIONARY
  5
3649
330
3E
100
AcDbDictionary
280
     1
281
     1
  3
ACAD_XREC_ROUNDTRIP
360
364A
  0
DICTIONARY
  5
348F
330
4BB
100
AcDbDictionary
280
     1
281
     1
  3
ACAD_ROUNDTRIP_2008_TABLESTYLE_CELLSTYLEMAP
360
3644
  3
ACAD_XREC_ROUNDTRIP
360
364B
  0
DICTIONARY
  5
49A
330
2F
100
AcDbDictionary
280
     1
281
     1
  3
ACAD_XREC_ROUNDTRIP
360
49B
  0
DICTIONARY
  5
A49
330
A48
100
AcDbDictionary
280
     1
281
     1
  3
ACAD_XREC_ROUNDTRIP
360
A4A
  0
DICTIONARY
  5
4A0
330
32
100
AcDbDictionary
280
     1
281
     1
  3
ACAD_XREC_ROUNDTRIP
360
4A1
  0
DICTIONARY
  5
4A8
330
36
100
AcDbDictionary
280
     1
281
     1
  3
ACAD_XREC_ROUNDTRIP
360
4A9
  0
DICTIONARY
  5
4B0
330
3A
100
AcDbDictionary
280
     1
281
     1
  3
ACAD_XREC_ROUNDTRIP
360
4B1
  0
DICTIONARY
  5
4A6
330
35
100
AcDbDictionary
280
     1
281
     1
  3
ACAD_XREC_ROUNDTRIP
360
4A7
  0
DICTIONARY
  5
4AE
330
39
100
AcDbDictionary
280
     1
281
     1
  3
ACAD_XREC_ROUNDTRIP
360
4AF
  0
DICTIONARY
  5
492
330
2B
100
AcDbDictionary
280
     1
281
     1
  3
ACAD_XREC_ROUNDTRIP
360
493
  0
DICTIONARY
  5
494
330
2C
100
AcDbDictionary
280
     1
281
     1
  3
ACAD_XREC_ROUNDTRIP
360
495
  0
DICTIONARY
  5
496
330
2D
100
AcDbDictionary
280
     1
281
     1
  3
ACAD_XREC_ROUNDTRIP
360
497
  0
DICTIONARY
  5
498
330
2E
100
AcDbDictionary
280
     1
281
     1
  3
ACAD_XREC_ROUNDTRIP
360
499
  0
DICTIONARY
  5
4AC
330
38
100
AcDbDictionary
280
     1
281
     1
  3
ACAD_XREC_ROUNDTRIP
360
4AD
  0
DICTIONARY
  5
A4D
330
A4C
100
AcDbDictionary
280
     1
281
     1
  3
ACAD_XREC_ROUNDTRIP
360
A4E
  0
DICTIONARY
  5
4AA
330
37
100
AcDbDictionary
280
     1
281
     1
  3
ACAD_XREC_ROUNDTRIP
360
4AB
  0
XRECORD
  5
7D5
102
{ACAD_REACTORS
330
7D4
102
}
330
7D4
100
AcDbXrecord
280
     1
310
28000000B40000007F00000001000800000000004C59000000000000000000000001000000000000FFFFFF0000000000FFFFFF000000000000000000000000000000000000000000000000000000000000000000330000006600000099000000CC000000FF00000000330000333300006633000099330000CC330000FF3300
310
0000660000336600006666000099660000CC660000FF66000000990000339900006699000099990000CC990000FF99000000CC000033CC000066CC000099CC0000CCCC0000FFCC000000FF000033FF000066FF000099FF0000CCFF0000FFFF000000003300330033006600330099003300CC003300FF003300003333003333
310
33006633330099333300CC333300FF33330000663300336633006666330099663300CC663300FF66330000993300339933006699330099993300CC993300FF99330000CC330033CC330066CC330099CC3300CCCC3300FFCC330000FF330033FF330066FF330099FF3300CCFF3300FFFF330000006600330066006600660099
310
006600CC006600FF00660000336600333366006633660099336600CC336600FF33660000666600336666006666660099666600CC666600FF66660000996600339966006699660099996600CC996600FF99660000CC660033CC660066CC660099CC6600CCCC6600FFCC660000FF660033FF660066FF660099FF6600CCFF6600
310
FFFF660000009900330099006600990099009900CC009900FF00990000339900333399006633990099339900CC339900FF33990000669900336699006666990099669900CC669900FF66990000999900339999006699990099999900CC999900FF99990000CC990033CC990066CC990099CC9900CCCC9900FFCC990000FF99
310
0033FF990066FF990099FF9900CCFF9900FFFF99000000CC003300CC006600CC009900CC00CC00CC00FF00CC000033CC003333CC006633CC009933CC00CC33CC00FF33CC000066CC003366CC006666CC009966CC00CC66CC00FF66CC000099CC003399CC006699CC009999CC00CC99CC00FF99CC0000CCCC0033CCCC0066CC
310
CC0099CCCC00CCCCCC00FFCCCC0000FFCC0033FFCC0066FFCC0099FFCC00CCFFCC00FFFFCC000000FF003300FF006600FF009900FF00CC00FF00FF00FF000033FF003333FF006633FF009933FF00CC33FF00FF33FF000066FF003366FF006666FF009966FF00CC66FF00FF66FF000099FF003399FF006699FF009999FF00CC
310
99FF00FF99FF0000CCFF0033CCFF0066CCFF0099CCFF00CCCCFF00FFCCFF0000FFFF0033FFFF0066FFFF0099FFFF00CCFFFF00FFFFFF00000000000D0D0D001A1A1A00282828003535350043434300505050005D5D5D006B6B6B00787878008686860093939300A1A1A100AEAEAE00BBBBBB00C9C9C900D6D6D600E4E4E400
310
F1F1F100FFFFFF0000000000000000000000000000000000000000000000000000000000000000000000000000000000E2E2E2E2E2E2E2E2E2E2E2E2E2E2E2E2E2E2E2E2E2E2E2E2E2E2E2E2E2E2E2E2E2E2E2E2E2E2E2E2E2E2E2E2E2E2E2E2E2E2E2E2E2E2E2E2E2E2E2E2E2E2E2E2E2E2E2E2E2E2E2E2E2E2E2E2E2E2E2
310
E2E2E2E2E2E2E2E2E2E2E2E2E2E2E2E2E2E2E2E2E2E2E2E2E2E2E2E2E2E2E2E2E2E2E2E2E2E2E2E2E2E2E2E2E2E2E2E2E2E2E2E2E2E2E2E2E2E2E2E2E2E2E2E2E2E2E2E2E2E2E2E2E2E2E2E2E2E2E2E2E2E2E2E2E2E2E2E2E2E2E2E2E2E2E2E2E2E2E2E2E2E2F5F5F5F5F5F5F5F5F5F5F5F5F5F5F5F5F5F5F5F5F5F5F5F5F5
310
F5F5F5F5F5F5F5F5F5F5F5F5F5F5F5F5F5F5F5F5F5F5F5F5F5F5F5F5F5F5F5F5F5F5F5F5F5F5F5F5F5F5F5F5F5F5F5F5F5F5F5F5F5F5F5F5F5F5F5F5F5F5F5F5F5F5F5F5F5F5F5F5F5F5F5F5F5F5F5F5F5F5F5F5F5F5F5F5F5F5F5F5F5F5F5F5F5F5F5F5F5F5F5F5F5F5F5F5F5F5F5F5F5F5F5F5F5F5F5F5F5F5F5F5F5F5F5
310
F5F5F5F5F5F5F5F5F5F5F5F5F5F5F5F5F5F5F5F5F5F5F5F5F5F5E2E2F5E2E2E2E2E2E2E2E2E2E2E2E2E2E2E2E2E2E2E2E2E2E2E2E2E2E2E2E2E2E2E2E2E2E2E2E2E2E2E2E2E2E2E2E2E2E2E2E2E2E2E2E2E2E2E2E2E2E2E2E2E2E2E2E2E2E2E2E2E2E2E2E2E2E2E2E2E2E2E2E2E2E2E2E2E2E2E2E2E2E2E2E2E2E2E2E2E2E2
310
E2E2E2E2E2E2E2E2E2E2E2E2E2E2E2E2E2E2E2E2E2E2E2E2E2E2E2E2E2E2E2E2E2E2E2E2E2E2E2E2E2E2E2E2E2E2E2E2E2E2E2E2E2E2E2E2E2E2E2E2E2E2E2E2E2E2E2E2E2E2E2E2E2E2E2E2E2E2F5E2E2F5E2F5F5F5F5F5F5F5F5F5F5F5F5F5F5F5F5F5F5F5F5F5F5F5F5F5F5F5F5F5F5F5F5F5F5F5F5F5F5F5F5F5F5F5F5
310
F5F5F5F5F5F5F5F5F5F5F5F5F5F5F5F5F5F5F5F5F5F5F5F5F5F5F5F5F5F5F5F5F5F5F5F5F5F5F5F5F5F5F5F5F5F5F5F5F5F5F5F5F5F5F5F5F5F5F5F5F5F5F5F5F5F5F5F5F5F5F5F5F5F5F5F5F5F5F5F5F5F5F5F5F5F5F5F5F5F5F5F5F5F5F5F5F5F5F5F5F5F5F5F5F5F5F5F5F5F5F5F5F5F5F5F5F5F5F5F5F5F5F5F5F5F5F5
310
F5F5E2E2F5E2E2F5E2F5F5F5F5F5F5F5F5F5F5F5F5F5F5F5F5F5F5F5F5F5F5F5F5F5F5F5F5F5F5F5F5F5F5F5F5F5F5F5F5F5F5F5F5F5F5F5F5F5F5F5F5F5F5F5F5F5F5F5F5F5F5F5F5F5F5F5F5F5F5F5F5F5F5F5F5F5F5F5F5F5F5F5F5F5F5F5F5F5F5F5F5F5F5F5F5F5F5F5F5F5F5F5F5F5F5F5F5F5F5F5F5F5F5F5F5F5F5
310
F5F5F5F5F5F5F5F5F5F5F5F5F5F5F5F5F5F5F5F5F5F5F5F5F5F5F5F5F5F5F5F5F5F5F5F5F5F5F5F5F5F5F5F5F5F5F5F5F5F5F5F5F5F5F5E2E2F5E2E2F5E2F5F5F5F5F5F5F5F5F5F5F5F5F5F5F5F5F5F5F5F5F5F5F5F5F5F5F5F5F5F5F5F5F5F5F5F5F5F5F5F5F5F5F5F5F5F5F5F5F5F5F5F5F5F5F5F5F5F5F5F5F5F5F5F5F5
310
F5F5F5F5F5F5F5F5F5F5F5F5F5F5F5F5F5F5F5F5F5F5F5F5F5F5F5F5F5F5F5F5F5F5F5F5F5F5F5F5F5F5F5F5F5F5F5F5F5F5F5F5F5F5F5F5F5F5F5F5F5F5F5F5F5F5F5F5F5F5F5F5F5F5F5F5F5F5F5F5F5F5F5F5F5F5F5F5F5F5F5F5F5F5F5F5F5F5F5F5F5F5F5F5F5F5F5F5E2E2F5E2E2F5E2F5F5F5F5F5F5F5F5F5F5F5F5
310
F5F5F5F5F5F5F5F5F5F5F5F5F5F5F5F5F5F5F5F5F5F5F5F5F5F5F5F5F5F5F5F5F5F5F5F5F5F5F5F5F5F5F5F5F5F5F5F5F5F5F5F5F5F5F5F5F5F5F5F5F5F5F5F5F5F5F5F5F5F5F5F5F5F5F5F5F5F5F5F5F5F5F5F5F5F5F5F5F5F5F5F5F5F5F5F5F5F5F5F5F5F5F5F5F5F5F5F5F5F5F5F5F5F5F5F5F5F5F5F5F5F5F5F5F5F5F5
310
F5F5F5F5F5F5F5F5F5F5F5F5F5F5F5F5F5F5F5F5F5F5F5F5F5F5F5F5F5F5F5F5F5F5E2E2F5E2E2F5E2F5F5F5F5F5F5F5F5F5F5F5F5F5F5F5F5F5F5F5F5F5F5F5F5F5F5F5F5F5F5F5F5F5F5F5F5F5F5F5F5F5F5F5F5F5F5F5F5F5F5F5F5F5F5F5F5F5F5F5F5F5F5F5F5F5F5F5F5F5F5F5F5F5F5F5F5F5F5F5F5F5F5F5F5F5F5
310
F5F5F5F5F5F5F5F5F5F5F5F5F5F5F5F5F5F5F5F5F5F5F5F5F5F5F5F5F5F5F5F5F5F5F5F5F5F5F5F5F5F5F5F5F5F5F5F5F5F5F5F5F5F5F5F5F5F5F5F5F5F5F5F5F5F5F5F5F5F5F5F5F5F5F5F5F5F5F5F5F5F5F5F5F5F5F5E2E2F5E2E2F5E2F5F5F5F5F5F5F5F5F5F5F5F5F5F5F5F5F5F5F5F5F5F5F5F5F5F5F5F5F5F5F5F5F5
310
F5F5F5F5F5F5F5F5F5F5F5F5F5F5F5F5F5F5F5F5F5F5F5F5F5F5F5F5F5F5F5F5F5F5F5F5F5F5F5F5F5F5F5F5F5F5F5F5F5F5F5F5F5F5F5F5F5F5F5F5F5F5F5F5F5F5F5F5F5F5F5F5F5F5F5F5F5F5F5F5F5F5F5F5F5F5F5F5F5F5F5F5F5F5F5F5F5F5F5F5F5F5F5F5F5F5F5F5F5F5F5F5F5F5F5F5F5F5F5F5F5F5F5F5F5F5F5
310
F5F5F5F5F5F5F5F5F5F5F5F5F5E2E2F5E2E2F5E2F5F5F5F5F5F5F5F5F5F5F5F5F5F5F5F5F5F5F5F5F5F5F5F5F5F5F5F5F5F5F5F5F5F5F5F5F5F5F5F5F5F5F5F5F5F5F5F5F5F5F5F5F5F5F5F5F5F5F5F5F5F5F5F5F5F5F5F5F5F5F5F5F5F5F5F5F5F5F5F5F5F5F5F5F5F5F5F5F5F5F5F5F5F5F5F5F5F5F5F5F5F5F5F5F5F5F5
310
F5F5F5F5F5F5F5F5F5F5F5F5F5F5F5F5F5F5F5F5F5F5F5F5F5F5F5F5F5F5F5F5F5F5F5F5F5F5F5F5F5F5F5F5F5F5F5F5F5F5F5F5F5F5F5F5F5F5F5F5F5F5F5F5F5F5E2E2F5E2E2F5E2F5F5F5F5F5F5F5F5F5F5F5F5F5F5F5F5F5F5F5F5F5F5F5F5F5F5F5F5F5F5F5F5F5F5F5F5F5F5F5F5F5F5F5F5F5F5F5F5F5F5F5F5F5F5
310
F5F5F5F5F5F5F5F5F5F5F5F5F5F5F5F5F5F5F5F5F5F5F5F5F5F5F5F5F5F5F5F5F5F5F5F5F5F5F5F5F5F5F5F5F5F5F5F5F5F5F5F5F5F5F5F5F5F5F5F5F5F5F5F5F5F5F5F5F5F5F5F5F5F5F5F5F5F5F5F5F5F5F5F5F5F5F5F5F5F5F5F5F5F5F5F5F5F5F5F5F5F5F5F5F5F5F5F5F5F5F5F5F5F5F5F5F5F5F5E2F5F5E2E2F5E2F5
310
F5F5F5F5F5F5F5F5F5F5F5F5F5F5F5F5F5F5F5F5F5F5F5F5F5F5F5F5F5F5F5F5F5F5F5F5F5F5F5F5F5F5F5F5F5F5F5F5F5F5F5F5F5F5F5F5F5F5F5F5F5F5F5F5F5F5F5F5F5F5F5F5F5F5F5F5F5F5F5F5F5F5F5F5F5F5F5F5F5F5F5F5F5F5F5F5F5F5F5F5F5F5F5F5F5F5F5F5F5F5F5F5F5F5F5F5F5F5F5F5F5F5F5F5F5F5F5
310
F5F5F5F5F5F5F5F5F5F5F5F5F5F5F5F5F5F5F5F5F5F5F5F5F5F5F5F5F5F5F5F5F5F5F5F5F5F5F5F5F5F5F5F5F5E2F5F5E2E2F5E2F5F5F5F5F5F5F5F5F5F5F5F5F5F5F5F5F5F5F5F5F5F5F5F5F5F5F5F5F5F5F5F5F5F5F5F5F5F5F5F5F5F5F5F5F5F5F5F5F5F5F5F5F5F5F5F5F5F5F5F5F5F5F5F5F5F5F5F5F5F5F5F5F5F5F5
310
F5F5F5F5F5F5F5F5F5F5F5F5F5F5F5F5F5F5F5F5F5F5F5F5F5F5F5F5F5F5F5F5F5F5F5F5F5F5F5F5F5F5F5F5F5F5F5F5F5F5F5F5F5F5F5F5F5F5F5F5F5F5F5F5F5F5F5F5F5F5F5F5F5F5F5F5F5F5F5F5F5F5F5F5F5F5F5F5F5F5F5F5F5F5F5F5F5F5E2F5F5E2E2F5E2F5F5F5F5F5F5F5F5F5F5F5F5F5F5F5F5F5F5F5F5F5F5
310
F5F5F5F5F5F5F5F5F5F5F5F5F5F5F5F5F5F5F5F5F5F5F5F5F5F5F5F5F5F5F5F5F5F5F5F5F5F5F5F5F5F5F5F5F5F5F5F5F5F5F5F5F5F5F5F5F5F5F5F5F5F5F5F5F5F5F5F5F5F5F5F5F5F5F5F5F5F5F5F5F5F5F5F5F5F5F5F5F5F5F5F5F5F5F5F5F5F5F5F5F5F5F5F5F5F5F5F5F5F5F5F5F5F5F5F5F5F5F5F5F5F5F5F5F5F5F5
310
F5F5F5F5F5F5F5F5F5F5F5F5F5F5F5F5F5F5F5F5F5F5F5F5E2F5F5E2E2F5E2F5F5F5F5F5F5F5F5F5F5F5F5F5F5F5F5F5F5F5F5F5F5F5F5F5F5F5F5F5F5F5F5F5F5F5F5F5F5F5F5F5F5F5F5F5F5F5F5F5F5F5F5F5F5F5F5F5F5F5F5F5F5F5F5F5F5F5F5F5F5F5F5F5F5F5F5F5F5F5F5F5F5F5F5F5F5F5F5F5F5F5F5F5F5F5F5
310
F5F5F5F5F5F5F5F5F5F5F5F5F5F5F5F5F5F5F5F5F5F5F5F5F5F5F5F5F5F5F5F5F5F5F5F5F5F5F5F5F5F5F5F5F5F5F5F5F5F5F5F5F5F5F5F5F5F5F5F5F5F5F5F5F5F5F5F5F5F5F5F5F5F5F5F5F5E2F5F5E2E2F5E2F5F5F5F5F5F5F5F5F5F5F5F5F5F5F5F5F5F5F5F5F5F5F5F5F5F5F5F5F5F5F5F5F5F5F5F5F5F5F5F5F5F5F5
310
F5F5F5F5F5F5F5F5F5F5F5F5F5F5F5F5F5F5F5F5F5F5F5F5F5F5F5F5F5F5F5F5F5F5F5F5F5F5F5F5F5F5F5F5F5F5F5F5F5F5F5F5F5F5F5F5F5F5F5F5F5F5F5F5F5F5F5F5F5F5F5F5F5F5F5F5F5F5F5F5F5F5F5F5F5F5F5F5F5F5F5F5F5F5F5F5F5F5F5F5F5F5F5F5F5F5F5F5F5F5F5F5F5F5F5F5F5F5F5F5F5F5F5F5F5F5F5
310
F5F5F5E2F5F5E2E2F5E2F5F5F5F5F5F5F5F5F5F5F5F5F5F5F5F5F5F5F5F5F5F5F5F5F5F5F5F5F5F5F5F5F5F5F5F5F5F5F5F5F5F5F5F5F5F5F5F5F5F5F5F5F5F5F5F5F5F5F5F5F5F5F5F5F5F5F5F5F5F5F5F5F5F5F5F5F5F5F5F5F5F5F5F5F5F5F5F5F5F5F5F5F5F5F5F5F5F5F5F5F5F5F5F5F5F5F5F5F5F5F5F5F5F5F5F5F5
310
F5F5F5F5F5F5F5F5F5F5F5F5F5F5F5F5F5F5F5F5F5F5F5F5F5F5F5F5F5F5F5F5F5F5F5F5F5F5F5F5F5F5F5F5F5F5F5F5F5F5F5F5F5F5F5F5E2F5F5E2E2F5E2F5F5F5F5F5F5F5F5F5F5F5F5F5F5F5F5F5F5F5F5F5F5F5F5F5F5F5F5F5F5F5F5F5F5F5F5F5F5F5F5F5F5F5F5F5F5F5E2E2E2E2E2E2E2E2E2E2E2E2E2E2E2E2E2
310
E2E2E2E2E2E2E2E2E2E2E2E2E2E2E2E2E2E2E2E2E2E2E2E2E2E2E2E2F5F5F5F5F5F5F5F5F5F5F5F5F5F5F5F5F5F5F5F5F5F5F5F5F5F5F5F5F5F5F5F5F5F5F5F5F5F5F5F5F5F5F5F5F5F5F5F5F5F5F5F5F5F5F5F5F5F5F5F5F5F5F5F5F5F5F5F5F5F5F5F5F5F5F5F5F5F5F5F5F5E2F5F5E2E2F5E2F5F5F5F5F5F5F5F5F5F5F5
310
F5F5F5F5F5F5F5F5F5F5F5F5F5F5F5F5F5F5F5F5F5F5F5F5F5F5F5F5F5F5F5F5F5F5F5F5E2E2E2E2E2E2E2E2E2E2E2E2E2E2E2E2E2E2E2E2E2E2E2E2E2E2E2E2E2E2E2E2E2E2E2E2E2E2E2E2E2E2E2E2E2F5F5F5F5F5F5F5F5F5F5F5F5F5F5F5F5F5F5F5F5F5F5F5F5F5F5F5F5F5F5F5F5F5F5F5F5F5F5F5F5F5F5F5F5F5F5
310
F5F5F5F5F5F5F5F5F5F5F5F5F5F5F5F5F5F5F5F5F5F5F5F5F5F5F5F5F5F5F5F5F5F5F5E2F5F5E2E2F5E2F5F5F5F5F5F5F5F5F5F5F5F5F5F5F5F5F5F5F5F5F5F5F5F5F5F5F5F5F5F5F5F5F5F5F5F5F5F5F5F5F5F5F5F5F5F5F5E2E2E2E2E2E2E2E2E2E2E2E2E2E2E2E2E2E2E2E2E2E2E2E2E2E2E2E2E2E2E2E2E2E2E2E2E2E2
310
E2E2E2E2E2E2E2F5F5F5F5F5F5F5F5F5F5F5F5F5F5F5F5F5F5F5F5F5F5F5F5F5F5F5F5F5F5F5F5F5F5F5F5F5F5F5F5F5F5F5F5F5F5F5F5F5F5F5F5F5F5F5F5F5F5F5F5F5F5F5F5F5F5F5F5F5F5F5F5F5F5F5F5F5F5F5F5F5E2E2F5E2E2F5E2F5F5F5F5F5F5F5F5F5F5F5F5F5F5F5F5F5F5F5F5F5F5F5F5F5F5F5F5F5F5F5F5
310
F5F5F5F5F5F5F5F5F5F5F5F5F5F5F5E2E2E2E2E2E2E2E2E2E2E2E2E2E2E2E2E2E2E2E2E2E2E2E2E2E2E2E2E2E2E2E2E2E2E2E2E2E2E2E2E2E2E2E2E2F5F5F5F5F5F5F5F5F5F5F5F5F5F5F5F5F5F5F5F5F5F5F5F5F5F5F5F5F5F5F5F5F5F5F5F5F5F5F5F5F5F5F5F5F5F5F5F5F5F5F5F5F5F5F5F5F5F5F5F5F5F5F5F5F5F5F5
310
F5F5F5F5F5F5F5F5F5F5F5F5F5F5E2E2F5E2E2F5E2F5F5F5F5F5F5F5F5F5F5F5F5F5F5F5F5F5F5F5F5F5F5F5F5F5F5F5F5F5F5F5F5F5F5F5F5F5F5F5F5F5F5F5F5F5F5F5F5F5F5F5F5F5F5F5F5F5F5F5F5F5F5F5F5F5F5F5F5F5F5F5F5F5F5F5F5F5F5F5F5F5F5F5F5F5F5F5F5F5F5F5F5F5F5F5F5F5F5F5F5F5F5F5F5F5F5
310
F5F5F5F5F5F5F5F5F5F5F5F5F5F5F5F5F5F5F5F5F5F5F5F5F5F5F5F5F5F5F5F5F5F5F5F5F5F5F5F5F5F5F5F5F5F5F5F5F5F5F5F5F5F5F5F5F5F5F5F5F5F5F5F5F5F5F5E2E2F5E2E2F5E2F5F5F5F5F5F5F5F5F5F5F5F5F5F5F5F5F5F5F5F5F5F5F5F5F5F5F5F5F5F5F5F5F5F5F5F5F5F5F5F5F5F5F5F5F5F5F5F5F5F5F5F5F5
310
F5F5F5F5F5F5F5F5F5F5F5F5F5F5F5F5F5F5F5F5F5F5F5F5F5F5F5F5F5F5F5F5F5F5F5F5F5F5F5F5F5F5F5F5F5F5F5F5F5F5F5F5F5F5F5F5F5F5F5F5F5F5F5F5F5F5F5F5F5F5F5F5F5F5F5F5F5F5F5F5F5F5F5F5F5F5F5F5F5F5F5F5F5F5F5F5F5F5F5F5F5F5F5F5F5F5F5F5F5F5F5F5F5F5F5F5F5F5F5F5E2E2F5E2E2F5E2
310
F5F5F5F5F5F5F5F5F5F5F5F5F5F5F5F5F5F5F5F5F5F5F5F5F5F5F5F5F5F5F5F5F5F5F5F5F5F5F5F5F5F5F5F5F5F5F5F5F5F5F5F5F5F5F5F5F5F5F5F5F5F5F5F5F5F5F5F5F5F5F5F5F5F5F5F5F5F5F5F5F5F5F5F5F5F5F5F5F5F5F5F5F5F5F5F5F5F5F5F5F5F5F5F5F5F5F5F5F5F5F5F5F5F5F5F5F5F5F5F5F5F5F5F5F5F5F5
310
F5F5F5F5F5F5F5F5F5F5F5F5F5F5F5F5F5F5F5F5F5F5F5F5F5F5F5F5F5F5F5F5F5F5F5F5F5F5F5F5F5F5F5F5F5F5E2E2F5E2E2F5E2F5F5F5F5F5F5F5F5F5F5F5F5F5F5F5F5F5F5F5F5F5F5F5F5F5F5F5F5F5F5F5F5F5F5F5F5F5F5F5F5E2BEF5F5F5F5F5F5F5F5F5F5F5F5F5F5F5F5F5F5F5F5F5F5F5F5F5F5F5F5F5F5F5F5
310
F5F5F5F5F5F5F5F5F5F5F5F5F5F5F5F5F5F5F5F5F5F5F5F5F5F5F5F5F5F5F5F5F5F5F5F5F5F5F5F5F5F5F5F5F5F5F5F5F5F5F5F5F5F5F5F5F5F5F5F5F5F5F5F5F5F5F5F5F5F5F5F5F5F5F5F5F5F5F5F5F5F5F5F5F5F5F5F5F5F5F5F5F5F5F5F5F5F5F5E2E2F5E2E2F5E2F5F5F5F5F5F5F5F5F5F5F5F5F5F5F5F5F5F5F5F5F5
310
F5F5F5F5F5F5F5F5F5F5F5F5F5F5F5F5F5F5E2E2E2E2F5F5F5F5E2E2E2E2F5E2E2E2E2E2E2E2E2F5E2E2E2E2E2E2E2E2E2E2E2E2F5E2E2E2E2E2E2E2E2F5E2E2E2E2E2E2E2E2F5E2E2E2E2E2E2E2E2F5E2E2E2E2E2E2E2E2F5E2E2E2E2F5F5F5F5F5F5F5F5F5F5F5F5F5F5F5F5F5F5F5F5F5F5F5F5F5F5F5F5F5F5F5F5F5F5
310
F5F5F5F5F5F5F5F5F5F5F5F5F5F5F5F5F5F5F5F5F5F5F5F5F5E2E2F5E2E2F5E2F5F5F5F5F5F5F5F5F5F5F5F5F5F5F5F5F5F5F5F5F5F5F5F5F5F5F5F5F5F5F5F5F5F5F5F5F5F5F5BEE2F5F5F5F5F5F5E2F5F5F5F5F5F5F5F5F5F5F5F5F5F5F5F5F5F5F5F5F5F5F5F5F5F5F5F5F5F5F5F5F5F5F5F5F5F5F5F5F5F5F5F5F5F5F5
310
F5F5F5F5F5F5F5F5F5F5F5F5F5F5F5F5F5F5E2F5F5F5F5F5F5F5F5F5F5F5F5F5F5F5F5F5F5F5F5F5F5F5F5F5F5F5F5F5F5F5F5F5F5F5F5F5F5F5F5F5F5F5F5F5F5F5F5F5F5F5F5F5F5F5F5F5F5F5E2E2F5E2E2F5E2F5F5F5F5F5F5F5F5F5F5F5F5F5F5F5F5F5F5F5F5F5F5F5F5F5F5F5F5F5F5F5F5F5F5F5F5F5F5F5F5E2F5
310
F5F5F5F5F5E2F5F5F5F5F5F5F5F5F5F5F5F5F5F5F5F5F5F5F5F5F5F5F5F5F5F5F5F5F5F5F5F5F5F5F5F5F5F5F5F5F5F5F5F5F5F5F5F5F5F5F5F5F5F5F5F5F5F5F5F5F5F5F5F5F5E2F5F5F5F5F5F5F5F5F5F5F5F5F5F5F5F5F5F5F5F5F5F5F5F5F5F5F5F5F5F5F5F5F5F5F5F5F5F5F5F5F5F5F5F5F5F5F5F5F5F5F5F5F5F5F5
310
F5F5F5F5E2E2F5E2E2F5E2F5F5F5F5F5F5F5F5F5F5F5F5F5F5F5F5F5F5F5F5F5F5F5F5F5F5F5F5F5F5F5F5F5F5F5F5F5F5F5F5E2F5F5F5F5F5F5E2F5F5F5F5F5F5F5F5F5F5F5F5F5F5F5F5F5F5F5F5F5F5F5F5F5F5F5F5F5F5F5F5F5F5F5F5F5F5F5F5F5F5F5F5F5F5F5F5F5F5F5F5F5F5F5F5F5F5F5F5F5F5F5F5F5E2F5F5
310
F5F5F5F5F5F5F5F5F5F5F5F5F5F5F5F5F5F5F5F5F5F5F5F5F5F5F5F5F5F5F5F5F5F5F5F5F5F5F5F5F5F5F5F5F5F5F5F5F5F5F5F5F5F5F5F5F5E2E2F5E2E2F5E2F5F5F5F5F5F5F5F5F5F5F5F5F5F5F5F5F5F5F5F5F5F5F5F5F5F5F5F5F5F5F5F5F5F5F5F5F5F5F5F5E2F5F5F5F5F5F5E2F5F5F5F5F5F5F5F5F5F5F5F5F5F5F5
310
F5F5F5F5F5F5F5F5F5F5F5F5F5F5F5F5F5F5F5F5F5F5F5F5F5F5F5F5F5F5F5F5F5F5F5F5F5F5F5F5F5F5F5F5F5F5F5F5F5F5E2F5F5F5F5F5F5F5F5F5F5F5F5F5F5F5F5F5F5F5F5F5F5F5F5F5F5F5F5F5F5F5F5F5F5F5F5F5F5F5F5F5F5F5F5F5F5F5F5F5F5F5F5F5F5F5F5F5F5F5E2E2F5E2E2F5E2F5F5F5F5F5F5F5F5F5F5
310
F5F5F5F5F5F5F5F5F5F5F5F5F5F5F5F5F5F5F5F5F5F5F5F5F5F5F5F5F5F5E2F5F5F5F5F5F5E2F5F5F5F5F5F5F5F5F5F5F5F5F5F5F5F5F5F5F5F5F5F5F5F5F5F5F5F5F5F5F5F5F5F5F5F5F5F5F5F5F5F5F5F5F5F5F5F5F5F5F5F5F5F5F5F5F5F5F5F5F5F5F5F5F5E2F5F5F5F5F5F5F5F5F5F5F5F5F5F5F5F5F5F5F5F5F5F5F5
310
F5F5F5F5F5F5F5F5F5F5F5F5F5F5F5F5F5F5F5F5F5F5F5F5F5F5F5F5F5F5F5F5F5F5F5F5E2E2F5E2E2F5E2F5F5F5F5F5F5F5F5F5F5F5F5F5F5F5F5F5F5F5F5F5F5F5F5F5F5F5F5F5F5F5F5F5F5F5F5F5F5F5F5E2F5F5F5F5F5F5E2F5F5F5F5F5F5F5F5F5F5F5F5F5F5F5F5F5F5F5F5F5F5F5F5F5F5F5F5F5F5F5F5F5F5F5F5
310
F5F5F5F5F5F5F5F5F5F5F5F5F5F5F5F5F5F5F5F5F5F5F5F5F5F5F5F5F5E2F5F5F5F5F5F5F5F5F5F5F5F5F5F5F5F5F5F5F5F5F5F5F5F5F5F5F5F5F5F5F5F5F5F5F5F5F5F5F5F5F5F5F5F5F5F5F5F5F5F5F5F5F5F5F5F5F5F5F5E2E2F5E2E2F5E2F5F5F5F5F5F5F5F5F5F5F5F5F5F5F5F5F5F5F5F5F5F5F5F5F5F5F5F5F5F5F5
310
F5F5F5F5F5F5F5F5F5E2F5F5F5F5F5F5F5F5F5F5F5F5F5F5F5F5F5F5F5F5F5F5F5F5F5F5F5F5F5F5F5F5F5F5F5F5F5F5F5F5F5F5F5F5F5F5F5F5F5F5F5F5F5F5F5F5F5F5F5F5F5F5F5F5F5F5F5F5F5F5F5F5F5F5F5F5F5F5F5F5F5F5F5F5F5F5F5F5F5F5F5F5F5F5F5F5F5F5F5F5F5F5F5F5F5F5F5F5F5F5F5F5F5F5F5F5F5
310
F5F5F5F5F5F5F5F5F5F5F5F5F5F5F5E2E2F5E2E2F5E2F5F5F5F5F5F5F5F5F5F5F5F5F5F5F5F5F5F5F5F5F5F5F5F5F5F5F5F5F5F5F5F5F5F5F5F5F5F5F5F5E2F5F5F5F5F5F5E2F5F5F5F5F5F5F5F5F5F5F5F5F5F5F5F5F5F5F5F5F5F5F5F5F5F5F5F5F5F5F5F5F5F5F5F5F5F5F5F5F5F5F5F5F5F5F5F5F5F5F5F5F5F5F5F5F5
310
F5F5F5F5F5F5F5F5E2F5F5F5F5F5F5F5F5F5F5F5F5F5F5F5F5F5F5F5F5F5F5F5F5F5F5F5F5F5F5F5F5F5F5F5F5F5F5F5F5F5F5F5F5F5F5F5F5F5F5F5F5F5F5F5F5F5F5F5E2E2F5E2E2F5E2F5F5F5F5F5F5F5F5F5F5F5F5F5F5F5F5F5F5F5F5F5F5F5F5F5F5F5F5F5F5F5F5F5F5F5F5F5F5F5F5E2F5F5F5F5F5F5E2F5F5F5F5
310
F5F5F5F5F5F5F5F5F5F5F5F5F5F5F5F5F5F5F5F5F5F5F5F5F5F5F5F5F5F5F5F5F5F5F5F5F5F5F5F5F5F5F5F5F5F5F5F5F5F5F5F5F5F5F5F5F5F5F5F5F5E2F5F5F5F5F5F5F5F5F5F5F5F5F5F5F5F5F5F5F5F5F5F5F5F5F5F5F5F5F5F5F5F5F5F5F5F5F5F5F5F5F5F5F5F5F5F5F5F5F5F5F5F5F5F5F5F5F5F5F5E2E2F5E2E2F5
310
E2F5F5F5F5F5F5F5F5F5F5F5F5F5F5F5F5F5F5F5F5F5F5F5F5F5F5F5F5F5F5F5F5F5F5F5F5F5F5F5F5E2F5F5F5F5F5F5E2F5F5F5F5F5F5F5F5F5F5F5F5F5F5F5F5F5F5F5F5F5F5F5F5F5F5F5F5F5F5F5F5F5F5F5F5F5F5F5F5F5F5F5F5F5F5F5F5F5F5F5F5F5F5F5F5F5F5F5F5F5F5F5F5F5E2F5F5F5F5F5F5F5F5F5F5F5F5
310
F5F5F5F5F5F5F5F5F5F5F5F5F5F5F5F5F5F5F5F5F5F5F5F5F5F5F5F5F5F5F5F5F5F5F5F5F5F5F5F5F5F5F5F5F5F5F5E2F5F5E2E2F5E2F5F5F5F5F5F5F5F5F5F5F5F5F5F5F5F5F5F5F5F5F5F5F5F5F5F5F5F5F5F5F5F5F5F5F5F5F5F5F5F5E2F5F5F5F5F5F5E2F5F5F5F5F5F5F5F5F5F5F5F5F5F5F5F5F5F5F5F5F5F5F5F5F5
310
F5F5F5F5F5F5F5F5F5F5F5F5F5F5F5F5F5F5F5F5F5F5F5F5F5F5F5F5F5F5F5F5F5F5F5F5F5F5F5F5E2F5F5F5F5F5F5F5F5F5F5F5F5F5F5F5F5F5F5F5F5F5F5F5F5F5F5F5F5F5F5F5F5F5F5F5F5F5F5F5F5F5F5F5F5F5F5F5F5F5F5F5F5F5F5F5F5F5F5F5E2F5F5E2E2F5E2F5F5F5F5F5F5F5F5F5F5F5F5F5F5F5F5F5F5F5F5
310
F5F5F5F5F5F5F5F5F5F5F5F5F5F5F5F5F5F5F5F5E2F5F5F5F5F5F5E2F5F5F5F5F5F5F5F5F5F5F5F5F5F5F5F5F5F5F5F5F5F5F5F5F5F5F5F5F5F5F5F5F5F5F5F5F5F5F5F5F5F5F5F5F5F5F5F5F5F5F5F5F5F5F5F5F5F5F5F5F5F5F5F5F5E2F5F5F5F5F5F5F5F5F5F5F5F5F5F5F5F5F5F5F5F5F5F5F5F5F5F5F5F5F5F5F5F5F5
310
F5F5F5F5F5F5F5F5F5F5F5F5F5F5F5F5F5F5F5F5F5F5F5F5F5F5E2F5F5E2E2F5E2F5F5F5F5F5F5F5F5F5F5F5F5F5F5F5F5F5F5F5F5F5F5F5F5F5F5F5F5F5F5F5F5F5F5F5F5F5F5F5F5E2F5F5F5F5F5F5E2F5F5F5F5F5F5F5F5F5F5F5F5F5F5F5F5F5F5F5F5F5F5F5F5F5F5F5F5F5F5F5F5F5F5F5F5F5F5F5F5F5F5F5F5F5F5
310
F5F5F5F5F5F5F5F5F5F5F5F5F5F5F5F5F5F5F5E2F5F5F5F5F5F5F5F5F5F5F5F5F5F5F5F5F5F5F5F5F5F5F5F5F5F5F5F5F5F5F5F5F5F5F5F5F5F5F5F5F5F5F5F5F5F5F5F5F5F5F5F5F5F5F5F5F5F5F5E2F5F5E2E2F5E2F5F5F5F5F5F5F5F5F5F5F5F5F5F5F5F5F5F5F5F5F5F5F5F5F5F5F5F5F5F5F5F5F5F5F5F5F5F5F5F5E2
310
F5F5F5F5F5F5E2F5F5F5F5F5F5F5F5F5F5F5F5F5F5F5F5F5F5F5F5F5F5F5F5F5F5F5F5F5F5F5F5F5F5F5F5F5F5F5F5F5F5F5F5F5F5F5F5F5F5F5F5F5F5F5F5F5F5F5F5F5F5F5F5F5E2F5F5F5F5F5F5F5F5F5F5F5F5F5F5F5F5F5F5F5F5F5F5F5F5F5F5F5F5F5F5F5F5F5F5F5F5F5F5F5F5F5F5F5F5F5F5F5F5F5F5F5F5F5F5
310
F5F5F5F5F5E2F5F5E2E2F5E2F5F5F5F5F5F5F5F5F5F5F5F5F5F5F5F5F5F5F5F5F5F5F5F5F5F5F5F5F5F5F5F5F5F5F5F5F5F5F5F5E2F5F5F5F5F5F5E2F5F5F5F5F5F5F5F5F5F5F5F5F5F5F5F5F5F5F5F5F5F5F5F5F5F5F5F5F5F5F5F5F5F5F5F5F5F5F5F5F5F5F5F5F5F5F5F5F5F5F5F5F5F5F5F5F5F5F5F5F5F5F5F5F5E2F5
310
F5F5F5F5F5F5F5F5F5F5F5F5F5F5F5F5F5F5F5F5F5F5F5F5F5F5F5F5F5F5F5F5F5F5F5F5F5F5F5F5F5F5F5F5F5F5F5F5F5F5F5F5F5F5F5F5F5F5E2F5F5E2E2F5E2F5F5F5F5F5F5F5F5F5F5F5F5F5F5F5F5F5F5F5F5F5F5F5F5F5F5F5F5F5F5F5F5F5F5F5F5F5F5F5F5E2F5F5F5F5F5F5F5F5F5F5F5F5F5F5F5F5F5F5F5F5F5
310
F5F5F5F5F5F5F5F5F5F5F5F5F5F5F5F5F5F5F5F5F5F5F5F5F5F5F5F5F5F5F5F5F5F5F5F5F5F5F5F5F5F5F5F5F5F5F5F5F5F5F5F5F5F5F5F5F5F5F5F5F5F5F5F5F5F5F5F5F5F5F5F5F5F5F5F5F5F5F5F5F5F5F5F5F5F5F5F5F5F5F5F5F5F5F5F5F5F5F5F5F5F5F5F5F5F5F5F5F5F5F5E2F5F5E2E2F5E2F5F5F5F5F5F5F5F5F5
310
F5F5F5F5F5F5F5F5F5F5F5F5F5F5F5F5F5F5F5F5F5F5F5F5F5F5F5F5F5F5F5E2F5F5F5F5F5F5E2F5F5F5F5F5F5F5F5F5F5F5F5F5F5F5F5F5F5F5F5F5F5F5F5F5F5F5F5F5F5F5F5F5F5F5F5F5F5F5F5F5F5F5F5F5F5F5F5F5F5F5F5F5F5F5F5F5F5F5F5F5F5F5F5F5E2F5F5F5F5F5F5F5F5F5F5F5F5F5F5F5F5F5F5F5F5F5F5
310
F5F5F5F5F5F5F5F5F5F5F5F5F5F5F5F5F5F5F5F5F5F5F5F5F5F5F5F5F5F5F5F5F5F5F5F5F5E2F5F5E2E2F5E2F5F5F5F5F5F5F5F5F5F5F5F5F5F5F5F5F5F5F5F5F5F5F5F5F5F5F5F5F5F5F5F5F5F5F5F5F5F5F5F5E2F5F5F5F5F5F5E2F5F5F5F5F5F5F5F5F5F5F5F5F5F5F5F5F5F5F5F5F5F5F5F5F5F5F5F5F5F5F5F5F5F5F5
310
F5F5F5F5F5F5F5F5F5F5F5F5F5F5F5F5F5F5F5F5F5F5F5F5F5F5F5F5F5F5E2F5F5F5F5F5F5F5F5F5F5F5F5F5F5F5F5F5F5F5F5F5F5F5F5F5F5F5F5F5F5F5F5F5F5F5F5F5F5F5F5F5F5F5F5F5F5F5F5F5F5F5F5F5F5F5F5F5F5F5E2E2F5E2E2F5E2F5F5F5F5F5F5F5F5F5F5F5F5F5F5F5F5F5F5F5F5F5F5F5F5F5F5F5F5F5F5
310
F5F5F5F5F5F5F5F5F5F5E2F5F5F5F5F5F5E2F5F5F5F5F5F5F5F5F5F5F5F5F5F5F5F5F5F5F5F5F5F5F5F5F5F5E2E2F5F5F5F5F5F5F5F5F5F5F5F5F5F5F5F5F5F5F5F5F5F5F5F5F5F5F5F5F5F5F5F5F5F5F5F5F5E2F5F5F5F5F5F5F5F5F5F5F5F5F5F5F5F5F5F5F5F5F5F5F5F5F5F5F5F5F5F5F5F5F5F5F5F5F5F5F5F5F5F5F5
310
F5F5F5F5F5F5F5F5F5F5F5F5F5F5F5F5E2E2F5E2E2F5E2F5F5F5F5F5F5F5F5F5F5F5F5F5F5F5F5F5F5F5F5F5F5F5F5F5F5F5F5F5F5F5F5F5F5F5F5F5F5F5F5E2F5F5F5F5F5F5E2F5F5F5F5F5F5F5F5F5F5F5F5F5F5F5F5F5F5F5F5F5F5F5F5F5F5E2E2E2F5F5F5F5F5F5F5F5F5F5F5F5F5F5F5F5F5F5F5F5F5F5F5F5F5F5F5
310
F5F5F5F5F5F5F5F5F5E2F5F5F5F5F5F5F5F5F5F5F5F5F5F5F5F5F5F5F5F5F5F5F5F5F5F5F5F5F5F5F5F5F5F5F5F5F5F5F5F5F5F5F5F5F5F5F5F5F5F5F5F5F5F5F5F5F5F5F5E2E2F5E2E2F5E2F5F5F5F5F5F5F5F5F5F5F5F5F5F5F5F5F5F5F5F5F5F5F5F5F5F5F5F5F5F5F5F5F5F5F5F5F5F5F5F5E2F5F5F5F5F5F5F5F5F5F5
310
F5F5F5F5F5F5F5F5F5F5F5F5F5F5F5F5F5F5F5F5F5F5E2F5F5F5E2F5F5F5F5F5F5F5F5F5F5F5F5F5F5F5F5F5F5F5F5F5F5F5F5F5F5F5F5F5F5F5F5F5F5F5F5F5F5F5F5F5F5F5F5F5F5F5F5F5F5F5F5F5F5F5F5F5F5F5F5F5F5F5F5F5F5F5F5F5F5F5F5F5F5F5F5F5F5F5F5F5F5F5F5F5F5F5F5F5F5F5F5F5F5F5E2E2F5E2E2
310
F5E2F5F5F5F5F5F5F5F5F5F5F5F5F5F5F5F5F5F5F5F5F5F5F5F5F5F5F5F5F5F5F5F5F5F5F5F5F5F5F5F5E2F5F5F5F5F5F5E2F5F5F5F5F5F5F5F5F5F5F5F5F5F5F5F5F5F5F5F5F5F5F5F5E2F5F5F5F5F5E2F5F5F5F5F5F5F5F5F5F5F5F5F5F5F5F5F5F5F5F5F5F5F5F5F5F5F5F5F5F5F5F5F5F5E2F5F5F5F5F5F5F5F5F5F5F5
310
F5F5F5F5F5F5F5F5F5F5F5F5F5F5F5F5F5F5F5F5F5F5F5F5F5F5F5F5F5F5F5F5F5F5F5F5F5F5F5F5F5F5F5F5F5F5F5F5E2E2F5E2E2F5E2F5F5F5F5F5F5F5F5F5F5F5F5F5F5F5F5F5F5F5F5F5F5F5F5F5F5F5F5F5F5F5F5F5F5F5F5F5F5F5F5E2F5F5F5F5F5F5E2F5F5F5F5F5F5F5F5F5F5F5F5F5F5F5F5F5F5F5F5F5F5E2E2
310
F5F5F5F5F5F5F5E2F5F5F5F5F5F5F5F5F5F5F5F5F5F5F5F5F5F5F5F5F5F5F5F5F5F5F5F5F5F5F5F5F5E2F5F5F5F5F5F5F5F5F5F5F5F5F5F5F5F5F5F5F5F5F5F5F5F5F5F5F5F5F5F5F5F5F5F5F5F5F5F5F5F5F5F5F5F5F5F5F5F5F5F5F5F5F5F5F5F5F5F5F5E2E2F5E2E2F5E2F5F5F5F5F5F5F5F5F5F5F5F5F5F5F5F5F5F5F5
310
F5F5F5F5F5F5F5F5F5F5F5F5F5F5F5F5F5F5F5F5F5E2F5F5F5F5F5F5E2F5F5F5F5F5F5F5F5F5F5F5F5F5F5F5F5F5F5F5F5F5E2F5F5F5F5F5F5F5F5F5E2E2F5F5F5F5F5F5F5F5F5F5F5F5F5F5F5F5F5F5F5F5F5F5F5F5F5F5F5F5F5F5F5F5E2F5F5F5F5F5F5F5F5F5F5F5F5F5F5F5F5F5F5F5F5F5F5F5F5F5F5F5F5F5F5F5F5
310
F5F5F5F5F5F5F5F5F5F5F5F5F5F5F5F5F5F5F5F5F5F5F5F5F5F5F5E2E2F5E2E2F5E2F5F5F5F5F5F5F5F5F5F5F5F5F5F5F5F5F5F5F5F5F5F5F5F5F5F5F5F5F5F5F5F5F5F5F5F5F5F5F5F5E2F5F5F5F5F5F5E2F5F5F5F5F5F5F5F5F5F5F5F5F5F5F5F5F5F5F5F5E2F5F5F5F5F5F5F5F5F5F5E2E2E2F5F5F5F5F5F5F5F5F5F5F5
310
F5F5F5F5F5F5F5F5F5F5F5F5F5F5F5F5F5F5F5F5E2F5F5F5F5F5F5F5F5F5F5F5F5F5F5F5F5F5F5F5F5F5F5F5F5F5F5F5F5F5F5F5F5F5F5F5F5F5F5F5F5F5F5F5F5F5F5F5F5F5F5F5F5F5F5F5F5F5F5F5E2E2F5E2E2F5E2F5F5F5F5F5F5F5F5F5F5F5F5F5F5F5F5F5F5F5F5F5F5F5F5F5F5F5F5F5F5F5F5F5F5F5F5F5F5F5F5
310
E2F5F5F5F5F5F5E2F5F5F5F5F5F5F5F5F5F5F5F5F5F5F5F5F5F5F5E2F5F5F5F5F5F5F5F5F5F5E2F5F5F5E2F5F5F5F5F5F5F5F5F5F5F5F5F5F5F5F5F5F5F5F5F5F5F5F5F5F5F5F5F5F5E2F5F5F5F5F5F5F5F5F5F5F5F5F5F5F5F5F5F5F5F5F5F5F5F5F5F5F5F5F5F5F5F5F5F5F5F5F5F5F5F5F5F5F5F5F5F5F5F5F5F5F5F5F5
310
F5F5F5F5F5F5E2E2F5E2E2F5E2F5F5F5F5F5F5F5F5F5F5F5F5F5F5F5F5F5F5F5F5F5F5F5F5F5F5F5F5F5F5F5F5F5F5F5F5F5F5F5F5E2F5F5F5F5F5F5E2F5F5F5F5F5F5F5F5F5F5F5F5F5F5F5F5F5F5E2F5F5F5F5F5F5F5F5F5F5E2F5F5F5F5E2F5F5F5F5F5F5F5F5F5F5F5F5F5F5F5F5F5F5F5F5F5F5F5F5F5F5F5F5F5F5E2
310
F5F5F5F5F5F5F5F5F5F5F5F5F5F5F5F5F5F5F5F5F5F5F5F5F5F5F5F5F5F5F5F5F5F5F5F5F5F5F5F5F5F5F5F5F5F5F5F5F5F5F5F5F5F5F5F5F5F5F5E2E2F5E2E2F5E2F5F5F5F5F5F5F5F5F5F5F5F5F5F5F5F5F5F5F5F5F5F5F5F5F5F5F5F5F5F5F5F5F5F5F5F5F5F5F5F5E2F5F5F5F5F5F5E2F5F5F5F5F5F5F5F5F5F5F5F5F5
310
F5F5F5F5E2E2F5F5F5F5F5F5F5F5F5E2F5F5F5F5F5F5E2F5F5F5F5F5F5F5F5F5F5F5F5F5F5F5F5F5F5F5F5F5F5F5F5F5F5F5F5F5E2F5F5F5F5F5F5F5F5F5F5F5F5F5F5F5F5F5F5F5F5F5F5F5F5F5F5F5F5F5F5F5F5F5F5F5F5F5F5F5F5F5F5F5F5F5F5F5F5F5F5F5F5F5F5F5F5F5F5F5E2E2F5E2E2F5E2F5F5F5F5F5F5F5F5
310
F5F5F5F5F5F5F5F5F5F5F5F5F5F5F5F5F5F5F5F5F5F5F5F5F5F5F5F5F5F5F5F5E2F5F5F5F5F5F5E2F5F5F5F5F5F5F5F5F5F5F5F5F5F5F5F5F5E2F5F5F5F5F5F5F5F5E2E2F5F5F5F5F5F5F5F5E2E2F5F5F5F5F5F5F5F5F5F5F5F5F5F5F5F5F5F5F5F5F5F5F5F5F5F5F5E2F5F5F5F5F5F5F5F5F5F5F5F5F5F5F5F5F5F5F5F5F5
310
F5F5F5F5F5F5F5F5F5F5F5F5F5F5F5F5F5F5F5F5F5F5F5F5F5F5F5F5F5F5F5F5F5F5F5F5F5F5E2E2F5E2E2F5E2F5F5F5F5F5F5F5F5F5F5F5F5F5F5F5F5F5F5F5F5F5F5F5F5F5F5F5F5F5F5F5F5F5F5F5F5F5F5F5F5E2F5F5F5F5F5F5F5F5F5F5F5F5F5F5F5F5F5F5F5F5F5F5F5F5F5E2F5F5F5F5F5F5E2E2F5F5F5F5F5F5F5
310
F5E2E2F5F5F5F5F5F5F5F5F5F5F5F5F5F5F5F5F5F5F5F5F5F5F5F5F5F5F5F5F5F5F5F5F5F5F5F5F5F5F5F5F5F5F5F5F5F5F5F5F5F5F5F5F5F5F5F5F5F5F5F5F5F5F5F5F5F5F5F5F5F5F5F5F5F5F5F5F5F5F5F5F5F5F5F5F5F5F5F5E2E2F5E2E2F5E2F5F5F5F5F5F5F5F5F5F5F5F5F5F5F5F5F5F5F5F5F5F5F5F5F5F5F5F5F5
310
F5F5F5F5F5F5F5F5F5F5F5E2F5F5F5F5F5F5E2F5F5F5F5F5F5F5F5F5F5F5F5F5F5F5F5F5F5F5E2E2F5F5F5E2E2F5F5F5F5F5F5F5F5F5E2E2F5F5F5F5F5F5F5F5F5F5F5F5F5F5F5F5F5F5F5F5F5F5F5F5F5F5F5F5E2F5F5F5F5F5F5F5F5F5F5F5F5F5F5F5F5F5F5F5F5F5F5F5F5F5F5F5F5F5F5F5F5F5F5F5F5F5F5F5F5F5F5
310
F5F5F5F5F5F5F5F5F5F5F5F5F5F5F5F5F5E2E2F5E2E2F5E2F5F5F5F5F5F5F5F5F5F5F5F5F5F5F5F5F5F5F5F5F5F5F5F5F5F5F5F5F5F5F5F5F5F5F5F5F5F5F5F5E2F5F5F5F5F5F5E2F5F5F5F5F5F5F5F5F5F5F5F5F5F5F5F5F5F5F5F5F5E2E2E2E2F5F5F5F5F5F5F5F5F5E2E2E2E2F5F5F5F5F5F5F5F5F5F5F5F5F5F5F5F5F5
310
F5F5F5F5F5F5F5F5F5F5E2F5F5F5F5F5F5F5F5F5F5F5F5F5F5F5F5F5F5F5F5F5F5F5F5F5F5F5F5F5F5F5F5F5F5F5F5F5F5F5F5F5F5F5F5F5F5F5F5F5F5F5F5F5F5F5F5F5F5F5E2E2F5E2E2F5E2F5F5F5F5F5F5F5F5F5F5F5F5F5F5F5F5F5F5F5F5F5F5F5F5F5F5F5F5F5F5F5F5F5F5F5F5F5F5F5F5E2F5F5F5F5F5F5E2F5F5
310
F5F5F5F5F5F5F5F5F5F5F5F5F5F5F5F5F5F5F5F5E2E2F5F5F5F5F5F5F5F5F5E2E2F5E2E2F5F5F5F5F5F5F5F5F5F5F5F5F5F5F5F5F5F5F5F5F5F5F5F5F5F5F5E2F5F5F5F5F5F5F5F5F5F5F5F5F5F5F5F5F5F5F5F5F5F5F5F5F5F5F5F5F5F5F5F5F5F5F5F5F5F5F5F5F5F5F5F5F5F5F5F5F5F5F5F5F5F5F5F5F5F5F5E2E2F5E2
310
E2F5E2F5F5F5F5F5F5F5F5F5F5F5F5F5F5F5F5F5F5F5F5F5F5F5F5F5F5F5F5F5F5F5F5F5F5F5F5F5F5F5F5E2F5F5F5F5F5F5E2F5F5F5F5F5F5F5F5F5F5F5F5F5F5F5F5F5F5F5F5F5F5E2E2F5F5F5F5F5F5F5F5E2F5E2E2E2E2F5F5F5F5F5F5F5F5F5F5F5F5F5F5F5F5F5F5F5F5F5F5F5F5F5F5F5E2F5F5F5F5F5F5F5F5F5F5
310
F5F5F5F5F5F5F5F5F5F5F5F5F5F5F5F5F5F5F5F5F5F5F5F5F5F5F5F5F5F5F5F5F5F5F5F5F5F5F5F5F5F5F5F5F5F5F5F5F5E2F5F5E2E2F5E2F5F5F5F5F5F5F5F5F5F5F5F5F5F5F5F5F5F5F5F5F5F5F5F5F5F5F5F5F5F5F5F5F5F5F5F5F5F5F5F5E2F5F5F5F5F5F5E2F5F5F5F5F5F5F5F5F5F5F5F5F5F5F5F5F5F5F5F5F5F5F5
310
E2F5F5F5F5F5F5F5E2E2F5E2E2E2F5E2F5F5F5F5F5F5F5F5F5F5F5F5F5F5F5F5F5F5F5F5F5F5F5F5F5F5E2F5F5F5F5F5F5F5F5F5F5F5F5F5F5F5F5F5F5F5F5F5F5F5F5F5F5F5F5F5F5F5F5F5F5F5F5F5F5F5F5F5F5F5F5F5F5F5F5F5F5F5F5F5F5F5F5F5F5F5E2F5F5E2E2F5E2F5F5F5F5F5F5F5F5F5F5F5F5F5F5F5F5F5F5
310
F5F5F5F5F5F5F5F5F5F5F5F5F5F5F5F5F5F5E2E2E2F5E2F5F5F5F5F5F5E2F5F5F5F5F5F5F5F5F5F5F5F5F5F5F5F5F5F5F5F5F5F5F5F5E2E2F5F5F5E2E2F5E2E2F5E2E2E2E2E2F5F5F5F5F5F5F5F5F5F5F5F5F5F5F5F5F5F5F5F5F5F5F5F5F5E2F5F5F5F5F5F5F5F5F5F5F5F5F5F5F5F5F5F5F5F5F5F5F5F5F5F5F5F5F5F5F5
310
F5F5F5F5F5F5F5F5F5F5F5F5F5F5F5F5F5F5F5F5F5F5F5F5F5F5F5F5E2F5F5E2E2F5E2F5F5F5F5F5F5F5F5F5F5F5F5F5F5F5F5F5F5F5F5F5F5F5F5F5F5F5F5F5F5F5F5F5F5F5F5E2E2E2F5E2F5F5F5F5F5F5E2F5F5F5F5F5F5F5F5F5F5F5F5F5F5F5F5F5F5F5F5F5F5F5F5F5F5E2F5F5E2E2E2E2E2E2E2E2E2E2E2F5F5F5F5
310
F5F5F5F5F5F5F5F5F5F5F5F5F5F5F5F5F5F5F5F5F5E2F5F5F5F5F5F5F5F5F5F5F5F5F5F5F5F5F5F5F5F5F5F5F5F5F5F5F5F5F5F5F5F5F5F5F5F5F5F5F5F5F5F5F5F5F5F5F5F5F5F5F5F5F5F5F5F5F5F5F5E2F5F5E2E2F5E2F5F5F5F5F5F5F5F5F5F5F5F5F5F5F5F5F5F5F5F5F5F5F5F5F5F5F5F5F5F5F5F5F5F5F5F5E2E2E2
310
F5E2F5F5F5F5F5F5E2F5F5F5F5F5F5F5F5F5F5F5F5F5F5F5F5F5F5F5F5F5F5F5F5F5F5F5E2E2F5E2E2E2E2F5E2E2E2E2F5F5F5F5F5F5F5F5F5F5F5F5F5F5F5F5F5F5F5F5F5F5F5F5F5F5E2F5F5F5F5F5F5F5F5F5F5F5F5F5F5F5F5F5F5F5F5F5F5F5F5F5F5F5F5F5F5F5F5F5F5F5F5F5F5F5F5F5F5F5F5F5F5F5F5F5F5F5F5
310
F5F5F5F5F5F5F5E2F5F5E2E2F5E2F5F5F5F5F5F5F5F5F5F5F5F5F5F5F5F5F5F5F5F5F5F5F5F5F5F5F5F5F5F5F5F5F5F5F5F5E2E2E2F5E2F5F5F5F5F5F5F5F5F5F5F5F5F5F5F5F5F5F5F5F5F5F5F5F5F5F5F5F5F5F5F5F5F5F5E2E2F5E2E2E2E2F5E2E2E2E2F5F5F5F5F5F5F5F5F5F5F5F5F5F5F5F5F5F5F5F5F5F5F5F5F5F5
310
F5F5F5F5F5F5F5F5F5F5F5F5F5F5F5F5F5F5F5F5F5F5F5F5F5F5F5F5F5F5F5F5F5F5F5F5F5F5F5F5F5F5F5F5F5F5F5F5F5F5F5F5F5F5F5F5F5F5F5F5E2F5F5E2E2F5E2F5F5F5F5F5F5F5F5F5F5F5F5F5F5F5F5F5F5F5F5F5F5F5F5F5F5F5F5F5F5F5F5F5F5F5F5E2E2E2F5E2F5F5F5F5F5F5E2F5F5F5F5F5F5F5F5F5F5F5F5
310
F5F5F5F5F5F5F5F5F5F5F5F5F5F5F5E2E2F5E2E2E2E2F5E2E2E2E2F5F5F5F5F5F5F5F5F5F5F5F5F5F5F5F5F5F5F5F5F5F5F5F5F5F5E2F5F5F5F5F5F5F5F5F5F5F5F5F5F5F5F5F5F5F5F5F5F5F5F5F5F5F5F5F5F5F5F5F5F5F5F5F5F5F5F5F5F5F5F5F5F5F5F5F5F5F5F5F5F5F5F5F5F5F5E2F5F5E2E2F5E2F5F5F5F5F5F5F5
310
F5F5F5F5F5F5F5F5F5F5F5F5F5F5F5F5F5F5F5F5F5F5F5F5F5F5F5F5F5F5F5F5F5E2F5F5F5F5F5F5E2F5F5F5F5F5F5F5F5F5F5F5F5F5F5F5F5F5F5F5F5F5F5F5F5F5F5F5E2E2F5E2E2E2E2F5E2E2E2E2F5F5F5F5F5F5F5F5F5F5F5F5F5F5F5F5F5F5F5F5F5F5F5F5F5F5E2F5F5F5F5F5F5F5F5F5F5F5F5F5F5F5F5F5F5F5F5
310
F5F5F5F5F5F5F5F5F5F5F5F5F5F5F5F5F5F5F5F5F5F5F5F5F5F5F5F5F5F5F5F5F5F5F5F5F5F5F5E2F5F5E2E2F5E2F5F5F5F5F5F5F5F5F5F5F5F5F5F5F5F5F5F5F5F5F5F5F5F5F5F5F5F5F5F5F5F5F5F5F5F5F5F5F5F5E2F5F5F5F5F5F5E2F5F5F5F5F5F5F5F5F5F5F5F5F5F5F5F5F5F5F5F5F5F5F5F5F5F5F5E2E2F5E2E2E2
310
E2F5E2E2E2E2F5F5F5F5F5F5F5F5F5F5F5F5F5F5F5F5F5F5F5F5F5F5F5F5F5F5E2F5F5F5F5F5F5F5F5F5F5F5F5F5F5F5F5F5F5F5F5F5F5F5F5F5F5F5F5F5F5F5F5F5F5F5F5F5F5F5F5F5F5F5F5F5F5F5F5F5F5F5F5F5F5F5F5F5F5F5E2F5F5E2E2F5E2F5F5F5F5F5F5F5F5F5F5F5F5F5F5F5F5F5F5F5F5F5F5F5F5F5F5F5F5
310
F5F5F5F5F5F5F5F5F5F5F5F5E2F5F5F5F5F5F5E2F5F5F5F5F5F5F5F5F5F5F5F5F5F5F5F5F5F5F5F5F5F5F5F5F5F5F5E2E2F5E2E2E2E2F5E2E2E2E2F5F5F5F5F5F5F5F5F5F5F5F5F5F5F5F5F5F5F5F5F5F5F5F5F5F5E2F5F5F5F5F5F5F5F5F5F5F5F5F5F5F5F5F5F5F5F5F5F5F5F5F5F5F5F5F5F5F5F5F5F5F5F5F5F5F5F5F5
310
F5F5F5F5F5F5F5F5F5F5F5F5F5F5F5F5F5F5E2E2F5E2E2F5E2F5F5F5F5F5F5F5F5F5F5F5F5F5F5F5F5F5F5F5F5F5F5F5F5F5F5F5F5F5F5F5F5F5F5F5F5F5F5F5F5E2F5F5F5F5F5F5E2F5F5F5F5F5F5F5F5F5F5F5F5F5F5F5F5F5F5F5F5F5F5F5F5F5F5F5E2E2F5E2E2E2E2F5E2E2E2E2F5F5F5F5F5F5F5F5F5F5F5F5F5F5F5
310
F5F5F5F5F5F5F5F5F5F5F5E2F5F5F5F5F5F5F5F5F5F5F5F5F5F5F5F5F5F5F5F5F5F5F5F5F5F5F5F5F5F5F5F5F5F5F5F5F5F5F5F5F5F5F5F5F5F5F5F5F5F5F5F5F5F5F5F5F5F5F5E2E2F5E2E2F5E2F5F5F5F5F5F5F5F5F5F5F5F5F5F5F5F5F5F5F5F5F5F5F5F5F5F5F5F5F5F5F5F5F5F5F5F5F5F5F5F5E2F5F5F5F5F5F5E2F5
310
F5F5F5F5F5F5F5F5F5F5F5F5F5F5F5F5F5F5F5F5F5F5F5F5F5E2E2E2E2E2E2E2E2E2E2E2E2E2E2F5F5F5F5F5F5F5F5F5F5F5F5F5F5F5F5F5F5F5F5F5F5F5F5F5E2F5F5F5F5F5F5F5F5F5F5F5F5F5F5F5F5F5F5F5F5F5F5F5F5F5F5F5F5F5F5F5F5F5F5F5F5F5F5F5F5F5F5F5F5F5F5F5F5F5F5F5F5F5F5F5F5F5F5F5E2E2F5
310
E2E2F5E2F5F5F5F5F5F5F5F5F5F5F5F5F5F5F5F5F5F5F5F5F5F5F5F5F5F5F5F5F5F5F5F5F5F5F5F5F5F5F5F5E2F5F5F5F5F5F5E2F5F5F5F5F5F5F5F5F5F5F5F5F5F5F5F5F5F5F5F5F5F5F5F5F5F5E2E2F5F5F5F5F5F5F5F5F5F5F5E2F5F5F5F5F5F5F5F5F5F5F5F5F5F5F5F5F5F5F5F5F5F5F5F5F5E2F5F5F5F5F5F5F5F5F5
310
F5F5F5F5F5F5F5F5F5F5F5F5F5F5F5F5F5F5F5F5F5F5F5F5F5F5F5F5F5F5F5F5F5F5F5F5F5F5F5F5F5F5F5F5F5F5F5F5F5F5E2E2F5E2E2F5E2F5F5F5F5F5F5F5F5F5F5F5F5F5F5F5F5F5F5F5F5F5F5F5F5F5F5F5F5F5F5F5F5F5F5F5F5F5F5F5F5E2F5F5F5F5F5F5E2F5F5F5F5F5F5F5F5F5F5F5F5F5F5F5F5F5F5F5F5F5F5
310
F5F5F5F5E2F5F5F5F5F5F5F5F5F5F5F5F5E2F5F5F5F5F5F5F5F5F5F5F5F5F5F5F5F5F5F5F5F5F5F5F5F5F5E2F5F5F5F5F5F5F5F5F5F5F5F5F5F5F5F5F5F5F5F5F5F5F5F5F5F5F5F5F5F5F5F5F5F5F5F5F5F5F5F5F5F5F5F5F5F5F5F5F5F5F5F5F5F5F5F5F5F5F5E2E2F5E2E2F5E2F5F5F5F5F5F5F5F5F5F5F5F5F5F5F5F5F5
310
F5F5F5F5F5F5F5F5F5F5F5F5F5F5F5F5F5F5F5F5F5F5F5E2F5F5F5F5F5F5F5F5F5F5F5F5F5F5F5F5F5F5F5F5F5F5F5F5F5F5F5F5F5F5F5F5F5E2F5F5F5F5F5F5F5F5F5F5F5F5E2F5F5F5F5F5F5F5F5F5F5F5F5F5F5F5F5F5F5F5F5F5F5F5F5F5F5F5F5F5F5F5F5F5F5F5F5F5F5F5F5F5F5F5F5F5F5F5F5F5F5F5F5F5F5F5F5
310
F5F5F5F5F5F5F5F5F5F5F5F5F5F5F5F5F5F5F5F5F5F5F5F5F5F5F5F5F5E2E2F5E2E2F5E2F5F5F5F5F5F5F5F5F5F5F5F5F5F5F5F5F5F5F5F5F5F5F5F5F5F5F5F5F5F5F5F5F5F5F5F5F5F5F5F5E2F5F5F5F5F5F5E2F5F5F5F5F5F5F5F5F5F5F5F5F5F5F5F5F5F5F5F5F5F5F5F5F5F5E2F5F5F5F5F5F5F5F5F5F5F5F5E2F5F5F5
310
F5F5F5F5F5F5F5F5F5F5F5F5F5F5F5F5F5F5F5F5F5F5E2F5F5F5F5F5F5F5F5F5F5F5F5F5F5F5F5F5F5F5F5F5F5F5F5F5F5F5F5F5F5F5F5F5F5F5F5F5F5F5F5F5F5F5F5F5F5F5F5F5F5F5F5F5F5F5F5F5F5F5E2E2F5E2E2F5E2F5F5F5F5F5F5F5F5F5F5F5F5F5F5F5F5F5F5F5F5F5F5F5F5F5F5F5F5F5F5F5F5F5F5F5F5F5F5
310
F5F5E2F5F5F5F5F5F5E2F5F5F5F5F5F5F5F5F5F5F5F5F5F5F5F5F5F5F5F5F5F5F5F5F5F5E2F5F5F5F5F5F5F5F5F5F5F5F5E2F5F5F5F5F5F5F5F5F5F5F5F5F5F5F5F5F5F5F5F5F5F5F5F5F5E2F5F5F5F5F5F5F5F5F5F5F5F5F5F5F5F5F5F5F5F5F5F5F5F5F5F5F5F5F5F5F5F5F5F5F5F5F5F5F5F5F5F5F5F5F5F5F5F5F5F5F5
310
F5F5F5F5F5F5F5F5E2E2F5E2E2F5E2F5F5F5F5F5F5F5F5F5F5F5F5F5F5F5F5F5F5F5F5F5F5F5F5F5F5F5F5F5F5F5F5F5F5F5F5F5F5F5F5E2F5F5F5F5F5F5E2F5F5F5F5F5F5F5F5F5F5F5F5F5F5F5F5F5F5F5F5F5F5F5F5F5F5E2F5F5F5F5F5F5F5F5F5F5F5F5E2F5F5F5F5F5F5F5F5F5F5F5F5F5F5F5F5F5F5F5F5F5F5F5F5
310
F5E2F5F5F5F5F5F5F5F5F5F5F5F5F5F5F5F5F5F5F5F5F5F5F5F5F5F5F5F5F5F5F5F5F5F5F5F5F5F5F5F5F5F5F5F5F5F5F5F5F5F5F5F5F5F5F5F5F5F5F5E2E2F5E2E2F5E2F5F5F5F5F5F5F5F5F5F5F5F5F5F5F5F5F5F5F5F5F5F5F5F5F5F5F5F5F5F5F5F5F5F5F5F5F5F5F5F5E2F5F5F5F5F5F5E2F5F5F5F5F5F5F5F5F5F5F5
310
F5F5F5F5F5F5F5F5F5F5F5F5F5F5F5E2E2F5F5F5F5F5F5F5F5F5F5F5E2F5F5F5F5F5F5F5F5F5F5F5F5F5F5F5F5F5F5F5F5F5F5F5F5F5E2F5F5F5F5F5F5F5F5F5F5F5F5F5F5F5F5F5F5F5F5F5F5F5F5F5F5F5F5F5F5F5F5F5F5F5F5F5F5F5F5F5F5F5F5F5F5F5F5F5F5F5F5F5F5F5F5F5F5F5E2E2F5E2E2F5E2F5F5F5F5F5F5
310
F5F5F5F5F5F5F5F5F5F5F5F5F5F5F5F5F5F5F5F5F5F5F5F5F5F5F5F5F5F5F5F5F5F5E2F5F5F5F5F5F5E2F5F5F5F5F5F5F5F5F5F5F5F5F5F5F5F5F5F5F5F5F5F5F5F5F5F5E2E2E2E2E2E2E2E2E2E2E2E2E2E2F5F5F5F5F5F5F5F5F5F5F5F5F5F5F5F5F5F5F5F5F5F5F5F5F5E2F5F5F5F5F5F5F5F5F5F5F5F5F5F5F5F5F5F5F5
310
F5F5F5F5F5F5F5F5F5F5F5F5F5F5F5F5F5F5F5F5F5F5F5F5F5F5F5F5F5F5F5F5F5F5F5F5F5F5F5F5E2E2F5E2E2F5E2F5F5F5F5F5F5F5F5F5F5F5F5F5F5F5F5F5F5F5F5F5F5F5F5F5F5F5F5F5F5F5F5F5F5F5F5F5F5F5F5E2F5F5F5F5F5F5E2F5F5F5F5F5F5F5F5F5F5F5F5F5F5F5F5F5F5F5F5F5F5F5F5F5F5E2E2F5F5F5F5
310
F5F5F5F5F5F5F5E2F5F5F5F5F5F5F5F5F5F5F5F5F5F5F5F5F5F5F5F5F5F5F5F5F5E2F5F5F5F5F5F5F5F5F5F5F5F5F5F5F5F5F5F5F5F5F5F5F5F5F5F5F5F5F5F5F5F5F5F5F5F5F5F5F5F5F5F5F5F5F5F5F5F5F5F5F5F5F5F5F5F5F5F5F5E2E2F5E2E2F5E2F5F5F5F5F5F5F5F5F5F5F5F5F5F5F5F5F5F5F5F5F5F5F5F5F5F5F5
310
F5F5F5F5F5F5F5F5F5F5F5F5F5E2F5F5F5F5F5F5E2F5F5F5F5F5F5F5F5F5F5F5F5F5F5F5F5F5F5F5F5F5F5F5F5F5F5E2F5F5F5F5F5F5F5F5F5F5F5F5E2F5F5F5F5F5F5F5F5F5F5F5F5F5F5F5F5F5F5F5F5F5F5F5F5F5E2F5F5F5F5F5F5F5F5F5F5F5F5F5F5F5F5F5F5F5F5F5F5F5F5F5F5F5F5F5F5F5F5F5F5F5F5F5F5F5F5
310
F5F5F5F5F5F5F5F5F5F5F5F5F5F5F5F5F5F5F5E2E2F5E2E2F5E2F5F5F5F5F5F5F5F5F5F5F5F5F5F5F5F5F5F5F5F5F5F5F5F5F5F5F5F5F5F5F5F5F5F5F5F5F5F5F5F5E2F5F5F5F5F5F5E2F5F5F5F5F5F5F5F5F5F5F5F5F5F5F5F5F5F5F5F5F5F5F5F5F5F5E2F5F5F5F5F5F5F5F5F5F5F5F5E2F5F5F5F5F5F5F5F5F5F5F5F5F5
310
F5F5F5F5F5F5F5F5F5F5F5F5E2F5F5F5F5F5F5F5F5F5F5F5F5F5F5F5F5F5F5F5F5F5F5F5F5F5F5F5F5F5F5F5F5F5F5F5F5F5F5F5F5F5F5F5F5F5F5F5F5F5F5F5F5F5F5F5F5F5F5F5E2E2F5E2E2F5E2F5F5F5F5F5F5F5F5F5F5F5F5F5F5F5F5F5F5F5F5F5F5F5F5F5F5F5F5F5F5F5F5F5F5F5F5F5F5F5F5E2F5F5F5F5F5F5F5
310
F5F5F5F5F5F5F5F5F5F5F5F5F5F5F5F5F5F5F5F5F5F5F5F5F5F5E2F5F5F5F5F5F5F5F5F5F5F5F5E2F5F5F5F5F5F5F5F5F5F5F5F5F5F5F5F5F5F5F5F5F5F5F5F5F5F5F5F5F5F5F5F5F5F5F5F5F5F5F5F5F5F5F5F5F5F5F5F5F5F5F5F5F5F5F5F5F5F5F5F5F5F5F5F5F5F5F5F5F5F5F5F5F5F5F5F5F5F5F5F5F5F5F5F5F5E2E2
310
F5E2E2F5E2F5F5F5F5F5F5F5F5F5F5F5F5F5F5F5F5F5F5F5F5F5F5F5F5F5F5F5F5F5F5F5F5F5F5F5F5F5F5F5F5E2F5F5F5F5F5F5E2F5F5F5F5F5F5F5F5F5F5F5F5F5F5F5F5F5F5F5F5F5F5F5F5F5F5E2F5F5F5F5F5F5F5F5F5F5F5F5E2F5F5F5F5F5F5F5F5F5F5F5F5F5F5F5F5F5F5F5F5F5F5F5F5F5E2F5F5F5F5F5F5F5F5
310
F5F5F5F5F5F5F5F5F5F5F5F5F5F5F5F5F5F5F5F5F5F5F5F5F5F5F5F5F5F5F5F5F5F5F5F5F5F5F5F5F5F5F5F5F5F5F5F5F5F5F5E2E2F5E2E2F5E2F5F5F5F5F5F5F5F5F5F5F5F5F5F5F5F5F5F5F5F5F5F5F5F5F5F5F5F5F5F5F5F5F5F5F5F5F5F5F5F5E2F5F5F5F5F5F5E2F5F5F5F5F5F5F5F5F5F5F5F5F5F5F5F5F5F5F5F5F5
310
F5F5F5F5F5E2E2F5F5F5F5F5F5F5F5F5F5F5E2F5F5F5F5F5F5F5F5F5F5F5F5F5F5F5F5F5F5F5F5F5F5F5F5F5E2F5F5F5F5F5F5F5F5F5F5F5F5F5F5F5F5F5F5F5F5F5F5F5F5F5F5F5F5F5F5F5F5F5F5F5F5F5F5F5F5F5F5F5F5F5F5F5F5F5F5F5F5F5F5F5F5F5F5F5E2F5F5E2E2F5E2F5F5F5F5F5F5F5F5F5F5F5F5F5F5F5F5
310
F5F5F5F5F5F5F5F5F5F5F5F5F5F5F5F5F5F5F5F5F5F5F5F5E2F5F5F5F5F5F5E2F5F5F5F5F5F5F5F5F5F5F5F5F5F5F5F5F5F5F5F5F5F5F5F5F5F5E2E2E2E2E2E2E2E2E2E2E2E2E2E2F5F5F5F5F5F5F5F5F5F5F5F5F5F5F5F5F5F5F5F5F5F5F5F5F5E2F5F5F5F5F5F5F5F5F5F5F5F5F5F5F5F5F5F5F5F5F5F5F5F5F5F5F5F5F5
310
F5F5F5F5F5F5F5F5F5F5F5F5F5F5F5F5F5F5F5F5F5F5F5F5F5F5F5F5F5F5E2F5F5E2E2F5E2F5F5F5F5F5F5F5F5F5F5F5F5F5F5F5F5F5F5F5F5F5F5F5F5F5F5F5F5F5F5F5F5F5F5F5F5F5F5F5F5E2F5F5F5F5F5F5E2F5F5F5F5F5F5F5F5F5F5F5F5F5F5F5F5F5F5F5F5F5F5F5F5F5F5F5F5F5F5F5F5F5F5F5F5F5F5F5F5F5F5
310
F5F5F5F5F5F5F5F5F5F5F5F5F5F5F5F5F5F5F5F5F5F5F5E2F5F5F5F5F5F5F5F5F5F5F5F5F5F5F5F5F5F5F5F5F5F5F5F5F5F5F5F5F5F5F5F5F5F5F5F5F5F5F5F5F5F5F5F5F5F5F5F5F5F5F5F5F5F5F5F5F5F5F5E2F5F5E2E2F5E2F5F5F5F5F5F5F5F5F5F5F5F5F5F5F5F5F5F5F5F5F5F5F5F5F5F5F5F5F5F5F5F5F5F5F5F5F5
310
F5F5F5E2F5F5F5F5F5F5E2F5F5F5F5F5F5F5F5F5F5F5F5F5F5F5F5F5F5F5F5F5F5F5F5F5F5F5F5F5F5F5F5F5F5F5F5F5F5F5F5F5F5F5F5F5F5F5F5F5F5F5F5F5F5F5F5F5F5F5F5F5F5F5F5F5E2F5F5F5F5F5F5F5F5F5F5F5F5F5F5F5F5F5F5F5F5F5F5F5F5F5F5F5F5F5F5F5F5F5F5F5F5F5F5F5F5F5F5F5F5F5F5F5F5F5F5
310
F5F5F5F5F5F5F5F5F5E2F5F5E2E2F5E2F5F5F5F5F5F5F5F5F5F5F5F5F5F5F5F5F5F5F5F5F5F5F5F5F5F5F5F5F5F5F5F5F5F5F5F5F5F5F5F5E2F5F5F5F5F5F5E2F5F5F5F5F5F5F5F5F5F5F5F5F5F5F5F5F5F5F5F5F5F5F5F5F5F5F5F5F5F5F5F5F5F5F5F5F5F5F5F5F5F5F5F5F5F5F5F5F5F5F5F5F5F5F5F5F5F5F5F5F5F5F5
310
F5F5E2F5F5F5F5F5F5F5F5F5F5F5F5F5F5F5F5F5F5F5F5F5F5F5F5F5F5F5F5F5F5F5F5F5F5F5F5F5F5F5F5F5F5F5F5F5F5F5F5F5F5F5F5F5F5F5F5F5F5F5E2F5F5E2E2F5E2F5F5F5F5F5F5F5F5F5F5F5F5F5F5F5F5F5F5F5F5F5F5F5F5F5F5F5F5F5F5F5F5F5F5F5F5F5F5F5F5E2F5F5F5F5F5F5E2F5F5F5F5F5F5F5F5F5F5
310
F5F5F5F5F5F5F5F5F5F5F5F5F5F5F5F5F5F5F5F5F5F5F5F5F5F5F5F5F5F5F5F5F5F5F5F5F5F5F5F5F5F5F5F5F5F5F5F5F5F5F5F5F5F5F5E2F5F5F5F5F5F5F5F5F5F5F5F5F5F5F5F5F5F5F5F5F5F5F5F5F5F5F5F5F5F5F5F5F5F5F5F5F5F5F5F5F5F5F5F5F5F5F5F5F5F5F5F5F5F5F5F5F5F5F5E2F5F5E2E2F5E2F5F5F5F5F5
310
F5F5F5F5F5F5F5F5F5F5F5F5F5F5F5F5F5F5F5F5F5F5F5F5F5F5F5F5F5F5F5F5F5F5F5E2F5F5F5F5F5F5E2F5F5F5F5F5F5F5F5F5F5F5F5F5F5F5F5F5F5F5F5F5F5F5F5F5F5F5F5F5F5F5F5F5F5F5F5F5F5F5F5F5F5F5F5F5F5F5F5F5F5F5F5F5F5F5F5F5F5F5F5F5F5F5F5F5E2F5F5F5F5F5F5F5F5F5F5F5F5F5F5F5F5F5F5
310
F5F5F5F5F5F5F5F5F5F5F5F5F5F5F5F5F5F5F5F5F5F5F5F5F5F5F5F5F5F5F5F5F5F5F5F5F5F5F5F5F5E2F5F5E2E2F5E2F5F5F5F5F5F5F5F5F5F5F5F5F5F5F5F5F5F5F5F5F5F5F5F5F5F5F5F5F5F5F5F5F5F5F5F5F5F5F5F5E2F5F5F5F5F5F5F5F5F5F5F5F5F5F5F5F5F5F5F5F5F5F5F5F5F5F5F5F5F5F5F5F5F5F5F5F5F5F5
310
F5F5F5F5F5F5F5F5F5F5F5F5F5F5F5F5F5F5F5F5F5F5F5F5F5F5F5F5F5F5F5F5F5F5F5F5F5F5F5F5F5F5F5F5F5F5F5F5F5F5F5F5F5F5F5F5F5F5F5F5F5F5F5F5F5F5F5F5F5F5F5F5F5F5F5F5F5F5F5F5F5F5F5F5F5F5F5F5F5F5F5F5F5F5E2F5F5E2E2F5E2F5F5F5F5F5F5F5F5F5F5F5F5F5F5F5F5F5F5F5F5F5F5F5F5F5F5
310
F5F5F5F5F5F5F5F5F5F5F5F5F5F5E2F5F5F5F5F5F5E2F5F5F5F5F5F5F5F5F5F5F5F5F5F5F5F5F5F5F5F5F5F5F5F5F5F5F5F5F5F5F5F5F5F5F5F5F5F5F5F5F5F5F5F5F5F5F5F5F5F5F5F5F5F5F5F5F5F5F5F5F5F5F5F5F5E2F5F5F5F5F5F5F5F5F5F5F5F5F5F5F5F5F5F5F5F5F5F5F5F5F5F5F5F5F5F5F5F5F5F5F5F5F5F5F5
310
F5F5F5F5F5F5F5F5F5F5F5F5F5F5F5F5F5F5F5F5E2E2F5E2E2F5E2F5F5F5F5F5F5F5F5F5F5F5F5F5F5F5F5F5F5F5F5F5F5F5F5F5F5F5F5F5F5F5F5F5F5F5F5F5F5F5F5E2F5F5F5F5F5F5E2F5F5F5F5F5F5F5F5F5F5F5F5F5F5F5F5F5F5F5F5F5F5F5F5F5F5F5F5F5F5F5F5F5F5F5F5F5F5F5F5F5F5F5F5F5F5F5F5F5F5F5F5
310
F5F5F5F5F5F5F5F5F5F5F5F5F5E2F5F5F5F5F5F5F5F5F5F5F5F5F5F5F5F5F5F5F5F5F5F5F5F5F5F5F5F5F5F5F5F5F5F5F5F5F5F5F5F5F5F5F5F5F5F5F5F5F5F5F5F5F5F5F5F5F5F5F5E2E2F5E2E2F5E2F5F5F5F5F5F5F5F5F5F5F5F5F5F5F5F5F5F5F5F5F5F5F5F5F5F5F5F5F5F5F5F5F5F5F5F5F5F5F5F5E2F5F5F5F5F5F5
310
E2F5F5F5F5F5F5F5F5F5F5F5F5F5F5F5F5F5F5F5F5F5F5F5F5F5F5F5F5F5F5F5F5F5F5F5F5F5F5F5F5F5F5F5F5F5F5F5F5F5F5F5F5F5F5F5F5F5F5F5F5F5F5F5F5F5E2F5F5F5F5F5F5F5F5F5F5F5F5F5F5F5F5F5F5F5F5F5F5F5F5F5F5F5F5F5F5F5F5F5F5F5F5F5F5F5F5F5F5F5F5F5F5F5F5F5F5F5F5F5F5F5F5F5F5F5E2
310
E2F5E2E2F5E2F5F5F5F5F5F5F5F5F5F5F5F5F5F5F5F5F5F5F5F5F5F5F5F5F5F5F5F5F5F5F5F5F5F5F5F5F5F5F5F5E2F5F5F5F5F5F5E2F5F5F5F5F5F5F5F5F5F5F5F5F5F5F5F5F5F5F5F5F5F5F5F5F5F5F5F5F5F5F5F5F5F5F5F5F5F5F5F5F5F5F5F5F5F5F5F5F5F5F5F5F5F5F5F5F5F5F5F5F5F5F5F5F5E2F5F5F5F5F5F5F5
310
F5F5F5F5F5F5F5F5F5F5F5F5F5F5F5F5F5F5F5F5F5F5F5F5F5F5F5F5F5F5F5F5F5F5F5F5F5F5F5F5F5F5F5F5F5F5F5F5F5F5F5F5E2E2F5E2E2F5E2F5F5F5F5F5F5F5F5F5F5F5F5F5F5F5F5F5F5F5F5F5F5F5F5F5F5F5F5F5F5F5F5F5F5F5F5F5F5F5F5E2F5F5F5F5F5F5E2F5F5F5F5F5F5F5F5F5F5F5F5F5F5F5F5F5F5F5F5
310
F5F5F5F5F5F5F5F5F5F5F5F5F5F5F5F5F5F5F5F5F5F5F5F5F5F5F5F5F5F5F5F5F5F5F5F5F5F5F5F5F5F5F5F5F5E2F5F5F5F5F5F5F5F5F5F5F5F5F5F5F5F5F5F5F5F5F5F5F5F5F5F5F5F5F5F5F5F5F5F5F5F5F5F5F5F5F5F5F5F5F5F5F5F5F5F5F5F5F5F5F5F5F5F5F5E2E2F5E2E2F5E2F5F5F5F5F5F5F5F5F5F5F5F5F5F5F5
310
F5F5F5F5F5F5F5F5F5F5F5F5F5F5F5F5F5F5F5F5F5F5F5F5F5E2F5F5F5F5F5F5E2F5F5F5F5F5F5F5F5F5F5F5F5F5F5F5F5F5F5F5F5F5F5F5F5F5F5F5F5F5F5F5F5F5F5F5F5F5F5F5F5F5F5F5F5F5F5F5F5F5F5F5F5F5F5F5F5F5F5F5F5F5F5F5F5F5E2F5F5F5F5F5F5F5F5F5F5F5F5F5F5F5F5F5F5F5F5F5F5F5F5F5F5F5F5
310
F5F5F5F5F5F5F5F5F5F5F5F5F5F5F5F5F5F5F5F5F5F5F5F5F5F5F5F5F5F5F5E2E2F5E2E2F5E2F5F5F5F5F5F5F5F5F5F5F5F5F5F5F5F5F5F5F5F5F5F5F5F5F5F5F5F5F5F5F5F5F5F5F5F5F5F5F5F5E2F5F5F5F5F5F5E2F5F5F5F5F5F5F5F5F5F5F5F5F5F5F5F5F5F5F5F5F5F5F5F5F5F5F5F5F5F5F5F5F5F5F5F5F5F5F5F5F5
310
F5F5F5F5F5F5F5F5F5F5F5F5F5F5F5F5F5F5F5F5F5F5F5F5E2F5F5F5F5F5F5F5F5F5F5F5F5F5F5F5F5F5F5F5F5F5F5F5F5F5F5F5F5F5F5F5F5F5F5F5F5F5F5F5F5F5F5F5F5F5F5F5F5F5F5F5F5F5F5F5F5F5F5F5E2E2F5E2E2F5E2F5F5F5F5F5F5F5F5F5F5F5F5F5F5F5F5F5F5F5F5F5F5F5F5F5F5F5F5F5F5F5F5F5F5F5F5
310
F5F5F5F5E2F5F5F5F5F5F5E2F5F5F5F5F5F5F5F5F5F5F5F5F5F5F5F5F5F5F5F5F5F5F5F5F5F5F5F5F5F5F5F5F5F5F5F5F5F5F5F5F5F5F5F5F5F5F5F5F5F5F5F5F5F5F5F5F5F5F5F5F5F5F5F5F5E2F5F5F5F5F5F5F5F5F5F5F5F5F5F5F5F5F5F5F5F5F5F5F5F5F5F5F5F5F5F5F5F5F5F5F5F5F5F5F5F5F5F5F5F5F5F5F5F5F5
310
F5F5F5F5F5F5F5F5F5F5E2E2F5E2E2F5E2F5F5F5F5F5F5F5F5F5F5F5F5F5F5F5F5F5F5F5F5F5F5F5F5F5F5F5F5F5F5F5F5F5F5F5F5F5F5F5F5E2F5F5F5F5F5F5F5F5F5F5F5F5F5F5F5F5F5F5F5F5F5F5F5F5F5F5F5F5F5F5F5F5F5F5F5F5F5F5F5F5F5F5F5F5F5F5F5F5F5F5F5F5F5F5F5F5F5F5F5F5F5F5F5F5F5F5F5F5F5
310
F5F5F5F5F5F5F5F5F5F5F5F5F5F5F5F5F5F5F5F5F5F5F5F5F5F5F5F5F5F5F5F5F5F5F5F5F5F5F5F5F5F5F5F5F5F5F5F5F5F5F5F5F5F5F5F5F5F5F5F5F5F5F5E2E2F5E2E2F5E2F5F5F5F5F5F5F5F5F5F5F5F5F5F5F5F5F5F5F5F5F5F5F5F5F5F5F5F5F5F5F5F5F5F5F5F5F5F5F5F5E2F5F5F5F5F5F5E2F5F5F5F5F5F5F5F5F5
310
F5F5F5F5F5F5F5F5F5F5F5F5F5F5F5F5F5F5F5F5F5F5F5F5F5F5F5F5F5F5F5F5F5F5F5F5F5F5F5F5F5F5F5F5F5F5F5F5F5F5F5F5F5F5F5F5E2F5F5F5F5F5F5F5F5F5F5F5F5F5F5F5F5F5F5F5F5F5F5F5F5F5F5F5F5F5F5F5F5F5F5F5F5F5F5F5F5F5F5F5F5F5F5F5F5F5F5F5F5F5F5F5F5F5F5F5E2E2F5E2E2F5E2F5F5F5F5
310
F5F5F5F5F5F5F5F5F5F5F5F5F5F5F5F5F5F5F5F5F5F5F5F5F5F5F5F5F5F5F5F5F5F5F5F5E2BEF5F5F5F5F5E2F5F5F5F5F5F5F5F5F5F5F5F5F5F5F5F5F5F5F5F5F5F5F5F5F5F5F5F5F5F5F5F5F5F5F5F5F5F5F5F5F5F5F5F5F5F5F5F5F5F5F5F5F5F5F5F5F5F5F5F5F5F5F5F5F5E2F5F5F5F5F5F5F5F5F5F5F5F5F5F5F5F5F5
310
F5F5F5F5F5F5F5F5F5F5F5F5F5F5F5F5F5F5F5F5F5F5F5F5F5F5F5F5F5F5F5F5F5F5F5F5F5F5F5F5F5F5E2E2F5E2E2F5E2F5F5F5F5F5F5F5F5F5F5F5F5F5F5F5F5F5F5F5F5F5F5F5F5F5F5F5F5F5F5F5F5F5F5F5F5F5F5F5E2E2E2E2F5F5F5F5E2E2E2E2F5E2E2E2E2E2E2E2E2F5E2E2E2E2E2E2E2E2E2E2E2E2F5E2E2E2E2
310
E2E2E2E2F5E2E2E2E2E2E2E2E2F5E2E2E2E2E2E2E2E2F5E2E2E2E2E2E2E2E2F5E2E2E2E2F5F5F5F5F5F5F5F5F5F5F5F5F5F5F5F5F5F5F5F5F5F5F5F5F5F5F5F5F5F5F5F5F5F5F5F5F5F5F5F5F5F5F5F5F5F5F5F5F5F5F5F5F5F5F5F5F5F5F5E2E2F5E2E2F5E2F5F5F5F5F5F5F5F5F5F5F5F5F5F5F5F5F5F5F5F5F5F5F5F5F5
310
F5F5F5F5F5F5F5F5F5F5F5F5F5F5BEE2F5F5F5F5F5F5F5F5F5F5F5F5F5F5F5F5F5F5F5F5F5F5F5F5F5F5F5F5F5F5F5F5F5F5F5F5F5F5F5F5F5F5F5F5F5F5F5F5F5F5F5F5F5F5F5F5F5F5F5F5F5F5F5F5F5F5F5F5F5F5F5F5F5F5F5F5F5F5F5F5F5F5F5F5F5F5F5F5F5F5F5F5F5F5F5F5F5F5F5F5F5F5F5F5F5F5F5F5F5F5F5
310
F5F5F5F5F5F5F5F5F5F5F5F5F5F5F5F5F5F5F5F5F5E2E2F5E2E2F5E2F5F5F5F5F5F5F5F5F5F5F5F5F5F5F5F5F5F5F5F5F5F5F5F5F5F5F5F5F5F5F5F5F5F5F5F5F5F5F5F5F5F5F5F5F5F5F5F5F5F5F5F5F5F5F5F5F5F5F5F5F5F5F5F5F5F5F5F5F5F5F5F5F5F5F5F5F5F5F5F5F5F5F5F5F5F5F5F5F5F5F5F5F5F5F5F5F5F5F5
310
F5F5F5F5F5F5F5F5F5F5F5F5F5F5F5F5F5F5F5F5F5F5F5F5F5F5F5F5F5F5F5F5F5F5F5F5F5F5F5F5F5F5F5F5F5F5F5F5F5F5F5F5F5F5F5F5F5F5F5F5F5F5F5F5F5F5F5F5F5F5F5F5F5F5E2E2F5E2E2F5E2F5F5F5F5F5F5F5F5F5F5F5F5F5F5F5F5F5F5F5F5F5F5F5F5F5F5F5F5F5F5F5F5F5F5F5F5F5F5F5F5F5F5F5F5F5F5
310
F5F5F5F5F5F5F5F5F5F5F5F5F5F5F5F5F5F5F5F5F5F5F5F5F5F5F5F5F5F5F5F5F5F5F5F5F5F5F5F5F5F5F5F5F5F5F5F5F5F5F5F5F5F5F5F5F5F5F5F5F5F5F5F5F5F5F5F5F5F5F5F5F5F5F5F5F5F5F5F5F5F5F5F5F5F5F5F5F5F5F5F5F5F5F5F5F5F5F5F5F5F5F5F5F5F5F5F5F5F5F5F5F5F5F5F5F5F5F5F5F5F5F5F5F5F5F5
310
E2E2F5E2E2F5E2F5F5F5F5F5F5F5F5F5F5F5F5F5F5F5F5F5F5F5F5F5F5F5F5F5F5F5F5F5F5F5F5F5F5F5F5F5F5F5F5F5F5F5F5F5F5F5F5F5F5F5F5F5F5F5F5F5F5F5F5F5F5F5F5F5F5F5F5F5F5F5F5F5F5F5F5F5F5F5F5F5F5F5F5F5F5F5F5F5F5F5F5F5F5F5F5F5F5F5F5F5F5F5F5F5F5F5F5F5F5F5F5F5F5F5F5F5F5F5F5
310
F5F5F5F5F5F5F5F5F5F5F5F5F5F5F5F5F5F5F5F5F5F5F5F5F5F5F5F5F5F5F5F5F5F5F5F5F5F5F5F5F5F5F5F5F5F5F5F5F5F5F5F5F5E2E2F5E2E2F5E2F5F5F5F5F5F5F5F5F5F5F5F5F5F5F5F5F5F5F5F5F5F5F5F5F5F5F5F5F5F5F5F5F5F5F5F5F5F5F5F5F5F5F5F5F5F5BEE2F5F5F5F5F5F5F5F5F5F5F5F5F5F5F5F5F5F5F5
310
F5F5F5F5F5F5F5F5F5F5F5F5F5F5F5F5F5F5F5F5F5F5F5F5F5F5F5F5F5F5F5F5F5F5F5F5F5F5F5F5F5F5F5F5F5BEE2F5F5F5F5F5F5F5F5F5F5F5F5F5F5F5F5F5F5F5F5F5F5F5F5F5F5F5F5F5F5F5F5F5F5F5F5F5F5F5F5F5F5F5F5F5F5F5F5F5F5F5F5F5F5F5F5F5F5F5E2F5F5E2E2F5E2F5F5F5F5F5F5F5F5F5F5F5F5F5F5
310
F5F5F5F5F5F5F5F5F5F5F5F5F5F5F5F5F5F5F5F5F5F5F5F5F5F5F5F5F5F5F5F5F5BEF5F5F5F5F5F5F5F5F5F5F5F5F5F5F5F5F5F5F5F5F5F5F5F5F5F5F5F5F5F5F5F5F5F5F5F5F5F5F5F5F5F5F5F5F5F5F5F5F5F5F5F5F5F5F5F5F5F5F5F5F5F5F5F5F5BEF5F5F5F5F5F5F5F5F5F5F5F5F5F5F5F5F5F5F5F5F5F5F5F5F5F5F5
310
F5F5F5F5F5F5F5F5F5F5F5F5F5F5F5F5F5F5F5F5F5F5F5F5F5F5F5F5F5F5F5F5E2F5F5E2E2F5E2F5F5F5F5F5F5F5F5F5F5F5F5F5F5F5F5F5F5F5F5F5F5F5F5F5F5F5F5F5F5F5F5F5F5F5F5F5F5F5F5F5F5F5F5F5F5E2E2E2E2E2E2E2E2E2E2E2E2E2E2E2E2E2E2E2E2E2E2E2E2E2E2E2E2E2E2E2E2E2E2E2E2E2E2E2E2E2E2
310
E2E2E2E2E2E2E2E2E2E2E2E2E2E2E2E2E2E2E2E2E2E2E2E2E2E2E2F5F5F5F5F5F5F5F5F5F5F5F5F5F5F5F5F5F5F5F5F5F5F5F5F5F5F5F5F5F5F5F5F5F5F5F5F5F5F5F5F5F5F5F5F5F5F5F5F5F5F5F5F5F5F5F5F5F5E2F5F5E2E2F5E2F5F5F5F5F5F5F5F5F5F5F5F5F5F5F5F5F5F5F5F5F5F5F5F5F5F5F5F5F5F5F5F5F5F5F5
310
F5F5F5F5F5F5F5F5F5F5F5F5E2BEF5F5F5F5F5F5F5F5F5F5F5F5F5F5F5F5F5F5F5F5F5F5F5F5F5F5F5F5E2E2E2E2E2F5F5F5F5F5F5F5F5F5F5F5F5F5F5F5F5F5F5F5F5F5F5F5F5F5F5F5F5F5F5F5E2BEF5F5F5F5F5F5F5F5F5F5F5F5F5F5F5F5F5F5F5F5F5F5F5F5F5F5F5F5F5F5F5F5F5F5F5F5F5F5F5F5F5F5F5F5F5F5F5
310
F5F5F5F5F5F5F5F5F5F5F5E2F5F5E2E2F5E2F5F5F5F5F5F5F5F5F5F5F5F5F5F5F5F5F5F5F5F5F5F5F5F5F5F5F5F5F5F5F5F5F5F5F5F5F5F5F5F5F5F5F5F5F5F5F5F5F5F5F5F5F5F5F5F5F5F5F5F5F5F5F5F5F5F5F5F5F5F5F5F5F5F5F5F5F5E2E2E2E2E2F5F5F5F5F5F5F5F5F5F5F5F5F5F5F5F5F5F5F5F5F5F5F5F5F5F5F5
310
F5F5F5F5F5F5F5F5F5F5F5F5F5F5F5F5F5F5F5F5F5F5F5F5F5F5F5F5F5F5F5F5F5F5F5F5F5F5F5F5F5F5F5F5F5F5F5F5F5F5F5F5F5F5F5F5F5F5F5F5F5F5F5F5E2F5F5E2E2F5E2F5F5F5F5F5F5F5F5F5F5F5F5F5F5F5F5F5F5F5F5F5F5F5F5F5F5F5F5F5F5F5F5F5F5F5F5F5F5F5F5F5F5F5F5F5F5F5F5F5F5F5F5F5F5F5F5
310
F5F5F5F5F5F5F5F5F5F5F5F5F5F5F5F5F5F5F5F5F5E2E2E2E2E2F5F5F5F5F5F5F5F5F5F5F5F5F5F5F5F5F5F5F5F5F5F5F5F5F5F5F5F5F5F5F5F5F5F5F5F5F5F5F5F5F5F5F5F5F5F5F5F5F5F5F5F5F5F5F5F5F5F5F5F5F5F5F5F5F5F5F5F5F5F5F5F5F5F5F5F5F5F5F5F5F5F5F5F5F5F5F5F5F5F5F5E2F5F5E2E2F5E2F5F5F5
310
F5F5F5F5F5F5F5F5F5F5F5F5F5F5F5F5F5F5F5F5F5F5F5F5F5F5F5F5F5F5F5F5F5F5F5F5F5F5F5F5F5F5F5F5F5F5F5F5F5F5F5F5F5F5F5F5F5F5F5F5F5F5F5F5F5F5F5F5F5F5F5F5F5F5F5F5F5F5F5F5F5F5F5F5F5F5F5F5F5F5F5F5F5F5F5F5F5F5F5F5F5F5F5F5F5F5F5F5F5F5F5F5F5F5F5F5F5F5F5F5F5F5F5F5F5F5F5
310
F5F5F5F5F5F5F5F5F5F5F5F5F5F5F5F5F5F5F5F5F5F5F5F5F5F5F5F5F5F5F5F5F5F5F5F5F5F5F5F5F5F5F5E2F5F5E2E2F5E2F5F5F5F5F5F5F5F5F5F5F5F5F5F5F5F5F5F5F5F5F5F5F5F5F5F5F5F5F5F5F5F5F5F5F5F5F5F5F5F5F5F5F5F5F5F5F5F5F5F5F5F5F5F5F5F5F5F5F5F5F5F5F5F5F5F5F5F5F5F5F5F5F5F5F5F5F5
310
F5F5F5F5F5F5F5F5F5F5F5F5F5F5F5F5F5F5F5F5F5F5F5F5F5F5F5F5F5F5F5F5F5F5F5F5F5F5F5F5F5F5F5F5F5F5F5F5F5F5F5F5F5F5F5F5F5F5F5F5F5F5F5F5F5F5F5F5F5F5F5F5F5F5F5F5F5F5F5F5F5F5F5F5F5F5F5F5F5F5F5F5F5F5F5F5E2F5F5E2E2F5E2F5F5F5F5F5F5F5F5F5F5F5F5F5F5F5F5F5F5F5F5F5F5F5F5
310
F5F5F5F5F5F5F5F5F5F5F5F5F5F5F5F5F5F5F5F5F5F5F5F5F5F5F5F5F5F5F5F5F5F5F5F5F5F5F5F5F5F5F5F5F5F5F5F5F5F5F5F5F5F5F5F5F5F5F5F5F5F5F5F5F5F5F5F5F5F5F5F5F5F5F5F5F5F5F5F5F5F5F5F5F5F5F5F5F5F5F5F5F5F5F5F5F5F5F5F5F5F5F5F5F5F5F5F5F5F5F5F5F5F5F5F5F5F5F5F5F5F5F5F5F5F5F5
310
F5F5F5F5F5F5F5F5F5F5F5F5F5F5F5F5F5F5F5F5F5F5E2F5F5E2E2F5E2F5F5F5F5F5F5F5F5F5F5F5F5F5F5F5F5F5F5F5F5F5F5F5F5F5F5F5F5F5F5F5F5F5F5F5F5F5F5F5F5F5F5F5F5F5F5F5F5F5F5F5F5F5F5F5F5F5F5F5F5F5F5F5F5F5F5F5F5F5F5F5F5F5F5F5F5F5F5F5F5F5F5F5F5F5F5F5F5F5F5F5F5F5F5F5F5F5F5
310
F5F5F5F5F5F5F5F5F5F5F5F5F5F5F5F5F5F5F5F5F5F5F5F5F5F5F5F5F5F5F5F5F5F5F5F5F5F5F5F5F5F5F5F5F5F5F5F5F5F5F5F5F5F5F5F5F5F5F5F5F5F5F5F5F5F5F5F5F5F5F5F5F5F5F5E2E2F5E2E2F5E2F5F5F5F5F5F5F5F5F5F5F5F5F5F5F5F5F5F5F5F5F5F5F5F5F5F5F5F5F5F5F5F5F5F5F5F5F5F5F5F5F5F5F5F5F5
310
F5F5F5F5F5F5F5F5F5F5F5F5F5F5F5F5F5F5F5F5F5F5F5F5F5F5F5F5F5F5F5F5F5F5F5F5F5F5F5F5F5F5F5F5F5F5F5F5F5F5F5F5F5F5F5F5F5F5F5F5F5F5F5F5F5F5F5F5F5F5F5F5F5F5F5F5F5F5F5F5F5F5F5F5F5F5F5F5F5F5F5F5F5F5F5F5F5F5F5F5F5F5F5F5F5F5F5F5F5F5F5F5F5F5F5F5F5F5F5F5F5F5F5F5F5F5F5
310
F5E2E2F5E2E2F5E2F5F5F5F5F5F5F5F5F5F5F5F5F5F5F5F5F5F5F5F5F5F5F5F5F5F5F5F5F5F5F5F5F5F5F5F5F5F5F5F5F5F5F5F5F5F5F5F5F5F5F5F5F5F5F5F5F5F5F5F5F5F5F5F5F5F5F5F5F5F5F5F5F5F5F5F5F5F5F5F5F5F5F5F5F5F5F5F5F5F5F5F5F5F5F5F5F5F5F5F5F5F5F5F5F5F5F5F5F5F5F5F5F5F5F5F5F5F5F5
310
F5F5F5F5F5F5F5F5F5F5F5F5F5F5F5F5F5F5F5F5F5F5F5F5F5F5F5F5F5F5F5F5F5F5F5F5F5F5F5F5F5F5F5F5F5F5F5F5F5F5F5F5F5F5E2E2F5E2E2F5E2F5F5F5F5F5F5F5F5F5F5F5F5F5F5F5F5F5F5F5F5F5F5F5F5F5F5F5F5F5F5F5F5F5F5F5F5F5F5F5F5F5F5F5F5F5F5F5F5F5F5F5F5F5F5F5F5F5F5F5F5F5F5F5F5F5F5
310
F5F5F5F5F5F5F5F5F5F5F5F5F5F5F5F5F5F5F5F5F5F5F5F5F5F5F5F5F5F5F5F5F5F5F5F5F5F5F5F5F5F5F5F5F5F5F5F5F5F5F5F5F5F5F5F5F5F5F5F5F5F5F5F5F5F5F5F5F5F5F5F5F5F5F5F5F5F5F5F5F5F5F5F5F5F5F5F5F5F5F5F5F5F5F5F5F5F5F5F5F5F5F5F5F5F5F5E2E2F5E2E2F5E2F5F5F5F5F5F5F5F5F5F5F5F5F5
310
F5F5F5F5F5F5F5F5F5F5F5F5F5F5F5F5F5F5F5F5F5F5F5F5F5F5F5F5F5F5F5F5F5F5F5F5F5F5F5F5F5F5F5F5F5F5F5F5F5F5F5F5F5F5F5F5F5F5F5F5F5F5F5F5F5F5F5F5F5F5F5F5F5F5F5F5F5F5F5F5F5F5F5F5F5F5F5F5F5F5F5F5F5F5F5F5F5F5F5F5F5F5F5F5F5F5F5F5F5F5F5F5F5F5F5F5F5F5F5F5F5F5F5F5F5F5F5
310
F5F5F5F5F5F5F5F5F5F5F5F5F5F5F5F5F5F5F5F5F5F5F5F5F5F5F5F5F5F5F5F5F5E2E2F5E2E2F5E2F5F5F5F5F5F5F5F5F5F5F5F5F5F5F5F5F5F5F5F5F5F5F5F5F5F5F5F5F5F5F5F5F5F5F5F5F5F5F5F5F5F5F5F5F5F5F5F5F5F5F5F5F5F5F5F5F5F5F5F5F5F5F5F5F5F5F5F5F5F5F5F5F5F5F5F5F5F5F5F5F5F5F5F5F5F5F5
310
F5F5F5F5F5F5F5F5F5F5F5F5F5F5F5F5F5F5F5F5F5F5F5F5F5F5F5F5F5F5F5F5F5F5F5F5F5F5F5F5F5F5F5F5F5F5F5F5F5F5F5F5F5F5F5F5F5F5F5F5F5F5F5F5F5F5F5F5F5F5F5F5F5F5F5F5F5F5F5F5F5F5F5F5F5F5E2E2F5E2E2F5E2F5F5F5F5F5F5F5F5F5F5F5F5F5F5F5F5F5F5F5F5F5F5F5F5F5F5F5F5F5F5F5F5F5F5
310
F5F5F5F5F5F5F5F5F5F5F5F5F5F5F5F5F5F5F5F5F5F5F5F5F5F5F5F5F5F5F5F5F5F5F5F5F5F5F5F5F5F5F5F5F5F5F5F5F5F5F5F5F5F5F5F5F5F5F5F5F5F5F5F5F5F5F5F5F5F5F5F5F5F5F5F5F5F5F5F5F5F5F5F5F5F5F5F5F5F5F5F5F5F5F5F5F5F5F5F5F5F5F5F5F5F5F5F5F5F5F5F5F5F5F5F5F5F5F5F5F5F5F5F5F5F5F5
310
F5F5F5F5F5F5F5F5F5F5F5F5E2E2F5E2E2F5E2E2E2E2E2E2E2E2E2E2E2E2E2E2E2E2E2E2E2E2E2E2E2E2E2E2E2E2E2E2E2E2E2E2E2E2E2E2E2E2E2E2E2E2E2E2E2E2E2E2E2E2E2E2E2E2E2E2E2E2E2E2E2E2E2E2E2E2E2E2E2E2E2E2E2E2E2E2E2E2E2E2E2E2E2E2E2E2E2E2E2E2E2E2E2E2E2E2E2E2E2E2E2E2E2E2E2E2E2
310
E2E2E2E2E2E2E2E2E2E2E2E2E2E2E2E2E2E2E2E2E2E2E2E2E2E2E2E2E2E2E2E2E2E2E2E2E2E2E2E2E2E2E2E2E2E2E2E2E2E2E2E2E2E2E2E2E2E2E2E2E2E2E2E2E2E2E2F5E2E2F5F5F5F5F5F5F5F5F5F5F5F5F5F5F5F5F5F5F5F5F5F5F5F5F5F5F5F5F5F5F5F5F5F5F5F5F5F5F5F5F5F5F5F5F5F5F5F5F5F5F5F5F5F5F5F5F5
310
F5F5F5F5F5F5F5F5F5F5F5F5F5F5F5F5F5F5F5F5F5F5F5F5F5F5F5F5F5F5F5F5F5F5F5F5F5F5F5F5F5F5F5F5F5F5F5F5F5F5F5F5F5F5F5F5F5F5F5F5F5F5F5F5F5F5F5F5F5F5F5F5F5F5F5F5F5F5F5F5F5F5F5F5F5F5F5F5F5F5F5F5F5F5F5F5F5F5F5F5F5F5F5F5F5F5F5F5F5F5F5F5F5F5F5F5F5F5F5F5F5E2E2E2E2E2E2
310
E2E2E2E2E2E2E2E2E2E2E2E2E2E2E2E2E2E2E2E2E2E2E2E2E2E2E2E2E2E2E2E2E2E2E2E2E2E2E2E2E2E2E2E2E2E2E2E2E2E2E2E2E2E2E2E2E2E2E2E2E2E2E2E2E2E2E2E2E2E2E2E2E2E2E2E2E2E2E2E2E2E2E2E2E2E2E2E2E2E2E2E2E2E2E2E2E2E2E2E2E2E2E2E2E2E2E2E2E2E2E2E2E2E2E2E2E2E2E2E2E2E2E2E2E2E2E2
310
E2E2E2E2E2E2E2E2E2E2E2E2E2E2E2E2E2E2E2E2E2E2E2E2E2E2E2E2E2E2E2E2E2E2E2E2E2E2E2E2E2E2E2E2E2E2E2E2
  0
XRECORD
  5
3648
102
{ACAD_REACTORS
330
3647
102
}
330
3647
100
AcDbXrecord
280
     1
102
MATERIAL
148
0.0
149
0.0
149
0.0
 93
        0
 94
      127
282
     0
 72
     1
 77
     1
171
     1
175
     1
179
     1
273
     0
  0
XRECORD
  5
3646
102
{ACAD_REACTORS
330
3645
102
}
330
3645
100
AcDbXrecord
280
     1
102
MATERIAL
148
0.0
149
0.0
149
0.0
 93
        0
 94
      127
282
     0
 72
     1
 77
     1
171
     1
175
     1
179
     1
273
     0
  0
XRECORD
  5
364A
102
{ACAD_REACTORS
330
3649
102
}
330
3649
100
AcDbXrecord
280
     1
102
MATERIAL
148
0.0
149
0.0
149
0.0
 93
        0
 94
      127
282
     0
 72
     1
 77
     1
171
     1
175
     1
179
     1
273
     0
  0
CELLSTYLEMAP
  5
3644
102
{ACAD_REACTORS
330
348F
102
}
330
348F
100
AcDbCellStyleMap
 90
        3
300
CELLSTYLE
  1
TABLEFORMAT_BEGIN
 90
        5
170
     1
 91
        0
 92
    32768
 62
   257
 93
        1
300
CONTENTFORMAT
  1
CONTENTFORMAT_BEGIN
 90
        0
 91
        0
 92
      512
 93
        0
300

 40
0.0
140
1.0
 94
        5
 62
     0
340
11
144
0.25
309
CONTENTFORMAT_END
171
     0
 94
        6
 95
        1
302
GRIDFORMAT
  1
GRIDFORMAT_BEGIN
 90
        0
 91
        1
 62
     0
 92
       -2
340
0
 93
        0
 40
0.045
309
GRIDFORMAT_END
 95
        2
302
GRIDFORMAT
  1
GRIDFORMAT_BEGIN
 90
        0
 91
        1
 62
     0
 92
       -2
340
0
 93
        0
 40
0.045
309
GRIDFORMAT_END
 95
        4
302
GRIDFORMAT
  1
GRIDFORMAT_BEGIN
 90
        0
 91
        1
 62
     0
 92
       -2
340
0
 93
        0
 40
0.045
309
GRIDFORMAT_END
 95
        8
302
GRIDFORMAT
  1
GRIDFORMAT_BEGIN
 90
        0
 91
        1
 62
     0
 92
       -2
340
0
 93
        0
 40
0.045
309
GRIDFORMAT_END
 95
       16
302
GRIDFORMAT
  1
GRIDFORMAT_BEGIN
 90
        0
 91
        1
 62
     0
 92
       -2
340
0
 93
        0
 40
0.045
309
GRIDFORMAT_END
 95
       32
302
GRIDFORMAT
  1
GRIDFORMAT_BEGIN
 90
        0
 91
        1
 62
     0
 92
       -2
340
0
 93
        0
 40
0.045
309
GRIDFORMAT_END
309
TABLEFORMAT_END
  1
CELLSTYLE_BEGIN
 90
        1
 91
        1
300
_TITLE
309
CELLSTYLE_END
300
CELLSTYLE
  1
TABLEFORMAT_BEGIN
 90
        5
170
     1
 91
        0
 92
        0
 62
   257
 93
        1
300
CONTENTFORMAT
  1
CONTENTFORMAT_BEGIN
 90
        0
 91
        0
 92
      512
 93
        0
300

 40
0.0
140
1.0
 94
        5
 62
     0
340
11
144
0.18
309
CONTENTFORMAT_END
171
     0
 94
        6
 95
        1
302
GRIDFORMAT
  1
GRIDFORMAT_BEGIN
 90
        0
 91
        1
 62
     0
 92
       -2
340
0
 93
        0
 40
0.045
309
GRIDFORMAT_END
 95
        2
302
GRIDFORMAT
  1
GRIDFORMAT_BEGIN
 90
        0
 91
        1
 62
     0
 92
       -2
340
0
 93
        0
 40
0.045
309
GRIDFORMAT_END
 95
        4
302
GRIDFORMAT
  1
GRIDFORMAT_BEGIN
 90
        0
 91
        1
 62
     0
 92
       -2
340
0
 93
        0
 40
0.045
309
GRIDFORMAT_END
 95
        8
302
GRIDFORMAT
  1
GRIDFORMAT_BEGIN
 90
        0
 91
        1
 62
     0
 92
       -2
340
0
 93
        0
 40
0.045
309
GRIDFORMAT_END
 95
       16
302
GRIDFORMAT
  1
GRIDFORMAT_BEGIN
 90
        0
 91
        1
 62
     0
 92
       -2
340
0
 93
        0
 40
0.045
309
GRIDFORMAT_END
 95
       32
302
GRIDFORMAT
  1
GRIDFORMAT_BEGIN
 90
        0
 91
        1
 62
     0
 92
       -2
340
0
 93
        0
 40
0.045
309
GRIDFORMAT_END
309
TABLEFORMAT_END
  1
CELLSTYLE_BEGIN
 90
        2
 91
        1
300
_HEADER
309
CELLSTYLE_END
300
CELLSTYLE
  1
TABLEFORMAT_BEGIN
 90
        5
170
     1
 91
        0
 92
        0
 62
   257
 93
        1
300
CONTENTFORMAT
  1
CONTENTFORMAT_BEGIN
 90
        0
 91
        0
 92
      512
 93
        0
300

 40
0.0
140
1.0
 94
        2
 62
     0
340
11
144
0.18
309
CONTENTFORMAT_END
171
     0
 94
        6
 95
        1
302
GRIDFORMAT
  1
GRIDFORMAT_BEGIN
 90
        0
 91
        1
 62
     0
 92
       -2
340
0
 93
        0
 40
0.045
309
GRIDFORMAT_END
 95
        2
302
GRIDFORMAT
  1
GRIDFORMAT_BEGIN
 90
        0
 91
        1
 62
     0
 92
       -2
340
0
 93
        0
 40
0.045
309
GRIDFORMAT_END
 95
        4
302
GRIDFORMAT
  1
GRIDFORMAT_BEGIN
 90
        0
 91
        1
 62
     0
 92
       -2
340
0
 93
        0
 40
0.045
309
GRIDFORMAT_END
 95
        8
302
GRIDFORMAT
  1
GRIDFORMAT_BEGIN
 90
        0
 91
        1
 62
     0
 92
       -2
340
0
 93
        0
 40
0.045
309
GRIDFORMAT_END
 95
       16
302
GRIDFORMAT
  1
GRIDFORMAT_BEGIN
 90
        0
 91
        1
 62
     0
 92
       -2
340
0
 93
        0
 40
0.045
309
GRIDFORMAT_END
 95
       32
302
GRIDFORMAT
  1
GRIDFORMAT_BEGIN
 90
        0
 91
        1
 62
     0
 92
       -2
340
0
 93
        0
 40
0.045
309
GRIDFORMAT_END
309
TABLEFORMAT_END
  1
CELLSTYLE_BEGIN
 90
        3
 91
        2
300
_DATA
309
CELLSTYLE_END
  0
XRECORD
  5
364B
102
{ACAD_REACTORS
330
348F
102
}
330
348F
100
AcDbXrecord
280
     1
102
ACAD_ROUNDTRIP_PRE2007_TABLESTYLE
 90
      512
 91
        0
  1

 92
      512
 93
        0
  2

 94
      512
 95
        0
  3

  0
XRECORD
  5
49B
102
{ACAD_REACTORS
330
49A
102
}
330
49A
100
AcDbXrecord
280
     1
102
RTVSPropertyOp0
 70
     1
102
RTVSPropertyOp1
 70
     1
102
RTVSPropertyOp2
 70
     1
102
RTVSPropertyOp3
 70
     1
102
RTVSPropertyOp4
 70
     1
102
RTVSPropertyOp5
 70
     1
102
RTVSPropertyOp6
 70
     1
102
RTVSPropertyOp7
 70
     1
102
RTVSPropertyOp8
 70
     1
102
RTVSPropertyOp9
 70
     1
102
RTVSPropertyOp10
 70
     1
102
RTVSPropertyOp11
 70
     1
102
RTVSPropertyOp12
 70
     1
102
RTVSPropertyOp13
 70
     1
102
RTVSPropertyOp14
 70
     1
102
RTVSPropertyOp15
 70
     1
102
RTVSPropertyOp16
 70
     1
102
RTVSPropertyOp17
 70
     1
102
RTVSPropertyOp18
 70
     1
102
RTVSPropertyOp19
 70
     1
102
RTVSPropertyOp20
 70
     1
102
RTVSPropertyOp21
 70
     1
102
RTVSPropertyOp22
 70
     1
102
RTVSPropertyOp23
 70
     1
102
RTVSPropertyOp24
 70
     1
102
RTVSPropertyOp25
 70
     1
102
RTVSPropertyOp26
 70
     1
102
RTVSPropertyOp27
 70
     1
  0
XRECORD
  5
A4A
102
{ACAD_REACTORS
330
A49
102
}
330
A49
100
AcDbXrecord
280
     1
102
RTVSPropertyOp0
 70
     1
102
RTVSPropertyOp1
 70
     1
102
RTVSPropertyOp2
 70
     1
102
RTVSPropertyOp3
 70
     1
102
RTVSPropertyOp4
 70
     1
102
RTVSPropertyOp5
 70
     1
102
RTVSPropertyOp6
 70
     1
102
RTVSPropertyOp7
 70
     1
102
RTVSPropertyOp8
 70
     1
102
RTVSPropertyOp9
 70
     1
102
RTVSPropertyOp10
 70
     1
102
RTVSPropertyOp11
 70
     1
102
RTVSPropertyOp12
 70
     1
102
RTVSPropertyOp13
 70
     1
102
RTVSPropertyOp14
 70
     1
102
RTVSPropertyOp15
 70
     1
102
RTVSPropertyOp16
 70
     1
102
RTVSPropertyOp17
 70
     1
102
RTVSPropertyOp18
 70
     1
102
RTVSPropertyOp19
 70
     1
102
RTVSPropertyOp20
 70
     1
102
RTVSPropertyOp21
 70
     1
102
RTVSPropertyOp22
 70
     1
102
RTVSPropertyOp23
 70
     1
102
RTVSPropertyOp24
 70
     1
102
RTVSPropertyOp25
 70
     1
102
RTVSPropertyOp26
 70
     1
102
RTVSPropertyOp27
 70
     1
  0
XRECORD
  5
4A1
102
{ACAD_REACTORS
330
4A0
102
}
330
4A0
100
AcDbXrecord
280
     1
102
RTVSPropertyOp0
 70
     1
102
RTVSPropertyOp1
 70
     1
102
RTVSPropertyOp2
 70
     1
102
RTVSPropertyOp3
 70
     1
102
RTVSPropertyOp4
 70
     1
102
RTVSPropertyOp5
 70
     1
102
RTVSPropertyOp6
 70
     1
102
RTVSPropertyOp7
 70
     1
102
RTVSPropertyOp8
 70
     1
102
RTVSPropertyOp9
 70
     1
102
RTVSPropertyOp10
 70
     1
102
RTVSPropertyOp11
 70
     1
102
RTVSPropertyOp12
 70
     1
102
RTVSPropertyOp13
 70
     1
102
RTVSPropertyOp14
 70
     1
102
RTVSPropertyOp15
 70
     1
102
RTVSPropertyOp16
 70
     1
102
RTVSPropertyOp17
 70
     1
102
RTVSPropertyOp18
 70
     1
102
RTVSPropertyOp19
 70
     1
102
RTVSPropertyOp20
 70
     1
102
RTVSPropertyOp21
 70
     1
102
RTVSPropertyOp22
 70
     1
102
RTVSPropertyOp23
 70
     1
102
RTVSPropertyOp24
 70
     1
102
RTVSPropertyOp25
 70
     1
102
RTVSPropertyOp26
 70
     1
102
RTVSPropertyOp27
 70
     1
  0
XRECORD
  5
4A9
102
{ACAD_REACTORS
330
4A8
102
}
330
4A8
100
AcDbXrecord
280
     1
102
RTVSPropertyOp0
 70
     1
102
RTVSPropertyOp1
 70
     1
102
RTVSPropertyOp2
 70
     1
102
RTVSPropertyOp3
 70
     1
102
RTVSPropertyOp4
 70
     1
102
RTVSPropertyOp5
 70
     1
102
RTVSPropertyOp6
 70
     1
102
RTVSPropertyOp7
 70
     1
102
RTVSPropertyOp8
 70
     1
102
RTVSPropertyOp9
 70
     1
102
RTVSPropertyOp10
 70
     1
102
RTVSPropertyOp11
 70
     1
102
RTVSPropertyOp12
 70
     1
102
RTVSPropertyOp13
 70
     1
102
RTVSPropertyOp14
 70
     1
102
RTVSPropertyOp15
 70
     1
102
RTVSPropertyOp16
 70
     1
102
RTVSPropertyOp17
 70
     1
102
RTVSPropertyOp18
 70
     1
102
RTVSPropertyOp19
 70
     1
102
RTVSPropertyOp20
 70
     1
102
RTVSPropertyOp21
 70
     1
102
RTVSPropertyOp22
 70
     1
102
RTVSPropertyOp23
 70
     1
102
RTVSPropertyOp24
 70
     1
102
RTVSPropertyOp25
 70
     1
102
RTVSPropertyOp26
 70
     1
102
RTVSPropertyOp27
 70
     1
  0
XRECORD
  5
4B1
102
{ACAD_REACTORS
330
4B0
102
}
330
4B0
100
AcDbXrecord
280
     1
102
RTVSPropertyOp0
 70
     1
102
RTVSPropertyOp1
 70
     1
102
RTVSPropertyOp2
 70
     1
102
RTVSPropertyOp3
 70
     1
102
RTVSPropertyOp4
 70
     1
102
RTVSPropertyOp5
 70
     1
102
RTVSPropertyOp6
 70
     1
102
RTVSPropertyOp7
 70
     1
102
RTVSPropertyOp8
 70
     1
102
RTVSPropertyOp9
 70
     1
102
RTVSPropertyOp10
 70
     1
102
RTVSPropertyOp11
 70
     1
102
RTVSPropertyOp12
 70
     1
102
RTVSPropertyOp13
 70
     1
102
RTVSPropertyOp14
 70
     1
102
RTVSPropertyOp15
 70
     1
102
RTVSPropertyOp16
 70
     1
102
RTVSPropertyOp17
 70
     1
102
RTVSPropertyOp18
 70
     1
102
RTVSPropertyOp19
 70
     1
102
RTVSPropertyOp20
 70
     1
102
RTVSPropertyOp21
 70
     1
102
RTVSPropertyOp22
 70
     1
102
RTVSPropertyOp23
 70
     1
102
RTVSPropertyOp24
 70
     1
102
RTVSPropertyOp25
 70
     1
102
RTVSPropertyOp26
 70
     1
102
RTVSPropertyOp27
 70
     1
  0
XRECORD
  5
4A7
102
{ACAD_REACTORS
330
4A6
102
}
330
4A6
100
AcDbXrecord
280
     1
102
RTVSPropertyOp0
 70
     1
102
RTVSPropertyOp1
 70
     1
102
RTVSPropertyOp2
 70
     1
102
RTVSPropertyOp3
 70
     1
102
RTVSPropertyOp4
 70
     1
102
RTVSPropertyOp5
 70
     1
102
RTVSPropertyOp6
 70
     1
102
RTVSPropertyOp7
 70
     1
102
RTVSPropertyOp8
 70
     1
102
RTVSPropertyOp9
 70
     1
102
RTVSPropertyOp10
 70
     1
102
RTVSPropertyOp11
 70
     1
102
RTVSPropertyOp12
 70
     1
102
RTVSPropertyOp13
 70
     1
102
RTVSPropertyOp14
 70
     1
102
RTVSPropertyOp15
 70
     1
102
RTVSPropertyOp16
 70
     1
102
RTVSPropertyOp17
 70
     1
102
RTVSPropertyOp18
 70
     1
102
RTVSPropertyOp19
 70
     1
102
RTVSPropertyOp20
 70
     1
102
RTVSPropertyOp21
 70
     1
102
RTVSPropertyOp22
 70
     1
102
RTVSPropertyOp23
 70
     1
102
RTVSPropertyOp24
 70
     1
102
RTVSPropertyOp25
 70
     1
102
RTVSPropertyOp26
 70
     1
102
RTVSPropertyOp27
 70
     1
  0
XRECORD
  5
4AF
102
{ACAD_REACTORS
330
4AE
102
}
330
4AE
100
AcDbXrecord
280
     1
102
RTVSPropertyOp0
 70
     1
102
RTVSPropertyOp1
 70
     1
102
RTVSPropertyOp2
 70
     1
102
RTVSPropertyOp3
 70
     1
102
RTVSPropertyOp4
 70
     1
102
RTVSPropertyOp5
 70
     1
102
RTVSPropertyOp6
 70
     1
102
RTVSPropertyOp7
 70
     1
102
RTVSPropertyOp8
 70
     1
102
RTVSPropertyOp9
 70
     1
102
RTVSPropertyOp10
 70
     1
102
RTVSPropertyOp11
 70
     1
102
RTVSPropertyOp12
 70
     1
102
RTVSPropertyOp13
 70
     1
102
RTVSPropertyOp14
 70
     1
102
RTVSPropertyOp15
 70
     1
102
RTVSPropertyOp16
 70
     1
102
RTVSPropertyOp17
 70
     1
102
RTVSPropertyOp18
 70
     1
102
RTVSPropertyOp19
 70
     1
102
RTVSPropertyOp20
 70
     1
102
RTVSPropertyOp21
 70
     1
102
RTVSPropertyOp22
 70
     1
102
RTVSPropertyOp23
 70
     1
102
RTVSPropertyOp24
 70
     1
102
RTVSPropertyOp25
 70
     1
102
RTVSPropertyOp26
 70
     1
102
RTVSPropertyOp27
 70
     1
  0
XRECORD
  5
493
102
{ACAD_REACTORS
330
492
102
}
330
492
100
AcDbXrecord
280
     1
102
RTVSPropertyOp0
 70
     1
102
RTVSPropertyOp1
 70
     1
102
RTVSPropertyOp2
 70
     1
102
RTVSPropertyOp3
 70
     1
102
RTVSPropertyOp4
 70
     1
102
RTVSPropertyOp5
 70
     1
102
RTVSPropertyOp6
 70
     1
102
RTVSPropertyOp7
 70
     1
102
RTVSPropertyOp8
 70
     1
102
RTVSPropertyOp9
 70
     1
102
RTVSPropertyOp10
 70
     1
102
RTVSPropertyOp11
 70
     1
102
RTVSPropertyOp12
 70
     1
102
RTVSPropertyOp13
 70
     1
102
RTVSPropertyOp14
 70
     1
102
RTVSPropertyOp15
 70
     1
102
RTVSPropertyOp16
 70
     1
102
RTVSPropertyOp17
 70
     1
102
RTVSPropertyOp18
 70
     1
102
RTVSPropertyOp19
 70
     1
102
RTVSPropertyOp20
 70
     1
102
RTVSPropertyOp21
 70
     1
102
RTVSPropertyOp22
 70
     1
102
RTVSPropertyOp23
 70
     1
102
RTVSPropertyOp24
 70
     1
102
RTVSPropertyOp25
 70
     1
102
RTVSPropertyOp26
 70
     1
102
RTVSPropertyOp27
 70
     1
  0
XRECORD
  5
495
102
{ACAD_REACTORS
330
494
102
}
330
494
100
AcDbXrecord
280
     1
102
RTVSPropertyOp0
 70
     1
102
RTVSPropertyOp1
 70
     1
102
RTVSPropertyOp2
 70
     1
102
RTVSPropertyOp3
 70
     1
102
RTVSPropertyOp4
 70
     1
102
RTVSPropertyOp5
 70
     1
102
RTVSPropertyOp6
 70
     1
102
RTVSPropertyOp7
 70
     1
102
RTVSPropertyOp8
 70
     1
102
RTVSPropertyOp9
 70
     1
102
RTVSPropertyOp10
 70
     1
102
RTVSPropertyOp11
 70
     1
102
RTVSPropertyOp12
 70
     1
102
RTVSPropertyOp13
 70
     1
102
RTVSPropertyOp14
 70
     1
102
RTVSPropertyOp15
 70
     1
102
RTVSPropertyOp16
 70
     1
102
RTVSPropertyOp17
 70
     1
102
RTVSPropertyOp18
 70
     1
102
RTVSPropertyOp19
 70
     1
102
RTVSPropertyOp20
 70
     1
102
RTVSPropertyOp21
 70
     1
102
RTVSPropertyOp22
 70
     1
102
RTVSPropertyOp23
 70
     1
102
RTVSPropertyOp24
 70
     1
102
RTVSPropertyOp25
 70
     1
102
RTVSPropertyOp26
 70
     1
102
RTVSPropertyOp27
 70
     1
  0
XRECORD
  5
497
102
{ACAD_REACTORS
330
496
102
}
330
496
100
AcDbXrecord
280
     1
102
RTVSPropertyOp0
 70
     1
102
RTVSPropertyOp1
 70
     1
102
RTVSPropertyOp2
 70
     1
102
RTVSPropertyOp3
 70
     1
102
RTVSPropertyOp4
 70
     1
102
RTVSPropertyOp5
 70
     1
102
RTVSPropertyOp6
 70
     1
102
RTVSPropertyOp7
 70
     1
102
RTVSPropertyOp8
 70
     1
102
RTVSPropertyOp9
 70
     1
102
RTVSPropertyOp10
 70
     1
102
RTVSPropertyOp11
 70
     1
102
RTVSPropertyOp12
 70
     1
102
RTVSPropertyOp13
 70
     1
102
RTVSPropertyOp14
 70
     1
102
RTVSPropertyOp15
 70
     1
102
RTVSPropertyOp16
 70
     1
102
RTVSPropertyOp17
 70
     1
102
RTVSPropertyOp18
 70
     1
102
RTVSPropertyOp19
 70
     1
102
RTVSPropertyOp20
 70
     1
102
RTVSPropertyOp21
 70
     1
102
RTVSPropertyOp22
 70
     1
102
RTVSPropertyOp23
 70
     1
102
RTVSPropertyOp24
 70
     1
102
RTVSPropertyOp25
 70
     1
102
RTVSPropertyOp26
 70
     1
102
RTVSPropertyOp27
 70
     1
  0
XRECORD
  5
499
102
{ACAD_REACTORS
330
498
102
}
330
498
100
AcDbXrecord
280
     1
102
RTVSPropertyOp0
 70
     1
102
RTVSPropertyOp1
 70
     1
102
RTVSPropertyOp2
 70
     1
102
RTVSPropertyOp3
 70
     1
102
RTVSPropertyOp4
 70
     1
102
RTVSPropertyOp5
 70
     1
102
RTVSPropertyOp6
 70
     1
102
RTVSPropertyOp7
 70
     1
102
RTVSPropertyOp8
 70
     1
102
RTVSPropertyOp9
 70
     1
102
RTVSPropertyOp10
 70
     1
102
RTVSPropertyOp11
 70
     1
102
RTVSPropertyOp12
 70
     1
102
RTVSPropertyOp13
 70
     1
102
RTVSPropertyOp14
 70
     1
102
RTVSPropertyOp15
 70
     1
102
RTVSPropertyOp16
 70
     1
102
RTVSPropertyOp17
 70
     1
102
RTVSPropertyOp18
 70
     1
102
RTVSPropertyOp19
 70
     1
102
RTVSPropertyOp20
 70
     1
102
RTVSPropertyOp21
 70
     1
102
RTVSPropertyOp22
 70
     1
102
RTVSPropertyOp23
 70
     1
102
RTVSPropertyOp24
 70
     1
102
RTVSPropertyOp25
 70
     1
102
RTVSPropertyOp26
 70
     1
102
RTVSPropertyOp27
 70
     1
  0
XRECORD
  5
4AD
102
{ACAD_REACTORS
330
4AC
102
}
330
4AC
100
AcDbXrecord
280
     1
102
RTVSPropertyOp0
 70
     1
102
RTVSPropertyOp1
 70
     1
102
RTVSPropertyOp2
 70
     1
102
RTVSPropertyOp3
 70
     1
102
RTVSPropertyOp4
 70
     1
102
RTVSPropertyOp5
 70
     1
102
RTVSPropertyOp6
 70
     1
102
RTVSPropertyOp7
 70
     1
102
RTVSPropertyOp8
 70
     1
102
RTVSPropertyOp9
 70
     1
102
RTVSPropertyOp10
 70
     1
102
RTVSPropertyOp11
 70
     1
102
RTVSPropertyOp12
 70
     1
102
RTVSPropertyOp13
 70
     1
102
RTVSPropertyOp14
 70
     1
102
RTVSPropertyOp15
 70
     1
102
RTVSPropertyOp16
 70
     1
102
RTVSPropertyOp17
 70
     1
102
RTVSPropertyOp18
 70
     1
102
RTVSPropertyOp19
 70
     1
102
RTVSPropertyOp20
 70
     1
102
RTVSPropertyOp21
 70
     1
102
RTVSPropertyOp22
 70
     1
102
RTVSPropertyOp23
 70
     1
102
RTVSPropertyOp24
 70
     1
102
RTVSPropertyOp25
 70
     1
102
RTVSPropertyOp26
 70
     1
102
RTVSPropertyOp27
 70
     1
  0
XRECORD
  5
A4E
102
{ACAD_REACTORS
330
A4D
102
}
330
A4D
100
AcDbXrecord
280
     1
102
RTVSPropertyOp0
 70
     1
102
RTVSPropertyOp1
 70
     1
102
RTVSPropertyOp2
 70
     1
102
RTVSPropertyOp3
 70
     1
102
RTVSPropertyOp4
 70
     1
102
RTVSPropertyOp5
 70
     1
102
RTVSPropertyOp6
 70
     1
102
RTVSPropertyOp7
 70
     1
102
RTVSPropertyOp8
 70
     1
102
RTVSPropertyOp9
 70
     1
102
RTVSPropertyOp10
 70
     1
102
RTVSPropertyOp11
 70
     1
102
RTVSPropertyOp12
 70
     1
102
RTVSPropertyOp13
 70
     1
102
RTVSPropertyOp14
 70
     1
102
RTVSPropertyOp15
 70
     1
102
RTVSPropertyOp16
 70
     1
102
RTVSPropertyOp17
 70
     1
102
RTVSPropertyOp18
 70
     1
102
RTVSPropertyOp19
 70
     1
102
RTVSPropertyOp20
 70
     1
102
RTVSPropertyOp21
 70
     1
102
RTVSPropertyOp22
 70
     1
102
RTVSPropertyOp23
 70
     1
102
RTVSPropertyOp24
 70
     1
102
RTVSPropertyOp25
 70
     1
102
RTVSPropertyOp26
 70
     1
102
RTVSPropertyOp27
 70
     1
  0
XRECORD
  5
4AB
102
{ACAD_REACTORS
330
4AA
102
}
330
4AA
100
AcDbXrecord
280
     1
102
RTVSPropertyOp0
 70
     1
102
RTVSPropertyOp1
 70
     1
102
RTVSPropertyOp2
 70
     1
102
RTVSPropertyOp3
 70
     1
102
RTVSPropertyOp4
 70
     1
102
RTVSPropertyOp5
 70
     1
102
RTVSPropertyOp6
 70
     1
102
RTVSPropertyOp7
 70
     1
102
RTVSPropertyOp8
 70
     1
102
RTVSPropertyOp9
 70
     1
102
RTVSPropertyOp10
 70
     1
102
RTVSPropertyOp11
 70
     1
102
RTVSPropertyOp12
 70
     1
102
RTVSPropertyOp13
 70
     1
102
RTVSPropertyOp14
 70
     1
102
RTVSPropertyOp15
 70
     1
102
RTVSPropertyOp16
 70
     1
102
RTVSPropertyOp17
 70
     1
102
RTVSPropertyOp18
 70
     1
102
RTVSPropertyOp19
 70
     1
102
RTVSPropertyOp20
 70
     1
102
RTVSPropertyOp21
 70
     1
102
RTVSPropertyOp22
 70
     1
102
RTVSPropertyOp23
 70
     1
102
RTVSPropertyOp24
 70
     1
102
RTVSPropertyOp25
 70
     1
102
RTVSPropertyOp26
 70
     1
102
RTVSPropertyOp27
 70
     1
  0
ENDSEC
  0
EOF
