  0
SECTION
  2
HEADER
  9
$ACADVER
  1
AC1018
  9
$ACADMAINTVER
 70
   104
  9
$DWGCODEPAGE
  3
ANSI_1250
  9
$LASTSAVEDBY
  1
bonzo
  9
$INSBASE
 10
0.0
 20
0.0
 30
0.0
  9
$EXTMIN
 10
1.115908869325462
 20
1.510832221690883
 30
0.0
  9
$EXTMAX
 10
6.9463742713051
 20
10.99883595223571
 30
0.0
  9
$LIMMIN
 10
0.0
 20
0.0
  9
$LIMMAX
 10
12.0
 20
9.0
  9
$ORTHOMODE
 70
     1
  9
$REGENMODE
 70
     1
  9
$FILLMODE
 70
     1
  9
$QTEXTMODE
 70
     0
  9
$MIRRTEXT
 70
     1
  9
$LTSCALE
 40
1.0
  9
$ATTMODE
 70
     1
  9
$TEXTSIZE
 40
0.2
  9
$TRACEWID
 40
0.05
  9
$TEXTSTYLE
  7
Standard
  9
$CLAYER
  8
WYMIAR
  9
$CELTYPE
  6
ByLayer
  9
$CECOLOR
 62
   256
  9
$CELTSCALE
 40
1.0
  9
$DISPSILH
 70
     0
  9
$DIMSCALE
 40
0.02
  9
$DIMASZ
 40
3.0
  9
$DIMEXO
 40
20.0
  9
$DIMDLI
 40
0.0
  9
$DIMRND
 40
0.1
  9
$DIMDLE
 40
0.0
  9
$DIMEXE
 40
5.0
  9
$DIMTP
 40
0.0
  9
$DIMTM
 40
0.0
  9
$DIMTXT
 40
9.0
  9
$DIMCEN
 40
12.0
  9
$DIMTSZ
 40
0.0
  9
$DIMTOL
 70
     0
  9
$DIMLIM
 70
     0
  9
$DIMTIH
 70
     0
  9
$DIMTOH
 70
     0
  9
$DIMSE1
 70
     1
  9
$DIMSE2
 70
     1
  9
$DIMTAD
 70
     1
  9
$DIMZIN
 70
     1
  9
$DIMBLK
  1

  9
$DIMASO
 70
     1
  9
$DIMSHO
 70
     1
  9
$DIMPOST
  1

  9
$DIMAPOST
  1

  9
$DIMALT
 70
     0
  9
$DIMALTD
 70
     4
  9
$DIMALTF
 40
1.0
  9
$DIMLFAC
 40
1.0
  9
$DIMTOFL
 70
     1
  9
$DIMTVP
 40
0.0
  9
$DIMTIX
 70
     1
  9
$DIMSOXD
 70
     0
  9
$DIMSAH
 70
     1
  9
$DIMBLK1
  1
MAR-STRZ
  9
$DIMBLK2
  1
MAR-STRZ
  9
$DIMSTYLE
  2
AR SKALA 1-50
  9
$DIMCLRD
 70
   256
  9
$DIMCLRE
 70
   256
  9
$DIMCLRT
 70
   256
  9
$DIMTFAC
 40
0.01
  9
$DIMGAP
 40
6.0
  9
$DIMJUST
 70
     0
  9
$DIMSD1
 70
     0
  9
$DIMSD2
 70
     0
  9
$DIMTOLJ
 70
     1
  9
$DIMTZIN
 70
     0
  9
$DIMALTZ
 70
     0
  9
$DIMALTTZ
 70
     0
  9
$DIMUPT
 70
     0
  9
$DIMDEC
 70
     2
  9
$DIMTDEC
 70
     2
  9
$DIMALTU
 70
     2
  9
$DIMALTTD
 70
     4
  9
$DIMTXSTY
  7
AR 01 SWIS
  9
$DIMAUNIT
 70
     0
  9
$DIMADEC
 70
     1
  9
$DIMALTRND
 40
0.0
  9
$DIMAZIN
 70
     0
  9
$DIMDSEP
 70
    46
  9
$DIMATFIT
 70
     3
  9
$DIMFRAC
 70
     0
  9
$DIMLDRBLK
  1
MAR-STRZ
  9
$DIMLUNIT
 70
     2
  9
$DIMLWD
 70
    -2
  9
$DIMLWE
 70
    -2
  9
$DIMTMOVE
 70
     2
  9
$LUNITS
 70
     2
  9
$LUPREC
 70
     4
  9
$SKETCHINC
 40
0.1
  9
$FILLETRAD
 40
0.5
  9
$AUNITS
 70
     0
  9
$AUPREC
 70
     0
  9
$MENU
  1
.
  9
$ELEVATION
 40
0.0
  9
$PELEVATION
 40
0.0
  9
$THICKNESS
 40
0.0
  9
$LIMCHECK
 70
     0
  9
$CHAMFERA
 40
0.5
  9
$CHAMFERB
 40
0.5
  9
$CHAMFERC
 40
1.0
  9
$CHAMFERD
 40
0.0
  9
$SKPOLY
 70
     0
  9
$TDCREATE
 40
2455956.499359827
  9
$TDUCREATE
 40
2455956.416026493
  9
$TDUPDATE
 40
2459311.321049873
  9
$TDUUPDATE
 40
2459311.237716539
  9
$TDINDWG
 40
0.1125619676
  9
$TDUSRTIMER
 40
0.1125619676
  9
$USRTIMER
 70
     1
  9
$ANGBASE
 50
0.0
  9
$ANGDIR
 70
     0
  9
$PDMODE
 70
     0
  9
$PDSIZE
 40
0.0
  9
$PLINEWID
 40
0.0
  9
$SPLFRAME
 70
     0
  9
$SPLINETYPE
 70
     6
  9
$SPLINESEGS
 70
     8
  9
$HANDSEED
  5
1636
  9
$SURFTAB1
 70
     6
  9
$SURFTAB2
 70
     6
  9
$SURFTYPE
 70
     6
  9
$SURFU
 70
     6
  9
$SURFV
 70
     6
  9
$UCSBASE
  2

  9
$UCSNAME
  2

  9
$UCSORG
 10
0.0
 20
0.0
 30
0.0
  9
$UCSXDIR
 10
1.0
 20
0.0
 30
0.0
  9
$UCSYDIR
 10
0.0
 20
1.0
 30
0.0
  9
$UCSORTHOREF
  2

  9
$UCSORTHOVIEW
 70
     0
  9
$UCSORGTOP
 10
0.0
 20
0.0
 30
0.0
  9
$UCSORGBOTTOM
 10
0.0
 20
0.0
 30
0.0
  9
$UCSORGLEFT
 10
0.0
 20
0.0
 30
0.0
  9
$UCSORGRIGHT
 10
0.0
 20
0.0
 30
0.0
  9
$UCSORGFRONT
 10
0.0
 20
0.0
 30
0.0
  9
$UCSORGBACK
 10
0.0
 20
0.0
 30
0.0
  9
$PUCSBASE
  2

  9
$PUCSNAME
  2

  9
$PUCSORG
 10
0.0
 20
0.0
 30
0.0
  9
$PUCSXDIR
 10
1.0
 20
0.0
 30
0.0
  9
$PUCSYDIR
 10
0.0
 20
1.0
 30
0.0
  9
$PUCSORTHOREF
  2

  9
$PUCSORTHOVIEW
 70
     0
  9
$PUCSORGTOP
 10
0.0
 20
0.0
 30
0.0
  9
$PUCSORGBOTTOM
 10
0.0
 20
0.0
 30
0.0
  9
$PUCSORGLEFT
 10
0.0
 20
0.0
 30
0.0
  9
$PUCSORGRIGHT
 10
0.0
 20
0.0
 30
0.0
  9
$PUCSORGFRONT
 10
0.0
 20
0.0
 30
0.0
  9
$PUCSORGBACK
 10
0.0
 20
0.0
 30
0.0
  9
$USERI1
 70
     0
  9
$USERI2
 70
     0
  9
$USERI3
 70
     0
  9
$USERI4
 70
     0
  9
$USERI5
 70
     0
  9
$USERR1
 40
0.0
  9
$USERR2
 40
0.0
  9
$USERR3
 40
0.0
  9
$USERR4
 40
0.0
  9
$USERR5
 40
0.0
  9
$WORLDVIEW
 70
     1
  9
$SHADEDGE
 70
     3
  9
$SHADEDIF
 70
    70
  9
$TILEMODE
 70
     1
  9
$MAXACTVP
 70
    64
  9
$PINSBASE
 10
0.0
 20
0.0
 30
0.0
  9
$PLIMCHECK
 70
     0
  9
$PEXTMIN
 10
6.561544945354853
 20
3.282189374834842
 30
0.0
  9
$PEXTMAX
 10
296.6096419909582
 20
206.4421558651099
 30
0.0
  9
$PLIMMIN
 10
3.386557152386103
 20
0.1071894225185588
  9
$PLIMMAX
 10
300.4395661855892
 20
209.9958460387295
  9
$UNITMODE
 70
     0
  9
$VISRETAIN
 70
     1
  9
$PLINEGEN
 70
     0
  9
$PSLTSCALE
 70
     0
  9
$TREEDEPTH
 70
  3020
  9
$CMLSTYLE
  2
Standard
  9
$CMLJUST
 70
     0
  9
$CMLSCALE
 40
1.0
  9
$PROXYGRAPHICS
 70
     1
  9
$MEASUREMENT
 70
     0
  9
$CELWEIGHT
370
    -1
  9
$ENDCAPS
280
     0
  9
$JOINSTYLE
280
     0
  9
$LWDISPLAY
290
     0
  9
$INSUNITS
 70
     1
  9
$HYPERLINKBASE
  1

  9
$STYLESHEET
  1

  9
$XEDIT
290
     1
  9
$CEPSNTYPE
380
     0
  9
$PSTYLEMODE
290
     1
  9
$FINGERPRINTGUID
  2
{1B330B5B-CE04-4EC8-B886-8C8BFC3A02BF}
  9
$VERSIONGUID
  2
{52F86957-AD42-46C0-86AC-3A3D09BA1471}
  9
$EXTNAMES
290
     1
  9
$PSVPSCALE
 40
0.0
  9
$OLESTARTUP
290
     0
  9
$SORTENTS
280
   127
  9
$INDEXCTL
280
     0
  9
$HIDETEXT
280
     1
  9
$XCLIPFRAME
290
     0
  9
$HALOGAP
280
     0
  9
$OBSCOLOR
 70
   257
  9
$OBSLTYPE
280
     0
  9
$INTERSECTIONDISPLAY
280
     0
  9
$INTERSECTIONCOLOR
 70
   257
  9
$DIMASSOC
280
     2
  9
$PROJECTNAME
  1

  0
ENDSEC
  0
SECTION
  2
CLASSES
  0
CLASS
  1
ACDBDICTIONARYWDFLT
  2
AcDbDictionaryWithDefault
  3
ObjectDBX Classes
 90
        0
 91
        1
280
     0
281
     0
  0
CLASS
  1
VISUALSTYLE
  2
AcDbVisualStyle
  3
ObjectDBX Classes
 90
     4095
 91
       16
280
     0
281
     0
  0
CLASS
  1
MATERIAL
  2
AcDbMaterial
  3
ObjectDBX Classes
 90
     1153
 91
        3
280
     0
281
     0
  0
CLASS
  1
DICTIONARYVAR
  2
AcDbDictionaryVar
  3
ObjectDBX Classes
 90
        0
 91
        9
280
     0
281
     0
  0
CLASS
  1
TABLESTYLE
  2
AcDbTableStyle
  3
ObjectDBX Classes
 90
     4095
 91
        1
280
     0
281
     0
  0
CLASS
  1
SORTENTSTABLE
  2
AcDbSortentsTable
  3
ObjectDBX Classes
 90
        0
 91
        6
280
     0
281
     0
  0
CLASS
  1
DIMASSOC
  2
AcDbDimAssoc
  3
"AcDbDimAssoc|Product Desc:     AcDim ARX App For Dimension|Company:          Autodesk, Inc.|WEB Address:      www.autodesk.com"
 90
        0
 91
        2
280
     0
281
     0
  0
CLASS
  1
SCALE
  2
AcDbScale
  3
ObjectDBX Classes
 90
     1153
 91
       33
280
     0
281
     0
  0
CLASS
  1
MLEADERSTYLE
  2
AcDbMLeaderStyle
  3
ACDB_MLEADERSTYLE_CLASS
 90
     4095
 91
        1
280
     0
281
     0
  0
CLASS
  1
CELLSTYLEMAP
  2
AcDbCellStyleMap
  3
ObjectDBX Classes
 90
     1152
 91
        4
280
     0
281
     0
  0
ENDSEC
  0
SECTION
  2
TABLES
  0
TABLE
  2
VPORT
  5
8
102
{ACAD_XDICTIONARY
360
84C
102
}
330
0
100
AcDbSymbolTable
 70
     1
  0
VPORT
  5
29
330
8
100
AcDbSymbolTableRecord
100
AcDbViewportTableRecord
  2
*Active
 70
     0
 10
0.0
 20
0.0
 11
1.0
 21
1.0
 12
4.564363442669666
 22
6.038538579050728
 13
0.0
 23
0.0
 14
0.5
 24
0.5
 15
0.5
 25
0.5
 16
0.0
 26
0.0
 36
1.0
 17
0.0
 27
0.0
 37
-1000.0
 40
11.52381941243748
 41
2.060556464811783
 42
50.0
 43
4.148984367261674
 44
9.217858496371269
 50
0.0
 51
0.0
 71
     0
 72
   100
 73
     1
 74
     3
 75
     0
 76
     0
 77
     0
 78
     0
281
     0
 65
     1
110
0.0
120
0.0
130
0.0
111
1.0
121
0.0
131
0.0
112
0.0
122
1.0
132
0.0
 79
     0
146
0.0
  0
ENDTAB
  0
TABLE
  2
LTYPE
  5
5
330
0
100
AcDbSymbolTable
 70
     2
  0
LTYPE
  5
14
330
5
100
AcDbSymbolTableRecord
100
AcDbLinetypeTableRecord
  2
ByBlock
 70
     0
  3

 72
    65
 73
     0
 40
0.0
  0
LTYPE
  5
15
330
5
100
AcDbSymbolTableRecord
100
AcDbLinetypeTableRecord
  2
ByLayer
 70
     0
  3

 72
    65
 73
     0
 40
0.0
  0
LTYPE
  5
16
330
5
100
AcDbSymbolTableRecord
100
AcDbLinetypeTableRecord
  2
Continuous
 70
     0
  3
Solid line
 72
    65
 73
     0
 40
0.0
  0
LTYPE
  5
886
330
5
100
AcDbSymbolTableRecord
100
AcDbLinetypeTableRecord
  2
DASHED
 70
     0
  3
Dashed __ __ __ __ __ __ __ __ __ __ __ __ __ _
 72
    65
 73
     2
 40
0.75
 49
0.5
 74
     0
 49
-0.25
 74
     0
  0
ENDTAB
  0
TABLE
  2
LAYER
  5
2
102
{ACAD_XDICTIONARY
360
7D1
102
}
330
0
100
AcDbSymbolTable
 70
     4
  0
LAYER
  5
10
102
{ACAD_XDICTIONARY
360
B4C
102
}
330
2
100
AcDbSymbolTableRecord
100
AcDbLayerTableRecord
  2
0
 70
     0
 62
     7
  6
Continuous
370
    50
390
F
  0
LAYER
  5
87B
102
{ACAD_XDICTIONARY
360
B4E
102
}
330
2
100
AcDbSymbolTableRecord
100
AcDbLayerTableRecord
  2
STREFA BEZPIECZEŃSTWA
 70
     0
 62
     7
  6
DASHED
370
    50
390
F
1001
AcAecLayerStandard
1000

1000

  0
LAYER
  5
87D
102
{ACAD_XDICTIONARY
360
B50
102
}
330
2
100
AcDbSymbolTableRecord
100
AcDbLayerTableRecord
  2
WYMIAR
 70
     0
 62
     7
  6
Continuous
370
    50
390
F
1001
AcAecLayerStandard
1000

1000

  0
LAYER
  5
8CC
330
2
100
AcDbSymbolTableRecord
100
AcDbLayerTableRecord
  2
Defpoints
 70
     0
 62
     7
  6
Continuous
290
     0
370
     5
390
F
1001
RAK
1000
{ACET-LAYISO
1070
     0
1070
     7
1000
Continuous
1071
        5
1071
        0
1005
F
1000
ACET-LAYISO}
  0
ENDTAB
  0
TABLE
  2
STYLE
  5
3
330
0
100
AcDbSymbolTable
 70
     2
  0
STYLE
  5
11
330
3
100
AcDbSymbolTableRecord
100
AcDbTextStyleTableRecord
  2
Standard
 70
     0
 40
0.0
 41
1.0
 50
0.0
 71
     0
 42
0.2
  3
txt
  4

  0
STYLE
  5
8CE
330
3
100
AcDbSymbolTableRecord
100
AcDbTextStyleTableRecord
  2
AR 01 SWIS
 70
     0
 40
0.0
 41
1.0
 50
0.0
 71
     0
 42
55.0
  3

  4

1001
ACAD
1000
Swis721 Cn BT
1071
       34
  0
ENDTAB
  0
TABLE
  2
VIEW
  5
6
330
0
100
AcDbSymbolTable
 70
     0
  0
ENDTAB
  0
TABLE
  2
UCS
  5
7
330
0
100
AcDbSymbolTable
 70
     0
  0
ENDTAB
  0
TABLE
  2
APPID
  5
9
330
0
100
AcDbSymbolTable
 70
     9
  0
APPID
  5
12
330
9
100
AcDbSymbolTableRecord
100
AcDbRegAppTableRecord
  2
ACAD
 70
     0
  0
APPID
  5
7CB
330
9
100
AcDbSymbolTableRecord
100
AcDbRegAppTableRecord
  2
ACAD_PSEXT
 70
     0
  0
APPID
  5
875
330
9
100
AcDbSymbolTableRecord
100
AcDbRegAppTableRecord
  2
ACAD_EXEMPT_FROM_CAD_STANDARDS
 70
     0
  0
APPID
  5
87C
330
9
100
AcDbSymbolTableRecord
100
AcDbRegAppTableRecord
  2
AcAecLayerStandard
 70
     0
  0
APPID
  5
8D4
330
9
100
AcDbSymbolTableRecord
100
AcDbRegAppTableRecord
  2
RAK
 70
     0
  0
APPID
  5
8D5
330
9
100
AcDbSymbolTableRecord
100
AcDbRegAppTableRecord
  2
ACAD_DSTYLE_DIMJOGGED_JOGANGLE_SYMBOL
 70
     0
  0
APPID
  5
8D6
330
9
100
AcDbSymbolTableRecord
100
AcDbRegAppTableRecord
  2
ACAD_DSTYLE_DIMJAG
 70
     0
  0
APPID
  5
8D7
330
9
100
AcDbSymbolTableRecord
100
AcDbRegAppTableRecord
  2
ACAD_DSTYLE_DIMTALN
 70
     0
  0
APPID
  5
B46
330
9
100
AcDbSymbolTableRecord
100
AcDbRegAppTableRecord
  2
ACAD_MLEADERVER
 70
     0
  0
ENDTAB
  0
TABLE
  2
DIMSTYLE
  5
A
330
0
100
AcDbSymbolTable
 70
     1
100
AcDbDimStyleTable
 71
     1
340
8CF
  0
DIMSTYLE
105
8CF
102
{ACAD_REACTORS
330
15A2
330
15BD
102
}
330
A
100
AcDbSymbolTableRecord
100
AcDbDimStyleTableRecord
  2
AR SKALA 1-50
 70
     0
 40
0.02
 41
3.0
 42
20.0
 43
0.0
 44
5.0
 45
0.1
 73
     0
 74
     0
 75
     1
 76
     1
 77
     1
 78
     1
140
9.0
141
12.0
143
1.0
146
0.01
147
6.0
171
     4
172
     1
173
     1
174
     1
176
   256
177
   256
178
   256
179
     1
271
     2
272
     2
274
     4
279
     2
340
8CE
341
8BC
343
8BC
344
8BC
  0
ENDTAB
  0
TABLE
  2
BLOCK_RECORD
  5
1
330
0
100
AcDbSymbolTable
 70
     7
  0
BLOCK_RECORD
  5
1F
102
{ACAD_XDICTIONARY
360
5F8
102
}
330
1
100
AcDbSymbolTableRecord
100
AcDbBlockTableRecord
  2
*Model_Space
340
22
  0
BLOCK_RECORD
  5
1B
330
1
100
AcDbSymbolTableRecord
100
AcDbBlockTableRecord
  2
*Paper_Space
340
1E
  0
BLOCK_RECORD
  5
8BC
330
1
100
AcDbSymbolTableRecord
100
AcDbBlockTableRecord
  2
MAR-STRZ
340
0
310
2800000020000000200000000100080000000000000400000000000000000000000000000000000000000000000080000080000000808000800000008000800080800000C0C0C000C0DCC000F0CAA6000020400000206000002080000020A0000020C0000020E00000400000004020000040400000406000004080000040A0
310
000040C0000040E00000600000006020000060400000606000006080000060A0000060C0000060E00000800000008020000080400000806000008080000080A0000080C0000080E00000A0000000A0200000A0400000A0600000A0800000A0A00000A0C00000A0E00000C0000000C0200000C0400000C0600000C0800000C0
310
A00000C0C00000C0E00000E0000000E0200000E0400000E0600000E0800000E0A00000E0C00000E0E00040000000400020004000400040006000400080004000A0004000C0004000E00040200000402020004020400040206000402080004020A0004020C0004020E000404000004040200040404000404060004040800040
310
40A0004040C0004040E00040600000406020004060400040606000406080004060A0004060C0004060E00040800000408020004080400040806000408080004080A0004080C0004080E00040A0000040A0200040A0400040A0600040A0800040A0A00040A0C00040A0E00040C0000040C0200040C0400040C0600040C08000
310
40C0A00040C0C00040C0E00040E0000040E0200040E0400040E0600040E0800040E0A00040E0C00040E0E00080000000800020008000400080006000800080008000A0008000C0008000E00080200000802020008020400080206000802080008020A0008020C0008020E00080400000804020008040400080406000804080
310
008040A0008040C0008040E00080600000806020008060400080606000806080008060A0008060C0008060E00080800000808020008080400080806000808080008080A0008080C0008080E00080A0000080A0200080A0400080A0600080A0800080A0A00080A0C00080A0E00080C0000080C0200080C0400080C0600080C0
310
800080C0A00080C0C00080C0E00080E0000080E0200080E0400080E0600080E0800080E0A00080E0C00080E0E000C0000000C0002000C0004000C0006000C0008000C000A000C000C000C000E000C0200000C0202000C0204000C0206000C0208000C020A000C020C000C020E000C0400000C0402000C0404000C0406000C0
310
408000C040A000C040C000C040E000C0600000C0602000C0604000C0606000C0608000C060A000C060C000C060E000C0800000C0802000C0804000C0806000C0808000C080A000C080C000C080E000C0A00000C0A02000C0A04000C0A06000C0A08000C0A0A000C0A0C000C0A0E000C0C00000C0C02000C0C04000C0C06000
310
C0C08000C0C0A000F0FBFF00A4A0A000808080000000FF0000FF000000FFFF00FF000000FF00FF00FFFF0000FFFFFF00000000000000000000000000000000000000000000000000000000000000000000000000000000000000000000000000FF000000000000000000000000000000000000000000000000000000000000
310
00FF00000000000000000000000000000000000000000000000000000000000000FF00000000000000000000000000000000000000000000000000000000000000FF00000000000000000000000000000000000000000000000000000000000000FF000000000000000000000000000000000000000000F900000000000000
310
0000FF00000000000000000000000000000000000000000000F90000000000000000FF0000000000000000000000000000000000000000000000F900000000000000FF000000000000000000000000000000000000000000000000F9000000000000FF00000000000000000000000000000000000000000000000000F90000
310
000000FF0000000000000000000000000000000000000000000000000000F900000000FF000000000000000000000000000000000000000000000000000000F9000000FF00000000000000000000000000000000000000000000000000000000F90000FF000000000000000000000000000000000000000000000000000000
310
0000F900FF000000000000000000000000000000000000000000000000000000000000F9FF00000000000000000000000000000000000000000000FFFFFFFFFFFFFFFFFFFFFFFFFFFFFFFFFFFF0000000000000000000000000000000000000000000000FFF900000000000000000000000000000000000000000000000000
310
0000000000FF00F90000000000000000000000000000000000000000000000000000000000FF0000F900000000000000000000000000000000000000000000000000000000FF000000F9000000000000000000000000000000000000000000000000000000FF00000000F90000000000000000000000000000000000000000
310
000000000000FF0000000000F900000000000000000000000000000000000000000000000000FF000000000000F9000000000000000000000000000000000000000000000000FF00000000000000F90000000000000000000000000000000000000000000000FF0000000000000000F9000000000000000000000000000000
310
00000000000000FF00000000000000000000000000000000000000000000000000000000000000FF00000000000000000000000000000000000000000000000000000000000000FF00000000000000000000000000000000000000000000000000000000000000FF0000000000000000000000000000000000000000000000
310
0000000000000000FF0000000000000000000000000000000000000000000000000000000000000000000000000000000000000000000000
102
{BLKREFS
331
15B7
331
15B8
331
15CA
331
15CB
102
}
  0
BLOCK_RECORD
  5
B63
102
{ACAD_XDICTIONARY
360
CBA
102
}
330
1
100
AcDbSymbolTableRecord
100
AcDbBlockTableRecord
  2
A$C445009A0
340
0
1001
ACAD
1000
DesignCenter Data
1002
{
1070
     1
1070
     1
1002
}
  0
BLOCK_RECORD
  5
115A
102
{ACAD_XDICTIONARY
360
1165
102
}
330
1
100
AcDbSymbolTableRecord
100
AcDbBlockTableRecord
  2
A$C7305598A
340
0
1001
ACAD
1000
DesignCenter Data
1002
{
1070
     1
1070
     1
1002
}
  0
BLOCK_RECORD
  5
11A6
102
{ACAD_XDICTIONARY
360
11B0
102
}
330
1
100
AcDbSymbolTableRecord
100
AcDbBlockTableRecord
  2
A$C43E158E6
340
0
1001
ACAD
1000
DesignCenter Data
1002
{
1070
     1
1070
     1
1002
}
  0
BLOCK_RECORD
  5
1572
102
{ACAD_XDICTIONARY
360
1574
102
}
330
1
100
AcDbSymbolTableRecord
100
AcDbBlockTableRecord
  2
A$C657421BC
340
0
1001
ACAD
1000
DesignCenter Data
1002
{
1070
     1
1070
     1
1002
}
  0
BLOCK_RECORD
  5
15A3
330
1
100
AcDbSymbolTableRecord
100
AcDbBlockTableRecord
  2
*D5
340
0
  0
BLOCK_RECORD
  5
15BE
330
1
100
AcDbSymbolTableRecord
100
AcDbBlockTableRecord
  2
*D6
340
0
  0
ENDTAB
  0
ENDSEC
  0
SECTION
  2
BLOCKS
  0
BLOCK
  5
20
330
1F
100
AcDbEntity
  8
0
100
AcDbBlockBegin
  2
*Model_Space
 70
     0
 10
0.0
 20
0.0
 30
0.0
  3
*Model_Space
  1

  0
ENDBLK
  5
21
330
1F
100
AcDbEntity
  8
0
100
AcDbBlockEnd
  0
BLOCK
  5
1C
330
1B
100
AcDbEntity
 67
     1
  8
0
100
AcDbBlockBegin
  2
*Paper_Space
 70
     0
 10
0.0
 20
0.0
 30
0.0
  3
*Paper_Space
  1

  0
ENDBLK
  5
1D
330
1B
100
AcDbEntity
 67
     1
  8
0
100
AcDbBlockEnd
  0
BLOCK
  5
8BD
330
8BC
100
AcDbEntity
  8
0
100
AcDbBlockBegin
  2
MAR-STRZ
 70
     0
 10
0.0
 20
0.0
 30
0.0
  3
MAR-STRZ
  1

  0
LINE
  5
8BE
330
8BC
100
AcDbEntity
  8
0
100
AcDbLine
 10
0.0
 20
2.299999999999272
 30
0.0
 11
0.0
 21
-2.299999999999272
 31
0.0
  0
LINE
  5
8BF
330
8BC
100
AcDbEntity
  8
0
 62
    10
100
AcDbLine
 10
1.5
 20
1.5
 30
0.0
 11
-1.5
 21
-1.5
 31
0.0
  0
LINE
  5
8C0
330
8BC
100
AcDbEntity
  8
0
100
AcDbLine
 10
1.399999999999636
 20
0.0
 30
0.0
 11
-1.399999999999636
 21
0.0
 31
0.0
  0
ENDBLK
  5
8C1
330
8BC
100
AcDbEntity
  8
0
100
AcDbBlockEnd
  0
BLOCK
  5
CBC
330
B63
100
AcDbEntity
  8
0
100
AcDbBlockBegin
  2
A$C445009A0
 70
     0
 10
0.0
 20
0.0
 30
0.0
  3
A$C445009A0
  1

  0
LINE
  5
B64
330
B63
100
AcDbEntity
  8
0
100
AcDbLine
 10
0.6008327546430579
 20
0.0012842682727028
 30
0.0
 11
0.6015023151376902
 21
-0.0000000029747573
 31
0.0
  0
LINE
  5
B65
330
B63
100
AcDbEntity
  8
0
100
AcDbLine
 10
0.6399373764212655
 20
-0.0000000029747573
 30
0.0
 11
0.6406069369158942
 21
0.0012842682727028
 31
0.0
  0
LINE
  5
B66
330
B63
100
AcDbEntity
  8
0
100
AcDbLine
 10
0.6193159108380684
 20
0.0012842682727063
 30
0.0
 11
0.619315910838072
 21
1.141284268272706
 31
0.0
  0
LINE
  5
B67
330
B63
100
AcDbEntity
  8
0
100
AcDbLine
 10
0.5981027074024752
 20
0.0012842682727063
 30
0.0
 11
0.5981027074024752
 21
1.141284268272706
 31
0.0
  0
LINE
  5
B68
330
B63
100
AcDbEntity
  8
0
100
AcDbLine
 10
0.5580958388324718
 20
0.0708847184728159
 30
0.0
 11
0.5617560928703185
 21
0.0702032349985951
 31
0.0
  0
LINE
  5
B69
330
B63
100
AcDbEntity
  8
0
100
AcDbLine
 10
0.5617560928703185
 20
0.0702032349985951
 30
0.0
 11
0.5651669066443361
 21
0.0682052265485043
 31
0.0
  0
LINE
  5
B6A
330
B63
100
AcDbEntity
  8
0
100
AcDbLine
 10
0.5651669066443361
 20
0.0682052265485043
 30
0.0
 11
0.5680958388324698
 21
0.0650268540965451
 31
0.0
  0
LINE
  5
B6B
330
B63
100
AcDbEntity
  8
0
100
AcDbLine
 10
0.5680958388324698
 20
0.0650268540965451
 30
0.0
 11
0.5703432875463897
 21
0.0608847184728143
 31
0.0
  0
LINE
  5
B6C
330
B63
100
AcDbEntity
  8
0
100
AcDbLine
 10
0.5703432875463897
 20
0.0608847184728143
 30
0.0
 11
0.5717560928703165
 21
0.0560610993748663
 31
0.0
  0
LINE
  5
B6D
330
B63
100
AcDbEntity
  8
0
100
AcDbLine
 10
0.5717560928703165
 20
0.0560610993748663
 30
0.0
 11
0.5722379744562041
 21
0.0508847184728163
 31
0.0
  0
LINE
  5
B6E
330
B63
100
AcDbEntity
  8
0
100
AcDbLine
 10
0.5722379744562041
 20
0.0508847184728163
 30
0.0
 11
0.5717560928703165
 21
0.0457083375707663
 31
0.0
  0
LINE
  5
B6F
330
B63
100
AcDbEntity
  8
0
100
AcDbLine
 10
0.5717560928703165
 20
0.0457083375707663
 30
0.0
 11
0.5703432875463897
 21
0.0408847184728147
 31
0.0
  0
LINE
  5
B70
330
B63
100
AcDbEntity
  8
0
100
AcDbLine
 10
0.5703432875463897
 20
0.0408847184728147
 30
0.0
 11
0.5680958388324698
 21
0.036742582849084
 31
0.0
  0
LINE
  5
B71
330
B63
100
AcDbEntity
  8
0
100
AcDbLine
 10
0.5680958388324698
 20
0.036742582849084
 30
0.0
 11
0.5651669066443361
 21
0.0335642103971248
 31
0.0
  0
LINE
  5
B72
330
B63
100
AcDbEntity
  8
0
100
AcDbLine
 10
0.5651669066443361
 20
0.0335642103971248
 30
0.0
 11
0.5617560928703185
 21
0.031566201947034
 31
0.0
  0
LINE
  5
B73
330
B63
100
AcDbEntity
  8
0
100
AcDbLine
 10
0.5617560928703185
 20
0.031566201947034
 30
0.0
 11
0.5580958388324718
 21
0.0308847184728132
 31
0.0
  0
LINE
  5
B74
330
B63
100
AcDbEntity
  8
0
100
AcDbLine
 10
0.029888883715973
 20
0.0728405132250361
 30
0.0
 11
0.0335491377538162
 21
0.0721590297508152
 31
0.0
  0
LINE
  5
B75
330
B63
100
AcDbEntity
  8
0
100
AcDbLine
 10
0.0398888837159746
 20
0.0669826488487653
 30
0.0
 11
0.0421363324298909
 21
0.0628405132250345
 31
0.0
  0
LINE
  5
B76
330
B63
100
AcDbEntity
  8
0
100
AcDbLine
 10
0.0335491377538162
 20
0.0335219966992542
 30
0.0
 11
0.029888883715973
 21
0.0328405132250334
 31
0.0
  0
LINE
  5
B77
330
B63
100
AcDbEntity
  8
0
100
AcDbLine
 10
0.0335491377538162
 20
0.0721590297508152
 30
0.0
 11
0.0369599515278374
 21
0.0701610213007244
 31
0.0
  0
LINE
  5
B78
330
B63
100
AcDbEntity
  8
0
100
AcDbLine
 10
0.0369599515278374
 20
0.0701610213007244
 30
0.0
 11
0.0398888837159746
 21
0.0669826488487653
 31
0.0
  0
LINE
  5
B79
330
B63
100
AcDbEntity
  8
0
100
AcDbLine
 10
0.0421363324298909
 20
0.0628405132250345
 30
0.0
 11
0.0435491377538178
 21
0.0580168941270865
 31
0.0
  0
LINE
  5
B7A
330
B63
100
AcDbEntity
  8
0
100
AcDbLine
 10
0.0435491377538178
 20
0.0580168941270865
 30
0.0
 11
0.0440310193397053
 21
0.0528405132250365
 31
0.0
  0
LINE
  5
B7B
330
B63
100
AcDbEntity
  8
0
100
AcDbLine
 10
0.0440310193397053
 20
0.0528405132250365
 30
0.0
 11
0.0435491377538178
 21
0.0476641323229865
 31
0.0
  0
LINE
  5
B7C
330
B63
100
AcDbEntity
  8
0
100
AcDbLine
 10
0.0435491377538178
 20
0.0476641323229865
 30
0.0
 11
0.0421363324298909
 21
0.0428405132250349
 31
0.0
  0
LINE
  5
B7D
330
B63
100
AcDbEntity
  8
0
100
AcDbLine
 10
0.0421363324298909
 20
0.0428405132250349
 30
0.0
 11
0.0398888837159746
 21
0.0386983776013041
 31
0.0
  0
LINE
  5
B7E
330
B63
100
AcDbEntity
  8
0
100
AcDbLine
 10
0.0398888837159746
 20
0.0386983776013041
 30
0.0
 11
0.0369599515278374
 21
0.035520005149345
 31
0.0
  0
LINE
  5
B7F
330
B63
100
AcDbEntity
  8
0
100
AcDbLine
 10
0.0369599515278374
 20
0.035520005149345
 30
0.0
 11
0.0335491377538162
 21
0.0335219966992542
 31
0.0
  0
LINE
  5
B80
330
B63
100
AcDbEntity
  8
0
100
AcDbLine
 10
0.0298888837159694
 20
1.096840513225033
 30
0.0
 11
0.0335491377538162
 21
1.096159029750816
 31
0.0
  0
LINE
  5
B81
330
B63
100
AcDbEntity
  8
0
100
AcDbLine
 10
0.0335491377538162
 20
1.096159029750816
 30
0.0
 11
0.0369599515278374
 21
1.094161021300721
 31
0.0
  0
LINE
  5
B82
330
B63
100
AcDbEntity
  8
0
100
AcDbLine
 10
0.0369599515278374
 20
1.094161021300721
 30
0.0
 11
0.0398888837159746
 21
1.090982648848766
 31
0.0
  0
LINE
  5
B83
330
B63
100
AcDbEntity
  8
0
100
AcDbLine
 10
0.0398888837159746
 20
1.090982648848766
 30
0.0
 11
0.0421363324298874
 21
1.086840513225035
 31
0.0
  0
LINE
  5
B84
330
B63
100
AcDbEntity
  8
0
100
AcDbLine
 10
0.0421363324298874
 20
1.086840513225035
 30
0.0
 11
0.0435491377538142
 21
1.082016894127083
 31
0.0
  0
LINE
  5
B85
330
B63
100
AcDbEntity
  8
0
100
AcDbLine
 10
0.0435491377538142
 20
1.082016894127083
 30
0.0
 11
0.0440310193397053
 21
1.076840513225033
 31
0.0
  0
LINE
  5
B86
330
B63
100
AcDbEntity
  8
0
100
AcDbLine
 10
0.0440310193397053
 20
1.076840513225033
 30
0.0
 11
0.0435491377538142
 21
1.071664132322983
 31
0.0
  0
LINE
  5
B87
330
B63
100
AcDbEntity
  8
0
100
AcDbLine
 10
0.0435491377538142
 20
1.071664132322983
 30
0.0
 11
0.0421363324298874
 21
1.066840513225035
 31
0.0
  0
LINE
  5
B88
330
B63
100
AcDbEntity
  8
0
100
AcDbLine
 10
0.0421363324298874
 20
1.066840513225035
 30
0.0
 11
0.0398888837159746
 21
1.062698377601301
 31
0.0
  0
LINE
  5
B89
330
B63
100
AcDbEntity
  8
0
100
AcDbLine
 10
0.0398888837159746
 20
1.062698377601301
 30
0.0
 11
0.0369599515278374
 21
1.059520005149345
 31
0.0
  0
LINE
  5
B8A
330
B63
100
AcDbEntity
  8
0
100
AcDbLine
 10
0.0369599515278374
 20
1.059520005149345
 30
0.0
 11
0.0335491377538162
 21
1.057521996699251
 31
0.0
  0
LINE
  5
B8B
330
B63
100
AcDbEntity
  8
0
100
AcDbLine
 10
0.0335491377538162
 20
1.057521996699251
 30
0.0
 11
0.0298888837159694
 21
1.056840513225034
 31
0.0
  0
LINE
  5
B8C
330
B63
100
AcDbEntity
  8
0
100
AcDbLine
 10
0.5580958388324718
 20
1.108884718472816
 30
0.0
 11
0.5617560928703185
 21
1.108203234998595
 31
0.0
  0
LINE
  5
B8D
330
B63
100
AcDbEntity
  8
0
100
AcDbLine
 10
0.5617560928703185
 20
1.108203234998595
 30
0.0
 11
0.5651669066443361
 21
1.106205226548504
 31
0.0
  0
LINE
  5
B8E
330
B63
100
AcDbEntity
  8
0
100
AcDbLine
 10
0.5651669066443361
 20
1.106205226548504
 30
0.0
 11
0.5680958388324698
 21
1.103026854096545
 31
0.0
  0
LINE
  5
B8F
330
B63
100
AcDbEntity
  8
0
100
AcDbLine
 10
0.5680958388324698
 20
1.103026854096545
 30
0.0
 11
0.5703432875463861
 21
1.098884718472814
 31
0.0
  0
LINE
  5
B90
330
B63
100
AcDbEntity
  8
0
100
AcDbLine
 10
0.5703432875463861
 20
1.098884718472814
 30
0.0
 11
0.5717560928703165
 21
1.094061099374866
 31
0.0
  0
LINE
  5
B91
330
B63
100
AcDbEntity
  8
0
100
AcDbLine
 10
0.5717560928703165
 20
1.094061099374866
 30
0.0
 11
0.5722379744562041
 21
1.088884718472816
 31
0.0
  0
LINE
  5
B92
330
B63
100
AcDbEntity
  8
0
100
AcDbLine
 10
0.5722379744562041
 20
1.088884718472816
 30
0.0
 11
0.5717560928703165
 21
1.083708337570766
 31
0.0
  0
LINE
  5
B93
330
B63
100
AcDbEntity
  8
0
100
AcDbLine
 10
0.5717560928703165
 20
1.083708337570766
 30
0.0
 11
0.5703432875463861
 21
1.078884718472814
 31
0.0
  0
LINE
  5
B94
330
B63
100
AcDbEntity
  8
0
100
AcDbLine
 10
0.5703432875463861
 20
1.078884718472814
 30
0.0
 11
0.5680958388324698
 21
1.074742582849084
 31
0.0
  0
LINE
  5
B95
330
B63
100
AcDbEntity
  8
0
100
AcDbLine
 10
0.5680958388324698
 20
1.074742582849084
 30
0.0
 11
0.5651669066443361
 21
1.071564210397125
 31
0.0
  0
LINE
  5
B96
330
B63
100
AcDbEntity
  8
0
100
AcDbLine
 10
0.5651669066443361
 20
1.071564210397125
 30
0.0
 11
0.5617560928703185
 21
1.069566201947034
 31
0.0
  0
LINE
  5
B97
330
B63
100
AcDbEntity
  8
0
100
AcDbLine
 10
0.5617560928703185
 20
1.069566201947034
 30
0.0
 11
0.5580958388324718
 21
1.068884718472816
 31
0.0
  0
LINE
  5
B98
330
B63
100
AcDbEntity
  8
0
100
AcDbLine
 10
0.5510247710206074
 20
1.108884718472816
 30
0.0
 11
0.5546850250584541
 21
1.108203234998595
 31
0.0
  0
LINE
  5
B99
330
B63
100
AcDbEntity
  8
0
100
AcDbLine
 10
0.5546850250584541
 20
1.108203234998595
 30
0.0
 11
0.5580958388324718
 21
1.106205226548504
 31
0.0
  0
LINE
  5
B9A
330
B63
100
AcDbEntity
  8
0
100
AcDbLine
 10
0.5580958388324718
 20
1.106205226548504
 30
0.0
 11
0.5610247710206054
 21
1.103026854096545
 31
0.0
  0
LINE
  5
B9B
330
B63
100
AcDbEntity
  8
0
100
AcDbLine
 10
0.5610247710206054
 20
1.103026854096545
 30
0.0
 11
0.5632722197345217
 21
1.098884718472814
 31
0.0
  0
LINE
  5
B9C
330
B63
100
AcDbEntity
  8
0
100
AcDbLine
 10
0.5632722197345217
 20
1.098884718472814
 30
0.0
 11
0.5646850250584521
 21
1.094061099374866
 31
0.0
  0
LINE
  5
B9D
330
B63
100
AcDbEntity
  8
0
100
AcDbLine
 10
0.5646850250584521
 20
1.094061099374866
 30
0.0
 11
0.5651669066443397
 21
1.088884718472816
 31
0.0
  0
LINE
  5
B9E
330
B63
100
AcDbEntity
  8
0
100
AcDbLine
 10
0.5651669066443397
 20
1.088884718472816
 30
0.0
 11
0.5646850250584521
 21
1.083708337570766
 31
0.0
  0
LINE
  5
B9F
330
B63
100
AcDbEntity
  8
0
100
AcDbLine
 10
0.5646850250584521
 20
1.083708337570766
 30
0.0
 11
0.5632722197345217
 21
1.078884718472814
 31
0.0
  0
LINE
  5
BA0
330
B63
100
AcDbEntity
  8
0
100
AcDbLine
 10
0.5632722197345217
 20
1.078884718472814
 30
0.0
 11
0.5610247710206054
 21
1.074742582849084
 31
0.0
  0
LINE
  5
BA1
330
B63
100
AcDbEntity
  8
0
100
AcDbLine
 10
0.5610247710206054
 20
1.074742582849084
 30
0.0
 11
0.5580958388324718
 21
1.071564210397125
 31
0.0
  0
LINE
  5
BA2
330
B63
100
AcDbEntity
  8
0
100
AcDbLine
 10
0.5580958388324718
 20
1.071564210397125
 30
0.0
 11
0.5546850250584541
 21
1.069566201947034
 31
0.0
  0
LINE
  5
BA3
330
B63
100
AcDbEntity
  8
0
100
AcDbLine
 10
0.5546850250584541
 20
1.069566201947034
 30
0.0
 11
0.5510247710206074
 21
1.068884718472816
 31
0.0
  0
LINE
  5
BA4
330
B63
100
AcDbEntity
  8
0
100
AcDbLine
 10
0.5510247710206074
 20
1.068884718472816
 30
0.0
 11
0.5473645169827606
 21
1.069566201947034
 31
0.0
  0
LINE
  5
BA5
330
B63
100
AcDbEntity
  8
0
100
AcDbLine
 10
0.5473645169827606
 20
1.069566201947034
 30
0.0
 11
0.543953703208743
 21
1.071564210397125
 31
0.0
  0
LINE
  5
BA6
330
B63
100
AcDbEntity
  8
0
100
AcDbLine
 10
0.543953703208743
 20
1.071564210397125
 30
0.0
 11
0.5410247710206093
 21
1.074742582849084
 31
0.0
  0
LINE
  5
BA7
330
B63
100
AcDbEntity
  8
0
100
AcDbLine
 10
0.5410247710206093
 20
1.074742582849084
 30
0.0
 11
0.538777322306693
 21
1.078884718472814
 31
0.0
  0
LINE
  5
BA8
330
B63
100
AcDbEntity
  8
0
100
AcDbLine
 10
0.538777322306693
 20
1.078884718472814
 30
0.0
 11
0.5373645169827626
 21
1.083708337570766
 31
0.0
  0
LINE
  5
BA9
330
B63
100
AcDbEntity
  8
0
100
AcDbLine
 10
0.5373645169827626
 20
1.083708337570766
 30
0.0
 11
0.536882635396875
 21
1.088884718472816
 31
0.0
  0
LINE
  5
BAA
330
B63
100
AcDbEntity
  8
0
100
AcDbLine
 10
0.536882635396875
 20
1.088884718472816
 30
0.0
 11
0.5373645169827626
 21
1.094061099374866
 31
0.0
  0
LINE
  5
BAB
330
B63
100
AcDbEntity
  8
0
100
AcDbLine
 10
0.5373645169827626
 20
1.094061099374866
 30
0.0
 11
0.538777322306693
 21
1.098884718472814
 31
0.0
  0
LINE
  5
BAC
330
B63
100
AcDbEntity
  8
0
100
AcDbLine
 10
0.538777322306693
 20
1.098884718472814
 30
0.0
 11
0.5410247710206058
 21
1.103026854096545
 31
0.0
  0
LINE
  5
BAD
330
B63
100
AcDbEntity
  8
0
100
AcDbLine
 10
0.5410247710206058
 20
1.103026854096545
 30
0.0
 11
0.543953703208743
 21
1.106205226548504
 31
0.0
  0
LINE
  5
BAE
330
B63
100
AcDbEntity
  8
0
100
AcDbLine
 10
0.543953703208743
 20
1.106205226548504
 30
0.0
 11
0.5473645169827606
 21
1.108203234998595
 31
0.0
  0
LINE
  5
BAF
330
B63
100
AcDbEntity
  8
0
100
AcDbLine
 10
0.5473645169827606
 20
1.108203234998595
 30
0.0
 11
0.5510247710206074
 21
1.108884718472816
 31
0.0
  0
LINE
  5
BB0
330
B63
100
AcDbEntity
  8
0
100
AcDbLine
 10
0.5580958388324718
 20
1.108884718472816
 30
0.0
 11
0.5510247710206074
 21
1.108884718472816
 31
0.0
  0
LINE
  5
BB1
330
B63
100
AcDbEntity
  8
0
100
AcDbLine
 10
0.5580958388324718
 20
1.068884718472816
 30
0.0
 11
0.5510247710206074
 21
1.068884718472816
 31
0.0
  0
LINE
  5
BB2
330
B63
100
AcDbEntity
  8
0
100
AcDbLine
 10
0.5510247710206074
 20
0.0708847184728159
 30
0.0
 11
0.5546850250584541
 21
0.0702032349985951
 31
0.0
  0
LINE
  5
BB3
330
B63
100
AcDbEntity
  8
0
100
AcDbLine
 10
0.5546850250584541
 20
0.0702032349985951
 30
0.0
 11
0.5580958388324718
 21
0.0682052265485043
 31
0.0
  0
LINE
  5
BB4
330
B63
100
AcDbEntity
  8
0
100
AcDbLine
 10
0.5580958388324718
 20
0.0682052265485043
 30
0.0
 11
0.5610247710206054
 21
0.0650268540965451
 31
0.0
  0
LINE
  5
BB5
330
B63
100
AcDbEntity
  8
0
100
AcDbLine
 10
0.5610247710206054
 20
0.0650268540965451
 30
0.0
 11
0.5632722197345217
 21
0.0608847184728143
 31
0.0
  0
LINE
  5
BB6
330
B63
100
AcDbEntity
  8
0
100
AcDbLine
 10
0.5632722197345217
 20
0.0608847184728143
 30
0.0
 11
0.5646850250584521
 21
0.0560610993748663
 31
0.0
  0
LINE
  5
BB7
330
B63
100
AcDbEntity
  8
0
100
AcDbLine
 10
0.5646850250584521
 20
0.0560610993748663
 30
0.0
 11
0.5651669066443397
 21
0.0508847184728163
 31
0.0
  0
LINE
  5
BB8
330
B63
100
AcDbEntity
  8
0
100
AcDbLine
 10
0.5651669066443397
 20
0.0508847184728163
 30
0.0
 11
0.5646850250584521
 21
0.0457083375707663
 31
0.0
  0
LINE
  5
BB9
330
B63
100
AcDbEntity
  8
0
100
AcDbLine
 10
0.5646850250584521
 20
0.0457083375707663
 30
0.0
 11
0.5632722197345217
 21
0.0408847184728147
 31
0.0
  0
LINE
  5
BBA
330
B63
100
AcDbEntity
  8
0
100
AcDbLine
 10
0.5632722197345217
 20
0.0408847184728147
 30
0.0
 11
0.5610247710206054
 21
0.036742582849084
 31
0.0
  0
LINE
  5
BBB
330
B63
100
AcDbEntity
  8
0
100
AcDbLine
 10
0.5610247710206054
 20
0.036742582849084
 30
0.0
 11
0.5580958388324718
 21
0.0335642103971248
 31
0.0
  0
LINE
  5
BBC
330
B63
100
AcDbEntity
  8
0
100
AcDbLine
 10
0.5580958388324718
 20
0.0335642103971248
 30
0.0
 11
0.5546850250584541
 21
0.031566201947034
 31
0.0
  0
LINE
  5
BBD
330
B63
100
AcDbEntity
  8
0
100
AcDbLine
 10
0.5546850250584541
 20
0.031566201947034
 30
0.0
 11
0.5510247710206074
 21
0.0308847184728132
 31
0.0
  0
LINE
  5
BBE
330
B63
100
AcDbEntity
  8
0
100
AcDbLine
 10
0.5510247710206074
 20
0.0308847184728132
 30
0.0
 11
0.5473645169827642
 21
0.031566201947034
 31
0.0
  0
LINE
  5
BBF
330
B63
100
AcDbEntity
  8
0
100
AcDbLine
 10
0.5473645169827642
 20
0.031566201947034
 30
0.0
 11
0.543953703208743
 21
0.0335642103971248
 31
0.0
  0
LINE
  5
BC0
330
B63
100
AcDbEntity
  8
0
100
AcDbLine
 10
0.543953703208743
 20
0.0335642103971248
 30
0.0
 11
0.5410247710206093
 21
0.036742582849084
 31
0.0
  0
LINE
  5
BC1
330
B63
100
AcDbEntity
  8
0
100
AcDbLine
 10
0.5410247710206093
 20
0.036742582849084
 30
0.0
 11
0.538777322306693
 21
0.0408847184728147
 31
0.0
  0
LINE
  5
BC2
330
B63
100
AcDbEntity
  8
0
100
AcDbLine
 10
0.538777322306693
 20
0.0408847184728147
 30
0.0
 11
0.5373645169827626
 21
0.0457083375707663
 31
0.0
  0
LINE
  5
BC3
330
B63
100
AcDbEntity
  8
0
100
AcDbLine
 10
0.5373645169827626
 20
0.0457083375707663
 30
0.0
 11
0.536882635396875
 21
0.0508847184728163
 31
0.0
  0
LINE
  5
BC4
330
B63
100
AcDbEntity
  8
0
100
AcDbLine
 10
0.536882635396875
 20
0.0508847184728163
 30
0.0
 11
0.5373645169827626
 21
0.0560610993748663
 31
0.0
  0
LINE
  5
BC5
330
B63
100
AcDbEntity
  8
0
100
AcDbLine
 10
0.5373645169827626
 20
0.0560610993748663
 30
0.0
 11
0.538777322306693
 21
0.0608847184728143
 31
0.0
  0
LINE
  5
BC6
330
B63
100
AcDbEntity
  8
0
100
AcDbLine
 10
0.538777322306693
 20
0.0608847184728143
 30
0.0
 11
0.5410247710206093
 21
0.0650268540965451
 31
0.0
  0
LINE
  5
BC7
330
B63
100
AcDbEntity
  8
0
100
AcDbLine
 10
0.5410247710206093
 20
0.0650268540965451
 30
0.0
 11
0.543953703208743
 21
0.0682052265485043
 31
0.0
  0
LINE
  5
BC8
330
B63
100
AcDbEntity
  8
0
100
AcDbLine
 10
0.543953703208743
 20
0.0682052265485043
 30
0.0
 11
0.5473645169827642
 21
0.0702032349985951
 31
0.0
  0
LINE
  5
BC9
330
B63
100
AcDbEntity
  8
0
100
AcDbLine
 10
0.5473645169827642
 20
0.0702032349985951
 30
0.0
 11
0.5510247710206074
 21
0.0708847184728159
 31
0.0
  0
LINE
  5
BCA
330
B63
100
AcDbEntity
  8
0
100
AcDbLine
 10
0.5580958388324718
 20
0.0708847184728159
 30
0.0
 11
0.5510247710206074
 21
0.0708847184728159
 31
0.0
  0
LINE
  5
BCB
330
B63
100
AcDbEntity
  8
0
100
AcDbLine
 10
0.5580958388324718
 20
0.0308847184728132
 30
0.0
 11
0.5510247710206074
 21
0.0308847184728132
 31
0.0
  0
LINE
  5
BCC
330
B63
100
AcDbEntity
  8
0
100
AcDbLine
 10
0.0228178159041086
 20
0.0728405132250361
 30
0.0
 11
0.0264780699419518
 21
0.0721590297508152
 31
0.0
  0
LINE
  5
BCD
330
B63
100
AcDbEntity
  8
0
100
AcDbLine
 10
0.0264780699419518
 20
0.0721590297508152
 30
0.0
 11
0.029888883715973
 21
0.0701610213007244
 31
0.0
  0
LINE
  5
BCE
330
B63
100
AcDbEntity
  8
0
100
AcDbLine
 10
0.029888883715973
 20
0.0701610213007244
 30
0.0
 11
0.0328178159041102
 21
0.0669826488487653
 31
0.0
  0
LINE
  5
BCF
330
B63
100
AcDbEntity
  8
0
100
AcDbLine
 10
0.0328178159041102
 20
0.0669826488487653
 30
0.0
 11
0.0350652646180265
 21
0.0628405132250345
 31
0.0
  0
LINE
  5
BD0
330
B63
100
AcDbEntity
  8
0
100
AcDbLine
 10
0.0350652646180265
 20
0.0628405132250345
 30
0.0
 11
0.0364780699419534
 21
0.0580168941270865
 31
0.0
  0
LINE
  5
BD1
330
B63
100
AcDbEntity
  8
0
100
AcDbLine
 10
0.0364780699419534
 20
0.0580168941270865
 30
0.0
 11
0.0369599515278409
 21
0.0528405132250365
 31
0.0
  0
LINE
  5
BD2
330
B63
100
AcDbEntity
  8
0
100
AcDbLine
 10
0.0369599515278409
 20
0.0528405132250365
 30
0.0
 11
0.0364780699419534
 21
0.0476641323229865
 31
0.0
  0
LINE
  5
BD3
330
B63
100
AcDbEntity
  8
0
100
AcDbLine
 10
0.0364780699419534
 20
0.0476641323229865
 30
0.0
 11
0.0350652646180265
 21
0.0428405132250349
 31
0.0
  0
LINE
  5
BD4
330
B63
100
AcDbEntity
  8
0
100
AcDbLine
 10
0.0350652646180265
 20
0.0428405132250349
 30
0.0
 11
0.0328178159041102
 21
0.0386983776013041
 31
0.0
  0
LINE
  5
BD5
330
B63
100
AcDbEntity
  8
0
100
AcDbLine
 10
0.0328178159041102
 20
0.0386983776013041
 30
0.0
 11
0.029888883715973
 21
0.035520005149345
 31
0.0
  0
LINE
  5
BD6
330
B63
100
AcDbEntity
  8
0
100
AcDbLine
 10
0.029888883715973
 20
0.035520005149345
 30
0.0
 11
0.0264780699419518
 21
0.0335219966992542
 31
0.0
  0
LINE
  5
BD7
330
B63
100
AcDbEntity
  8
0
100
AcDbLine
 10
0.0264780699419518
 20
0.0335219966992542
 30
0.0
 11
0.0228178159041086
 21
0.0328405132250334
 31
0.0
  0
LINE
  5
BD8
330
B63
100
AcDbEntity
  8
0
100
AcDbLine
 10
0.0228178159041086
 20
0.0328405132250334
 30
0.0
 11
0.0191575618662654
 21
0.0335219966992542
 31
0.0
  0
LINE
  5
BD9
330
B63
100
AcDbEntity
  8
0
100
AcDbLine
 10
0.0191575618662654
 20
0.0335219966992542
 30
0.0
 11
0.0157467480922478
 21
0.035520005149345
 31
0.0
  0
LINE
  5
BDA
330
B63
100
AcDbEntity
  8
0
100
AcDbLine
 10
0.0157467480922478
 20
0.035520005149345
 30
0.0
 11
0.0128178159041106
 21
0.0386983776013041
 31
0.0
  0
LINE
  5
BDB
330
B63
100
AcDbEntity
  8
0
100
AcDbLine
 10
0.0128178159041106
 20
0.0386983776013041
 30
0.0
 11
0.0105703671901907
 21
0.0428405132250349
 31
0.0
  0
LINE
  5
BDC
330
B63
100
AcDbEntity
  8
0
100
AcDbLine
 10
0.0105703671901907
 20
0.0428405132250349
 30
0.0
 11
0.0091575618662603
 21
0.0476641323229865
 31
0.0
  0
LINE
  5
BDD
330
B63
100
AcDbEntity
  8
0
100
AcDbLine
 10
0.0091575618662603
 20
0.0476641323229865
 30
0.0
 11
0.0086756802803762
 21
0.0528405132250365
 31
0.0
  0
LINE
  5
BDE
330
B63
100
AcDbEntity
  8
0
100
AcDbLine
 10
0.0086756802803762
 20
0.0528405132250365
 30
0.0
 11
0.0091575618662603
 21
0.0580168941270865
 31
0.0
  0
LINE
  5
BDF
330
B63
100
AcDbEntity
  8
0
100
AcDbLine
 10
0.0091575618662603
 20
0.0580168941270865
 30
0.0
 11
0.0105703671901907
 21
0.0628405132250345
 31
0.0
  0
LINE
  5
BE0
330
B63
100
AcDbEntity
  8
0
100
AcDbLine
 10
0.0105703671901907
 20
0.0628405132250345
 30
0.0
 11
0.012817815904107
 21
0.0669826488487653
 31
0.0
  0
LINE
  5
BE1
330
B63
100
AcDbEntity
  8
0
100
AcDbLine
 10
0.012817815904107
 20
0.0669826488487653
 30
0.0
 11
0.0157467480922478
 21
0.0701610213007244
 31
0.0
  0
LINE
  5
BE2
330
B63
100
AcDbEntity
  8
0
100
AcDbLine
 10
0.0157467480922478
 20
0.0701610213007244
 30
0.0
 11
0.0191575618662654
 21
0.0721590297508152
 31
0.0
  0
LINE
  5
BE3
330
B63
100
AcDbEntity
  8
0
100
AcDbLine
 10
0.0191575618662654
 20
0.0721590297508152
 30
0.0
 11
0.0228178159041086
 21
0.0728405132250361
 31
0.0
  0
LINE
  5
BE4
330
B63
100
AcDbEntity
  8
0
100
AcDbLine
 10
0.029888883715973
 20
0.0728405132250361
 30
0.0
 11
0.0228178159041086
 21
0.0728405132250361
 31
0.0
  0
LINE
  5
BE5
330
B63
100
AcDbEntity
  8
0
100
AcDbLine
 10
0.029888883715973
 20
0.0328405132250334
 30
0.0
 11
0.0228178159041086
 21
0.0328405132250334
 31
0.0
  0
LINE
  5
BE6
330
B63
100
AcDbEntity
  8
0
100
AcDbLine
 10
0.0228178159041086
 20
1.096840513225033
 30
0.0
 11
0.0264780699419518
 21
1.096159029750816
 31
0.0
  0
LINE
  5
BE7
330
B63
100
AcDbEntity
  8
0
100
AcDbLine
 10
0.0264780699419518
 20
1.096159029750816
 30
0.0
 11
0.029888883715973
 21
1.094161021300721
 31
0.0
  0
LINE
  5
BE8
330
B63
100
AcDbEntity
  8
0
100
AcDbLine
 10
0.029888883715973
 20
1.094161021300721
 30
0.0
 11
0.0328178159041102
 21
1.090982648848766
 31
0.0
  0
LINE
  5
BE9
330
B63
100
AcDbEntity
  8
0
100
AcDbLine
 10
0.0328178159041102
 20
1.090982648848766
 30
0.0
 11
0.035065264618023
 21
1.086840513225035
 31
0.0
  0
LINE
  5
BEA
330
B63
100
AcDbEntity
  8
0
100
AcDbLine
 10
0.035065264618023
 20
1.086840513225035
 30
0.0
 11
0.0364780699419498
 21
1.082016894127083
 31
0.0
  0
LINE
  5
BEB
330
B63
100
AcDbEntity
  8
0
100
AcDbLine
 10
0.0364780699419498
 20
1.082016894127083
 30
0.0
 11
0.0369599515278409
 21
1.076840513225033
 31
0.0
  0
LINE
  5
BEC
330
B63
100
AcDbEntity
  8
0
100
AcDbLine
 10
0.0369599515278409
 20
1.076840513225033
 30
0.0
 11
0.0364780699419498
 21
1.071664132322983
 31
0.0
  0
LINE
  5
BED
330
B63
100
AcDbEntity
  8
0
100
AcDbLine
 10
0.0364780699419498
 20
1.071664132322983
 30
0.0
 11
0.035065264618023
 21
1.066840513225035
 31
0.0
  0
LINE
  5
BEE
330
B63
100
AcDbEntity
  8
0
100
AcDbLine
 10
0.035065264618023
 20
1.066840513225035
 30
0.0
 11
0.0328178159041102
 21
1.062698377601301
 31
0.0
  0
LINE
  5
BEF
330
B63
100
AcDbEntity
  8
0
100
AcDbLine
 10
0.0328178159041102
 20
1.062698377601301
 30
0.0
 11
0.029888883715973
 21
1.059520005149345
 31
0.0
  0
LINE
  5
BF0
330
B63
100
AcDbEntity
  8
0
100
AcDbLine
 10
0.029888883715973
 20
1.059520005149345
 30
0.0
 11
0.0264780699419518
 21
1.057521996699251
 31
0.0
  0
LINE
  5
BF1
330
B63
100
AcDbEntity
  8
0
100
AcDbLine
 10
0.0264780699419518
 20
1.057521996699251
 30
0.0
 11
0.0228178159041086
 21
1.056840513225034
 31
0.0
  0
LINE
  5
BF2
330
B63
100
AcDbEntity
  8
0
100
AcDbLine
 10
0.0228178159041086
 20
1.056840513225034
 30
0.0
 11
0.0191575618662618
 21
1.057521996699251
 31
0.0
  0
LINE
  5
BF3
330
B63
100
AcDbEntity
  8
0
100
AcDbLine
 10
0.0191575618662618
 20
1.057521996699251
 30
0.0
 11
0.0157467480922407
 21
1.059520005149345
 31
0.0
  0
LINE
  5
BF4
330
B63
100
AcDbEntity
  8
0
100
AcDbLine
 10
0.0157467480922407
 20
1.059520005149345
 30
0.0
 11
0.012817815904107
 21
1.062698377601301
 31
0.0
  0
LINE
  5
BF5
330
B63
100
AcDbEntity
  8
0
100
AcDbLine
 10
0.012817815904107
 20
1.062698377601301
 30
0.0
 11
0.0105703671901871
 21
1.066840513225032
 31
0.0
  0
LINE
  5
BF6
330
B63
100
AcDbEntity
  8
0
100
AcDbLine
 10
0.0105703671901871
 20
1.066840513225032
 30
0.0
 11
0.0091575618662603
 21
1.071664132322983
 31
0.0
  0
LINE
  5
BF7
330
B63
100
AcDbEntity
  8
0
100
AcDbLine
 10
0.0091575618662603
 20
1.071664132322983
 30
0.0
 11
0.0086756802803762
 21
1.076840513225033
 31
0.0
  0
LINE
  5
BF8
330
B63
100
AcDbEntity
  8
0
100
AcDbLine
 10
0.0086756802803762
 20
1.076840513225033
 30
0.0
 11
0.0091575618662603
 21
1.082016894127083
 31
0.0
  0
LINE
  5
BF9
330
B63
100
AcDbEntity
  8
0
100
AcDbLine
 10
0.0091575618662603
 20
1.082016894127083
 30
0.0
 11
0.0105703671901871
 21
1.086840513225035
 31
0.0
  0
LINE
  5
BFA
330
B63
100
AcDbEntity
  8
0
100
AcDbLine
 10
0.0105703671901871
 20
1.086840513225035
 30
0.0
 11
0.012817815904107
 21
1.090982648848766
 31
0.0
  0
LINE
  5
BFB
330
B63
100
AcDbEntity
  8
0
100
AcDbLine
 10
0.012817815904107
 20
1.090982648848766
 30
0.0
 11
0.0157467480922442
 21
1.094161021300721
 31
0.0
  0
LINE
  5
BFC
330
B63
100
AcDbEntity
  8
0
100
AcDbLine
 10
0.0157467480922442
 20
1.094161021300721
 30
0.0
 11
0.0191575618662618
 21
1.096159029750816
 31
0.0
  0
LINE
  5
BFD
330
B63
100
AcDbEntity
  8
0
100
AcDbLine
 10
0.0191575618662618
 20
1.096159029750816
 30
0.0
 11
0.0228178159041086
 21
1.096840513225033
 31
0.0
  0
LINE
  5
BFE
330
B63
100
AcDbEntity
  8
0
100
AcDbLine
 10
0.0298888837159694
 20
1.096840513225033
 30
0.0
 11
0.0228178159041086
 21
1.096840513225033
 31
0.0
  0
LINE
  5
BFF
330
B63
100
AcDbEntity
  8
0
100
AcDbLine
 10
0.0298888837159694
 20
1.056840513225034
 30
0.0
 11
0.0228178159041086
 21
1.056840513225034
 31
0.0
  0
LINE
  5
C00
330
B63
100
AcDbEntity
  8
0
100
AcDbLine
 10
0.6581305747246873
 20
0.0708847184728123
 30
0.0
 11
0.6545793962571694
 21
0.0702032349985951
 31
0.0
  0
LINE
  5
C01
330
B63
100
AcDbEntity
  8
0
100
AcDbLine
 10
0.6545793962571694
 20
0.0702032349985951
 30
0.0
 11
0.6512702247336151
 21
0.0682052265485007
 31
0.0
  0
LINE
  5
C02
330
B63
100
AcDbEntity
  8
0
100
AcDbLine
 10
0.6512702247336151
 20
0.0682052265485007
 30
0.0
 11
0.6484285747246901
 21
0.0650268540965451
 31
0.0
  0
LINE
  5
C03
330
B63
100
AcDbEntity
  8
0
100
AcDbLine
 10
0.6484285747246901
 20
0.0650268540965451
 30
0.0
 11
0.6462480999824436
 21
0.0608847184728143
 31
0.0
  0
LINE
  5
C04
330
B63
100
AcDbEntity
  8
0
100
AcDbLine
 10
0.6462480999824436
 20
0.0608847184728143
 30
0.0
 11
0.6448773962571686
 21
0.0560610993748627
 31
0.0
  0
LINE
  5
C05
330
B63
100
AcDbEntity
  8
0
100
AcDbLine
 10
0.6448773962571686
 20
0.0560610993748627
 30
0.0
 11
0.6444098747425429
 21
0.0508847184728127
 31
0.0
  0
LINE
  5
C06
330
B63
100
AcDbEntity
  8
0
100
AcDbLine
 10
0.6444098747425429
 20
0.0508847184728127
 30
0.0
 11
0.6448773962571686
 21
0.0457083375707628
 31
0.0
  0
LINE
  5
C07
330
B63
100
AcDbEntity
  8
0
100
AcDbLine
 10
0.6448773962571686
 20
0.0457083375707628
 30
0.0
 11
0.6462480999824436
 21
0.0408847184728147
 31
0.0
  0
LINE
  5
C08
330
B63
100
AcDbEntity
  8
0
100
AcDbLine
 10
0.6462480999824436
 20
0.0408847184728147
 30
0.0
 11
0.6484285747246901
 21
0.0367425828490804
 31
0.0
  0
LINE
  5
C09
330
B63
100
AcDbEntity
  8
0
100
AcDbLine
 10
0.6484285747246901
 20
0.0367425828490804
 30
0.0
 11
0.6512702247336151
 21
0.0335642103971248
 31
0.0
  0
LINE
  5
C0A
330
B63
100
AcDbEntity
  8
0
100
AcDbLine
 10
0.6512702247336151
 20
0.0335642103971248
 30
0.0
 11
0.6545793962571694
 21
0.0315662019470304
 31
0.0
  0
LINE
  5
C0B
330
B63
100
AcDbEntity
  8
0
100
AcDbLine
 10
0.6545793962571694
 20
0.0315662019470304
 30
0.0
 11
0.6581305747246873
 21
0.0308847184728132
 31
0.0
  0
LINE
  5
C0C
330
B63
100
AcDbEntity
  8
0
100
AcDbLine
 10
1.170596962578713
 20
0.0728405132250325
 30
0.0
 11
1.167045784111195
 21
0.0721590297508152
 31
0.0
  0
LINE
  5
C0D
330
B63
100
AcDbEntity
  8
0
100
AcDbLine
 10
1.160894962578712
 20
0.0669826488487653
 30
0.0
 11
1.158714487836473
 21
0.0628405132250345
 31
0.0
  0
LINE
  5
C0E
330
B63
100
AcDbEntity
  8
0
100
AcDbLine
 10
1.167045784111195
 20
0.0335219966992506
 30
0.0
 11
1.170596962578713
 21
0.0328405132250334
 31
0.0
  0
LINE
  5
C0F
330
B63
100
AcDbEntity
  8
0
100
AcDbLine
 10
1.167045784111195
 20
0.0721590297508152
 30
0.0
 11
1.163736612587641
 21
0.0701610213007209
 31
0.0
  0
LINE
  5
C10
330
B63
100
AcDbEntity
  8
0
100
AcDbLine
 10
1.163736612587641
 20
0.0701610213007209
 30
0.0
 11
1.160894962578712
 21
0.0669826488487653
 31
0.0
  0
LINE
  5
C11
330
B63
100
AcDbEntity
  8
0
100
AcDbLine
 10
1.158714487836473
 20
0.0628405132250345
 30
0.0
 11
1.157343784111198
 21
0.0580168941270829
 31
0.0
  0
LINE
  5
C12
330
B63
100
AcDbEntity
  8
0
100
AcDbLine
 10
1.157343784111198
 20
0.0580168941270829
 30
0.0
 11
1.156876262596568
 21
0.0528405132250329
 31
0.0
  0
LINE
  5
C13
330
B63
100
AcDbEntity
  8
0
100
AcDbLine
 10
1.156876262596568
 20
0.0528405132250329
 30
0.0
 11
1.157343784111198
 21
0.047664132322983
 31
0.0
  0
LINE
  5
C14
330
B63
100
AcDbEntity
  8
0
100
AcDbLine
 10
1.157343784111198
 20
0.047664132322983
 30
0.0
 11
1.158714487836473
 21
0.0428405132250349
 31
0.0
  0
LINE
  5
C15
330
B63
100
AcDbEntity
  8
0
100
AcDbLine
 10
1.158714487836473
 20
0.0428405132250349
 30
0.0
 11
1.160894962578712
 21
0.0386983776013006
 31
0.0
  0
LINE
  5
C16
330
B63
100
AcDbEntity
  8
0
100
AcDbLine
 10
1.160894962578712
 20
0.0386983776013006
 30
0.0
 11
1.163736612587641
 21
0.035520005149345
 31
0.0
  0
LINE
  5
C17
330
B63
100
AcDbEntity
  8
0
100
AcDbLine
 10
1.163736612587641
 20
0.035520005149345
 30
0.0
 11
1.167045784111195
 21
0.0335219966992506
 31
0.0
  0
LINE
  5
C18
330
B63
100
AcDbEntity
  8
0
100
AcDbLine
 10
1.170596962578716
 20
1.096840513225033
 30
0.0
 11
1.167045784111202
 21
1.096159029750812
 31
0.0
  0
LINE
  5
C19
330
B63
100
AcDbEntity
  8
0
100
AcDbLine
 10
1.167045784111202
 20
1.096159029750812
 30
0.0
 11
1.163736612587644
 21
1.094161021300721
 31
0.0
  0
LINE
  5
C1A
330
B63
100
AcDbEntity
  8
0
100
AcDbLine
 10
1.163736612587644
 20
1.094161021300721
 30
0.0
 11
1.160894962578716
 21
1.090982648848762
 31
0.0
  0
LINE
  5
C1B
330
B63
100
AcDbEntity
  8
0
100
AcDbLine
 10
1.160894962578716
 20
1.090982648848762
 30
0.0
 11
1.158714487836476
 21
1.086840513225035
 31
0.0
  0
LINE
  5
C1C
330
B63
100
AcDbEntity
  8
0
100
AcDbLine
 10
1.158714487836476
 20
1.086840513225035
 30
0.0
 11
1.157343784111198
 21
1.082016894127083
 31
0.0
  0
LINE
  5
C1D
330
B63
100
AcDbEntity
  8
0
100
AcDbLine
 10
1.157343784111198
 20
1.082016894127083
 30
0.0
 11
1.156876262596568
 21
1.076840513225033
 31
0.0
  0
LINE
  5
C1E
330
B63
100
AcDbEntity
  8
0
100
AcDbLine
 10
1.156876262596568
 20
1.076840513225033
 30
0.0
 11
1.157343784111198
 21
1.071664132322983
 31
0.0
  0
LINE
  5
C1F
330
B63
100
AcDbEntity
  8
0
100
AcDbLine
 10
1.157343784111198
 20
1.071664132322983
 30
0.0
 11
1.158714487836476
 21
1.066840513225032
 31
0.0
  0
LINE
  5
C20
330
B63
100
AcDbEntity
  8
0
100
AcDbLine
 10
1.158714487836476
 20
1.066840513225032
 30
0.0
 11
1.160894962578716
 21
1.062698377601301
 31
0.0
  0
LINE
  5
C21
330
B63
100
AcDbEntity
  8
0
100
AcDbLine
 10
1.160894962578716
 20
1.062698377601301
 30
0.0
 11
1.163736612587644
 21
1.059520005149342
 31
0.0
  0
LINE
  5
C22
330
B63
100
AcDbEntity
  8
0
100
AcDbLine
 10
1.163736612587644
 20
1.059520005149342
 30
0.0
 11
1.167045784111202
 21
1.057521996699251
 31
0.0
  0
LINE
  5
C23
330
B63
100
AcDbEntity
  8
0
100
AcDbLine
 10
1.167045784111202
 20
1.057521996699251
 30
0.0
 11
1.170596962578716
 21
1.056840513225034
 31
0.0
  0
LINE
  5
C24
330
B63
100
AcDbEntity
  8
0
100
AcDbLine
 10
0.6581305747246873
 20
1.108884718472812
 30
0.0
 11
0.6545793962571694
 21
1.108203234998595
 31
0.0
  0
LINE
  5
C25
330
B63
100
AcDbEntity
  8
0
100
AcDbLine
 10
0.6545793962571694
 20
1.108203234998595
 30
0.0
 11
0.6512702247336187
 21
1.106205226548504
 31
0.0
  0
LINE
  5
C26
330
B63
100
AcDbEntity
  8
0
100
AcDbLine
 10
0.6512702247336187
 20
1.106205226548504
 30
0.0
 11
0.6484285747246901
 21
1.103026854096545
 31
0.0
  0
LINE
  5
C27
330
B63
100
AcDbEntity
  8
0
100
AcDbLine
 10
0.6484285747246901
 20
1.103026854096545
 30
0.0
 11
0.6462480999824472
 21
1.098884718472814
 31
0.0
  0
LINE
  5
C28
330
B63
100
AcDbEntity
  8
0
100
AcDbLine
 10
0.6462480999824472
 20
1.098884718472814
 30
0.0
 11
0.6448773962571721
 21
1.094061099374862
 31
0.0
  0
LINE
  5
C29
330
B63
100
AcDbEntity
  8
0
100
AcDbLine
 10
0.6448773962571721
 20
1.094061099374862
 30
0.0
 11
0.6444098747425429
 21
1.088884718472812
 31
0.0
  0
LINE
  5
C2A
330
B63
100
AcDbEntity
  8
0
100
AcDbLine
 10
0.6444098747425429
 20
1.088884718472812
 30
0.0
 11
0.6448773962571721
 21
1.083708337570763
 31
0.0
  0
LINE
  5
C2B
330
B63
100
AcDbEntity
  8
0
100
AcDbLine
 10
0.6448773962571721
 20
1.083708337570763
 30
0.0
 11
0.6462480999824472
 21
1.078884718472814
 31
0.0
  0
LINE
  5
C2C
330
B63
100
AcDbEntity
  8
0
100
AcDbLine
 10
0.6462480999824472
 20
1.078884718472814
 30
0.0
 11
0.6484285747246901
 21
1.074742582849084
 31
0.0
  0
LINE
  5
C2D
330
B63
100
AcDbEntity
  8
0
100
AcDbLine
 10
0.6484285747246901
 20
1.074742582849084
 30
0.0
 11
0.6512702247336187
 21
1.071564210397125
 31
0.0
  0
LINE
  5
C2E
330
B63
100
AcDbEntity
  8
0
100
AcDbLine
 10
0.6512702247336187
 20
1.071564210397125
 30
0.0
 11
0.6545793962571694
 21
1.069566201947034
 31
0.0
  0
LINE
  5
C2F
330
B63
100
AcDbEntity
  8
0
100
AcDbLine
 10
0.6545793962571694
 20
1.069566201947034
 30
0.0
 11
0.6581305747246873
 21
1.068884718472813
 31
0.0
  0
LINE
  5
C30
330
B63
100
AcDbEntity
  8
0
100
AcDbLine
 10
0.6649909247157595
 20
1.108884718472812
 30
0.0
 11
0.6614397462482416
 21
1.108203234998595
 31
0.0
  0
LINE
  5
C31
330
B63
100
AcDbEntity
  8
0
100
AcDbLine
 10
0.6614397462482416
 20
1.108203234998595
 30
0.0
 11
0.6581305747246909
 21
1.106205226548504
 31
0.0
  0
LINE
  5
C32
330
B63
100
AcDbEntity
  8
0
100
AcDbLine
 10
0.6581305747246909
 20
1.106205226548504
 30
0.0
 11
0.6552889247157588
 21
1.103026854096545
 31
0.0
  0
LINE
  5
C33
330
B63
100
AcDbEntity
  8
0
100
AcDbLine
 10
0.6552889247157588
 20
1.103026854096545
 30
0.0
 11
0.6531084499735158
 21
1.098884718472814
 31
0.0
  0
LINE
  5
C34
330
B63
100
AcDbEntity
  8
0
100
AcDbLine
 10
0.6531084499735158
 20
1.098884718472814
 30
0.0
 11
0.6517377462482408
 21
1.094061099374862
 31
0.0
  0
LINE
  5
C35
330
B63
100
AcDbEntity
  8
0
100
AcDbLine
 10
0.6517377462482408
 20
1.094061099374862
 30
0.0
 11
0.6512702247336151
 21
1.088884718472812
 31
0.0
  0
LINE
  5
C36
330
B63
100
AcDbEntity
  8
0
100
AcDbLine
 10
0.6512702247336151
 20
1.088884718472812
 30
0.0
 11
0.6517377462482408
 21
1.083708337570763
 31
0.0
  0
LINE
  5
C37
330
B63
100
AcDbEntity
  8
0
100
AcDbLine
 10
0.6517377462482408
 20
1.083708337570763
 30
0.0
 11
0.6531084499735158
 21
1.078884718472814
 31
0.0
  0
LINE
  5
C38
330
B63
100
AcDbEntity
  8
0
100
AcDbLine
 10
0.6531084499735158
 20
1.078884718472814
 30
0.0
 11
0.6552889247157588
 21
1.074742582849084
 31
0.0
  0
LINE
  5
C39
330
B63
100
AcDbEntity
  8
0
100
AcDbLine
 10
0.6552889247157588
 20
1.074742582849084
 30
0.0
 11
0.6581305747246909
 21
1.071564210397125
 31
0.0
  0
LINE
  5
C3A
330
B63
100
AcDbEntity
  8
0
100
AcDbLine
 10
0.6581305747246909
 20
1.071564210397125
 30
0.0
 11
0.6614397462482416
 21
1.069566201947034
 31
0.0
  0
LINE
  5
C3B
330
B63
100
AcDbEntity
  8
0
100
AcDbLine
 10
0.6614397462482416
 20
1.069566201947034
 30
0.0
 11
0.6649909247157595
 21
1.068884718472813
 31
0.0
  0
LINE
  5
C3C
330
B63
100
AcDbEntity
  8
0
100
AcDbLine
 10
0.6649909247157595
 20
1.068884718472813
 30
0.0
 11
0.6685421031832775
 21
1.069566201947034
 31
0.0
  0
LINE
  5
C3D
330
B63
100
AcDbEntity
  8
0
100
AcDbLine
 10
0.6685421031832775
 20
1.069566201947034
 30
0.0
 11
0.6718512747068282
 21
1.071564210397125
 31
0.0
  0
LINE
  5
C3E
330
B63
100
AcDbEntity
  8
0
100
AcDbLine
 10
0.6718512747068282
 20
1.071564210397125
 30
0.0
 11
0.6746929247157567
 21
1.074742582849084
 31
0.0
  0
LINE
  5
C3F
330
B63
100
AcDbEntity
  8
0
100
AcDbLine
 10
0.6746929247157567
 20
1.074742582849084
 30
0.0
 11
0.6768733994579997
 21
1.078884718472814
 31
0.0
  0
LINE
  5
C40
330
B63
100
AcDbEntity
  8
0
100
AcDbLine
 10
0.6768733994579997
 20
1.078884718472814
 30
0.0
 11
0.6782441031832783
 21
1.083708337570763
 31
0.0
  0
LINE
  5
C41
330
B63
100
AcDbEntity
  8
0
100
AcDbLine
 10
0.6782441031832783
 20
1.083708337570763
 30
0.0
 11
0.678711624697904
 21
1.088884718472812
 31
0.0
  0
LINE
  5
C42
330
B63
100
AcDbEntity
  8
0
100
AcDbLine
 10
0.678711624697904
 20
1.088884718472812
 30
0.0
 11
0.6782441031832783
 21
1.094061099374862
 31
0.0
  0
LINE
  5
C43
330
B63
100
AcDbEntity
  8
0
100
AcDbLine
 10
0.6782441031832783
 20
1.094061099374862
 30
0.0
 11
0.6768733994579997
 21
1.098884718472814
 31
0.0
  0
LINE
  5
C44
330
B63
100
AcDbEntity
  8
0
100
AcDbLine
 10
0.6768733994579997
 20
1.098884718472814
 30
0.0
 11
0.6746929247157603
 21
1.103026854096545
 31
0.0
  0
LINE
  5
C45
330
B63
100
AcDbEntity
  8
0
100
AcDbLine
 10
0.6746929247157603
 20
1.103026854096545
 30
0.0
 11
0.6718512747068282
 21
1.106205226548504
 31
0.0
  0
LINE
  5
C46
330
B63
100
AcDbEntity
  8
0
100
AcDbLine
 10
0.6718512747068282
 20
1.106205226548504
 30
0.0
 11
0.6685421031832775
 21
1.108203234998595
 31
0.0
  0
LINE
  5
C47
330
B63
100
AcDbEntity
  8
0
100
AcDbLine
 10
0.6685421031832775
 20
1.108203234998595
 30
0.0
 11
0.6649909247157595
 21
1.108884718472812
 31
0.0
  0
LINE
  5
C48
330
B63
100
AcDbEntity
  8
0
100
AcDbLine
 10
0.6581305747246873
 20
1.108884718472812
 30
0.0
 11
0.6649909247157595
 21
1.108884718472812
 31
0.0
  0
LINE
  5
C49
330
B63
100
AcDbEntity
  8
0
100
AcDbLine
 10
0.6581305747246873
 20
1.068884718472813
 30
0.0
 11
0.6649909247157595
 21
1.068884718472813
 31
0.0
  0
LINE
  5
C4A
330
B63
100
AcDbEntity
  8
0
100
AcDbLine
 10
0.6649909247157595
 20
0.0708847184728123
 30
0.0
 11
0.6614397462482416
 21
0.0702032349985951
 31
0.0
  0
LINE
  5
C4B
330
B63
100
AcDbEntity
  8
0
100
AcDbLine
 10
0.6614397462482416
 20
0.0702032349985951
 30
0.0
 11
0.6581305747246873
 21
0.0682052265485007
 31
0.0
  0
LINE
  5
C4C
330
B63
100
AcDbEntity
  8
0
100
AcDbLine
 10
0.6581305747246873
 20
0.0682052265485007
 30
0.0
 11
0.6552889247157588
 21
0.0650268540965451
 31
0.0
  0
LINE
  5
C4D
330
B63
100
AcDbEntity
  8
0
100
AcDbLine
 10
0.6552889247157588
 20
0.0650268540965451
 30
0.0
 11
0.6531084499735158
 21
0.0608847184728143
 31
0.0
  0
LINE
  5
C4E
330
B63
100
AcDbEntity
  8
0
100
AcDbLine
 10
0.6531084499735158
 20
0.0608847184728143
 30
0.0
 11
0.6517377462482408
 21
0.0560610993748627
 31
0.0
  0
LINE
  5
C4F
330
B63
100
AcDbEntity
  8
0
100
AcDbLine
 10
0.6517377462482408
 20
0.0560610993748627
 30
0.0
 11
0.6512702247336151
 21
0.0508847184728127
 31
0.0
  0
LINE
  5
C50
330
B63
100
AcDbEntity
  8
0
100
AcDbLine
 10
0.6512702247336151
 20
0.0508847184728127
 30
0.0
 11
0.6517377462482408
 21
0.0457083375707628
 31
0.0
  0
LINE
  5
C51
330
B63
100
AcDbEntity
  8
0
100
AcDbLine
 10
0.6517377462482408
 20
0.0457083375707628
 30
0.0
 11
0.6531084499735158
 21
0.0408847184728147
 31
0.0
  0
LINE
  5
C52
330
B63
100
AcDbEntity
  8
0
100
AcDbLine
 10
0.6531084499735158
 20
0.0408847184728147
 30
0.0
 11
0.6552889247157588
 21
0.0367425828490804
 31
0.0
  0
LINE
  5
C53
330
B63
100
AcDbEntity
  8
0
100
AcDbLine
 10
0.6552889247157588
 20
0.0367425828490804
 30
0.0
 11
0.6581305747246873
 21
0.0335642103971248
 31
0.0
  0
LINE
  5
C54
330
B63
100
AcDbEntity
  8
0
100
AcDbLine
 10
0.6581305747246873
 20
0.0335642103971248
 30
0.0
 11
0.6614397462482416
 21
0.0315662019470304
 31
0.0
  0
LINE
  5
C55
330
B63
100
AcDbEntity
  8
0
100
AcDbLine
 10
0.6614397462482416
 20
0.0315662019470304
 30
0.0
 11
0.6649909247157595
 21
0.0308847184728132
 31
0.0
  0
LINE
  5
C56
330
B63
100
AcDbEntity
  8
0
100
AcDbLine
 10
0.6649909247157595
 20
0.0308847184728132
 30
0.0
 11
0.6685421031832739
 21
0.0315662019470304
 31
0.0
  0
LINE
  5
C57
330
B63
100
AcDbEntity
  8
0
100
AcDbLine
 10
0.6685421031832739
 20
0.0315662019470304
 30
0.0
 11
0.6718512747068246
 21
0.0335642103971248
 31
0.0
  0
LINE
  5
C58
330
B63
100
AcDbEntity
  8
0
100
AcDbLine
 10
0.6718512747068246
 20
0.0335642103971248
 30
0.0
 11
0.6746929247157567
 21
0.0367425828490804
 31
0.0
  0
LINE
  5
C59
330
B63
100
AcDbEntity
  8
0
100
AcDbLine
 10
0.6746929247157567
 20
0.0367425828490804
 30
0.0
 11
0.6768733994579997
 21
0.0408847184728112
 31
0.0
  0
LINE
  5
C5A
330
B63
100
AcDbEntity
  8
0
100
AcDbLine
 10
0.6768733994579997
 20
0.0408847184728112
 30
0.0
 11
0.6782441031832747
 21
0.0457083375707628
 31
0.0
  0
LINE
  5
C5B
330
B63
100
AcDbEntity
  8
0
100
AcDbLine
 10
0.6782441031832747
 20
0.0457083375707628
 30
0.0
 11
0.678711624697904
 21
0.0508847184728127
 31
0.0
  0
LINE
  5
C5C
330
B63
100
AcDbEntity
  8
0
100
AcDbLine
 10
0.678711624697904
 20
0.0508847184728127
 30
0.0
 11
0.6782441031832747
 21
0.0560610993748627
 31
0.0
  0
LINE
  5
C5D
330
B63
100
AcDbEntity
  8
0
100
AcDbLine
 10
0.6782441031832747
 20
0.0560610993748627
 30
0.0
 11
0.6768733994579997
 21
0.0608847184728143
 31
0.0
  0
LINE
  5
C5E
330
B63
100
AcDbEntity
  8
0
100
AcDbLine
 10
0.6768733994579997
 20
0.0608847184728143
 30
0.0
 11
0.6746929247157567
 21
0.0650268540965451
 31
0.0
  0
LINE
  5
C5F
330
B63
100
AcDbEntity
  8
0
100
AcDbLine
 10
0.6746929247157567
 20
0.0650268540965451
 30
0.0
 11
0.6718512747068246
 21
0.0682052265485007
 31
0.0
  0
LINE
  5
C60
330
B63
100
AcDbEntity
  8
0
100
AcDbLine
 10
0.6718512747068246
 20
0.0682052265485007
 30
0.0
 11
0.6685421031832739
 21
0.0702032349985951
 31
0.0
  0
LINE
  5
C61
330
B63
100
AcDbEntity
  8
0
100
AcDbLine
 10
0.6685421031832739
 20
0.0702032349985951
 30
0.0
 11
0.6649909247157595
 21
0.0708847184728123
 31
0.0
  0
LINE
  5
C62
330
B63
100
AcDbEntity
  8
0
100
AcDbLine
 10
0.6581305747246873
 20
0.0708847184728123
 30
0.0
 11
0.6649909247157595
 21
0.0708847184728123
 31
0.0
  0
LINE
  5
C63
330
B63
100
AcDbEntity
  8
0
100
AcDbLine
 10
0.6581305747246873
 20
0.0308847184728132
 30
0.0
 11
0.6649909247157595
 21
0.0308847184728132
 31
0.0
  0
LINE
  5
C64
330
B63
100
AcDbEntity
  8
0
100
AcDbLine
 10
1.177457312569785
 20
0.0728405132250325
 30
0.0
 11
1.173906134102267
 21
0.0721590297508152
 31
0.0
  0
LINE
  5
C65
330
B63
100
AcDbEntity
  8
0
100
AcDbLine
 10
1.173906134102267
 20
0.0721590297508152
 30
0.0
 11
1.170596962578713
 21
0.0701610213007209
 31
0.0
  0
LINE
  5
C66
330
B63
100
AcDbEntity
  8
0
100
AcDbLine
 10
1.170596962578713
 20
0.0701610213007209
 30
0.0
 11
1.167755312569784
 21
0.0669826488487653
 31
0.0
  0
LINE
  5
C67
330
B63
100
AcDbEntity
  8
0
100
AcDbLine
 10
1.167755312569784
 20
0.0669826488487653
 30
0.0
 11
1.165574837827541
 21
0.0628405132250345
 31
0.0
  0
LINE
  5
C68
330
B63
100
AcDbEntity
  8
0
100
AcDbLine
 10
1.165574837827541
 20
0.0628405132250345
 30
0.0
 11
1.16420413410227
 21
0.0580168941270829
 31
0.0
  0
LINE
  5
C69
330
B63
100
AcDbEntity
  8
0
100
AcDbLine
 10
1.16420413410227
 20
0.0580168941270829
 30
0.0
 11
1.163736612587641
 21
0.0528405132250329
 31
0.0
  0
LINE
  5
C6A
330
B63
100
AcDbEntity
  8
0
100
AcDbLine
 10
1.163736612587641
 20
0.0528405132250329
 30
0.0
 11
1.16420413410227
 21
0.047664132322983
 31
0.0
  0
LINE
  5
C6B
330
B63
100
AcDbEntity
  8
0
100
AcDbLine
 10
1.16420413410227
 20
0.047664132322983
 30
0.0
 11
1.165574837827541
 21
0.0428405132250349
 31
0.0
  0
LINE
  5
C6C
330
B63
100
AcDbEntity
  8
0
100
AcDbLine
 10
1.165574837827541
 20
0.0428405132250349
 30
0.0
 11
1.167755312569784
 21
0.0386983776013006
 31
0.0
  0
LINE
  5
C6D
330
B63
100
AcDbEntity
  8
0
100
AcDbLine
 10
1.167755312569784
 20
0.0386983776013006
 30
0.0
 11
1.170596962578713
 21
0.035520005149345
 31
0.0
  0
LINE
  5
C6E
330
B63
100
AcDbEntity
  8
0
100
AcDbLine
 10
1.170596962578713
 20
0.035520005149345
 30
0.0
 11
1.173906134102267
 21
0.0335219966992506
 31
0.0
  0
LINE
  5
C6F
330
B63
100
AcDbEntity
  8
0
100
AcDbLine
 10
1.173906134102267
 20
0.0335219966992506
 30
0.0
 11
1.177457312569785
 21
0.0328405132250334
 31
0.0
  0
LINE
  5
C70
330
B63
100
AcDbEntity
  8
0
100
AcDbLine
 10
1.177457312569785
 20
0.0328405132250334
 30
0.0
 11
1.181008491037303
 21
0.0335219966992506
 31
0.0
  0
LINE
  5
C71
330
B63
100
AcDbEntity
  8
0
100
AcDbLine
 10
1.181008491037303
 20
0.0335219966992506
 30
0.0
 11
1.184317662560854
 21
0.035520005149345
 31
0.0
  0
LINE
  5
C72
330
B63
100
AcDbEntity
  8
0
100
AcDbLine
 10
1.184317662560854
 20
0.035520005149345
 30
0.0
 11
1.187159312569782
 21
0.0386983776013006
 31
0.0
  0
LINE
  5
C73
330
B63
100
AcDbEntity
  8
0
100
AcDbLine
 10
1.187159312569782
 20
0.0386983776013006
 30
0.0
 11
1.189339787312029
 21
0.0428405132250314
 31
0.0
  0
LINE
  5
C74
330
B63
100
AcDbEntity
  8
0
100
AcDbLine
 10
1.189339787312029
 20
0.0428405132250314
 30
0.0
 11
1.190710491037307
 21
0.047664132322983
 31
0.0
  0
LINE
  5
C75
330
B63
100
AcDbEntity
  8
0
100
AcDbLine
 10
1.190710491037307
 20
0.047664132322983
 30
0.0
 11
1.19117801255193
 21
0.0528405132250329
 31
0.0
  0
LINE
  5
C76
330
B63
100
AcDbEntity
  8
0
100
AcDbLine
 10
1.19117801255193
 20
0.0528405132250329
 30
0.0
 11
1.190710491037307
 21
0.0580168941270829
 31
0.0
  0
LINE
  5
C77
330
B63
100
AcDbEntity
  8
0
100
AcDbLine
 10
1.190710491037307
 20
0.0580168941270829
 30
0.0
 11
1.189339787312029
 21
0.0628405132250309
 31
0.0
  0
LINE
  5
C78
330
B63
100
AcDbEntity
  8
0
100
AcDbLine
 10
1.189339787312029
 20
0.0628405132250309
 30
0.0
 11
1.187159312569789
 21
0.0669826488487653
 31
0.0
  0
LINE
  5
C79
330
B63
100
AcDbEntity
  8
0
100
AcDbLine
 10
1.187159312569789
 20
0.0669826488487653
 30
0.0
 11
1.184317662560854
 21
0.0701610213007209
 31
0.0
  0
LINE
  5
C7A
330
B63
100
AcDbEntity
  8
0
100
AcDbLine
 10
1.184317662560854
 20
0.0701610213007209
 30
0.0
 11
1.181008491037303
 21
0.0721590297508152
 31
0.0
  0
LINE
  5
C7B
330
B63
100
AcDbEntity
  8
0
100
AcDbLine
 10
1.181008491037303
 20
0.0721590297508152
 30
0.0
 11
1.177457312569785
 21
0.0728405132250325
 31
0.0
  0
LINE
  5
C7C
330
B63
100
AcDbEntity
  8
0
100
AcDbLine
 10
1.170596962578713
 20
0.0728405132250325
 30
0.0
 11
1.177457312569785
 21
0.0728405132250325
 31
0.0
  0
LINE
  5
C7D
330
B63
100
AcDbEntity
  8
0
100
AcDbLine
 10
1.170596962578713
 20
0.0328405132250334
 30
0.0
 11
1.177457312569785
 21
0.0328405132250334
 31
0.0
  0
LINE
  5
C7E
330
B63
100
AcDbEntity
  8
0
100
AcDbLine
 10
1.177457312569785
 20
1.096840513225033
 30
0.0
 11
1.173906134102271
 21
1.096159029750812
 31
0.0
  0
LINE
  5
C7F
330
B63
100
AcDbEntity
  8
0
100
AcDbLine
 10
1.173906134102271
 20
1.096159029750812
 30
0.0
 11
1.170596962578716
 21
1.094161021300721
 31
0.0
  0
LINE
  5
C80
330
B63
100
AcDbEntity
  8
0
100
AcDbLine
 10
1.170596962578716
 20
1.094161021300721
 30
0.0
 11
1.167755312569788
 21
1.090982648848762
 31
0.0
  0
LINE
  5
C81
330
B63
100
AcDbEntity
  8
0
100
AcDbLine
 10
1.167755312569788
 20
1.090982648848762
 30
0.0
 11
1.165574837827545
 21
1.086840513225035
 31
0.0
  0
LINE
  5
C82
330
B63
100
AcDbEntity
  8
0
100
AcDbLine
 10
1.165574837827545
 20
1.086840513225035
 30
0.0
 11
1.16420413410227
 21
1.082016894127083
 31
0.0
  0
LINE
  5
C83
330
B63
100
AcDbEntity
  8
0
100
AcDbLine
 10
1.16420413410227
 20
1.082016894127083
 30
0.0
 11
1.163736612587641
 21
1.076840513225033
 31
0.0
  0
LINE
  5
C84
330
B63
100
AcDbEntity
  8
0
100
AcDbLine
 10
1.163736612587641
 20
1.076840513225033
 30
0.0
 11
1.16420413410227
 21
1.071664132322983
 31
0.0
  0
LINE
  5
C85
330
B63
100
AcDbEntity
  8
0
100
AcDbLine
 10
1.16420413410227
 20
1.071664132322983
 30
0.0
 11
1.165574837827545
 21
1.066840513225032
 31
0.0
  0
LINE
  5
C86
330
B63
100
AcDbEntity
  8
0
100
AcDbLine
 10
1.165574837827545
 20
1.066840513225032
 30
0.0
 11
1.167755312569788
 21
1.062698377601301
 31
0.0
  0
LINE
  5
C87
330
B63
100
AcDbEntity
  8
0
100
AcDbLine
 10
1.167755312569788
 20
1.062698377601301
 30
0.0
 11
1.170596962578716
 21
1.059520005149342
 31
0.0
  0
LINE
  5
C88
330
B63
100
AcDbEntity
  8
0
100
AcDbLine
 10
1.170596962578716
 20
1.059520005149342
 30
0.0
 11
1.173906134102271
 21
1.057521996699251
 31
0.0
  0
LINE
  5
C89
330
B63
100
AcDbEntity
  8
0
100
AcDbLine
 10
1.173906134102271
 20
1.057521996699251
 30
0.0
 11
1.177457312569785
 21
1.056840513225034
 31
0.0
  0
LINE
  5
C8A
330
B63
100
AcDbEntity
  8
0
100
AcDbLine
 10
1.177457312569785
 20
1.056840513225034
 30
0.0
 11
1.181008491037303
 21
1.057521996699251
 31
0.0
  0
LINE
  5
C8B
330
B63
100
AcDbEntity
  8
0
100
AcDbLine
 10
1.181008491037303
 20
1.057521996699251
 30
0.0
 11
1.184317662560857
 21
1.059520005149342
 31
0.0
  0
LINE
  5
C8C
330
B63
100
AcDbEntity
  8
0
100
AcDbLine
 10
1.184317662560857
 20
1.059520005149342
 30
0.0
 11
1.187159312569786
 21
1.062698377601301
 31
0.0
  0
LINE
  5
C8D
330
B63
100
AcDbEntity
  8
0
100
AcDbLine
 10
1.187159312569786
 20
1.062698377601301
 30
0.0
 11
1.189339787312029
 21
1.066840513225032
 31
0.0
  0
LINE
  5
C8E
330
B63
100
AcDbEntity
  8
0
100
AcDbLine
 10
1.189339787312029
 20
1.066840513225032
 30
0.0
 11
1.190710491037307
 21
1.071664132322983
 31
0.0
  0
LINE
  5
C8F
330
B63
100
AcDbEntity
  8
0
100
AcDbLine
 10
1.190710491037307
 20
1.071664132322983
 30
0.0
 11
1.191178012551933
 21
1.076840513225033
 31
0.0
  0
LINE
  5
C90
330
B63
100
AcDbEntity
  8
0
100
AcDbLine
 10
1.191178012551933
 20
1.076840513225033
 30
0.0
 11
1.190710491037307
 21
1.082016894127083
 31
0.0
  0
LINE
  5
C91
330
B63
100
AcDbEntity
  8
0
100
AcDbLine
 10
1.190710491037307
 20
1.082016894127083
 30
0.0
 11
1.189339787312029
 21
1.086840513225031
 31
0.0
  0
LINE
  5
C92
330
B63
100
AcDbEntity
  8
0
100
AcDbLine
 10
1.189339787312029
 20
1.086840513225031
 30
0.0
 11
1.187159312569789
 21
1.090982648848762
 31
0.0
  0
LINE
  5
C93
330
B63
100
AcDbEntity
  8
0
100
AcDbLine
 10
1.187159312569789
 20
1.090982648848762
 30
0.0
 11
1.184317662560857
 21
1.094161021300721
 31
0.0
  0
LINE
  5
C94
330
B63
100
AcDbEntity
  8
0
100
AcDbLine
 10
1.184317662560857
 20
1.094161021300721
 30
0.0
 11
1.181008491037303
 21
1.096159029750812
 31
0.0
  0
LINE
  5
C95
330
B63
100
AcDbEntity
  8
0
100
AcDbLine
 10
1.181008491037303
 20
1.096159029750812
 30
0.0
 11
1.177457312569785
 21
1.096840513225033
 31
0.0
  0
LINE
  5
C96
330
B63
100
AcDbEntity
  8
0
100
AcDbLine
 10
1.170596962578716
 20
1.096840513225033
 30
0.0
 11
1.177457312569785
 21
1.096840513225033
 31
0.0
  0
LINE
  5
C97
330
B63
100
AcDbEntity
  8
0
100
AcDbLine
 10
1.170596962578716
 20
1.056840513225034
 30
0.0
 11
1.177457312569785
 21
1.056840513225034
 31
0.0
  0
LINE
  5
C98
330
B63
100
AcDbEntity
  8
0
100
AcDbLine
 10
0.619315910838072
 20
1.141284268272706
 30
0.0
 11
0.602136068942528
 21
1.141284268272706
 31
0.0
  0
LINE
  5
C99
330
B63
100
AcDbEntity
  8
0
100
AcDbLine
 10
-0.000000027930259
 20
1.141284268272706
 30
0.0
 11
-0.000000027930259
 21
0.9795658920594272
 31
0.0
  0
LINE
  5
C9A
330
B63
100
AcDbEntity
  8
0
100
AcDbLine
 10
0.6193159108380684
 20
0.0012842682727063
 30
0.0
 11
0.6008327546430579
 21
0.0012842682727028
 31
0.0
  0
LINE
  5
C9B
330
B63
100
AcDbEntity
  8
0
100
AcDbLine
 10
0.6406069369158942
 20
0.0012842682727028
 30
0.0
 11
0.6193159108380684
 21
0.0012842682727063
 31
0.0
  0
LINE
  5
C9C
330
B63
100
AcDbEntity
  8
0
100
AcDbLine
 10
1.199595184657887
 20
1.141284268272706
 30
0.0
 11
1.199595184657887
 21
0.6119043039360515
 31
0.0
  0
LINE
  5
C9D
330
B63
100
AcDbEntity
  8
0
100
AcDbLine
 10
0.0238678673169162
 20
0.0012842682727063
 30
0.0
 11
0.5935421533105405
 21
0.0012842682727063
 31
0.0
  0
LINE
  5
C9E
330
B63
100
AcDbEntity
  8
0
100
AcDbLine
 10
0.5935421533105405
 20
0.0012842682727063
 30
0.0
 11
0.5981027074024752
 21
0.0012842682727063
 31
0.0
  0
LINE
  5
C9F
330
B63
100
AcDbEntity
  8
0
100
AcDbLine
 10
-0.000000027930259
 20
0.9795658920594272
 30
0.0
 11
-0.000000027930259
 21
0.9424760407529406
 31
0.0
  0
LINE
  5
CA0
330
B63
100
AcDbEntity
  8
0
100
AcDbLine
 10
0.5981027074024752
 20
1.141284268272706
 30
0.0
 11
0.593542153310537
 21
1.141284268272706
 31
0.0
  0
LINE
  5
CA1
330
B63
100
AcDbEntity
  8
0
100
AcDbLine
 10
0.593542153310537
 20
1.141284268272706
 30
0.0
 11
0.0238678673169233
 21
1.141284268272706
 31
0.0
  0
LINE
  5
CA2
330
B63
100
AcDbEntity
  8
0
100
AcDbLine
 10
0.6510560611211354
 20
1.141284268272706
 30
0.0
 11
1.176438552689067
 21
1.141284268272706
 31
0.0
  0
LINE
  5
CA3
330
B63
100
AcDbEntity
  8
0
100
AcDbLine
 10
0.6478975382484187
 20
0.0012842682727028
 30
0.0
 11
0.6406069369158942
 21
0.0012842682727028
 31
0.0
  0
LINE
  5
CA4
330
B63
100
AcDbEntity
  8
0
100
AcDbLine
 10
1.199595184657887
 20
0.6119043039360515
 30
0.0
 11
1.199595184657887
 21
0.5919043039360519
 31
0.0
  0
LINE
  5
CA5
330
B63
100
AcDbEntity
  8
0
100
AcDbLine
 10
1.199595184657887
 20
0.5919043039360519
 30
0.0
 11
1.199595184657891
 21
0.0012842682727063
 31
0.0
  0
LINE
  5
CA6
330
B63
100
AcDbEntity
  8
0
100
AcDbLine
 10
0.619315910838072
 20
1.141284268272706
 30
0.0
 11
0.6393036226164242
 21
1.141284268272706
 31
0.0
  0
LINE
  5
CA7
330
B63
100
AcDbEntity
  8
0
100
AcDbLine
 10
0.6510560611211318
 20
0.0012842682727028
 30
0.0
 11
0.6478975382484187
 21
0.0012842682727028
 31
0.0
  0
LINE
  5
CA8
330
B63
100
AcDbEntity
  8
0
100
AcDbLine
 10
0.6393036226164242
 20
1.141284268272706
 30
0.0
 11
0.6478975382484152
 21
1.141284268272706
 31
0.0
  0
LINE
  5
CA9
330
B63
100
AcDbEntity
  8
0
100
AcDbLine
 10
0.6478975382484152
 20
1.141284268272706
 30
0.0
 11
0.6510560611211354
 21
1.141284268272706
 31
0.0
  0
LINE
  5
CAA
330
B63
100
AcDbEntity
  8
0
100
AcDbLine
 10
-0.000000027930259
 20
0.9424760407529406
 30
0.0
 11
-0.000000027930259
 21
0.9127326949117255
 31
0.0
  0
LINE
  5
CAB
330
B63
100
AcDbEntity
  8
0
100
AcDbLine
 10
1.176438552689077
 20
0.0012842682727063
 30
0.0
 11
0.6510560611211318
 21
0.0012842682727028
 31
0.0
  0
LINE
  5
CAC
330
B63
100
AcDbEntity
  8
0
100
AcDbLine
 10
-0.000000027930259
 20
0.9127326949117255
 30
0.0
 11
-0.000000027930259
 21
0.877604367832327
 31
0.0
  0
LINE
  5
CAD
330
B63
100
AcDbEntity
  8
0
100
AcDbLine
 10
-0.000000027930259
 20
0.877604367832327
 30
0.0
 11
-0.000000027930259
 21
0.8756428436052177
 31
0.0
  0
LINE
  5
CAE
330
B63
100
AcDbEntity
  8
0
100
AcDbLine
 10
-0.000000027930259
 20
0.8756428436052177
 30
0.0
 11
-0.0000000279302625
 21
0.2795658920594279
 31
0.0
  0
LINE
  5
CAF
330
B63
100
AcDbEntity
  8
0
100
AcDbLine
 10
-0.0000000279302625
 20
0.1756428436052184
 30
0.0
 11
-0.0000000279302625
 21
0.0012842682727063
 31
0.0
  0
LINE
  5
CB0
330
B63
100
AcDbEntity
  8
0
100
AcDbLine
 10
-0.0000000279302625
 20
0.0012842682727063
 30
0.0
 11
0.0238678673169162
 21
0.0012842682727063
 31
0.0
  0
LINE
  5
CB1
330
B63
100
AcDbEntity
  8
0
100
AcDbLine
 10
-0.000000027930259
 20
1.141284268272706
 30
0.0
 11
0.0238678673169233
 21
1.141284268272706
 31
0.0
  0
LINE
  5
CB2
330
B63
100
AcDbEntity
  8
0
100
AcDbLine
 10
0.602136068942528
 20
1.141284268272706
 30
0.0
 11
0.5981027074024752
 21
1.141284268272706
 31
0.0
  0
LINE
  5
CB3
330
B63
100
AcDbEntity
  8
0
100
AcDbLine
 10
1.199595184657887
 20
1.141284268272706
 30
0.0
 11
1.176438552689067
 21
1.141284268272706
 31
0.0
  0
LINE
  5
CB4
330
B63
100
AcDbEntity
  8
0
100
AcDbLine
 10
1.199595184657891
 20
0.0012842682727063
 30
0.0
 11
1.176438552689077
 21
0.0012842682727063
 31
0.0
  0
LINE
  5
CB5
330
B63
100
AcDbEntity
  8
0
100
AcDbLine
 10
0.6008327546430579
 20
0.0012842682727028
 30
0.0
 11
0.5981027074024752
 21
0.0012842682727063
 31
0.0
  0
LINE
  5
CB6
330
B63
100
AcDbEntity
  8
0
100
AcDbLine
 10
-0.0000000279302554
 20
0.177461984419641
 30
0.0
 11
-0.0000000279302554
 21
0.2145518357261276
 31
0.0
  0
LINE
  5
CB7
330
B63
100
AcDbEntity
  8
0
100
AcDbLine
 10
-0.0000000279302554
 20
0.2145518357261276
 30
0.0
 11
-0.0000000279302554
 21
0.2442951815673426
 31
0.0
  0
LINE
  5
CB8
330
B63
100
AcDbEntity
  8
0
100
AcDbLine
 10
-0.0000000279302554
 20
0.2442951815673426
 30
0.0
 11
-0.0000000279302554
 21
0.2794235086467411
 31
0.0
  0
LINE
  5
CB9
330
B63
100
AcDbEntity
  8
0
100
AcDbLine
 10
-0.0000000279302554
 20
0.2794235086467411
 30
0.0
 11
-0.0000000279302554
 21
0.2813850328738505
 31
0.0
  0
ENDBLK
  5
CBD
330
B63
100
AcDbEntity
  8
0
100
AcDbBlockEnd
  0
BLOCK
  5
1167
330
115A
100
AcDbEntity
  8
0
100
AcDbBlockBegin
  2
A$C7305598A
 70
     0
 10
0.0
 20
0.0
 30
0.0
  3
A$C7305598A
  1

  0
LINE
  5
115B
330
115A
100
AcDbEntity
  8
0
100
AcDbLine
 10
0.6444246643894811
 20
0.1999999997088952
 30
0.0
 11
0.0747503783958674
 21
0.1999999997088952
 31
0.0
  0
LINE
  5
115C
330
115A
100
AcDbEntity
  8
0
100
AcDbLine
 10
0.7019385722000795
 20
0.1999999997088952
 30
0.0
 11
1.227321063768011
 21
0.1999999997088952
 31
0.0
  0
LINE
  5
115D
330
115A
100
AcDbEntity
  8
0
100
AcDbLine
 10
0.0508824831486852
 20
0.1999999997088952
 30
0.0
 11
0.0747503783958674
 21
0.1999999997088952
 31
0.0
  0
LINE
  5
115E
330
115A
100
AcDbEntity
  8
0
100
AcDbLine
 10
1.250477695736831
 20
0.1999999997088952
 30
0.0
 11
1.227321063768011
 21
0.1999999997088952
 31
0.0
  0
LINE
  5
115F
330
115A
100
AcDbEntity
  8
0
100
AcDbLine
 10
0.6701984219170161
 20
0.0999999997088956
 30
0.0
 11
1.250477695736832
 21
0.0999999997088868
 31
0.0
  0
ARC
  5
1160
330
115A
100
AcDbEntity
  8
0
100
AcDbCircle
 10
1.25135253165827
 20
0.149999999708891
 30
0.0
 40
0.0500076527932462
100
AcDbArc
 50
268.9976141588701
 51
91.00238584113085
  0
ARC
  5
1161
330
115A
100
AcDbEntity
  8
0
100
AcDbCircle
 10
1.251352531658301
 20
0.0499999997088816
 30
0.0
 40
0.0500076527932462
100
AcDbArc
 50
268.9976141588701
 51
91.00238584113091
  0
LINE
  5
1162
330
115A
100
AcDbEntity
  8
0
100
AcDbLine
 10
0.6311617569685329
 20
0.099999999708877
 30
0.0
 11
0.0508824831487163
 21
0.0999999997088859
 31
0.0
  0
ARC
  5
1163
330
115A
100
AcDbEntity
  8
0
100
AcDbCircle
 10
0.0500076472272788
 20
0.0499999997088816
 30
0.0
 40
0.0500076527932462
100
AcDbArc
 50
88.99761415887006
 51
271.0023858411308
  0
ARC
  5
1164
330
115A
100
AcDbEntity
  8
0
100
AcDbCircle
 10
0.0500076472272477
 20
0.149999999708891
 30
0.0
 40
0.0500076527932462
100
AcDbArc
 50
88.99761415887006
 51
271.0023858411308
  0
ENDBLK
  5
1168
330
115A
100
AcDbEntity
  8
0
100
AcDbBlockEnd
  0
BLOCK
  5
11B2
330
11A6
100
AcDbEntity
  8
0
100
AcDbBlockBegin
  2
A$C43E158E6
 70
     0
 10
0.0
 20
0.0
 30
0.0
  3
A$C43E158E6
  1

  0
LINE
  5
11A7
330
11A6
100
AcDbEntity
  8
0
100
AcDbLine
 10
0.6444246643894811
 20
0.0999999917373078
 30
0.0
 11
0.0747503783958674
 21
0.0999999917373078
 31
0.0
  0
LINE
  5
11A8
330
11A6
100
AcDbEntity
  8
0
100
AcDbLine
 10
0.7019385722000795
 20
0.0999999917373078
 30
0.0
 11
1.227321063768011
 21
0.0999999917373078
 31
0.0
  0
LINE
  5
11A9
330
11A6
100
AcDbEntity
  8
0
100
AcDbLine
 10
0.6701984219170161
 20
0.0999999917373078
 30
0.0
 11
0.6901861336953683
 21
0.0999999917373078
 31
0.0
  0
LINE
  5
11AA
330
11A6
100
AcDbEntity
  8
0
100
AcDbLine
 10
0.6901861336953683
 20
0.0999999917373078
 30
0.0
 11
0.6987800493273593
 21
0.0999999917373078
 31
0.0
  0
LINE
  5
11AB
330
11A6
100
AcDbEntity
  8
0
100
AcDbLine
 10
0.6987800493273593
 20
0.0999999917373078
 30
0.0
 11
0.7019385722000795
 21
0.0999999917373078
 31
0.0
  0
LINE
  5
11AC
330
11A6
100
AcDbEntity
  8
0
100
AcDbLine
 10
0.0508824831486852
 20
0.0999999917373078
 30
0.0
 11
0.0747503783958674
 21
0.0999999917373078
 31
0.0
  0
LINE
  5
11AD
330
11A6
100
AcDbEntity
  8
0
100
AcDbLine
 10
1.250477695736831
 20
0.0999999917373078
 30
0.0
 11
1.227321063768011
 21
0.0999999917373078
 31
0.0
  0
ARC
  5
11AE
330
11A6
100
AcDbEntity
  8
0
100
AcDbCircle
 10
1.25135253165827
 20
0.0499999917373035
 30
0.0
 40
0.0500076527932462
100
AcDbArc
 50
268.9976141588701
 51
91.00238584113085
  0
ARC
  5
11AF
330
11A6
100
AcDbEntity
  8
0
100
AcDbCircle
 10
0.0500076472272477
 20
0.0499999917373035
 30
0.0
 40
0.0500076527932462
100
AcDbArc
 50
88.99761415887006
 51
271.0023858411308
  0
ENDBLK
  5
11B3
330
11A6
100
AcDbEntity
  8
0
100
AcDbBlockEnd
  0
BLOCK
  5
1576
330
1572
100
AcDbEntity
  8
0
100
AcDbBlockBegin
  2
A$C657421BC
 70
     0
 10
0.0
 20
0.0
 30
0.0
  3
A$C657421BC
  1

  0
LINE
  5
1573
330
1572
100
AcDbEntity
  8
0
100
AcDbLine
 10
0.0000000212848281
 20
0.0
 30
0.0
 11
0.8600000212848861
 21
-0.0000000000000053
 31
0.0
  0
ENDBLK
  5
1577
330
1572
100
AcDbEntity
  8
0
100
AcDbBlockEnd
  0
BLOCK
  5
15A4
330
15A3
100
AcDbEntity
  8
0
100
AcDbBlockBegin
  2
*D5
 70
     1
 10
0.0
 20
0.0
 30
0.0
  3
*D5
  1

  0
LINE
  5
15B6
330
15A3
100
AcDbEntity
  8
WYMIAR
370
    -2
100
AcDbLine
 10
1.470493284909879
 20
9.799407011657182
 30
0.0
 11
1.470493284909878
 21
2.199037534596854
 31
0.0
  0
INSERT
  5
15B7
330
15A3
100
AcDbEntity
  8
WYMIAR
370
    -2
100
AcDbBlockReference
  2
MAR-STRZ
 10
1.470493284909879
 20
9.859407011657182
 30
0.0
 41
0.06
 42
0.06
 43
0.06
 50
90.0
  0
INSERT
  5
15B8
330
15A3
100
AcDbEntity
  8
WYMIAR
370
    -2
100
AcDbBlockReference
  2
MAR-STRZ
 10
1.470493284909878
 20
2.139037534596853
 30
0.0
 41
0.06
 42
0.06
 43
0.06
 50
270.0
  0
MTEXT
  5
15B9
330
15A3
100
AcDbEntity
  8
WYMIAR
100
AcDbMText
 10
1.258214064130657
 20
5.999222273127018
 30
0.0
 40
0.18
 41
0.0
 71
     5
 72
     1
  1
\A1;7.70
  7
AR 01 SWIS
 11
0.0000000000000001
 21
1.0
 31
0.0
 73
     1
 44
1.0
  0
POINT
  5
15BA
330
15A3
100
AcDbEntity
  8
Defpoints
 62
     0
100
AcDbPoint
 10
2.356374271305101
 20
9.859407011657182
 30
0.0
  0
POINT
  5
15BB
330
15A3
100
AcDbEntity
  8
Defpoints
 62
     0
100
AcDbPoint
 10
2.356374271305101
 20
2.139037534596853
 30
0.0
  0
POINT
  5
15BC
330
15A3
100
AcDbEntity
  8
Defpoints
 62
     0
100
AcDbPoint
 10
1.470493284909878
 20
2.139037534596853
 30
0.0
  0
ENDBLK
  5
15A5
330
15A3
100
AcDbEntity
  8
0
100
AcDbBlockEnd
  0
BLOCK
  5
15BF
330
15BE
100
AcDbEntity
  8
0
100
AcDbBlockBegin
  2
*D6
 70
     1
 10
0.0
 20
0.0
 30
0.0
  3
*D6
  1

  0
LINE
  5
15C9
330
15BE
100
AcDbEntity
  8
WYMIAR
370
    -2
100
AcDbLine
 10
2.416374271305101
 20
10.6442515366513
 30
0.0
 11
6.796374271305101
 21
10.6442515366513
 31
0.0
  0
INSERT
  5
15CA
330
15BE
100
AcDbEntity
  8
WYMIAR
370
    -2
100
AcDbBlockReference
  2
MAR-STRZ
 10
2.356374271305101
 20
10.6442515366513
 30
0.0
 41
0.06
 42
0.06
 43
0.06
 50
180.0
  0
INSERT
  5
15CB
330
15BE
100
AcDbEntity
  8
WYMIAR
370
    -2
100
AcDbBlockReference
  2
MAR-STRZ
 10
6.8563742713051
 20
10.6442515366513
 30
0.0
 41
0.06
 42
0.06
 43
0.06
  0
MTEXT
  5
15CC
330
15BE
100
AcDbEntity
  8
WYMIAR
100
AcDbMText
 10
4.606374271305101
 20
10.85653075743052
 30
0.0
 40
0.18
 41
0.0
 71
     5
 72
     1
  1
\A1;4.50
  7
AR 01 SWIS
 73
     1
 44
1.0
  0
POINT
  5
15CD
330
15BE
100
AcDbEntity
  8
Defpoints
 62
     0
100
AcDbPoint
 10
2.356374271305101
 20
9.859407011657182
 30
0.0
  0
POINT
  5
15CE
330
15BE
100
AcDbEntity
  8
Defpoints
 62
     0
100
AcDbPoint
 10
6.8563742713051
 20
9.859407011657182
 30
0.0
  0
POINT
  5
15CF
330
15BE
100
AcDbEntity
  8
Defpoints
 62
     0
100
AcDbPoint
 10
6.8563742713051
 20
10.6442515366513
 30
0.0
  0
ENDBLK
  5
15C0
330
15BE
100
AcDbEntity
  8
0
100
AcDbBlockEnd
  0
ENDSEC
  0
SECTION
  2
ENTITIES
  0
LINE
  5
558
330
1F
100
AcDbEntity
  8
0
100
AcDbLine
 10
4.311362840637972
 20
4.154592938356684
 30
0.0
 11
4.310579134642617
 21
4.160286611298903
 31
0.0
  0
LINE
  5
559
330
1F
100
AcDbEntity
  8
0
100
AcDbLine
 10
4.313660550355579
 20
4.149287279816231
 30
0.0
 11
4.311362840637972
 21
4.154592938356684
 31
0.0
  0
LINE
  5
55A
330
1F
100
AcDbEntity
  8
0
100
AcDbLine
 10
4.317315678675329
 20
4.144731207539075
 30
0.0
 11
4.313660550355579
 21
4.149287279816231
 31
0.0
  0
LINE
  5
55B
330
1F
100
AcDbEntity
  8
0
100
AcDbLine
 10
4.322079134642617
 20
4.141235210321628
 30
0.0
 11
4.317315678675329
 21
4.144731207539075
 31
0.0
  0
LINE
  5
55C
330
1F
100
AcDbEntity
  8
0
100
AcDbLine
 10
4.32762629660526
 20
4.139037534596852
 30
0.0
 11
4.322079134642617
 21
4.141235210321628
 31
0.0
  0
LINE
  5
55D
330
1F
100
AcDbEntity
  8
0
100
AcDbLine
 10
4.333579134642618
 20
4.138287948333566
 30
0.0
 11
4.32762629660526
 21
4.139037534596852
 31
0.0
  0
LINE
  5
55E
330
1F
100
AcDbEntity
  8
0
100
AcDbLine
 10
4.339531972679975
 20
4.139037534596852
 30
0.0
 11
4.333579134642618
 21
4.138287948333566
 31
0.0
  0
LINE
  5
55F
330
1F
100
AcDbEntity
  8
0
100
AcDbLine
 10
4.345079134642618
 20
4.141235210321628
 30
0.0
 11
4.339531972679975
 21
4.139037534596852
 31
0.0
  0
LINE
  5
560
330
1F
100
AcDbEntity
  8
0
100
AcDbLine
 10
4.349842590609909
 20
4.144731207539075
 30
0.0
 11
4.345079134642618
 21
4.141235210321628
 31
0.0
  0
LINE
  5
561
330
1F
100
AcDbEntity
  8
0
100
AcDbLine
 10
4.353497718929663
 20
4.149287279816231
 30
0.0
 11
4.349842590609909
 21
4.144731207539075
 31
0.0
  0
LINE
  5
562
330
1F
100
AcDbEntity
  8
0
100
AcDbLine
 10
4.355795428647269
 20
4.154592938356684
 30
0.0
 11
4.353497718929663
 21
4.149287279816231
 31
0.0
  0
LINE
  5
563
330
1F
100
AcDbEntity
  8
0
100
AcDbLine
 10
4.356579134642618
 20
4.160286611298903
 30
0.0
 11
4.355795428647269
 21
4.154592938356684
 31
0.0
  0
LINE
  5
564
330
1F
100
AcDbEntity
  8
0
100
AcDbLine
 10
4.830588221160495
 20
4.179028308663103
 30
0.0
 11
4.356579134642618
 21
4.179330676488549
 31
0.0
  0
LINE
  5
565
330
1F
100
AcDbEntity
  8
0
100
AcDbLine
 10
4.311362840637972
 20
4.459535639148642
 30
0.0
 11
4.310579134642617
 21
4.460126985232046
 31
0.0
  0
LINE
  5
566
330
1F
100
AcDbEntity
  8
0
100
AcDbLine
 10
4.313660550355579
 20
4.458984592323575
 30
0.0
 11
4.311362840637972
 21
4.459535639148642
 31
0.0
  0
LINE
  5
567
330
1F
100
AcDbEntity
  8
0
100
AcDbLine
 10
4.31691895608453
 20
4.458562757581047
 30
0.0
 11
4.313660550355579
 21
4.458984592323575
 31
0.0
  0
LINE
  5
568
330
1F
100
AcDbEntity
  8
0
100
AcDbLine
 10
4.353497718929663
 20
4.458984592323575
 30
0.0
 11
4.350239313200711
 21
4.458562757581047
 31
0.0
  0
LINE
  5
569
330
1F
100
AcDbEntity
  8
0
100
AcDbLine
 10
4.355795428647269
 20
4.459535639148642
 30
0.0
 11
4.353497718929663
 21
4.458984592323575
 31
0.0
  0
LINE
  5
56A
330
1F
100
AcDbEntity
  8
0
100
AcDbLine
 10
4.356579134642618
 20
4.460126985232046
 30
0.0
 11
4.355795428647269
 21
4.459535639148642
 31
0.0
  0
LINE
  5
56B
330
1F
100
AcDbEntity
  8
0
100
AcDbLine
 10
4.830588221160493
 20
4.462073501908571
 30
0.0
 11
4.356579134642618
 21
4.462104905895269
 31
0.0
  0
LINE
  5
56C
330
1F
100
AcDbEntity
  8
0
100
AcDbLine
 10
4.311362840637972
 20
5.618951213040508
 30
0.0
 11
4.310579134642621
 21
5.620946783078722
 31
0.0
  0
LINE
  5
56D
330
1F
100
AcDbEntity
  8
0
100
AcDbLine
 10
4.313660550355579
 20
6.017526233965707
 30
0.0
 11
4.311362840637972
 21
6.019385809203649
 31
0.0
  0
LINE
  5
56E
330
1F
100
AcDbEntity
  8
0
100
AcDbLine
 10
4.31691895608453
 20
6.016102700781187
 30
0.0
 11
4.313660550355579
 21
6.017526233965707
 31
0.0
  0
LINE
  5
56F
330
1F
100
AcDbEntity
  8
0
100
AcDbLine
 10
4.353497718929663
 20
6.017526233965707
 30
0.0
 11
4.350239313200712
 21
6.016102700781187
 31
0.0
  0
LINE
  5
570
330
1F
100
AcDbEntity
  8
0
100
AcDbLine
 10
4.35579542864727
 20
6.019385809203649
 30
0.0
 11
4.353497718929663
 21
6.017526233965707
 31
0.0
  0
LINE
  5
571
330
1F
100
AcDbEntity
  8
0
100
AcDbLine
 10
4.356579134642618
 20
6.021381379241863
 30
0.0
 11
4.35579542864727
 21
6.019385809203649
 31
0.0
  0
LINE
  5
572
330
1F
100
AcDbEntity
  8
0
100
AcDbLine
 10
4.83057913464262
 20
6.027950141036163
 30
0.0
 11
4.356579134642618
 21
6.028056115617475
 31
0.0
  0
LINE
  5
574
330
1F
100
AcDbEntity
  8
0
100
AcDbLine
 10
4.347181352386953
 20
6.015960594284569
 30
0.0
 11
4.345314865670326
 21
6.012624790044986
 31
0.0
  0
LINE
  5
575
330
1F
100
AcDbEntity
  8
0
100
AcDbLine
 10
4.319088876049567
 20
6.019274807851171
 30
0.0
 11
4.319037398842207
 21
6.023096942423014
 31
0.0
  0
LINE
  5
576
330
1F
100
AcDbEntity
  8
0
100
AcDbLine
 10
4.320127840433765
 20
6.015596232638331
 30
0.0
 11
4.319088876049567
 21
6.019274807851171
 31
0.0
  0
LINE
  5
577
330
1F
100
AcDbEntity
  8
0
100
AcDbLine
 10
4.342648608278373
 20
6.009885732888227
 30
0.0
 11
4.339364281246156
 21
6.00793008503301
 31
0.0
  0
LINE
  5
578
330
1F
100
AcDbEntity
  8
0
100
AcDbLine
 10
4.345314865670326
 20
6.012624790044986
 30
0.0
 11
4.342648608278373
 21
6.009885732888227
 31
0.0
  0
LINE
  5
579
330
1F
100
AcDbEntity
  8
0
100
AcDbLine
 10
4.324822545445741
 20
6.009645648214161
 30
0.0
 11
4.322083488288981
 21
6.012311905606114
 31
0.0
  0
LINE
  5
57A
330
1F
100
AcDbEntity
  8
0
100
AcDbLine
 10
4.32815834968532
 20
6.007779161497529
 30
0.0
 11
4.324822545445741
 21
6.009645648214161
 31
0.0
  0
LINE
  5
57B
330
1F
100
AcDbEntity
  8
0
100
AcDbLine
 10
4.33186357146147
 20
6.006839643441454
 30
0.0
 11
4.32815834968532
 21
6.007779161497529
 31
0.0
  0
LINE
  5
57C
330
1F
100
AcDbEntity
  8
0
100
AcDbLine
 10
4.335685706033313
 20
6.006891120648813
 30
0.0
 11
4.33186357146147
 21
6.006839643441454
 31
0.0
  0
LINE
  5
57D
330
1F
100
AcDbEntity
  8
0
100
AcDbLine
 10
4.339364281246156
 20
6.00793008503301
 30
0.0
 11
4.335685706033313
 21
6.006891120648813
 31
0.0
  0
LINE
  5
57E
330
1F
100
AcDbEntity
  8
0
100
AcDbLine
 10
4.320030916857503
 20
6.014914772929419
 30
0.0
 11
4.320703119341058
 21
6.01463010570436
 31
0.0
  0
LINE
  5
57F
330
1F
100
AcDbEntity
  8
0
100
AcDbLine
 10
4.317942118051364
 20
6.016631033332353
 30
0.0
 11
4.320030916857503
 21
6.014914772929419
 31
0.0
  0
LINE
  5
580
330
1F
100
AcDbEntity
  8
0
100
AcDbLine
 10
4.31691895608453
 20
6.018671021958702
 30
0.0
 11
4.317942118051364
 21
6.016631033332353
 31
0.0
  0
LINE
  5
581
330
1F
100
AcDbEntity
  8
0
100
AcDbLine
 10
4.317031157754182
 20
6.020895716954822
 30
0.0
 11
4.31691895608453
 21
6.018671021958702
 31
0.0
  0
LINE
  5
582
330
1F
100
AcDbEntity
  8
0
100
AcDbLine
 10
4.318271076701954
 20
6.023153509033208
 30
0.0
 11
4.317031157754182
 21
6.020895716954822
 31
0.0
  0
LINE
  5
583
330
1F
100
AcDbEntity
  8
0
100
AcDbLine
 10
4.319037398842207
 20
6.023870789034257
 30
0.0
 11
4.318271076701954
 21
6.023153509033208
 31
0.0
  0
LINE
  5
584
330
1F
100
AcDbEntity
  8
0
100
AcDbLine
 10
4.350239313200712
 20
6.02409173652503
 30
0.0
 11
4.349216151233875
 21
6.026131725151381
 31
0.0
  0
LINE
  5
585
330
1F
100
AcDbEntity
  8
0
100
AcDbLine
 10
4.35012711153106
 20
6.02186704152891
 30
0.0
 11
4.350239313200712
 21
6.02409173652503
 31
0.0
  0
LINE
  5
586
330
1F
100
AcDbEntity
  8
0
100
AcDbLine
 10
4.349216151233875
 20
6.026131725151381
 30
0.0
 11
4.348120870443034
 21
6.027031662017435
 31
0.0
  0
LINE
  5
587
330
1F
100
AcDbEntity
  8
0
100
AcDbLine
 10
4.348887192583288
 20
6.019609249450522
 30
0.0
 11
4.35012711153106
 21
6.02186704152891
 31
0.0
  0
LINE
  5
588
330
1F
100
AcDbEntity
  8
0
100
AcDbLine
 10
4.347863585714083
 20
6.01865115011129
 30
0.0
 11
4.348887192583288
 21
6.019609249450522
 31
0.0
  0
LINE
  5
589
330
1F
100
AcDbEntity
  8
0
100
AcDbLine
 10
4.356579134642618
 20
4.460126985232046
 30
0.0
 11
4.356579134642618
 21
4.462104905895269
 31
0.0
  0
LINE
  5
58A
330
1F
100
AcDbEntity
  8
0
100
AcDbLine
 10
4.356579134642618
 20
6.021381379241863
 30
0.0
 11
4.356579134642618
 21
6.028056115617475
 31
0.0
  0
LINE
  5
58C
330
1F
100
AcDbEntity
  8
0
100
AcDbLine
 10
4.319037398842207
 20
6.023096942423014
 30
0.0
 11
4.319037398842207
 21
6.023870789034257
 31
0.0
  0
LINE
  5
58D
330
1F
100
AcDbEntity
  8
0
100
AcDbLine
 10
4.348120870443034
 20
6.019665816060719
 30
0.0
 11
4.347863585714083
 21
6.01865115011129
 31
0.0
  0
LINE
  5
58E
330
1F
100
AcDbEntity
  8
0
100
AcDbLine
 10
4.347863585714083
 20
6.01865115011129
 30
0.0
 11
4.347181352386953
 21
6.015960594284569
 31
0.0
  0
LINE
  5
58F
330
1F
100
AcDbEntity
  8
0
100
AcDbLine
 10
4.322083488288981
 20
6.012311905606114
 30
0.0
 11
4.320703119341058
 21
6.01463010570436
 31
0.0
  0
LINE
  5
590
330
1F
100
AcDbEntity
  8
0
100
AcDbLine
 10
4.320703119341058
 20
6.01463010570436
 30
0.0
 11
4.320127840433765
 21
6.015596232638331
 31
0.0
  0
LINE
  5
591
330
1F
100
AcDbEntity
  8
0
100
AcDbLine
 10
4.348120870443034
 20
6.019665816060719
 30
0.0
 11
4.348120870443034
 21
6.027031662017435
 31
0.0
  0
LINE
  5
592
330
1F
100
AcDbEntity
  8
0
100
AcDbLine
 10
4.31691895608453
 20
4.458562757581047
 30
0.0
 11
4.31691895608453
 21
4.160286611298903
 31
0.0
  0
LINE
  5
593
330
1F
100
AcDbEntity
  8
0
100
AcDbLine
 10
4.350239313200712
 20
6.016102700781187
 30
0.0
 11
4.350239313200712
 21
6.02409173652503
 31
0.0
  0
LINE
  5
594
330
1F
100
AcDbEntity
  8
0
100
AcDbLine
 10
4.31691895608453
 20
6.018671021958702
 30
0.0
 11
4.31691895608453
 21
6.016102700781187
 31
0.0
  0
LINE
  5
595
330
1F
100
AcDbEntity
  8
0
100
AcDbLine
 10
4.31691895608453
 20
6.016102700781187
 30
0.0
 11
4.31691895608453
 21
4.858997353744188
 31
0.0
  0
LINE
  5
596
330
1F
100
AcDbEntity
  8
0
100
AcDbLine
 10
4.350239313200711
 20
4.159234151286471
 30
0.0
 11
4.350239313200711
 21
4.458562757581047
 31
0.0
  0
LINE
  5
597
330
1F
100
AcDbEntity
  8
0
100
AcDbLine
 10
4.350239313200711
 20
4.858997353744188
 30
0.0
 11
4.350239313200712
 21
6.016102700781187
 31
0.0
  0
LINE
  5
59C
330
1F
100
AcDbEntity
  8
0
100
AcDbLine
 10
4.356579134642618
 20
4.179330676488549
 30
0.0
 11
4.356579134642618
 21
4.160286611298903
 31
0.0
  0
LINE
  5
59D
330
1F
100
AcDbEntity
  8
0
100
AcDbLine
 10
4.310579134642617
 20
4.460126985232046
 30
0.0
 11
4.310579134642617
 21
4.160286611298903
 31
0.0
  0
LINE
  5
59E
330
1F
100
AcDbEntity
  8
0
100
AcDbLine
 10
4.356579134642618
 20
4.460126985232046
 30
0.0
 11
4.356579134642618
 21
4.179330676488549
 31
0.0
  0
LINE
  5
59F
330
1F
100
AcDbEntity
  8
0
100
AcDbLine
 10
4.356579134642618
 20
6.021381379241863
 30
0.0
 11
4.356579134642618
 21
4.862539502058409
 31
0.0
  0
ARC
  5
5A3
330
1F
100
AcDbEntity
  8
0
100
AcDbCircle
 10
4.333662272655602
 20
4.162392489163525
 30
0.0
 40
0.0168752295208051
100
AcDbArc
 50
187.1686902151657
 51
349.2130127358568
  0
LINE
  5
5A4
330
1F
100
AcDbEntity
  8
0
100
AcDbLine
 10
4.831371927155847
 20
4.154592938356685
 30
0.0
 11
4.830588221160493
 21
4.160286611298903
 31
0.0
  0
LINE
  5
5A5
330
1F
100
AcDbEntity
  8
0
100
AcDbLine
 10
4.833669636873454
 20
4.149287279816231
 30
0.0
 11
4.831371927155847
 21
4.154592938356685
 31
0.0
  0
LINE
  5
5A6
330
1F
100
AcDbEntity
  8
0
100
AcDbLine
 10
4.837324765193205
 20
4.144731207539076
 30
0.0
 11
4.833669636873454
 21
4.149287279816231
 31
0.0
  0
LINE
  5
5A7
330
1F
100
AcDbEntity
  8
0
100
AcDbLine
 10
4.842088221160493
 20
4.141235210321628
 30
0.0
 11
4.837324765193205
 21
4.144731207539076
 31
0.0
  0
LINE
  5
5A8
330
1F
100
AcDbEntity
  8
0
100
AcDbLine
 10
4.847635383123136
 20
4.139037534596852
 30
0.0
 11
4.842088221160493
 21
4.141235210321628
 31
0.0
  0
LINE
  5
5A9
330
1F
100
AcDbEntity
  8
0
100
AcDbLine
 10
4.853588221160493
 20
4.138287948333566
 30
0.0
 11
4.847635383123136
 21
4.139037534596852
 31
0.0
  0
LINE
  5
5AA
330
1F
100
AcDbEntity
  8
0
100
AcDbLine
 10
4.859541059197851
 20
4.139037534596852
 30
0.0
 11
4.853588221160493
 21
4.138287948333566
 31
0.0
  0
LINE
  5
5AB
330
1F
100
AcDbEntity
  8
0
100
AcDbLine
 10
4.865088221160494
 20
4.141235210321628
 30
0.0
 11
4.859541059197851
 21
4.139037534596852
 31
0.0
  0
LINE
  5
5AC
330
1F
100
AcDbEntity
  8
0
100
AcDbLine
 10
4.869851677127784
 20
4.144731207539076
 30
0.0
 11
4.865088221160494
 21
4.141235210321628
 31
0.0
  0
LINE
  5
5AD
330
1F
100
AcDbEntity
  8
0
100
AcDbLine
 10
4.873506805447538
 20
4.149287279816231
 30
0.0
 11
4.869851677127784
 21
4.144731207539076
 31
0.0
  0
LINE
  5
5AE
330
1F
100
AcDbEntity
  8
0
100
AcDbLine
 10
4.875804515165144
 20
4.154592938356685
 30
0.0
 11
4.873506805447538
 21
4.149287279816231
 31
0.0
  0
LINE
  5
5AF
330
1F
100
AcDbEntity
  8
0
100
AcDbLine
 10
4.876588221160494
 20
4.160286611298903
 30
0.0
 11
4.875804515165144
 21
4.154592938356685
 31
0.0
  0
LINE
  5
5B0
330
1F
100
AcDbEntity
  8
0
100
AcDbLine
 10
4.831371927155847
 20
4.459535639148642
 30
0.0
 11
4.830588221160493
 21
4.460126985232047
 31
0.0
  0
LINE
  5
5B1
330
1F
100
AcDbEntity
  8
0
100
AcDbLine
 10
4.833669636873454
 20
4.458984592323575
 30
0.0
 11
4.831371927155847
 21
4.459535639148642
 31
0.0
  0
LINE
  5
5B2
330
1F
100
AcDbEntity
  8
0
100
AcDbLine
 10
4.836928042602405
 20
4.458562757581047
 30
0.0
 11
4.833669636873454
 21
4.458984592323575
 31
0.0
  0
LINE
  5
5B3
330
1F
100
AcDbEntity
  8
0
100
AcDbLine
 10
4.873506805447538
 20
4.458984592323575
 30
0.0
 11
4.870248399718588
 21
4.458562757581048
 31
0.0
  0
LINE
  5
5B4
330
1F
100
AcDbEntity
  8
0
100
AcDbLine
 10
4.875804515165144
 20
4.459535639148642
 30
0.0
 11
4.873506805447538
 21
4.458984592323575
 31
0.0
  0
LINE
  5
5B5
330
1F
100
AcDbEntity
  8
0
100
AcDbLine
 10
4.876588221160494
 20
4.460126985232047
 30
0.0
 11
4.875804515165144
 21
4.459535639148642
 31
0.0
  0
LINE
  5
5B6
330
1F
100
AcDbEntity
  8
0
100
AcDbLine
 10
4.831371927155847
 20
6.01938580920365
 30
0.0
 11
4.830588221160496
 21
6.021381379241864
 31
0.0
  0
LINE
  5
5B7
330
1F
100
AcDbEntity
  8
0
100
AcDbLine
 10
4.833669636873454
 20
6.017526233965707
 30
0.0
 11
4.831371927155847
 21
6.01938580920365
 31
0.0
  0
LINE
  5
5B8
330
1F
100
AcDbEntity
  8
0
100
AcDbLine
 10
4.836928042602405
 20
6.016102700781187
 30
0.0
 11
4.833669636873454
 21
6.017526233965707
 31
0.0
  0
LINE
  5
5B9
330
1F
100
AcDbEntity
  8
0
100
AcDbLine
 10
4.873506805447538
 20
6.017526233965707
 30
0.0
 11
4.870248399718588
 21
6.016102700781187
 31
0.0
  0
LINE
  5
5BA
330
1F
100
AcDbEntity
  8
0
100
AcDbLine
 10
4.875804515165145
 20
6.01938580920365
 30
0.0
 11
4.873506805447538
 21
6.017526233965707
 31
0.0
  0
LINE
  5
5BB
330
1F
100
AcDbEntity
  8
0
100
AcDbLine
 10
4.876588221160494
 20
6.021381379241864
 30
0.0
 11
4.875804515165145
 21
6.01938580920365
 31
0.0
  0
LINE
  5
5BD
330
1F
100
AcDbEntity
  8
0
100
AcDbLine
 10
4.867190438904828
 20
6.015960594284569
 30
0.0
 11
4.865323952188202
 21
6.012624790044987
 31
0.0
  0
LINE
  5
5BE
330
1F
100
AcDbEntity
  8
0
100
AcDbLine
 10
4.839097962567443
 20
6.019274807851171
 30
0.0
 11
4.839046485360084
 21
6.023096942423014
 31
0.0
  0
LINE
  5
5BF
330
1F
100
AcDbEntity
  8
0
100
AcDbLine
 10
4.84013692695164
 20
6.015596232638331
 30
0.0
 11
4.839097962567443
 21
6.019274807851171
 31
0.0
  0
LINE
  5
5C0
330
1F
100
AcDbEntity
  8
0
100
AcDbLine
 10
4.862657694796249
 20
6.009885732888228
 30
0.0
 11
4.859373367764032
 21
6.007930085033011
 31
0.0
  0
LINE
  5
5C1
330
1F
100
AcDbEntity
  8
0
100
AcDbLine
 10
4.865323952188202
 20
6.012624790044987
 30
0.0
 11
4.862657694796249
 21
6.009885732888228
 31
0.0
  0
LINE
  5
5C2
330
1F
100
AcDbEntity
  8
0
100
AcDbLine
 10
4.844831631963616
 20
6.009645648214162
 30
0.0
 11
4.842092574806857
 21
6.012311905606114
 31
0.0
  0
LINE
  5
5C3
330
1F
100
AcDbEntity
  8
0
100
AcDbLine
 10
4.848167436203196
 20
6.007779161497529
 30
0.0
 11
4.844831631963616
 21
6.009645648214162
 31
0.0
  0
LINE
  5
5C4
330
1F
100
AcDbEntity
  8
0
100
AcDbLine
 10
4.851872657979345
 20
6.006839643441454
 30
0.0
 11
4.848167436203196
 21
6.007779161497529
 31
0.0
  0
LINE
  5
5C5
330
1F
100
AcDbEntity
  8
0
100
AcDbLine
 10
4.855694792551189
 20
6.006891120648814
 30
0.0
 11
4.851872657979345
 21
6.006839643441454
 31
0.0
  0
LINE
  5
5C6
330
1F
100
AcDbEntity
  8
0
100
AcDbLine
 10
4.859373367764032
 20
6.007930085033011
 30
0.0
 11
4.855694792551189
 21
6.006891120648814
 31
0.0
  0
LINE
  5
5C7
330
1F
100
AcDbEntity
  8
0
100
AcDbLine
 10
4.840040003375379
 20
6.014914772929419
 30
0.0
 11
4.840712205858934
 21
6.01463010570436
 31
0.0
  0
LINE
  5
5C8
330
1F
100
AcDbEntity
  8
0
100
AcDbLine
 10
4.83795120456924
 20
6.016631033332353
 30
0.0
 11
4.840040003375379
 21
6.014914772929419
 31
0.0
  0
LINE
  5
5C9
330
1F
100
AcDbEntity
  8
0
100
AcDbLine
 10
4.836928042602405
 20
6.018671021958702
 30
0.0
 11
4.83795120456924
 21
6.016631033332353
 31
0.0
  0
LINE
  5
5CA
330
1F
100
AcDbEntity
  8
0
100
AcDbLine
 10
4.837040244272057
 20
6.020895716954822
 30
0.0
 11
4.836928042602405
 21
6.018671021958702
 31
0.0
  0
LINE
  5
5CB
330
1F
100
AcDbEntity
  8
0
100
AcDbLine
 10
4.838280163219829
 20
6.023153509033209
 30
0.0
 11
4.837040244272057
 21
6.020895716954822
 31
0.0
  0
LINE
  5
5CC
330
1F
100
AcDbEntity
  8
0
100
AcDbLine
 10
4.839046485360084
 20
6.023870789034258
 30
0.0
 11
4.838280163219829
 21
6.023153509033209
 31
0.0
  0
LINE
  5
5CD
330
1F
100
AcDbEntity
  8
0
100
AcDbLine
 10
4.870248399718588
 20
6.024091736525031
 30
0.0
 11
4.86922523775175
 21
6.026131725151381
 31
0.0
  0
LINE
  5
5CE
330
1F
100
AcDbEntity
  8
0
100
AcDbLine
 10
4.870136198048935
 20
6.021867041528911
 30
0.0
 11
4.870248399718588
 21
6.024091736525031
 31
0.0
  0
LINE
  5
5CF
330
1F
100
AcDbEntity
  8
0
100
AcDbLine
 10
4.86922523775175
 20
6.026131725151381
 30
0.0
 11
4.86812995696091
 21
6.027031662017436
 31
0.0
  0
LINE
  5
5D0
330
1F
100
AcDbEntity
  8
0
100
AcDbLine
 10
4.868896279101163
 20
6.019609249450522
 30
0.0
 11
4.870136198048935
 21
6.021867041528911
 31
0.0
  0
LINE
  5
5D1
330
1F
100
AcDbEntity
  8
0
100
AcDbLine
 10
4.867872672231959
 20
6.018651150111291
 30
0.0
 11
4.868896279101163
 21
6.019609249450522
 31
0.0
  0
LINE
  5
5D2
330
1F
100
AcDbEntity
  8
0
100
AcDbLine
 10
4.876588221160494
 20
4.460126985232047
 30
0.0
 11
4.876588221160494
 21
4.462104905895269
 31
0.0
  0
LINE
  5
5D3
330
1F
100
AcDbEntity
  8
0
100
AcDbLine
 10
4.876588221160494
 20
6.021381379241864
 30
0.0
 11
4.876588221160494
 21
6.028056115617475
 31
0.0
  0
LINE
  5
5D5
330
1F
100
AcDbEntity
  8
0
100
AcDbLine
 10
4.839046485360084
 20
6.023096942423014
 30
0.0
 11
4.839046485360084
 21
6.023870789034258
 31
0.0
  0
LINE
  5
5D6
330
1F
100
AcDbEntity
  8
0
100
AcDbLine
 10
4.86812995696091
 20
6.019665816060719
 30
0.0
 11
4.867872672231959
 21
6.018651150111291
 31
0.0
  0
LINE
  5
5D7
330
1F
100
AcDbEntity
  8
0
100
AcDbLine
 10
4.867872672231959
 20
6.018651150111291
 30
0.0
 11
4.867190438904828
 21
6.015960594284569
 31
0.0
  0
LINE
  5
5D8
330
1F
100
AcDbEntity
  8
0
100
AcDbLine
 10
4.842092574806857
 20
6.012311905606114
 30
0.0
 11
4.840712205858934
 21
6.01463010570436
 31
0.0
  0
LINE
  5
5D9
330
1F
100
AcDbEntity
  8
0
100
AcDbLine
 10
4.840712205858934
 20
6.01463010570436
 30
0.0
 11
4.84013692695164
 21
6.015596232638331
 31
0.0
  0
LINE
  5
5DA
330
1F
100
AcDbEntity
  8
0
100
AcDbLine
 10
4.86812995696091
 20
6.019665816060719
 30
0.0
 11
4.86812995696091
 21
6.027031662017436
 31
0.0
  0
LINE
  5
5DB
330
1F
100
AcDbEntity
  8
0
100
AcDbLine
 10
4.836928042602405
 20
4.458562757581047
 30
0.0
 11
4.836928042602405
 21
4.160286611298903
 31
0.0
  0
LINE
  5
5DC
330
1F
100
AcDbEntity
  8
0
100
AcDbLine
 10
4.870248399718588
 20
6.016102700781187
 30
0.0
 11
4.870248399718588
 21
6.024091736525031
 31
0.0
  0
LINE
  5
5DD
330
1F
100
AcDbEntity
  8
0
100
AcDbLine
 10
4.836928042602405
 20
6.018671021958702
 30
0.0
 11
4.836928042602405
 21
6.016102700781187
 31
0.0
  0
LINE
  5
5DE
330
1F
100
AcDbEntity
  8
0
100
AcDbLine
 10
4.836928042602405
 20
6.016102700781187
 30
0.0
 11
4.836928042602405
 21
4.858997353744188
 31
0.0
  0
LINE
  5
5DF
330
1F
100
AcDbEntity
  8
0
100
AcDbLine
 10
4.870248399718588
 20
4.159234151286471
 30
0.0
 11
4.870248399718588
 21
4.458562757581048
 31
0.0
  0
LINE
  5
5E0
330
1F
100
AcDbEntity
  8
0
100
AcDbLine
 10
4.870248399718588
 20
4.858997353744189
 30
0.0
 11
4.870248399718588
 21
6.016102700781187
 31
0.0
  0
LINE
  5
5E4
330
1F
100
AcDbEntity
  8
0
100
AcDbLine
 10
4.876588221160494
 20
4.179330676488549
 30
0.0
 11
4.876588221160494
 21
4.160286611298903
 31
0.0
  0
LINE
  5
5E5
330
1F
100
AcDbEntity
  8
0
100
AcDbLine
 10
4.830588221160493
 20
4.460126985232047
 30
0.0
 11
4.830588221160493
 21
4.160286611298903
 31
0.0
  0
LINE
  5
5E6
330
1F
100
AcDbEntity
  8
0
100
AcDbLine
 10
4.876588221160494
 20
4.460126985232047
 30
0.0
 11
4.876588221160494
 21
4.179330676488549
 31
0.0
  0
LINE
  5
5E7
330
1F
100
AcDbEntity
  8
0
100
AcDbLine
 10
4.876588221160494
 20
6.021381379241864
 30
0.0
 11
4.876588221160494
 21
4.862539502058409
 31
0.0
  0
LINE
  5
5E8
330
1F
100
AcDbEntity
  8
0
100
AcDbLine
 10
4.830588221160496
 20
6.021381379241864
 30
0.0
 11
4.830588221160493
 21
4.860561581395188
 31
0.0
  0
ARC
  5
5EB
330
1F
100
AcDbEntity
  8
0
100
AcDbCircle
 10
4.853671359173477
 20
4.162392489163525
 30
0.0
 40
0.0168752295208051
100
AcDbArc
 50
187.1686902151657
 51
349.2130127358568
  0
LINE
  5
F70
330
1F
100
AcDbEntity
  8
0
100
AcDbLine
 10
4.317315678675329
 20
4.542532843953877
 30
0.0
 11
4.317315678675329
 21
4.142532843953877
 31
0.0
  0
LINE
  5
F81
330
1F
100
AcDbEntity
  8
0
100
AcDbLine
 10
4.836928027702526
 20
5.619178845857451
 30
0.0
 11
4.836928027702526
 21
4.462073498820451
 31
0.0
  0
LINE
  5
F82
330
1F
100
AcDbEntity
  8
0
100
AcDbLine
 10
4.870248384818709
 20
4.462073498820452
 30
0.0
 11
4.870248384818709
 21
5.619178845857451
 31
0.0
  0
LINE
  5
F83
330
1F
100
AcDbEntity
  8
0
100
AcDbLine
 10
4.876588206260615
 20
5.624457524318128
 30
0.0
 11
4.876588206260615
 21
4.465615647134673
 31
0.0
  0
LINE
  5
F84
330
1F
100
AcDbEntity
  8
0
100
AcDbLine
 10
4.830588206260618
 20
5.624457524318128
 30
0.0
 11
4.830588206260614
 21
4.463637726471452
 31
0.0
  0
LINE
  5
F8F
330
1F
100
AcDbEntity
  8
0
100
AcDbLine
 10
4.316918941184651
 20
5.617232329180926
 30
0.0
 11
4.316918941184651
 21
4.460126982143926
 31
0.0
  0
LINE
  5
F90
330
1F
100
AcDbEntity
  8
0
100
AcDbLine
 10
4.350239298300834
 20
4.460126982143927
 30
0.0
 11
4.350239298300834
 21
5.617232329180926
 31
0.0
  0
LINE
  5
F91
330
1F
100
AcDbEntity
  8
0
100
AcDbLine
 10
4.35657911974274
 20
5.622511007641603
 30
0.0
 11
4.35657911974274
 21
4.463669130458148
 31
0.0
  0
LINE
  5
F93
330
1F
100
AcDbEntity
  8
0
100
AcDbLine
 10
4.311362840637972
 20
4.459535639148642
 30
0.0
 11
4.310579134642621
 21
6.021381379241863
 31
0.0
  0
LINE
  5
F94
330
1F
100
AcDbEntity
  8
0
100
AcDbLine
 10
4.836928027702526
 20
4.462073498820451
 30
0.0
 11
4.836928042602405
 21
4.458562757581047
 31
0.0
  0
LINE
  5
F96
330
1F
100
AcDbEntity
  8
0
100
AcDbLine
 10
4.870248399718588
 20
4.458562757581048
 30
0.0
 11
4.870248384818709
 21
4.462073498820452
 31
0.0
  0
LINE
  5
F98
330
1F
100
AcDbEntity
  8
0
100
AcDbLine
 10
4.876588206260615
 20
4.465615647134673
 30
0.0
 11
4.876588221160494
 21
4.460126985232047
 31
0.0
  0
LINE
  5
145A
330
1F
100
AcDbEntity
  8
0
100
AcDbLine
 10
4.313660550355578
 20
6.017526233965707
 30
0.0
 11
4.311362840637972
 21
6.019385809203649
 31
0.0
  0
LINE
  5
145B
330
1F
100
AcDbEntity
  8
0
100
AcDbLine
 10
4.31691895608453
 20
6.016102700781187
 30
0.0
 11
4.313660550355578
 21
6.017526233965707
 31
0.0
  0
LINE
  5
145C
330
1F
100
AcDbEntity
  8
0
100
AcDbLine
 10
4.353497718929663
 20
6.017526233965707
 30
0.0
 11
4.350239313200713
 21
6.016102700781187
 31
0.0
  0
LINE
  5
145D
330
1F
100
AcDbEntity
  8
0
100
AcDbLine
 10
4.355795428647269
 20
6.019385809203649
 30
0.0
 11
4.353497718929663
 21
6.017526233965707
 31
0.0
  0
LINE
  5
145E
330
1F
100
AcDbEntity
  8
0
100
AcDbLine
 10
4.356579134642618
 20
6.021381379241863
 30
0.0
 11
4.355795428647269
 21
6.019385809203649
 31
0.0
  0
LINE
  5
145F
330
1F
100
AcDbEntity
  8
0
100
AcDbLine
 10
4.83057913464262
 20
6.027950141036163
 30
0.0
 11
4.356579134642618
 21
6.028056115617475
 31
0.0
  0
LINE
  5
1460
330
1F
100
AcDbEntity
  8
0
100
AcDbLine
 10
4.310579134642621
 20
6.021381379241863
 30
0.0
 11
4.310579134642621
 21
6.041909589362813
 31
0.0
  0
LINE
  5
1461
330
1F
100
AcDbEntity
  8
0
100
AcDbLine
 10
4.347181352386954
 20
6.015960594284569
 30
0.0
 11
4.345314865670326
 21
6.012624790044986
 31
0.0
  0
LINE
  5
1462
330
1F
100
AcDbEntity
  8
0
100
AcDbLine
 10
4.319088876049567
 20
6.019274807851171
 30
0.0
 11
4.319037398842208
 21
6.023096942423014
 31
0.0
  0
LINE
  5
1463
330
1F
100
AcDbEntity
  8
0
100
AcDbLine
 10
4.320127840433766
 20
6.015596232638331
 30
0.0
 11
4.319088876049567
 21
6.019274807851171
 31
0.0
  0
LINE
  5
1464
330
1F
100
AcDbEntity
  8
0
100
AcDbLine
 10
4.342648608278373
 20
6.009885732888227
 30
0.0
 11
4.339364281246156
 21
6.00793008503301
 31
0.0
  0
LINE
  5
1465
330
1F
100
AcDbEntity
  8
0
100
AcDbLine
 10
4.345314865670326
 20
6.012624790044986
 30
0.0
 11
4.342648608278373
 21
6.009885732888227
 31
0.0
  0
LINE
  5
1466
330
1F
100
AcDbEntity
  8
0
100
AcDbLine
 10
4.324822545445741
 20
6.009645648214161
 30
0.0
 11
4.322083488288981
 21
6.012311905606114
 31
0.0
  0
LINE
  5
1467
330
1F
100
AcDbEntity
  8
0
100
AcDbLine
 10
4.32815834968532
 20
6.007779161497529
 30
0.0
 11
4.324822545445741
 21
6.009645648214161
 31
0.0
  0
LINE
  5
1468
330
1F
100
AcDbEntity
  8
0
100
AcDbLine
 10
4.33186357146147
 20
6.006839643441454
 30
0.0
 11
4.32815834968532
 21
6.007779161497529
 31
0.0
  0
LINE
  5
1469
330
1F
100
AcDbEntity
  8
0
100
AcDbLine
 10
4.335685706033313
 20
6.006891120648813
 30
0.0
 11
4.33186357146147
 21
6.006839643441454
 31
0.0
  0
LINE
  5
146A
330
1F
100
AcDbEntity
  8
0
100
AcDbLine
 10
4.339364281246156
 20
6.00793008503301
 30
0.0
 11
4.335685706033313
 21
6.006891120648813
 31
0.0
  0
LINE
  5
146B
330
1F
100
AcDbEntity
  8
0
100
AcDbLine
 10
4.320030916857504
 20
6.014914772929419
 30
0.0
 11
4.320703119341057
 21
6.01463010570436
 31
0.0
  0
LINE
  5
146C
330
1F
100
AcDbEntity
  8
0
100
AcDbLine
 10
4.317942118051364
 20
6.016631033332353
 30
0.0
 11
4.320030916857504
 21
6.014914772929419
 31
0.0
  0
LINE
  5
146D
330
1F
100
AcDbEntity
  8
0
100
AcDbLine
 10
4.31691895608453
 20
6.018671021958702
 30
0.0
 11
4.317942118051364
 21
6.016631033332353
 31
0.0
  0
LINE
  5
146E
330
1F
100
AcDbEntity
  8
0
100
AcDbLine
 10
4.317031157754183
 20
6.020895716954822
 30
0.0
 11
4.31691895608453
 21
6.018671021958702
 31
0.0
  0
LINE
  5
146F
330
1F
100
AcDbEntity
  8
0
100
AcDbLine
 10
4.318271076701954
 20
6.023153509033208
 30
0.0
 11
4.317031157754183
 21
6.020895716954822
 31
0.0
  0
LINE
  5
1470
330
1F
100
AcDbEntity
  8
0
100
AcDbLine
 10
4.319037398842208
 20
6.023870789034257
 30
0.0
 11
4.318271076701954
 21
6.023153509033208
 31
0.0
  0
LINE
  5
1471
330
1F
100
AcDbEntity
  8
0
100
AcDbLine
 10
4.350239313200713
 20
6.02409173652503
 30
0.0
 11
4.349216151233875
 21
6.026131725151381
 31
0.0
  0
LINE
  5
1472
330
1F
100
AcDbEntity
  8
0
100
AcDbLine
 10
4.35012711153106
 20
6.02186704152891
 30
0.0
 11
4.350239313200713
 21
6.02409173652503
 31
0.0
  0
LINE
  5
1473
330
1F
100
AcDbEntity
  8
0
100
AcDbLine
 10
4.349216151233875
 20
6.026131725151381
 30
0.0
 11
4.348120870443034
 21
6.027031662017435
 31
0.0
  0
LINE
  5
1474
330
1F
100
AcDbEntity
  8
0
100
AcDbLine
 10
4.348887192583287
 20
6.019609249450522
 30
0.0
 11
4.35012711153106
 21
6.02186704152891
 31
0.0
  0
LINE
  5
1475
330
1F
100
AcDbEntity
  8
0
100
AcDbLine
 10
4.347863585714083
 20
6.01865115011129
 30
0.0
 11
4.348887192583287
 21
6.019609249450522
 31
0.0
  0
LINE
  5
1476
330
1F
100
AcDbEntity
  8
0
100
AcDbLine
 10
4.356579134642618
 20
6.021381379241863
 30
0.0
 11
4.356579134642618
 21
6.028056115617475
 31
0.0
  0
LINE
  5
1477
330
1F
100
AcDbEntity
  8
0
100
AcDbLine
 10
4.356579134642618
 20
6.028056115617475
 30
0.0
 11
4.356579134642618
 21
6.051582352713833
 31
0.0
  0
LINE
  5
1478
330
1F
100
AcDbEntity
  8
0
100
AcDbLine
 10
4.319037398842208
 20
6.023096942423014
 30
0.0
 11
4.319037398842208
 21
6.023870789034257
 31
0.0
  0
LINE
  5
1479
330
1F
100
AcDbEntity
  8
0
100
AcDbLine
 10
4.348120870443034
 20
6.019665816060719
 30
0.0
 11
4.347863585714083
 21
6.01865115011129
 31
0.0
  0
LINE
  5
147A
330
1F
100
AcDbEntity
  8
0
100
AcDbLine
 10
4.347863585714083
 20
6.01865115011129
 30
0.0
 11
4.347181352386954
 21
6.015960594284569
 31
0.0
  0
LINE
  5
147B
330
1F
100
AcDbEntity
  8
0
100
AcDbLine
 10
4.322083488288981
 20
6.012311905606114
 30
0.0
 11
4.320703119341057
 21
6.01463010570436
 31
0.0
  0
LINE
  5
147C
330
1F
100
AcDbEntity
  8
0
100
AcDbLine
 10
4.320703119341057
 20
6.01463010570436
 30
0.0
 11
4.320127840433766
 21
6.015596232638331
 31
0.0
  0
LINE
  5
147D
330
1F
100
AcDbEntity
  8
0
100
AcDbLine
 10
4.348120870443034
 20
6.019665816060719
 30
0.0
 11
4.348120870443034
 21
6.027031662017435
 31
0.0
  0
LINE
  5
147E
330
1F
100
AcDbEntity
  8
0
100
AcDbLine
 10
4.350239313200713
 20
6.016102700781187
 30
0.0
 11
4.350239313200713
 21
6.02409173652503
 31
0.0
  0
LINE
  5
147F
330
1F
100
AcDbEntity
  8
0
100
AcDbLine
 10
4.31691895608453
 20
6.018671021958702
 30
0.0
 11
4.31691895608453
 21
6.016102700781187
 31
0.0
  0
LINE
  5
1480
330
1F
100
AcDbEntity
  8
0
100
AcDbLine
 10
4.319037398842208
 20
6.046528657152926
 30
0.0
 11
4.319037398842208
 21
6.023870789034257
 31
0.0
  0
LINE
  5
1481
330
1F
100
AcDbEntity
  8
0
100
AcDbLine
 10
4.348120870443034
 20
6.06209187906841
 30
0.0
 11
4.348120870443034
 21
6.027031662017435
 31
0.0
  0
LINE
  5
1482
330
1F
100
AcDbEntity
  8
0
100
AcDbLine
 10
4.831371927155847
 20
6.01938580920365
 30
0.0
 11
4.830588221160496
 21
6.021381379241864
 31
0.0
  0
LINE
  5
1483
330
1F
100
AcDbEntity
  8
0
100
AcDbLine
 10
4.833669636873455
 20
6.017526233965707
 30
0.0
 11
4.831371927155847
 21
6.01938580920365
 31
0.0
  0
LINE
  5
1484
330
1F
100
AcDbEntity
  8
0
100
AcDbLine
 10
4.836928042602405
 20
6.016102700781187
 30
0.0
 11
4.833669636873455
 21
6.017526233965707
 31
0.0
  0
LINE
  5
1485
330
1F
100
AcDbEntity
  8
0
100
AcDbLine
 10
4.873506805447538
 20
6.017526233965707
 30
0.0
 11
4.870248399718587
 21
6.016102700781187
 31
0.0
  0
LINE
  5
1486
330
1F
100
AcDbEntity
  8
0
100
AcDbLine
 10
4.875804515165146
 20
6.01938580920365
 30
0.0
 11
4.873506805447538
 21
6.017526233965707
 31
0.0
  0
LINE
  5
1487
330
1F
100
AcDbEntity
  8
0
100
AcDbLine
 10
4.876588221160494
 20
6.021381379241864
 30
0.0
 11
4.875804515165146
 21
6.01938580920365
 31
0.0
  0
LINE
  5
1488
330
1F
100
AcDbEntity
  8
0
100
AcDbLine
 10
4.830588221160496
 20
6.021381379241864
 30
0.0
 11
4.830588221160496
 21
6.05741333653473
 31
0.0
  0
LINE
  5
1489
330
1F
100
AcDbEntity
  8
0
100
AcDbLine
 10
4.867190438904827
 20
6.015960594284569
 30
0.0
 11
4.865323952188202
 21
6.012624790044987
 31
0.0
  0
LINE
  5
148A
330
1F
100
AcDbEntity
  8
0
100
AcDbLine
 10
4.839097962567443
 20
6.019274807851171
 30
0.0
 11
4.839046485360084
 21
6.023096942423014
 31
0.0
  0
LINE
  5
148B
330
1F
100
AcDbEntity
  8
0
100
AcDbLine
 10
4.84013692695164
 20
6.015596232638331
 30
0.0
 11
4.839097962567443
 21
6.019274807851171
 31
0.0
  0
LINE
  5
148C
330
1F
100
AcDbEntity
  8
0
100
AcDbLine
 10
4.862657694796249
 20
6.009885732888228
 30
0.0
 11
4.859373367764032
 21
6.007930085033011
 31
0.0
  0
LINE
  5
148D
330
1F
100
AcDbEntity
  8
0
100
AcDbLine
 10
4.865323952188202
 20
6.012624790044987
 30
0.0
 11
4.862657694796249
 21
6.009885732888228
 31
0.0
  0
LINE
  5
148E
330
1F
100
AcDbEntity
  8
0
100
AcDbLine
 10
4.844831631963616
 20
6.009645648214162
 30
0.0
 11
4.842092574806857
 21
6.012311905606114
 31
0.0
  0
LINE
  5
148F
330
1F
100
AcDbEntity
  8
0
100
AcDbLine
 10
4.848167436203196
 20
6.007779161497529
 30
0.0
 11
4.844831631963616
 21
6.009645648214162
 31
0.0
  0
LINE
  5
1490
330
1F
100
AcDbEntity
  8
0
100
AcDbLine
 10
4.851872657979345
 20
6.006839643441454
 30
0.0
 11
4.848167436203196
 21
6.007779161497529
 31
0.0
  0
LINE
  5
1491
330
1F
100
AcDbEntity
  8
0
100
AcDbLine
 10
4.85569479255119
 20
6.006891120648814
 30
0.0
 11
4.851872657979345
 21
6.006839643441454
 31
0.0
  0
LINE
  5
1492
330
1F
100
AcDbEntity
  8
0
100
AcDbLine
 10
4.859373367764032
 20
6.007930085033011
 30
0.0
 11
4.85569479255119
 21
6.006891120648814
 31
0.0
  0
LINE
  5
1493
330
1F
100
AcDbEntity
  8
0
100
AcDbLine
 10
4.840040003375378
 20
6.014914772929419
 30
0.0
 11
4.840712205858935
 21
6.01463010570436
 31
0.0
  0
LINE
  5
1494
330
1F
100
AcDbEntity
  8
0
100
AcDbLine
 10
4.83795120456924
 20
6.016631033332353
 30
0.0
 11
4.840040003375378
 21
6.014914772929419
 31
0.0
  0
LINE
  5
1495
330
1F
100
AcDbEntity
  8
0
100
AcDbLine
 10
4.836928042602405
 20
6.018671021958702
 30
0.0
 11
4.83795120456924
 21
6.016631033332353
 31
0.0
  0
LINE
  5
1496
330
1F
100
AcDbEntity
  8
0
100
AcDbLine
 10
4.837040244272056
 20
6.020895716954822
 30
0.0
 11
4.836928042602405
 21
6.018671021958702
 31
0.0
  0
LINE
  5
1497
330
1F
100
AcDbEntity
  8
0
100
AcDbLine
 10
4.838280163219829
 20
6.023153509033209
 30
0.0
 11
4.837040244272056
 21
6.020895716954822
 31
0.0
  0
LINE
  5
1498
330
1F
100
AcDbEntity
  8
0
100
AcDbLine
 10
4.839046485360084
 20
6.023870789034258
 30
0.0
 11
4.838280163219829
 21
6.023153509033209
 31
0.0
  0
LINE
  5
1499
330
1F
100
AcDbEntity
  8
0
100
AcDbLine
 10
4.870248399718587
 20
6.024091736525031
 30
0.0
 11
4.86922523775175
 21
6.026131725151381
 31
0.0
  0
LINE
  5
149A
330
1F
100
AcDbEntity
  8
0
100
AcDbLine
 10
4.870136198048935
 20
6.021867041528911
 30
0.0
 11
4.870248399718587
 21
6.024091736525031
 31
0.0
  0
LINE
  5
149B
330
1F
100
AcDbEntity
  8
0
100
AcDbLine
 10
4.86922523775175
 20
6.026131725151381
 30
0.0
 11
4.86812995696091
 21
6.027031662017436
 31
0.0
  0
LINE
  5
149C
330
1F
100
AcDbEntity
  8
0
100
AcDbLine
 10
4.868896279101164
 20
6.019609249450522
 30
0.0
 11
4.870136198048935
 21
6.021867041528911
 31
0.0
  0
LINE
  5
149D
330
1F
100
AcDbEntity
  8
0
100
AcDbLine
 10
4.867872672231959
 20
6.018651150111291
 30
0.0
 11
4.868896279101164
 21
6.019609249450522
 31
0.0
  0
LINE
  5
149E
330
1F
100
AcDbEntity
  8
0
100
AcDbLine
 10
4.876588221160494
 20
6.021381379241864
 30
0.0
 11
4.876588221160494
 21
6.028056115617475
 31
0.0
  0
LINE
  5
149F
330
1F
100
AcDbEntity
  8
0
100
AcDbLine
 10
4.876588221160494
 20
6.028056115617475
 30
0.0
 11
4.876588221160494
 21
6.040003962326666
 31
0.0
  0
LINE
  5
14A0
330
1F
100
AcDbEntity
  8
0
100
AcDbLine
 10
4.839046485360084
 20
6.023096942423014
 30
0.0
 11
4.839046485360084
 21
6.023870789034258
 31
0.0
  0
LINE
  5
14A1
330
1F
100
AcDbEntity
  8
0
100
AcDbLine
 10
4.86812995696091
 20
6.019665816060719
 30
0.0
 11
4.867872672231959
 21
6.018651150111291
 31
0.0
  0
LINE
  5
14A2
330
1F
100
AcDbEntity
  8
0
100
AcDbLine
 10
4.867872672231959
 20
6.018651150111291
 30
0.0
 11
4.867190438904827
 21
6.015960594284569
 31
0.0
  0
LINE
  5
14A3
330
1F
100
AcDbEntity
  8
0
100
AcDbLine
 10
4.842092574806857
 20
6.012311905606114
 30
0.0
 11
4.840712205858935
 21
6.01463010570436
 31
0.0
  0
LINE
  5
14A4
330
1F
100
AcDbEntity
  8
0
100
AcDbLine
 10
4.840712205858935
 20
6.01463010570436
 30
0.0
 11
4.84013692695164
 21
6.015596232638331
 31
0.0
  0
LINE
  5
14A5
330
1F
100
AcDbEntity
  8
0
100
AcDbLine
 10
4.86812995696091
 20
6.019665816060719
 30
0.0
 11
4.86812995696091
 21
6.027031662017436
 31
0.0
  0
LINE
  5
14A6
330
1F
100
AcDbEntity
  8
0
100
AcDbLine
 10
4.870248399718587
 20
6.016102700781187
 30
0.0
 11
4.870248399718587
 21
6.024091736525031
 31
0.0
  0
LINE
  5
14A7
330
1F
100
AcDbEntity
  8
0
100
AcDbLine
 10
4.836928042602405
 20
6.018671021958702
 30
0.0
 11
4.836928042602405
 21
6.016102700781187
 31
0.0
  0
LINE
  5
14A8
330
1F
100
AcDbEntity
  8
0
100
AcDbLine
 10
4.839046485360084
 20
6.077775359883009
 30
0.0
 11
4.839046485360084
 21
6.023870789034258
 31
0.0
  0
LINE
  5
14A9
330
1F
100
AcDbEntity
  8
0
100
AcDbLine
 10
4.86812995696091
 20
6.043407989224029
 30
0.0
 11
4.86812995696091
 21
6.027031662017436
 31
0.0
  0
LINE
  5
14AA
330
1F
100
AcDbEntity
  8
0
100
AcDbLine
 10
4.439567544359684
 20
6.076188612412456
 30
0.0
 11
4.442335771497859
 21
6.076188612412457
 31
0.0
  0
LINE
  5
14AB
330
1F
100
AcDbEntity
  8
0
100
AcDbLine
 10
4.539567544359687
 20
6.076188612412458
 30
0.0
 11
4.542335771497867
 21
6.076188612412456
 31
0.0
  0
LINE
  5
14AC
330
1F
100
AcDbEntity
  8
0
100
AcDbLine
 10
4.639567544359696
 20
6.076188612412456
 30
0.0
 11
4.642335771497876
 21
6.076188612412456
 31
0.0
  0
LINE
  5
14AD
330
1F
100
AcDbEntity
  8
0
100
AcDbLine
 10
4.739567544359704
 20
6.076188612412456
 30
0.0
 11
4.742335771497895
 21
6.076188612412455
 31
0.0
  0
LINE
  5
14AE
330
1F
100
AcDbEntity
  8
0
100
AcDbLine
 10
4.040951657928754
 20
6.647767536824133
 30
0.0
 11
4.040951657928758
 21
6.669058562901959
 31
0.0
  0
LINE
  5
14AF
330
1F
100
AcDbEntity
  8
0
100
AcDbLine
 10
4.040951657928758
 20
7.264506606423111
 30
0.0
 11
4.040951657928758
 21
6.694832320429487
 31
0.0
  0
LINE
  5
14B0
330
1F
100
AcDbEntity
  8
0
100
AcDbLine
 10
4.040951657928758
 20
6.694832320429487
 30
0.0
 11
4.040951657928758
 21
6.690271766337552
 31
0.0
  0
LINE
  5
14B1
330
1F
100
AcDbEntity
  8
0
100
AcDbLine
 10
5.140951657928814
 20
6.690271766337076
 30
0.0
 11
5.140951657928814
 21
6.694832320429014
 31
0.0
  0
LINE
  5
14B2
330
1F
100
AcDbEntity
  8
0
100
AcDbLine
 10
5.140951657928814
 20
6.694832320429014
 30
0.0
 11
5.140951657928814
 21
7.264506606422628
 31
0.0
  0
LINE
  5
14B3
330
1F
100
AcDbEntity
  8
0
100
AcDbLine
 10
5.140951657928814
 20
6.637318412618416
 30
0.0
 11
5.140951657928814
 21
6.111935921050484
 31
0.0
  0
LINE
  5
14B4
330
1F
100
AcDbEntity
  8
0
100
AcDbLine
 10
4.040951657928754
 20
6.640476935491609
 30
0.0
 11
4.040951657928754
 21
6.647767536824133
 31
0.0
  0
LINE
  5
14B5
330
1F
100
AcDbEntity
  8
0
100
AcDbLine
 10
5.140951657928814
 20
6.669058562901479
 30
0.0
 11
5.140951657928814
 21
6.649070851123127
 31
0.0
  0
LINE
  5
14B6
330
1F
100
AcDbEntity
  8
0
100
AcDbLine
 10
4.040951657928754
 20
6.637318412618895
 30
0.0
 11
4.040951657928754
 21
6.640476935491609
 31
0.0
  0
LINE
  5
14B7
330
1F
100
AcDbEntity
  8
0
100
AcDbLine
 10
5.140951657928814
 20
6.649070851123127
 30
0.0
 11
5.140951657928814
 21
6.640476935491136
 31
0.0
  0
LINE
  5
14B8
330
1F
100
AcDbEntity
  8
0
100
AcDbLine
 10
5.140951657928814
 20
6.640476935491136
 30
0.0
 11
5.140951657928814
 21
6.637318412618416
 31
0.0
  0
LINE
  5
14B9
330
1F
100
AcDbEntity
  8
0
100
AcDbLine
 10
4.040951657928758
 20
6.11193592105095
 30
0.0
 11
4.040951657928754
 21
6.637318412618895
 31
0.0
  0
LINE
  5
14BA
330
1F
100
AcDbEntity
  8
0
100
AcDbLine
 10
4.040951657928758
 20
7.28837450167029
 30
0.0
 11
4.040951657928758
 21
7.264506606423111
 31
0.0
  0
LINE
  5
14BB
330
1F
100
AcDbEntity
  8
0
100
AcDbLine
 10
5.140951657928814
 20
7.28837450166981
 30
0.0
 11
5.140951657928814
 21
7.264506606422628
 31
0.0
  0
LINE
  5
14BC
330
1F
100
AcDbEntity
  8
0
100
AcDbLine
 10
5.140951657928814
 20
6.088779289081664
 30
0.0
 11
5.140951657928814
 21
6.111935921050484
 31
0.0
  0
LINE
  5
14BD
330
1F
100
AcDbEntity
  8
0
100
AcDbLine
 10
4.040951657928758
 20
6.088779289082136
 30
0.0
 11
4.040951657928758
 21
6.11193592105095
 31
0.0
  0
LINE
  5
14BE
330
1F
100
AcDbEntity
  8
0
100
AcDbLine
 10
5.040951657928815
 20
6.669058562901479
 30
0.0
 11
5.040951657928806
 21
6.088779289081664
 31
0.0
  0
LINE
  5
14BF
330
1F
100
AcDbEntity
  8
0
100
AcDbLine
 10
4.940951657928806
 20
6.088779289081664
 30
0.0
 11
4.940951657928806
 21
6.669058562901479
 31
0.0
  0
LINE
  5
14C0
330
1F
100
AcDbEntity
  8
0
100
AcDbLine
 10
4.840951657928806
 20
6.669058562901479
 30
0.0
 11
4.840951657928805
 21
6.088779289081664
 31
0.0
  0
ARC
  5
14C1
330
1F
100
AcDbEntity
  8
0
100
AcDbCircle
 10
5.09095165792881
 20
6.087904453160227
 30
0.0
 40
0.0500076527932462
100
AcDbArc
 50
178.99761415887
 51
1.002385841130861
  0
ARC
  5
14C2
330
1F
100
AcDbEntity
  8
0
100
AcDbCircle
 10
4.9909516579288
 20
6.087904453160195
 30
0.0
 40
0.0500076527932462
100
AcDbArc
 50
178.99761415887
 51
1.002385841130963
  0
ARC
  5
14C3
330
1F
100
AcDbEntity
  8
0
100
AcDbCircle
 10
4.890951657928791
 20
6.087904453160195
 30
0.0
 40
0.0500076527932462
100
AcDbArc
 50
178.99761415887
 51
1.002385841130963
  0
LINE
  5
14C4
330
1F
100
AcDbEntity
  8
0
100
AcDbLine
 10
4.740951657928803
 20
6.669058562901479
 30
0.0
 11
4.740951657928796
 21
6.088779289081664
 31
0.0
  0
LINE
  5
14C5
330
1F
100
AcDbEntity
  8
0
100
AcDbLine
 10
4.640951657928795
 20
6.088779289081664
 30
0.0
 11
4.640951657928795
 21
6.669058562901479
 31
0.0
  0
LINE
  5
14C6
330
1F
100
AcDbEntity
  8
0
100
AcDbLine
 10
4.540951657928797
 20
6.669058562901479
 30
0.0
 11
4.540951657928793
 21
6.088779289081664
 31
0.0
  0
ARC
  5
14C7
330
1F
100
AcDbEntity
  8
0
100
AcDbCircle
 10
4.7909516579288
 20
6.087904453160227
 30
0.0
 40
0.0500076527932462
100
AcDbArc
 50
178.99761415887
 51
1.002385841130963
  0
ARC
  5
14C8
330
1F
100
AcDbEntity
  8
0
100
AcDbCircle
 10
4.69095165792879
 20
6.087904453160195
 30
0.0
 40
0.0500076527932462
100
AcDbArc
 50
178.99761415887
 51
1.002385841130963
  0
ARC
  5
14C9
330
1F
100
AcDbEntity
  8
0
100
AcDbCircle
 10
4.590951657928782
 20
6.087904453160195
 30
0.0
 40
0.0500076527932462
100
AcDbArc
 50
178.99761415887
 51
1.002385841130963
  0
LINE
  5
14CA
330
1F
100
AcDbEntity
  8
0
100
AcDbLine
 10
4.440951657928778
 20
6.669058562901447
 30
0.0
 11
4.440951657928769
 21
6.088779289081632
 31
0.0
  0
LINE
  5
14CB
330
1F
100
AcDbEntity
  8
0
100
AcDbLine
 10
4.340951657928769
 20
6.088779289081632
 30
0.0
 11
4.340951657928769
 21
6.669058562901447
 31
0.0
  0
LINE
  5
14CC
330
1F
100
AcDbEntity
  8
0
100
AcDbLine
 10
4.24095165792877
 20
6.669058562901447
 30
0.0
 11
4.240951657928768
 21
6.088779289081632
 31
0.0
  0
ARC
  5
14CD
330
1F
100
AcDbEntity
  8
0
100
AcDbCircle
 10
4.490951657928773
 20
6.087904453160192
 30
0.0
 40
0.0500076527932462
100
AcDbArc
 50
178.99761415887
 51
1.002385841130963
  0
ARC
  5
14CE
330
1F
100
AcDbEntity
  8
0
100
AcDbCircle
 10
4.390951657928763
 20
6.087904453160163
 30
0.0
 40
0.0500076527932462
100
AcDbArc
 50
178.99761415887
 51
1.002385841130963
  0
ARC
  5
14CF
330
1F
100
AcDbEntity
  8
0
100
AcDbCircle
 10
4.290951657928754
 20
6.08790445316016
 30
0.0
 40
0.0500076527932462
100
AcDbArc
 50
178.99761415887
 51
1.002385841130963
  0
LINE
  5
14D0
330
1F
100
AcDbEntity
  8
0
100
AcDbLine
 10
4.140951657928766
 20
6.669058562901447
 30
0.0
 11
4.140951657928759
 21
6.088779289081628
 31
0.0
  0
LINE
  5
14D1
330
1F
100
AcDbEntity
  8
0
100
AcDbLine
 10
4.040951657928758
 20
6.088779289081628
 30
0.0
 11
4.040951657928758
 21
6.669058562901447
 31
0.0
  0
ARC
  5
14D2
330
1F
100
AcDbEntity
  8
0
100
AcDbCircle
 10
4.190951657928764
 20
6.087904453160192
 30
0.0
 40
0.0500076527932462
100
AcDbArc
 50
178.99761415887
 51
1.002385841130963
  0
ARC
  5
14D3
330
1F
100
AcDbEntity
  8
0
100
AcDbCircle
 10
4.090951657928753
 20
6.08790445316016
 30
0.0
 40
0.0500076527932462
100
AcDbArc
 50
178.99761415887
 51
1.002385841130963
  0
LINE
  5
14D4
330
1F
100
AcDbEntity
  8
0
100
AcDbLine
 10
4.140951657928749
 20
6.708095227849931
 30
0.0
 11
4.140951657928757
 21
7.288374501669746
 31
0.0
  0
LINE
  5
14D5
330
1F
100
AcDbEntity
  8
0
100
AcDbLine
 10
4.240951657928757
 20
7.288374501669746
 30
0.0
 11
4.240951657928757
 21
6.708095227849931
 31
0.0
  0
LINE
  5
14D6
330
1F
100
AcDbEntity
  8
0
100
AcDbLine
 10
4.340951657928757
 20
6.708095227849931
 30
0.0
 11
4.340951657928759
 21
7.288374501669746
 31
0.0
  0
LINE
  5
14D7
330
1F
100
AcDbEntity
  8
0
100
AcDbLine
 10
4.44095165792876
 20
6.708095227849931
 30
0.0
 11
4.440951657928767
 21
7.288374501669746
 31
0.0
  0
LINE
  5
14D8
330
1F
100
AcDbEntity
  8
0
100
AcDbLine
 10
4.540951657928768
 20
7.288374501669746
 30
0.0
 11
4.540951657928768
 21
6.708095227849931
 31
0.0
  0
LINE
  5
14D9
330
1F
100
AcDbEntity
  8
0
100
AcDbLine
 10
4.640951657928766
 20
6.708095227849931
 30
0.0
 11
4.64095165792877
 21
7.288374501669746
 31
0.0
  0
LINE
  5
14DA
330
1F
100
AcDbEntity
  8
0
100
AcDbLine
 10
4.740951657928786
 20
6.708095227849963
 30
0.0
 11
4.740951657928794
 21
7.288374501669778
 31
0.0
  0
LINE
  5
14DB
330
1F
100
AcDbEntity
  8
0
100
AcDbLine
 10
4.840951657928794
 20
7.288374501669778
 30
0.0
 11
4.840951657928794
 21
6.708095227849963
 31
0.0
  0
LINE
  5
14DC
330
1F
100
AcDbEntity
  8
0
100
AcDbLine
 10
4.940951657928794
 20
6.708095227849963
 30
0.0
 11
4.940951657928795
 21
7.288374501669778
 31
0.0
  0
LINE
  5
14DD
330
1F
100
AcDbEntity
  8
0
100
AcDbLine
 10
5.040951657928797
 20
6.708095227849963
 30
0.0
 11
5.0409516579288
 21
7.029092948761454
 31
0.0
  0
LINE
  5
14DE
330
1F
100
AcDbEntity
  8
0
100
AcDbLine
 10
5.240951657928823
 20
6.694832320429025
 30
0.0
 11
5.240951657928823
 21
7.264506606422639
 31
0.0
  0
LINE
  5
14DF
330
1F
100
AcDbEntity
  8
0
100
AcDbLine
 10
5.240951657928823
 20
6.637318412618427
 30
0.0
 11
5.240951657928823
 21
6.111935921050495
 31
0.0
  0
LINE
  5
14E0
330
1F
100
AcDbEntity
  8
0
100
AcDbLine
 10
5.240951657928823
 20
6.66905856290149
 30
0.0
 11
5.240951657928823
 21
6.649070851123138
 31
0.0
  0
LINE
  5
14E1
330
1F
100
AcDbEntity
  8
0
100
AcDbLine
 10
5.240951657928823
 20
6.649070851123138
 30
0.0
 11
5.240951657928823
 21
6.640476935491147
 31
0.0
  0
LINE
  5
14E2
330
1F
100
AcDbEntity
  8
0
100
AcDbLine
 10
5.240951657928823
 20
6.640476935491147
 30
0.0
 11
5.240951657928823
 21
6.637318412618427
 31
0.0
  0
LINE
  5
14E3
330
1F
100
AcDbEntity
  8
0
100
AcDbLine
 10
5.240951657928823
 20
7.288374501669821
 30
0.0
 11
5.240951657928823
 21
7.264506606422639
 31
0.0
  0
LINE
  5
14E4
330
1F
100
AcDbEntity
  8
0
100
AcDbLine
 10
5.240951657928823
 20
6.088779289081674
 30
0.0
 11
5.240951657928823
 21
6.111935921050495
 31
0.0
  0
ARC
  5
14E5
330
1F
100
AcDbEntity
  8
0
100
AcDbCircle
 10
5.190951657928819
 20
6.087904453160234
 30
0.0
 40
0.0500076527932462
100
AcDbArc
 50
178.99761415887
 51
1.002385841130861
  0
LINE
  5
14E6
330
1F
100
AcDbEntity
  8
0
100
AcDbLine
 10
5.240951657928823
 20
6.694832320429025
 30
0.0
 11
5.240951657928823
 21
6.66905856290149
 31
0.0
  0
LINE
  5
14E7
330
1F
100
AcDbEntity
  8
0
100
AcDbLine
 10
3.94095165792876
 20
7.264506606423655
 30
0.0
 11
3.94095165792876
 21
6.69483232043003
 31
0.0
  0
LINE
  5
14E8
330
1F
100
AcDbEntity
  8
0
100
AcDbLine
 10
3.94095165792876
 20
7.288374501670833
 30
0.0
 11
3.94095165792876
 21
7.264506606423655
 31
0.0
  0
LINE
  5
14E9
330
1F
100
AcDbEntity
  8
0
100
AcDbLine
 10
3.94095165792876
 20
6.088779289082172
 30
0.0
 11
3.94095165792876
 21
6.669058562901991
 31
0.0
  0
ARC
  5
14EA
330
1F
100
AcDbEntity
  8
0
100
AcDbCircle
 10
3.990951657928754
 20
6.087904453160703
 30
0.0
 40
0.0500076527932462
100
AcDbArc
 50
178.99761415887
 51
1.002385841130963
  0
CIRCLE
  5
14EB
330
1F
100
AcDbEntity
  8
0
100
AcDbCircle
 10
5.184500381695752
 20
6.194310714840412
 30
0.0
 40
0.01089627287962
  0
CIRCLE
  5
14EC
330
1F
100
AcDbEntity
  8
0
100
AcDbCircle
 10
5.0865246656566
 20
6.194310714840412
 30
0.0
 40
0.01089627287962
  0
CIRCLE
  5
14ED
330
1F
100
AcDbEntity
  8
0
100
AcDbCircle
 10
4.988548949617452
 20
6.194310714840412
 30
0.0
 40
0.01089627287962
  0
CIRCLE
  5
14EE
330
1F
100
AcDbEntity
  8
0
100
AcDbCircle
 10
4.887851707770856
 20
6.194310714840412
 30
0.0
 40
0.01089627287962
  0
CIRCLE
  5
14EF
330
1F
100
AcDbEntity
  8
0
100
AcDbCircle
 10
4.789875991731705
 20
6.194310714840412
 30
0.0
 40
0.01089627287962
  0
CIRCLE
  5
14F0
330
1F
100
AcDbEntity
  8
0
100
AcDbCircle
 10
4.691900275692553
 20
6.194310714840412
 30
0.0
 40
0.01089627287962
  0
CIRCLE
  5
14F1
330
1F
100
AcDbEntity
  8
0
100
AcDbCircle
 10
4.591203033845957
 20
6.194310714840412
 30
0.0
 40
0.01089627287962
  0
CIRCLE
  5
14F2
330
1F
100
AcDbEntity
  8
0
100
AcDbCircle
 10
4.490505769514474
 20
6.194310714840412
 30
0.0
 40
0.01089627287962
  0
CIRCLE
  5
14F3
330
1F
100
AcDbEntity
  8
0
100
AcDbCircle
 10
4.38980850518299
 20
6.194310714840412
 30
0.0
 40
0.01089627287962
  0
CIRCLE
  5
14F4
330
1F
100
AcDbEntity
  8
0
100
AcDbCircle
 10
4.291832811628726
 20
6.194310714840412
 30
0.0
 40
0.01089627287962
  0
CIRCLE
  5
14F5
330
1F
100
AcDbEntity
  8
0
100
AcDbCircle
 10
4.191808519978689
 20
6.194132239761977
 30
0.0
 40
0.01089627287962
  0
CIRCLE
  5
14F6
330
1F
100
AcDbEntity
  8
0
100
AcDbCircle
 10
4.09332136268955
 20
6.198418262773827
 30
0.0
 40
0.01089627287962
  0
CIRCLE
  5
14F7
330
1F
100
AcDbEntity
  8
0
100
AcDbCircle
 10
3.992693194417206
 20
6.200561250451301
 30
0.0
 40
0.01089627287962
  0
CIRCLE
  5
14F8
330
1F
100
AcDbEntity
  8
0
100
AcDbCircle
 10
5.184893597407516
 20
7.170058226024274
 30
0.0
 40
0.01089627287962
  0
CIRCLE
  5
14F9
330
1F
100
AcDbEntity
  8
0
100
AcDbCircle
 10
5.086917881368364
 20
7.170058226024274
 30
0.0
 40
0.01089627287962
  0
CIRCLE
  5
14FA
330
1F
100
AcDbEntity
  8
0
100
AcDbCircle
 10
4.988942165329216
 20
7.170058226024274
 30
0.0
 40
0.01089627287962
  0
CIRCLE
  5
14FB
330
1F
100
AcDbEntity
  8
0
100
AcDbCircle
 10
4.88824492348262
 20
7.170058226024274
 30
0.0
 40
0.01089627287962
  0
CIRCLE
  5
14FC
330
1F
100
AcDbEntity
  8
0
100
AcDbCircle
 10
4.790269207443468
 20
7.170058226024274
 30
0.0
 40
0.01089627287962
  0
CIRCLE
  5
14FD
330
1F
100
AcDbEntity
  8
0
100
AcDbCircle
 10
4.692293491404317
 20
7.170058226024274
 30
0.0
 40
0.01089627287962
  0
CIRCLE
  5
14FE
330
1F
100
AcDbEntity
  8
0
100
AcDbCircle
 10
4.591596249557721
 20
7.170058226024274
 30
0.0
 40
0.01089627287962
  0
CIRCLE
  5
14FF
330
1F
100
AcDbEntity
  8
0
100
AcDbCircle
 10
4.490898985226237
 20
7.170058226024274
 30
0.0
 40
0.01089627287962
  0
CIRCLE
  5
1500
330
1F
100
AcDbEntity
  8
0
100
AcDbCircle
 10
4.390201720894754
 20
7.170058226024274
 30
0.0
 40
0.01089627287962
  0
CIRCLE
  5
1501
330
1F
100
AcDbEntity
  8
0
100
AcDbCircle
 10
4.29222602734049
 20
7.170058226024274
 30
0.0
 40
0.01089627287962
  0
CIRCLE
  5
1502
330
1F
100
AcDbEntity
  8
0
100
AcDbCircle
 10
4.192201735690453
 20
7.169879750945838
 30
0.0
 40
0.01089627287962
  0
CIRCLE
  5
1503
330
1F
100
AcDbEntity
  8
0
100
AcDbCircle
 10
4.093714578401314
 20
7.174165773957689
 30
0.0
 40
0.01089627287962
  0
CIRCLE
  5
1504
330
1F
100
AcDbEntity
  8
0
100
AcDbCircle
 10
3.99308641012897
 20
7.176308761635162
 30
0.0
 40
0.01089627287962
  0
LINE
  5
1505
330
1F
100
AcDbEntity
  8
0
100
AcDbLine
 10
5.240951657928823
 20
7.288374501669828
 30
0.0
 11
3.94095165792876
 21
7.288374501669659
 31
0.0
  0
LINE
  5
1506
330
1F
100
AcDbEntity
  8
0
100
AcDbLine
 10
3.94095165792876
 20
6.69483232043003
 30
0.0
 11
3.94095165792876
 21
6.669058562901991
 31
0.0
  0
LINE
  5
1507
330
1F
100
AcDbEntity
  8
0
100
AcDbLine
 10
4.040951657928758
 20
6.669058562901959
 30
0.0
 11
4.040951657928758
 21
6.690271766337552
 31
0.0
  0
LINE
  5
1508
330
1F
100
AcDbEntity
  8
0
100
AcDbLine
 10
4.140951657928749
 20
6.708095227849931
 30
0.0
 11
4.140951657928766
 21
6.669058562901447
 31
0.0
  0
LINE
  5
1509
330
1F
100
AcDbEntity
  8
0
100
AcDbLine
 10
4.24095165792877
 20
6.669058562901447
 30
0.0
 11
4.240951657928757
 21
6.708095227849931
 31
0.0
  0
LINE
  5
150A
330
1F
100
AcDbEntity
  8
0
100
AcDbLine
 10
4.340951657928757
 20
6.708095227849931
 30
0.0
 11
4.340951657928769
 21
6.669058562901447
 31
0.0
  0
LINE
  5
150B
330
1F
100
AcDbEntity
  8
0
100
AcDbLine
 10
4.440951657928778
 20
6.669058562901447
 30
0.0
 11
4.44095165792876
 21
6.708095227849931
 31
0.0
  0
LINE
  5
150C
330
1F
100
AcDbEntity
  8
0
100
AcDbLine
 10
4.540951657928768
 20
6.708095227849931
 30
0.0
 11
4.540951657928797
 21
6.669058562901479
 31
0.0
  0
LINE
  5
150D
330
1F
100
AcDbEntity
  8
0
100
AcDbLine
 10
4.640951657928795
 20
6.669058562901479
 30
0.0
 11
4.640951657928766
 21
6.708095227849931
 31
0.0
  0
LINE
  5
150E
330
1F
100
AcDbEntity
  8
0
100
AcDbLine
 10
4.740951657928786
 20
6.708095227849963
 30
0.0
 11
4.740951657928803
 21
6.669058562901479
 31
0.0
  0
LINE
  5
150F
330
1F
100
AcDbEntity
  8
0
100
AcDbLine
 10
4.840951657928806
 20
6.669058562901479
 30
0.0
 11
4.840951657928794
 21
6.708095227849963
 31
0.0
  0
LINE
  5
1510
330
1F
100
AcDbEntity
  8
0
100
AcDbLine
 10
4.940951657928794
 20
6.708095227849963
 30
0.0
 11
4.940951657928806
 21
6.669058562901479
 31
0.0
  0
LINE
  5
1511
330
1F
100
AcDbEntity
  8
0
100
AcDbLine
 10
5.040951657928815
 20
6.669058562901479
 30
0.0
 11
5.040951657928797
 21
6.708095227849963
 31
0.0
  0
LINE
  5
1512
330
1F
100
AcDbEntity
  8
0
100
AcDbLine
 10
5.140951657928814
 20
6.694832320429014
 30
0.0
 11
5.140951657928814
 21
6.669058562901479
 31
0.0
  0
LINE
  5
1513
330
1F
100
AcDbEntity
  8
0
100
AcDbLine
 10
4.356579134642615
 20
5.036936783001697
 30
0.0
 11
4.355795428647269
 21
6.019385809203649
 31
0.0
  0
LINE
  5
1514
330
1F
100
AcDbEntity
  8
0
100
AcDbLine
 10
4.310579134642621
 20
6.021381379241863
 30
0.0
 11
4.310579134642617
 21
5.036936783001697
 31
0.0
  0
LINE
  5
1515
330
1F
100
AcDbEntity
  8
0
100
AcDbLine
 10
4.316918956084526
 20
5.031658104541021
 30
0.0
 11
4.31691895608453
 21
6.016102700781187
 31
0.0
  0
LINE
  5
1516
330
1F
100
AcDbEntity
  8
0
100
AcDbLine
 10
4.35023931320071
 20
5.031658104541021
 30
0.0
 11
4.350239313200713
 21
6.016102700781187
 31
0.0
  0
LINE
  5
1517
330
1F
100
AcDbEntity
  8
0
100
AcDbLine
 10
4.87658822116049
 20
5.036936783001698
 30
0.0
 11
4.876588221160494
 21
6.021381379241864
 31
0.0
  0
LINE
  5
1518
330
1F
100
AcDbEntity
  8
0
100
AcDbLine
 10
4.830588221160496
 20
6.021381379241864
 30
0.0
 11
4.830588221160493
 21
5.036936783001698
 31
0.0
  0
LINE
  5
1519
330
1F
100
AcDbEntity
  8
0
100
AcDbLine
 10
4.870248399718583
 20
5.031658104541021
 30
0.0
 11
4.870248399718587
 21
6.016102700781187
 31
0.0
  0
LINE
  5
151A
330
1F
100
AcDbEntity
  8
0
100
AcDbLine
 10
4.836928042602405
 20
6.016102700781187
 30
0.0
 11
4.836928042602401
 21
5.031658104541021
 31
0.0
  0
LINE
  5
151B
330
1F
100
AcDbEntity
  8
0
100
AcDbLine
 10
3.94095165792876
 20
6.986690951679103
 30
0.0
 11
3.94095165792876
 21
6.402490951679132
 31
0.0
  0
LINE
  5
1546
330
1F
100
AcDbEntity
  8
0
100
AcDbLine
 10
5.372095735459863
 20
6.936527267545633
 30
0.0
 11
5.372095735459863
 21
6.929006561981354
 31
0.0
  0
ARC
  5
1547
330
1F
100
AcDbEntity
  8
0
100
AcDbCircle
 10
5.16031689865319
 20
6.894525376947215
 30
0.0
 40
0.2159037622021181
100
AcDbArc
 50
11.21784554596365
 51
68.0698885819903
  0
ARC
  5
1548
330
1F
100
AcDbEntity
  8
0
100
AcDbCircle
 10
5.161796547231604
 20
6.898867218328431
 30
0.0
 40
0.172945637548428
100
AcDbArc
 50
10.03621556097296
 51
62.76200311054832
  0
LINE
  5
1549
330
1F
100
AcDbEntity
  8
0
100
AcDbLine
 10
5.332095735459862
 20
6.929006561981354
 30
0.0
 11
5.332095735459864
 21
6.653920978087089
 31
0.0
  0
LINE
  5
154A
330
1F
100
AcDbEntity
  8
0
100
AcDbLine
 10
5.372095735459895
 20
6.653920978087088
 30
0.0
 11
5.372095735459863
 21
6.936527267545633
 31
0.0
  0
LINE
  5
154B
330
1F
100
AcDbEntity
  8
0
100
AcDbLine
 10
5.372095735459863
 20
6.371314688628542
 30
0.0
 11
5.372095735459863
 21
6.378835394192822
 31
0.0
  0
ARC
  5
154C
330
1F
100
AcDbEntity
  8
0
100
AcDbCircle
 10
5.16031689865319
 20
6.413316579226961
 30
0.0
 40
0.2159037622021181
100
AcDbArc
 50
291.9301114180099
 51
348.7821544540363
  0
ARC
  5
154D
330
1F
100
AcDbEntity
  8
0
100
AcDbCircle
 10
5.161796547231604
 20
6.408974737845744
 30
0.0
 40
0.172945637548428
100
AcDbArc
 50
297.2379968894519
 51
349.963784439027
  0
LINE
  5
154E
330
1F
100
AcDbEntity
  8
0
100
AcDbLine
 10
5.332095735459862
 20
6.378835394192822
 30
0.0
 11
5.332095735459864
 21
6.653920978087086
 31
0.0
  0
LINE
  5
154F
330
1F
100
AcDbEntity
  8
0
100
AcDbLine
 10
5.372095735459895
 20
6.653920978087088
 30
0.0
 11
5.372095735459863
 21
6.371314688628542
 31
0.0
  0
LINE
  5
1550
330
1F
100
AcDbEntity
  8
0
100
AcDbLine
 10
5.140951657928814
 20
6.088779289081672
 30
0.0
 11
5.140951657928814
 21
4.588779289081672
 31
0.0
  0
LINE
  5
1553
330
1F
100
AcDbEntity
  8
0
100
AcDbLine
 10
5.140951657928814
 20
4.588779289081672
 30
0.0
 11
5.120951657928815
 21
4.588779289081672
 31
0.0
  0
LINE
  5
1554
330
1F
100
AcDbEntity
  8
0
100
AcDbLine
 10
5.120951657928815
 20
4.588779289081672
 30
0.0
 11
5.12095165792881
 21
6.047894887580358
 31
0.0
  0
LINE
  5
155E
330
1F
100
AcDbEntity
  8
0
100
AcDbLine
 10
4.040951657928758
 20
6.088779289082166
 30
0.0
 11
4.040951657928758
 21
4.588779289082166
 31
0.0
  0
LINE
  5
155F
330
1F
100
AcDbEntity
  8
0
100
AcDbLine
 10
4.060951657928757
 20
4.588779289082166
 30
0.0
 11
4.040951657928758
 21
4.588779289082166
 31
0.0
  0
LINE
  5
1560
330
1F
100
AcDbEntity
  8
0
100
AcDbLine
 10
4.060951657928757
 20
4.588779289082166
 30
0.0
 11
4.060951657928753
 21
6.047894887580853
 31
0.0
  0
LINE
  5
1562
330
1F
100
AcDbEntity
  8
0
100
AcDbLine
 10
5.140951657928814
 20
7.288374501669815
 30
0.0
 11
5.140951657928814
 21
8.288374501669814
 31
0.0
  0
LINE
  5
1563
330
1F
100
AcDbEntity
  8
0
100
AcDbLine
 10
5.140951657928814
 20
8.288374501669814
 30
0.0
 11
5.120951657928815
 21
8.288374501669814
 31
0.0
  0
LINE
  5
1564
330
1F
100
AcDbEntity
  8
0
100
AcDbLine
 10
5.120951657928815
 20
8.288374501669814
 30
0.0
 11
5.120951657928815
 21
7.288374501669814
 31
0.0
  0
LINE
  5
1565
330
1F
100
AcDbEntity
  8
0
100
AcDbLine
 10
4.040951657928758
 20
7.28837450167029
 30
0.0
 11
4.040951657928758
 21
8.28837450167029
 31
0.0
  0
LINE
  5
1566
330
1F
100
AcDbEntity
  8
0
100
AcDbLine
 10
4.040951657928758
 20
8.28837450167029
 30
0.0
 11
4.060951657928757
 21
8.28837450167029
 31
0.0
  0
LINE
  5
1567
330
1F
100
AcDbEntity
  8
0
100
AcDbLine
 10
4.060951657928757
 20
8.28837450167029
 30
0.0
 11
4.060951657928757
 21
7.28837450167029
 31
0.0
  0
LINE
  5
1569
330
1F
100
AcDbEntity
  8
0
100
AcDbLine
 10
5.120951657928815
 20
8.072162985812616
 30
0.0
 11
5.120951657928815
 21
7.972162985812616
 31
0.0
  0
LINE
  5
156B
330
1F
100
AcDbEntity
  8
0
100
AcDbLine
 10
4.060951657928757
 20
8.072162985812639
 30
0.0
 11
4.160951657928757
 21
8.072162985812639
 31
0.0
  0
LINE
  5
156C
330
1F
100
AcDbEntity
  8
0
100
AcDbLine
 10
4.160951657928757
 20
8.072162985812639
 30
0.0
 11
4.160951657928757
 21
7.972162985812639
 31
0.0
  0
LINE
  5
156D
330
1F
100
AcDbEntity
  8
0
100
AcDbLine
 10
4.160951657928757
 20
7.972162985812639
 30
0.0
 11
4.060951657928757
 21
7.972162985812629
 31
0.0
  0
LINE
  5
156E
330
1F
100
AcDbEntity
  8
0
100
AcDbLine
 10
5.120951657928815
 20
8.072162985812616
 30
0.0
 11
5.020951657928815
 21
8.072162985812616
 31
0.0
  0
LINE
  5
156F
330
1F
100
AcDbEntity
  8
0
100
AcDbLine
 10
5.020951657928815
 20
8.072162985812616
 30
0.0
 11
5.020951657928815
 21
7.972162985812616
 31
0.0
  0
LINE
  5
1570
330
1F
100
AcDbEntity
  8
0
100
AcDbLine
 10
5.020951657928815
 20
7.972162985812616
 30
0.0
 11
5.120951657928815
 21
7.972162985812616
 31
0.0
  0
LINE
  5
1571
330
1F
100
AcDbEntity
  8
0
100
AcDbLine
 10
4.160951657928757
 20
8.042790117931644
 30
0.0
 11
5.020951657928815
 21
8.042790117931639
 31
0.0
  0
LINE
  5
1579
330
1F
100
AcDbEntity
  8
0
100
AcDbLine
 10
4.160951657928757
 20
7.998249640285875
 30
0.0
 11
5.020951657928815
 21
7.99824964028587
 31
0.0
  0
LINE
  5
157A
330
1F
100
AcDbEntity
  8
0
100
AcDbLine
 10
5.013938440023432
 20
7.12909294876146
 30
0.0
 11
5.113938440023432
 21
7.12909294876146
 31
0.0
  0
LINE
  5
157B
330
1F
100
AcDbEntity
  8
0
100
AcDbLine
 10
5.113938440023432
 20
7.12909294876146
 30
0.0
 11
5.113938440023432
 21
7.02909294876146
 31
0.0
  0
LINE
  5
157C
330
1F
100
AcDbEntity
  8
0
100
AcDbLine
 10
5.113938440023432
 20
7.02909294876146
 30
0.0
 11
5.013938440023433
 21
7.029092948761452
 31
0.0
  0
LINE
  5
157D
330
1F
100
AcDbEntity
  8
0
100
AcDbLine
 10
5.013938440023433
 20
7.029092948761452
 30
0.0
 11
5.013938440023432
 21
7.12909294876146
 31
0.0
  0
LINE
  5
157E
330
1F
100
AcDbEntity
  8
0
100
AcDbLine
 10
5.040951657928802
 20
7.129092948761461
 30
0.0
 11
5.040951657928804
 21
7.288374501669782
 31
0.0
  0
LINE
  5
158B
330
1F
100
AcDbEntity
  8
0
100
AcDbLine
 10
4.060951667696463
 20
4.961226195649587
 30
0.0
 11
4.160951667696463
 21
4.961226195649587
 31
0.0
  0
LINE
  5
158C
330
1F
100
AcDbEntity
  8
0
100
AcDbLine
 10
4.160951667696463
 20
4.961226195649587
 30
0.0
 11
4.160951667696463
 21
4.861226195649587
 31
0.0
  0
LINE
  5
158D
330
1F
100
AcDbEntity
  8
0
100
AcDbLine
 10
4.160951667696463
 20
4.861226195649587
 30
0.0
 11
4.060951667696463
 21
4.861226195649577
 31
0.0
  0
LINE
  5
158E
330
1F
100
AcDbEntity
  8
0
100
AcDbLine
 10
5.12095166769652
 20
4.961226195649564
 30
0.0
 11
5.020951667696521
 21
4.961226195649564
 31
0.0
  0
LINE
  5
158F
330
1F
100
AcDbEntity
  8
0
100
AcDbLine
 10
5.020951667696521
 20
4.961226195649564
 30
0.0
 11
5.020951667696521
 21
4.861226195649564
 31
0.0
  0
LINE
  5
1590
330
1F
100
AcDbEntity
  8
0
100
AcDbLine
 10
5.020951667696521
 20
4.861226195649564
 30
0.0
 11
5.12095166769652
 21
4.861226195649564
 31
0.0
  0
LINE
  5
159C
330
1F
100
AcDbEntity
  8
STREFA BEZPIECZEŃSTWA
100
AcDbLine
 10
4.060951657928757
 20
9.859407011657182
 30
0.0
 11
2.356374271305101
 21
9.859407011657182
 31
0.0
  0
LINE
  5
159D
102
{ACAD_REACTORS
330
15D0
102
}
330
1F
100
AcDbEntity
  8
STREFA BEZPIECZEŃSTWA
100
AcDbLine
 10
2.356374271305101
 20
9.859407011657182
 30
0.0
 11
6.8563742713051
 21
9.859407011657182
 31
0.0
  0
LINE
  5
159E
102
{ACAD_REACTORS
330
15B5
330
15D0
102
}
330
1F
100
AcDbEntity
  8
STREFA BEZPIECZEŃSTWA
100
AcDbLine
 10
2.356374271305101
 20
9.859407011657182
 30
0.0
 11
2.356374271305101
 21
2.210070044583746
 31
0.0
  0
LINE
  5
159F
330
1F
100
AcDbEntity
  8
STREFA BEZPIECZEŃSTWA
100
AcDbLine
 10
6.8563742713051
 20
9.78837450167029
 30
0.0
 11
6.856374271305083
 21
2.139037534596853
 31
0.0
  0
LINE
  5
15A0
102
{ACAD_REACTORS
330
15B5
102
}
330
1F
100
AcDbEntity
  8
STREFA BEZPIECZEŃSTWA
100
AcDbLine
 10
6.856374271305083
 20
2.139037534596853
 30
0.0
 11
2.356374271305101
 21
2.139037534596853
 31
0.0
  0
DIMENSION
  5
15A2
102
{ACAD_XDICTIONARY
360
15AD
102
}
102
{ACAD_REACTORS
330
15B5
102
}
330
1F
100
AcDbEntity
  8
WYMIAR
100
AcDbDimension
  2
*D5
 10
1.470493284909878
 20
2.139037534596853
 30
0.0
 11
1.258214064130657
 21
5.999222273127018
 31
0.0
 70
    32
 71
     5
 42
7.720369477060328
  3
AR SKALA 1-50
100
AcDbAlignedDimension
 13
2.356374271305101
 23
9.859407011657182
 33
0.0
 14
2.356374271305101
 24
2.139037534596853
 34
0.0
 50
90.0
100
AcDbRotatedDimension
  0
DIMENSION
  5
15BD
102
{ACAD_XDICTIONARY
360
15C8
102
}
102
{ACAD_REACTORS
330
15D0
102
}
330
1F
100
AcDbEntity
  8
WYMIAR
100
AcDbDimension
  2
*D6
 10
6.8563742713051
 20
10.6442515366513
 30
0.0
 11
4.606374271305101
 21
10.85653075743052
 31
0.0
 70
    32
 71
     5
 42
4.499999999999999
  3
AR SKALA 1-50
100
AcDbAlignedDimension
 13
2.356374271305101
 23
9.859407011657182
 33
0.0
 14
6.8563742713051
 24
9.859407011657182
 34
0.0
100
AcDbRotatedDimension
  0
VIEWPORT
  5
7CA
330
1B
100
AcDbEntity
 67
     1
  8
0
100
AcDbViewport
 10
138.0889810446011
 20
130.9862257638083
 30
0.0
 40
625.0164412031348
 41
309.3986860682185
 68
     2
 69
     1
 12
138.0889810446011
 22
130.9862257638083
 13
0.0
 23
0.0
 14
10.0
 24
10.0
 15
10.0
 25
10.0
 16
0.0
 26
0.0
 36
1.0
 17
0.0
 27
0.0
 37
0.0
 42
50.0
 43
0.0
 44
0.0
 45
309.3986860682185
 50
0.0
 51
0.0
 72
   100
 90
   819232
  1

281
     0
 71
     1
 74
     0
110
0.0
120
0.0
130
0.0
111
1.0
121
0.0
131
0.0
112
0.0
122
1.0
132
0.0
 79
     0
146
0.0
170
     0
  0
VIEWPORT
  5
99A
330
1B
100
AcDbEntity
 67
     1
  8
Defpoints
100
AcDbViewport
 10
151.5855934681565
 20
104.8621726199724
 30
0.0
 40
290.0480970456033
 41
203.1599664902751
 68
     1
 69
     2
 12
6.984692396898127
 22
6.432669697058841
 13
0.0
 23
0.0
 14
0.5
 24
0.5
 15
0.5
 25
0.5
 16
0.0
 26
0.0
 36
1.0
 17
0.0
 27
0.0
 37
-1000.0
 42
50.0
 43
4.148984367261674
 44
9.217858496371269
 45
12.75649460236822
 50
0.0
 51
0.0
 72
   100
 90
   819296
  1

281
     0
 71
     1
 74
     0
110
0.0
120
0.0
130
0.0
111
1.0
121
0.0
131
0.0
112
0.0
122
1.0
132
0.0
 79
     0
146
0.0
170
     0
  0
ENDSEC
  0
SECTION
  2
OBJECTS
  0
DICTIONARY
  5
C
330
0
100
AcDbDictionary
281
     1
  3
ACAD_COLOR
350
4B9
  3
ACAD_GROUP
350
D
  3
ACAD_LAYOUT
350
1A
  3
ACAD_MATERIAL
350
3B
  3
ACAD_MLEADERSTYLE
350
489
  3
ACAD_MLINESTYLE
350
17
  3
ACAD_PLOTSETTINGS
350
19
  3
ACAD_PLOTSTYLENAME
350
E
  3
ACAD_SCALELIST
350
B23
  3
ACAD_TABLESTYLE
350
4BA
  3
ACAD_VISUALSTYLE
350
2A
  3
ACDB_RECOMPOSE_DATA
350
B54
  3
AcDbVariableDictionary
350
487
  0
DICTIONARY
  5
84C
330
8
100
AcDbDictionary
280
     1
281
     1
  0
DICTIONARY
  5
7D1
330
2
100
AcDbDictionary
280
     1
281
     1
  3
ACAD_LAYERFILTERS
360
15DD
  3
ACAD_LAYERSTATES
360
7D2
  3
ACLYDICTIONARY
360
15DC
  0
DICTIONARY
  5
B4C
330
10
100
AcDbDictionary
280
     1
281
     1
  3
ADSK_XREC_LAYER_RECONCILED
360
B4D
  0
DICTIONARY
  5
B4E
330
87B
100
AcDbDictionary
280
     1
281
     1
  3
ADSK_XREC_LAYER_RECONCILED
360
B4F
  0
DICTIONARY
  5
B50
330
87D
100
AcDbDictionary
280
     1
281
     1
  3
ADSK_XREC_LAYER_RECONCILED
360
B51
  0
DICTIONARY
  5
5F8
330
1F
100
AcDbDictionary
280
     1
281
     1
  3
ACAD_SORTENTS
360
5F9
  0
DICTIONARY
  5
CBA
330
B63
100
AcDbDictionary
280
     1
281
     1
  3
ACAD_SORTENTS
360
CBB
  0
DICTIONARY
  5
1165
330
115A
100
AcDbDictionary
280
     1
281
     1
  3
ACAD_SORTENTS
360
1166
  0
DICTIONARY
  5
11B0
330
11A6
100
AcDbDictionary
280
     1
281
     1
  3
ACAD_SORTENTS
360
11B1
  0
DICTIONARY
  5
1574
330
1572
100
AcDbDictionary
280
     1
281
     1
  3
ACAD_SORTENTS
360
1575
  0
DICTIONARY
  5
15AD
330
15A2
100
AcDbDictionary
280
     1
281
     1
  3
ACAD_DIMASSOC
360
15B5
  0
DICTIONARY
  5
15C8
330
15BD
100
AcDbDictionary
280
     1
281
     1
  3
ACAD_DIMASSOC
360
15D0
  0
DICTIONARY
  5
4B9
102
{ACAD_REACTORS
330
C
102
}
330
C
100
AcDbDictionary
281
     1
  0
DICTIONARY
  5
D
102
{ACAD_REACTORS
330
C
102
}
330
C
100
AcDbDictionary
281
     1
  0
DICTIONARY
  5
1A
102
{ACAD_REACTORS
330
C
102
}
330
C
100
AcDbDictionary
281
     1
  3
Layout1
350
1E
  3
Model
350
22
  0
DICTIONARY
  5
3B
102
{ACAD_REACTORS
330
C
102
}
330
C
100
AcDbDictionary
281
     1
  3
ByBlock
350
3D
  3
ByLayer
350
3C
  3
Global
350
3E
  0
DICTIONARY
  5
489
102
{ACAD_REACTORS
330
C
102
}
330
C
100
AcDbDictionary
281
     1
  3
Standard
350
B45
  0
DICTIONARY
  5
17
102
{ACAD_REACTORS
330
C
102
}
330
C
100
AcDbDictionary
281
     1
  3
Standard
350
18
  0
DICTIONARY
  5
19
102
{ACAD_REACTORS
330
C
102
}
330
C
100
AcDbDictionary
281
     1
  0
ACDBDICTIONARYWDFLT
  5
E
102
{ACAD_REACTORS
330
C
102
}
330
C
100
AcDbDictionary
281
     1
  3
Normal
350
F
100
AcDbDictionaryWithDefault
340
F
  0
DICTIONARY
  5
B23
102
{ACAD_REACTORS
330
C
102
}
330
C
100
AcDbDictionary
281
     1
  3
A0
350
B24
  3
A1
350
B25
  3
A2
350
B26
  3
A3
350
B27
  3
A4
350
B28
  3
A5
350
B29
  3
A6
350
B2A
  3
A7
350
B2B
  3
A8
350
B2C
  3
A9
350
B2D
  3
B0
350
B2E
  3
B1
350
B2F
  3
B2
350
B30
  3
B3
350
B31
  3
B4
350
B32
  3
B5
350
B33
  3
B6
350
B34
  3
B7
350
B35
  3
B8
350
B36
  3
B9
350
B37
  3
C0
350
B38
  3
C1
350
B39
  3
C2
350
B3A
  3
C3
350
B3B
  3
C4
350
B3C
  3
C5
350
B3D
  3
C6
350
B3E
  3
C7
350
B3F
  3
C8
350
B40
  3
C9
350
B41
  3
D0
350
B42
  3
D1
350
B43
  3
D2
350
B44
  0
DICTIONARY
  5
4BA
102
{ACAD_REACTORS
330
C
102
}
330
C
100
AcDbDictionary
281
     1
  3
Standard
350
4BB
  0
DICTIONARY
  5
2A
102
{ACAD_REACTORS
330
C
102
}
330
C
100
AcDbDictionary
281
     1
  3
2dWireframe
350
2F
  3
3D Hidden
350
A48
  3
3dWireframe
350
A47
  3
Basic
350
32
  3
Brighten
350
36
  3
ColorChange
350
3A
  3
Conceptual
350
A49
  3
Dim
350
35
  3
Facepattern
350
39
  3
Flat
350
2B
  3
FlatWithEdges
350
2C
  3
Gouraud
350
2D
  3
GouraudWithEdges
350
2E
  3
Linepattern
350
38
  3
Realistic
350
A4A
  3
Thicken
350
37
  0
XRECORD
  5
B54
102
{ACAD_REACTORS
330
C
102
}
330
C
100
AcDbXrecord
280
     1
 90
        1
330
4BB
  0
DICTIONARY
  5
487
102
{ACAD_REACTORS
330
C
102
}
330
C
100
AcDbDictionary
281
     1
  3
CANNOSCALE
350
B57
  3
CMLEADERSTYLE
350
B55
  3
CTABLESTYLE
350
5FE
  3
DIMASSOC
350
48A
  3
HIDETEXT
350
48B
  3
INDEXCTL
350
86B
  3
LIGHTINGUNITS
350
B58
  3
MSLTSCALE
350
B56
  3
SORTENTS
350
86A
  0
DICTIONARY
  5
15DD
102
{ACAD_REACTORS
330
7D1
102
}
330
7D1
100
AcDbDictionary
281
     1
  0
DICTIONARY
  5
7D2
102
{ACAD_REACTORS
330
7D1
102
}
330
7D1
100
AcDbDictionary
281
     1
  0
DICTIONARY
  5
15DC
102
{ACAD_REACTORS
330
7D1
102
}
330
7D1
100
AcDbDictionary
281
     1
1001
ACAD
1000
<All
  0
XRECORD
  5
B4D
102
{ACAD_REACTORS
330
B4C
102
}
330
B4C
100
AcDbXrecord
280
     1
290
     1
  0
XRECORD
  5
B4F
102
{ACAD_REACTORS
330
B4E
102
}
330
B4E
100
AcDbXrecord
280
     1
290
     1
  0
XRECORD
  5
B51
102
{ACAD_REACTORS
330
B50
102
}
330
B50
100
AcDbXrecord
280
     1
290
     1
  0
SORTENTSTABLE
  5
5F9
102
{ACAD_REACTORS
330
5F8
102
}
330
5F8
100
AcDbSortentsTable
330
1F
331
14D4
  5
14D4
331
145E
  5
145E
331
1495
  5
1495
331
156C
  5
156D
331
150D
  5
150E
331
14DC
  5
14DC
331
1466
  5
1466
331
149D
  5
149D
331
1515
  5
1516
331
14A5
  5
14A5
331
146E
  5
146E
331
14E4
  5
14E5
331
157C
  5
157D
331
14AD
  5
14AD
331
1476
  5
1476
331
14EC
  5
14ED
331
594
  5
594
331
5CB
  5
5CB
331
55D
  5
55D
331
59C
  5
59C
331
5D3
  5
5D3
331
565
  5
565
331
5A4
  5
5A4
331
5DB
  5
5DB
331
56D
  5
56D
331
5AC
  5
5AC
331
F70
  5
F70
331
14B5
  5
14B5
331
147E
  5
147E
331
14F4
  5
14F5
331
154D
  5
154E
331
14BD
  5
14BD
331
1486
  5
1486
331
14FC
  5
14FD
331
1504
  5
1505
331
148E
  5
148E
331
14C5
  5
14C5
331
14CD
  5
14CD
331
1565
  5
1566
331
575
  5
575
331
5B4
  5
5B4
331
5EB
  5
5EB
331
57D
  5
57D
331
5C4
  5
5C4
331
585
  5
585
331
58D
  5
58D
331
F90
  5
F90
331
14D5
  5
14D5
331
F98
  5
F98
331
145F
  5
145F
331
1496
  5
1496
331
156D
  5
156E
331
150E
  5
150F
331
14DD
  5
14DD
331
1467
  5
1467
331
149E
  5
149E
331
1516
  5
1517
331
14A6
  5
14A6
331
146F
  5
146F
331
14E5
  5
14E6
331
157D
  5
157E
331
14AE
  5
14AE
331
1477
  5
1477
331
14ED
  5
14EE
331
1546
  5
1547
331
595
  5
595
331
5CC
  5
5CC
331
55E
  5
55E
331
59D
  5
59D
331
566
  5
566
331
5A5
  5
5A5
331
5DC
  5
5DC
331
56E
  5
56E
331
5AD
  5
5AD
331
5E4
  5
5E4
331
14B6
  5
14B6
331
F81
  5
F81
331
147F
  5
147F
331
14F5
  5
14F6
331
154E
  5
154F
331
14BE
  5
14BE
331
1487
  5
1487
331
14FD
  5
14FE
331
1505
  5
1506
331
148F
  5
148F
331
14C6
  5
14C6
331
155E
  5
155F
331
14CE
  5
14CE
331
1566
  5
1567
331
576
  5
576
331
5B5
  5
5B5
331
57E
  5
57E
331
5BD
  5
5BD
331
5C5
  5
5C5
331
586
  5
586
331
58E
  5
58E
331
F91
  5
F91
331
14D6
  5
14D6
331
1460
  5
1460
331
1497
  5
1497
331
156E
  5
156F
331
150F
  5
1510
331
14DE
  5
14DF
331
149F
  5
149F
331
1468
  5
1468
331
1517
  5
1518
331
1470
  5
1470
331
14A7
  5
14A7
331
14E6
  5
14E7
331
157E
  5
14DE
331
14AF
  5
14AF
331
14EE
  5
14EF
331
1547
  5
1548
331
596
  5
596
331
5CD
  5
5CD
331
55F
  5
55F
331
59E
  5
59E
331
5D5
  5
5D5
331
567
  5
567
331
5A6
  5
5A6
331
5DD
  5
5DD
331
56F
  5
56F
331
5AE
  5
5AE
331
5E5
  5
5E5
331
1478
  5
1478
331
14B7
  5
14B7
331
F82
  5
F82
331
1480
  5
1480
331
14F6
  5
14F7
331
154F
  5
1550
331
1488
  5
1488
331
14BF
  5
14BF
331
14FE
  5
14FF
331
1506
  5
1507
331
14C7
  5
14C7
331
155F
  5
1560
331
14CF
  5
14CF
331
1567
  5
1569
331
577
  5
577
331
5B6
  5
5B6
331
57F
  5
57F
331
5BE
  5
5BE
331
5C6
  5
5C6
331
587
  5
587
331
58F
  5
58F
331
1490
  5
1490
331
1508
  5
1509
331
14D7
  5
14D7
331
1461
  5
1461
331
1498
  5
1498
331
156F
  5
1570
331
1510
  5
1511
331
14DF
  5
14E0
331
14A0
  5
14A0
331
1469
  5
1469
331
1518
  5
1519
331
14A8
  5
14A8
331
1471
  5
1471
331
14E7
  5
14E8
331
14EF
  5
14F0
331
558
  5
558
331
597
  5
597
331
5CE
  5
5CE
331
560
  5
560
331
59F
  5
59F
331
5D6
  5
5D6
331
568
  5
568
331
5A7
  5
5A7
331
5DE
  5
5DE
331
5AF
  5
5AF
331
5E6
  5
5E6
331
14B0
  5
14B0
331
1479
  5
1479
331
14B8
  5
14B8
331
F83
  5
F83
331
1481
  5
1481
331
14F7
  5
14F8
331
1548
  5
1549
331
1489
  5
1489
331
14C0
  5
14C0
331
14FF
  5
1500
331
1550
  5
1553
331
1507
  5
1508
331
14C8
  5
14C8
331
570
  5
570
331
1560
  5
1562
331
578
  5
578
331
5B7
  5
5B7
331
580
  5
580
331
5BF
  5
5BF
331
5C7
  5
5C7
331
588
  5
588
331
14D0
  5
14D0
331
F93
  5
F93
331
145A
  5
145A
331
1491
  5
1491
331
14D8
  5
14D8
331
1462
  5
1462
331
1499
  5
1499
331
1509
  5
150A
331
14A1
  5
14A1
331
146A
  5
146A
331
14E0
  5
14E1
331
1511
  5
1512
331
1570
  5
1571
331
14A9
  5
14A9
331
1472
  5
1472
331
14E8
  5
14E9
331
1519
  5
151A
331
590
  5
590
331
559
  5
559
331
5CF
  5
5CF
331
561
  5
561
331
5D7
  5
5D7
331
569
  5
569
331
5A8
  5
5A8
331
5DF
  5
5DF
331
5E7
  5
5E7
331
14B1
  5
14B1
331
147A
  5
147A
331
14F0
  5
14F1
331
14B9
  5
14B9
331
F84
  5
F84
331
1482
  5
1482
331
14F8
  5
14F9
331
1549
  5
154A
331
1500
  5
1501
331
148A
  5
148A
331
14C1
  5
14C1
331
14C9
  5
14C9
331
571
  5
571
331
5B0
  5
5B0
331
579
  5
579
331
5B8
  5
5B8
331
5C0
  5
5C0
331
581
  5
581
331
589
  5
589
331
14D1
  5
14D1
331
F94
  5
F94
331
145B
  5
145B
331
1492
  5
1492
331
1569
  5
156B
331
14D9
  5
14D9
331
1463
  5
1463
331
149A
  5
149A
331
150A
  5
150B
331
1571
  5
1579
331
14E1
  5
14E2
331
14A2
  5
14A2
331
146B
  5
146B
331
1512
  5
1513
331
14E9
  5
14EA
331
14AA
  5
14AA
331
1473
  5
1473
331
151A
  5
151B
331
1579
  5
157A
331
591
  5
591
331
5C8
  5
5C8
331
55A
  5
55A
331
5D0
  5
5D0
331
562
  5
562
331
5D8
  5
5D8
331
56A
  5
56A
331
5A9
  5
5A9
331
5E0
  5
5E0
331
14F1
  5
14F2
331
14B2
  5
14B2
331
147B
  5
147B
331
14F9
  5
14FA
331
14BA
  5
14BA
331
1483
  5
1483
331
154A
  5
154B
331
148B
  5
148B
331
14C2
  5
14C2
331
1501
  5
1502
331
14CA
  5
14CA
331
572
  5
572
331
5B1
  5
5B1
331
5E8
  5
5E8
331
1562
  5
1563
331
57A
  5
57A
331
5B9
  5
5B9
331
5C1
  5
5C1
331
582
  5
582
331
58A
  5
58A
331
14D2
  5
14D2
331
145C
  5
145C
331
1493
  5
1493
331
14DA
  5
14DA
331
1464
  5
1464
331
149B
  5
149B
331
150B
  5
150C
331
14E2
  5
14E3
331
14A3
  5
14A3
331
146C
  5
146C
331
1513
  5
1514
331
14EA
  5
14EB
331
14AB
  5
14AB
331
1474
  5
1474
331
151B
  5
1546
331
157A
  5
157B
331
592
  5
592
331
5C9
  5
5C9
331
55B
  5
55B
331
5D1
  5
5D1
331
563
  5
563
331
5D9
  5
5D9
331
56B
  5
56B
331
5AA
  5
5AA
331
14F2
  5
14F3
331
14B3
  5
14B3
331
147C
  5
147C
331
14FA
  5
14FB
331
14BB
  5
14BB
331
1484
  5
1484
331
154B
  5
154C
331
1553
  5
1554
331
148C
  5
148C
331
14C3
  5
14C3
331
1502
  5
1503
331
14CB
  5
14CB
331
5B2
  5
5B2
331
1563
  5
1564
331
57B
  5
57B
331
5BA
  5
5BA
331
5C2
  5
5C2
331
583
  5
583
331
14D3
  5
14D3
331
145D
  5
145D
331
F96
  5
F96
331
1494
  5
1494
331
156B
  5
156C
331
14DB
  5
14DB
331
1465
  5
1465
331
149C
  5
149C
331
150C
  5
150D
331
14A4
  5
14A4
331
146D
  5
146D
331
14E3
  5
14E4
331
1514
  5
1515
331
157B
  5
157C
331
14AC
  5
14AC
331
1475
  5
1475
331
14EB
  5
14EC
331
593
  5
593
331
5CA
  5
5CA
331
55C
  5
55C
331
5D2
  5
5D2
331
564
  5
564
331
5A3
  5
5A3
331
5DA
  5
5DA
331
56C
  5
56C
331
5AB
  5
5AB
331
14B4
  5
14B4
331
147D
  5
147D
331
14F3
  5
14F4
331
154C
  5
154D
331
14BC
  5
14BC
331
1485
  5
1485
331
14FB
  5
14FC
331
1554
  5
155E
331
1503
  5
1504
331
F8F
  5
F8F
331
148D
  5
148D
331
14C4
  5
14C4
331
14CC
  5
14CC
331
1564
  5
1565
331
574
  5
574
331
5B3
  5
5B3
331
57C
  5
57C
331
5BB
  5
5BB
331
5C3
  5
5C3
331
584
  5
584
331
58C
  5
58C
  0
SORTENTSTABLE
  5
CBB
102
{ACAD_REACTORS
330
CBA
102
}
330
CBA
100
AcDbSortentsTable
330
B63
  0
SORTENTSTABLE
  5
1166
102
{ACAD_REACTORS
330
1165
102
}
330
1165
100
AcDbSortentsTable
330
115A
  0
SORTENTSTABLE
  5
11B1
102
{ACAD_REACTORS
330
11B0
102
}
330
11B0
100
AcDbSortentsTable
330
11A6
  0
SORTENTSTABLE
  5
1575
102
{ACAD_REACTORS
330
1574
102
}
330
1574
100
AcDbSortentsTable
330
1572
  0
DIMASSOC
  5
15B5
102
{ACAD_REACTORS
330
15AD
102
}
330
15AD
100
AcDbDimAssoc
330
15A2
 90
        3
 70
     0
 71
     0
  1
AcDbOsnapPointRef
 72
    13
331
159E
 73
     2
 91
        0
 40
0.0
 10
0.0
 20
0.0
 30
2.000000000000000E+50
 75
     0
  1
AcDbOsnapPointRef
 72
     1
331
15A0
 73
     2
 91
        0
 40
1.0
 10
0.0
 20
0.0
 30
2.000000000000000E+50
 75
     0
  0
DIMASSOC
  5
15D0
102
{ACAD_REACTORS
330
15C8
102
}
330
15C8
100
AcDbDimAssoc
330
15BD
 90
        3
 70
     0
 71
     0
  1
AcDbOsnapPointRef
 72
    13
331
159E
 73
     2
 91
        0
 40
0.0
 10
0.0
 20
0.0
 30
2.000000000000000E+50
 75
     0
  1
AcDbOsnapPointRef
 72
     1
331
159D
 73
     2
 91
        0
 40
1.0
 10
0.0
 20
0.0
 30
2.000000000000000E+50
 75
     0
  0
LAYOUT
  5
1E
102
{ACAD_XDICTIONARY
360
7D4
102
}
102
{ACAD_REACTORS
330
1A
102
}
330
1A
100
AcDbPlotSettings
  1

  2
Bullzip PDF Printer
  4
A4
  6

 40
3.174999952316284
 41
3.174999952316284
 42
3.175003051757812
 43
3.17498779296875
 44
209.8886566162109
 45
297.0530090332031
 46
0.0
 47
0.0
 48
6.561544945354853
 49
3.282189374834842
140
296.6096419909582
141
206.4421558651099
142
1.0
143
1.0
 70
   672
 72
     1
 73
     1
 74
     4
  7
RINTAL 1.10.ctb
 75
    16
147
25.4
 76
     0
 77
     2
 78
   300
148
-6.561544945354853
149
-3.282189374834842
100
AcDbLayout
  1
Layout1
 70
     0
 71
     1
 10
3.386557152386103
 20
0.1071894225185588
 11
300.4395661855892
 21
209.9958460387295
 12
0.0
 22
0.0
 32
0.0
 14
6.561544945354853
 24
3.282189374834842
 34
0.0
 15
296.6096419909582
 25
206.4421558651099
 35
0.0
146
0.0
 13
0.0
 23
0.0
 33
0.0
 16
1.0
 26
0.0
 36
0.0
 17
0.0
 27
1.0
 37
0.0
 76
     0
330
1B
331
99A
1001
ACAD_PSEXT
1000
Bullzip PDF Printer
1000
Bullzip PDF Printer
1000
BULLZIP
1000
Bullzip PDF Printer 7.1.0.1218
1070
     0
  0
LAYOUT
  5
22
102
{ACAD_REACTORS
330
1A
102
}
330
1A
100
AcDbPlotSettings
  1

  2
none_device
  4
Letter_(8.50_x_11.00_Inches)
  6

 40
6.349999904632568
 41
6.349999904632568
 42
6.350006103515625
 43
6.350006103515625
 44
215.8999938964844
 45
279.3999938964844
 46
0.0
 47
0.0
 48
0.0
 49
0.0
140
0.0
141
0.0
142
1.0
143
1.949379259054547
 70
 11952
 72
     0
 73
     1
 74
     0
  7

 75
     0
147
0.5129838102848195
 76
     0
 77
     2
 78
   300
148
140.6779445779101
149
-18.22632186469054
100
AcDbLayout
  1
Model
 70
     1
 71
     0
 10
0.0
 20
0.0
 11
12.0
 21
9.0
 12
0.0
 22
0.0
 32
0.0
 14
1.000000000000000E+20
 24
1.000000000000000E+20
 34
1.000000000000000E+20
 15
-1.000000000000000E+20
 25
-1.000000000000000E+20
 35
-1.000000000000000E+20
146
0.0
 13
0.0
 23
0.0
 33
0.0
 16
1.0
 26
0.0
 36
0.0
 17
0.0
 27
1.0
 37
0.0
 76
     0
330
1F
331
29
1001
ACAD_PSEXT
1000
Brak
1000
Brak
1000
Nie można zastosować.
1000
Arkusz nie zostanie wydrukowany dopóki nie wybrano konfiguracji plotera.
1070
     0
  0
MATERIAL
  5
3D
102
{ACAD_XDICTIONARY
360
1631
102
}
102
{ACAD_REACTORS
330
3B
102
}
330
3B
100
AcDbMaterial
  1
ByBlock
 73
     1
 78
     1
172
     1
176
     1
270
     1
274
     1
  0
MATERIAL
  5
3C
102
{ACAD_XDICTIONARY
360
162F
102
}
102
{ACAD_REACTORS
330
3B
102
}
330
3B
100
AcDbMaterial
  1
ByLayer
 73
     1
 78
     1
172
     1
176
     1
270
     1
274
     1
  0
MATERIAL
  5
3E
102
{ACAD_XDICTIONARY
360
1633
102
}
102
{ACAD_REACTORS
330
3B
102
}
330
3B
100
AcDbMaterial
  1
Global
 73
     1
 78
     1
172
     1
176
     1
270
     1
274
     1
  0
MLEADERSTYLE
  5
B45
102
{ACAD_REACTORS
330
489
102
}
330
489
100
AcDbMLeaderStyle
170
     2
171
     1
172
     0
 90
        2
 40
0.0
 41
0.0
173
     1
 91
-1056964608
340
14
 92
       -2
290
     1
 42
0.09
291
     1
 43
0.36
  3
Standard
 44
0.18
300

342
11
174
     1
178
     6
175
     1
176
     0
 93
-1056964608
 45
0.18
292
     0
297
     0
 46
0.18
 94
-1056964608
 47
1.0
 49
1.0
140
1.0
293
     1
141
0.0
294
     1
177
     0
142
1.0
295
     0
296
     0
143
0.125
1001
ACAD_MLEADERVER
1070
     2
  0
MLINESTYLE
  5
18
102
{ACAD_REACTORS
330
17
102
}
330
17
100
AcDbMlineStyle
  2
STANDARD
 70
     0
  3

 62
   256
 51
90.0
 52
90.0
 71
     2
 49
0.5
 62
   256
  6
BYLAYER
 49
-0.5
 62
   256
  6
BYLAYER
  0
ACDBPLACEHOLDER
  5
F
102
{ACAD_REACTORS
330
E
102
}
330
E
  0
SCALE
  5
B24
102
{ACAD_REACTORS
330
B23
102
}
330
B23
100
AcDbScale
 70
     0
300
1:1
140
1.0
141
1.0
290
     1
  0
SCALE
  5
B25
102
{ACAD_REACTORS
330
B23
102
}
330
B23
100
AcDbScale
 70
     0
300
1:2
140
1.0
141
2.0
290
     0
  0
SCALE
  5
B26
102
{ACAD_REACTORS
330
B23
102
}
330
B23
100
AcDbScale
 70
     0
300
1:4
140
1.0
141
4.0
290
     0
  0
SCALE
  5
B27
102
{ACAD_REACTORS
330
B23
102
}
330
B23
100
AcDbScale
 70
     0
300
1:5
140
1.0
141
5.0
290
     0
  0
SCALE
  5
B28
102
{ACAD_REACTORS
330
B23
102
}
330
B23
100
AcDbScale
 70
     0
300
1:8
140
1.0
141
8.0
290
     0
  0
SCALE
  5
B29
102
{ACAD_REACTORS
330
B23
102
}
330
B23
100
AcDbScale
 70
     0
300
1:10
140
1.0
141
10.0
290
     0
  0
SCALE
  5
B2A
102
{ACAD_REACTORS
330
B23
102
}
330
B23
100
AcDbScale
 70
     0
300
1:16
140
1.0
141
16.0
290
     0
  0
SCALE
  5
B2B
102
{ACAD_REACTORS
330
B23
102
}
330
B23
100
AcDbScale
 70
     0
300
1:20
140
1.0
141
20.0
290
     0
  0
SCALE
  5
B2C
102
{ACAD_REACTORS
330
B23
102
}
330
B23
100
AcDbScale
 70
     0
300
1:30
140
1.0
141
30.0
290
     0
  0
SCALE
  5
B2D
102
{ACAD_REACTORS
330
B23
102
}
330
B23
100
AcDbScale
 70
     0
300
1:40
140
1.0
141
40.0
290
     0
  0
SCALE
  5
B2E
102
{ACAD_REACTORS
330
B23
102
}
330
B23
100
AcDbScale
 70
     0
300
1:50
140
1.0
141
50.0
290
     0
  0
SCALE
  5
B2F
102
{ACAD_REACTORS
330
B23
102
}
330
B23
100
AcDbScale
 70
     0
300
1:100
140
1.0
141
100.0
290
     0
  0
SCALE
  5
B30
102
{ACAD_REACTORS
330
B23
102
}
330
B23
100
AcDbScale
 70
     0
300
2:1
140
2.0
141
1.0
290
     0
  0
SCALE
  5
B31
102
{ACAD_REACTORS
330
B23
102
}
330
B23
100
AcDbScale
 70
     0
300
4:1
140
4.0
141
1.0
290
     0
  0
SCALE
  5
B32
102
{ACAD_REACTORS
330
B23
102
}
330
B23
100
AcDbScale
 70
     0
300
8:1
140
8.0
141
1.0
290
     0
  0
SCALE
  5
B33
102
{ACAD_REACTORS
330
B23
102
}
330
B23
100
AcDbScale
 70
     0
300
10:1
140
10.0
141
1.0
290
     0
  0
SCALE
  5
B34
102
{ACAD_REACTORS
330
B23
102
}
330
B23
100
AcDbScale
 70
     0
300
100:1
140
100.0
141
1.0
290
     0
  0
SCALE
  5
B35
102
{ACAD_REACTORS
330
B23
102
}
330
B23
100
AcDbScale
 70
     0
300
1/128" = 1'-0"
140
0.0078125
141
12.0
290
     0
  0
SCALE
  5
B36
102
{ACAD_REACTORS
330
B23
102
}
330
B23
100
AcDbScale
 70
     0
300
1/64" = 1'-0"
140
0.015625
141
12.0
290
     0
  0
SCALE
  5
B37
102
{ACAD_REACTORS
330
B23
102
}
330
B23
100
AcDbScale
 70
     0
300
1/32" = 1'-0"
140
0.03125
141
12.0
290
     0
  0
SCALE
  5
B38
102
{ACAD_REACTORS
330
B23
102
}
330
B23
100
AcDbScale
 70
     0
300
1/16" = 1'-0"
140
0.0625
141
12.0
290
     0
  0
SCALE
  5
B39
102
{ACAD_REACTORS
330
B23
102
}
330
B23
100
AcDbScale
 70
     0
300
3/32" = 1'-0"
140
0.09375
141
12.0
290
     0
  0
SCALE
  5
B3A
102
{ACAD_REACTORS
330
B23
102
}
330
B23
100
AcDbScale
 70
     0
300
1/8" = 1'-0"
140
0.125
141
12.0
290
     0
  0
SCALE
  5
B3B
102
{ACAD_REACTORS
330
B23
102
}
330
B23
100
AcDbScale
 70
     0
300
3/16" = 1'-0"
140
0.1875
141
12.0
290
     0
  0
SCALE
  5
B3C
102
{ACAD_REACTORS
330
B23
102
}
330
B23
100
AcDbScale
 70
     0
300
1/4" = 1'-0"
140
0.25
141
12.0
290
     0
  0
SCALE
  5
B3D
102
{ACAD_REACTORS
330
B23
102
}
330
B23
100
AcDbScale
 70
     0
300
3/8" = 1'-0"
140
0.375
141
12.0
290
     0
  0
SCALE
  5
B3E
102
{ACAD_REACTORS
330
B23
102
}
330
B23
100
AcDbScale
 70
     0
300
1/2" = 1'-0"
140
0.5
141
12.0
290
     0
  0
SCALE
  5
B3F
102
{ACAD_REACTORS
330
B23
102
}
330
B23
100
AcDbScale
 70
     0
300
3/4" = 1'-0"
140
0.75
141
12.0
290
     0
  0
SCALE
  5
B40
102
{ACAD_REACTORS
330
B23
102
}
330
B23
100
AcDbScale
 70
     0
300
1" = 1'-0"
140
1.0
141
12.0
290
     0
  0
SCALE
  5
B41
102
{ACAD_REACTORS
330
B23
102
}
330
B23
100
AcDbScale
 70
     0
300
1-1/2" = 1'-0"
140
1.5
141
12.0
290
     0
  0
SCALE
  5
B42
102
{ACAD_REACTORS
330
B23
102
}
330
B23
100
AcDbScale
 70
     0
300
3" = 1'-0"
140
3.0
141
12.0
290
     0
  0
SCALE
  5
B43
102
{ACAD_REACTORS
330
B23
102
}
330
B23
100
AcDbScale
 70
     0
300
6" = 1'-0"
140
6.0
141
12.0
290
     0
  0
SCALE
  5
B44
102
{ACAD_REACTORS
330
B23
102
}
330
B23
100
AcDbScale
 70
     0
300
1'-0" = 1'-0"
140
12.0
141
12.0
290
     0
  0
TABLESTYLE
  5
4BB
102
{ACAD_XDICTIONARY
360
B52
102
}
102
{ACAD_REACTORS
330
4BA
102
}
330
4BA
100
AcDbTableStyle
  3
Standard
 70
     0
 71
     0
 40
0.06
 41
0.06
280
     0
281
     0
  7
Standard
140
0.18
170
     2
 62
     0
 63
     7
283
     0
274
    -2
284
     1
 64
     0
275
    -2
285
     1
 65
     0
276
    -2
286
     1
 66
     0
277
    -2
287
     1
 67
     0
278
    -2
288
     1
 68
     0
279
    -2
289
     1
 69
     0
  7
Standard
140
0.25
170
     5
 62
     0
 63
     7
283
     0
274
    -2
284
     1
 64
     0
275
    -2
285
     1
 65
     0
276
    -2
286
     1
 66
     0
277
    -2
287
     1
 67
     0
278
    -2
288
     1
 68
     0
279
    -2
289
     1
 69
     0
  7
Standard
140
0.18
170
     5
 62
     0
 63
     7
283
     0
274
    -2
284
     1
 64
     0
275
    -2
285
     1
 65
     0
276
    -2
286
     1
 66
     0
277
    -2
287
     1
 67
     0
278
    -2
288
     1
 68
     0
279
    -2
289
     1
 69
     0
  0
VISUALSTYLE
  5
2F
102
{ACAD_XDICTIONARY
360
49A
102
}
102
{ACAD_REACTORS
330
2A
102
}
330
2A
100
AcDbVisualStyle
  2
2dWireframe
 70
     4
 71
     0
 72
     2
 73
     0
 90
        0
 40
-0.6
 41
-30.0
 62
     5
 63
     7
 74
     1
 91
        4
 64
     7
 65
   257
 75
     1
175
     1
 42
1.0
 92
        0
 66
   257
 43
1.0
 76
     1
 77
     6
 78
     2
 67
     7
 79
     5
170
     0
171
     0
290
     0
174
     0
 93
        1
 44
0.0
173
     0
291
     0
 45
0.0
1001
ACAD
1000
AcDbSavedByObjectVersion
1070
     0
  0
VISUALSTYLE
  5
A48
102
{ACAD_REACTORS
330
2A
102
}
330
2A
100
AcDbVisualStyle
  2
3D Hidden
 70
     6
 71
     1
 72
     2
 73
     2
 90
        0
 40
-0.6
 41
-30.0
 62
     5
 63
     7
 74
     2
 91
        2
 64
     7
 65
   257
 75
     2
175
     1
 42
40.0
 92
        0
 66
   257
 43
1.0
 76
     1
 77
     6
 78
     2
 67
     7
 79
     3
170
     0
171
     0
290
     0
174
     0
 93
        1
 44
0.0
173
     0
291
     0
 45
0.0
1001
ACAD
1000
AcDbSavedByObjectVersion
1070
     0
  0
VISUALSTYLE
  5
A47
102
{ACAD_REACTORS
330
2A
102
}
330
2A
100
AcDbVisualStyle
  2
3dWireframe
 70
     5
 71
     0
 72
     2
 73
     0
 90
        0
 40
-0.6
 41
-30.0
 62
     5
 63
     7
 74
     1
 91
        4
 64
     7
 65
   257
 75
     1
175
     1
 42
1.0
 92
        0
 66
   257
 43
1.0
 76
     1
 77
     6
 78
     2
 67
     7
 79
     5
170
     0
171
     0
290
     0
174
     0
 93
        1
 44
0.0
173
     0
291
     0
 45
0.0
1001
ACAD
1000
AcDbSavedByObjectVersion
1070
     0
  0
VISUALSTYLE
  5
32
102
{ACAD_XDICTIONARY
360
4A0
102
}
102
{ACAD_REACTORS
330
2A
102
}
330
2A
100
AcDbVisualStyle
  2
Basic
 70
     7
 71
     1
 72
     0
 73
     1
 90
        0
 40
-0.6
 41
-30.0
 62
     5
 63
     7
 74
     0
 91
        4
 64
     7
 65
   257
 75
     1
175
     1
 42
1.0
 92
        8
 66
     7
 43
1.0
 76
     1
 77
     6
 78
     2
 67
     7
 79
     5
170
     0
171
     0
290
     0
174
     0
 93
        1
 44
0.0
173
     0
291
     1
 45
0.0
1001
ACAD
1000
AcDbSavedByObjectVersion
1070
     0
  0
VISUALSTYLE
  5
36
102
{ACAD_XDICTIONARY
360
4A8
102
}
102
{ACAD_REACTORS
330
2A
102
}
330
2A
100
AcDbVisualStyle
  2
Brighten
 70
    12
 71
     2
 72
     2
 73
     0
 90
        0
 40
-0.6
 41
-30.0
 62
     5
 63
     7
 74
     1
 91
        4
 64
     7
 65
   257
 75
     1
175
     1
 42
1.0
 92
        8
 66
     7
 43
1.0
 76
     1
 77
     6
 78
     2
 67
     7
 79
     5
170
     0
171
     0
290
     0
174
     0
 93
        1
 44
50.0
173
     0
291
     1
 45
0.0
1001
ACAD
1000
AcDbSavedByObjectVersion
1070
     0
  0
VISUALSTYLE
  5
3A
102
{ACAD_XDICTIONARY
360
4B0
102
}
102
{ACAD_REACTORS
330
2A
102
}
330
2A
100
AcDbVisualStyle
  2
ColorChange
 70
    16
 71
     2
 72
     2
 73
     3
 90
        0
 40
-0.6
 41
-30.0
 62
     5
 63
     8
 74
     1
 91
        4
 64
     7
 65
   257
 75
     1
175
     1
 42
1.0
 92
        8
 66
     8
 43
1.0
 76
     1
 77
     6
 78
     2
 67
     7
 79
     5
170
     0
171
     0
290
     0
174
     0
 93
        1
 44
0.0
173
     0
291
     1
 45
0.0
1001
ACAD
1000
AcDbSavedByObjectVersion
1070
     0
  0
VISUALSTYLE
  5
A49
102
{ACAD_REACTORS
330
2A
102
}
330
2A
100
AcDbVisualStyle
  2
Conceptual
 70
     9
 71
     3
 72
     2
 73
     0
 90
        0
 40
-0.6
 41
-30.0
 62
     5
 63
     7
 74
     2
 91
        2
 64
     7
 65
   257
 75
     1
175
     1
 42
40.0
 92
        8
 66
     7
 43
1.0
 76
     1
 77
     6
 78
     2
 67
     7
 79
     3
170
     0
171
     0
290
     0
174
     0
 93
        1
 44
0.0
173
     0
291
     0
 45
0.0
1001
ACAD
1000
AcDbSavedByObjectVersion
1070
     0
  0
VISUALSTYLE
  5
35
102
{ACAD_XDICTIONARY
360
4A6
102
}
102
{ACAD_REACTORS
330
2A
102
}
330
2A
100
AcDbVisualStyle
  2
Dim
 70
    11
 71
     2
 72
     2
 73
     0
 90
        0
 40
-0.6
 41
-30.0
 62
     5
 63
     7
 74
     1
 91
        4
 64
     7
 65
   257
 75
     1
175
     1
 42
1.0
 92
        8
 66
     7
 43
1.0
 76
     1
 77
     6
 78
     2
 67
     7
 79
     5
170
     0
171
     0
290
     0
174
     0
 93
        1
 44
-50.0
173
     0
291
     1
 45
0.0
1001
ACAD
1000
AcDbSavedByObjectVersion
1070
     0
  0
VISUALSTYLE
  5
39
102
{ACAD_XDICTIONARY
360
4AE
102
}
102
{ACAD_REACTORS
330
2A
102
}
330
2A
100
AcDbVisualStyle
  2
Facepattern
 70
    15
 71
     2
 72
     2
 73
     0
 90
        0
 40
-0.6
 41
-30.0
 62
     5
 63
     7
 74
     1
 91
        4
 64
     7
 65
   257
 75
     1
175
     1
 42
1.0
 92
        8
 66
     7
 43
1.0
 76
     1
 77
     6
 78
     2
 67
     7
 79
     5
170
     0
171
     0
290
     0
174
     0
 93
        1
 44
0.0
173
     0
291
     1
 45
0.0
1001
ACAD
1000
AcDbSavedByObjectVersion
1070
     0
  0
VISUALSTYLE
  5
2B
102
{ACAD_XDICTIONARY
360
492
102
}
102
{ACAD_REACTORS
330
2A
102
}
330
2A
100
AcDbVisualStyle
  2
Flat
 70
     0
 71
     2
 72
     1
 73
     1
 90
        2
 40
-0.6
 41
30.0
 62
     5
 63
     7
 74
     0
 91
        4
 64
     7
 65
   257
 75
     1
175
     1
 42
1.0
 92
        8
 66
     7
 43
1.0
 76
     1
 77
     6
 78
     2
 67
     7
 79
     5
170
     0
171
     0
290
     0
174
     0
 93
       13
 44
0.0
173
     0
291
     1
 45
0.0
1001
ACAD
1000
AcDbSavedByObjectVersion
1070
     0
  0
VISUALSTYLE
  5
2C
102
{ACAD_XDICTIONARY
360
494
102
}
102
{ACAD_REACTORS
330
2A
102
}
330
2A
100
AcDbVisualStyle
  2
FlatWithEdges
 70
     1
 71
     2
 72
     1
 73
     1
 90
        2
 40
-0.6
 41
30.0
 62
     5
 63
     7
 74
     1
 91
        4
 64
     7
 65
   257
 75
     1
175
     1
 42
1.0
 92
        0
 66
   257
 43
1.0
 76
     1
 77
     6
 78
     2
 67
     7
 79
     5
170
     0
171
     0
290
     0
174
     0
 93
       13
 44
0.0
173
     0
291
     1
 45
0.0
1001
ACAD
1000
AcDbSavedByObjectVersion
1070
     0
  0
VISUALSTYLE
  5
2D
102
{ACAD_XDICTIONARY
360
496
102
}
102
{ACAD_REACTORS
330
2A
102
}
330
2A
100
AcDbVisualStyle
  2
Gouraud
 70
     2
 71
     2
 72
     2
 73
     1
 90
        2
 40
-0.6
 41
30.0
 62
     5
 63
     7
 74
     0
 91
        4
 64
     7
 65
   257
 75
     1
175
     1
 42
1.0
 92
        0
 66
     7
 43
1.0
 76
     1
 77
     6
 78
     2
 67
     7
 79
     5
170
     0
171
     0
290
     0
174
     0
 93
       13
 44
0.0
173
     0
291
     1
 45
0.0
1001
ACAD
1000
AcDbSavedByObjectVersion
1070
     0
  0
VISUALSTYLE
  5
2E
102
{ACAD_XDICTIONARY
360
498
102
}
102
{ACAD_REACTORS
330
2A
102
}
330
2A
100
AcDbVisualStyle
  2
GouraudWithEdges
 70
     3
 71
     2
 72
     2
 73
     1
 90
        2
 40
-0.6
 41
30.0
 62
     5
 63
     7
 74
     1
 91
        4
 64
     7
 65
   257
 75
     1
175
     1
 42
1.0
 92
        0
 66
   257
 43
1.0
 76
     1
 77
     6
 78
     2
 67
     7
 79
     5
170
     0
171
     0
290
     0
174
     0
 93
       13
 44
0.0
173
     0
291
     1
 45
0.0
1001
ACAD
1000
AcDbSavedByObjectVersion
1070
     0
  0
VISUALSTYLE
  5
38
102
{ACAD_XDICTIONARY
360
4AC
102
}
102
{ACAD_REACTORS
330
2A
102
}
330
2A
100
AcDbVisualStyle
  2
Linepattern
 70
    14
 71
     2
 72
     2
 73
     0
 90
        0
 40
-0.6
 41
-30.0
 62
     5
 63
     7
 74
     1
 91
        4
 64
     7
 65
   257
 75
     7
175
     7
 42
1.0
 92
        8
 66
     7
 43
1.0
 76
     1
 77
     6
 78
     2
 67
     7
 79
     5
170
     0
171
     0
290
     0
174
     0
 93
        1
 44
0.0
173
     0
291
     1
 45
0.0
1001
ACAD
1000
AcDbSavedByObjectVersion
1070
     0
  0
VISUALSTYLE
  5
A4A
102
{ACAD_REACTORS
330
2A
102
}
330
2A
100
AcDbVisualStyle
  2
Realistic
 70
     8
 71
     2
 72
     2
 73
     0
 90
        0
 40
-0.6
 41
-30.0
 62
     5
 63
     7
 74
     1
 91
        0
 64
     7
 65
   257
 75
     1
175
     1
 42
1.0
 92
        8
 66
     8
 43
1.0
 76
     1
 77
     6
 78
     2
 67
     7
 79
     5
170
     0
171
     0
290
     0
174
     0
 93
       13
 44
0.0
173
     0
291
     0
 45
0.0
1001
ACAD
1000
AcDbSavedByObjectVersion
1070
     0
  0
VISUALSTYLE
  5
37
102
{ACAD_XDICTIONARY
360
4AA
102
}
102
{ACAD_REACTORS
330
2A
102
}
330
2A
100
AcDbVisualStyle
  2
Thicken
 70
    13
 71
     2
 72
     2
 73
     0
 90
        0
 40
-0.6
 41
-30.0
 62
     5
 63
     7
 74
     1
 91
        4
 64
     7
 65
   257
 75
     1
175
     1
 42
1.0
 92
       12
 66
     7
 43
1.0
 76
     1
 77
     6
 78
     2
 67
     7
 79
     5
170
     0
171
     0
290
     0
174
     0
 93
        1
 44
0.0
173
     0
291
     1
 45
0.0
1001
ACAD
1000
AcDbSavedByObjectVersion
1070
     0
  0
DICTIONARYVAR
  5
B57
102
{ACAD_REACTORS
330
487
102
}
330
487
100
DictionaryVariables
280
     0
  1
1:1
  0
DICTIONARYVAR
  5
B55
102
{ACAD_REACTORS
330
487
102
}
330
487
100
DictionaryVariables
280
     0
  1
STANDARD
  0
DICTIONARYVAR
  5
5FE
102
{ACAD_REACTORS
330
487
102
}
330
487
100
DictionaryVariables
280
     0
  1
STANDARD
  0
DICTIONARYVAR
  5
48A
102
{ACAD_REACTORS
330
487
102
}
330
487
100
DictionaryVariables
280
     0
  1
2
  0
DICTIONARYVAR
  5
48B
102
{ACAD_REACTORS
330
487
102
}
330
487
100
DictionaryVariables
280
     0
  1
1
  0
DICTIONARYVAR
  5
86B
102
{ACAD_REACTORS
330
487
102
}
330
487
100
DictionaryVariables
280
     0
  1
0
  0
DICTIONARYVAR
  5
B58
102
{ACAD_REACTORS
330
487
102
}
330
487
100
DictionaryVariables
280
     0
  1
0
  0
DICTIONARYVAR
  5
B56
102
{ACAD_REACTORS
330
487
102
}
330
487
100
DictionaryVariables
280
     0
  1
0
  0
DICTIONARYVAR
  5
86A
102
{ACAD_REACTORS
330
487
102
}
330
487
100
DictionaryVariables
280
     0
  1
127
  0
DICTIONARY
  5
7D4
330
1E
100
AcDbDictionary
280
     1
281
     1
  3
ADSK_XREC_LAYOUTTHUMBNAIL
360
7D5
  0
DICTIONARY
  5
1631
330
3D
100
AcDbDictionary
280
     1
281
     1
  3
ACAD_XREC_ROUNDTRIP
360
1632
  0
DICTIONARY
  5
162F
330
3C
100
AcDbDictionary
280
     1
281
     1
  3
ACAD_XREC_ROUNDTRIP
360
1630
  0
DICTIONARY
  5
1633
330
3E
100
AcDbDictionary
280
     1
281
     1
  3
ACAD_XREC_ROUNDTRIP
360
1634
  0
DICTIONARY
  5
B52
330
4BB
100
AcDbDictionary
280
     1
281
     1
  3
ACAD_ROUNDTRIP_2008_TABLESTYLE_CELLSTYLEMAP
360
162E
  3
ACAD_XREC_ROUNDTRIP
360
1635
  0
DICTIONARY
  5
49A
330
2F
100
AcDbDictionary
280
     1
281
     1
  3
ACAD_XREC_ROUNDTRIP
360
49B
  0
DICTIONARY
  5
4A0
330
32
100
AcDbDictionary
280
     1
281
     1
  3
ACAD_XREC_ROUNDTRIP
360
4A1
  0
DICTIONARY
  5
4A8
330
36
100
AcDbDictionary
280
     1
281
     1
  3
ACAD_XREC_ROUNDTRIP
360
4A9
  0
DICTIONARY
  5
4B0
330
3A
100
AcDbDictionary
280
     1
281
     1
  3
ACAD_XREC_ROUNDTRIP
360
4B1
  0
DICTIONARY
  5
4A6
330
35
100
AcDbDictionary
280
     1
281
     1
  3
ACAD_XREC_ROUNDTRIP
360
4A7
  0
DICTIONARY
  5
4AE
330
39
100
AcDbDictionary
280
     1
281
     1
  3
ACAD_XREC_ROUNDTRIP
360
4AF
  0
DICTIONARY
  5
492
330
2B
100
AcDbDictionary
280
     1
281
     1
  3
ACAD_XREC_ROUNDTRIP
360
493
  0
DICTIONARY
  5
494
330
2C
100
AcDbDictionary
280
     1
281
     1
  3
ACAD_XREC_ROUNDTRIP
360
495
  0
DICTIONARY
  5
496
330
2D
100
AcDbDictionary
280
     1
281
     1
  3
ACAD_XREC_ROUNDTRIP
360
497
  0
DICTIONARY
  5
498
330
2E
100
AcDbDictionary
280
     1
281
     1
  3
ACAD_XREC_ROUNDTRIP
360
499
  0
DICTIONARY
  5
4AC
330
38
100
AcDbDictionary
280
     1
281
     1
  3
ACAD_XREC_ROUNDTRIP
360
4AD
  0
DICTIONARY
  5
4AA
330
37
100
AcDbDictionary
280
     1
281
     1
  3
ACAD_XREC_ROUNDTRIP
360
4AB
  0
XRECORD
  5
7D5
102
{ACAD_REACTORS
330
7D4
102
}
330
7D4
100
AcDbXrecord
280
     1
310
28000000B40000007F00000001000800000000004C59000000000000000000000001000000000000FFFFFF0000000000FFFFFF000000000000000000000000000000000000000000000000000000000000000000330000006600000099000000CC000000FF00000000330000333300006633000099330000CC330000FF3300
310
0000660000336600006666000099660000CC660000FF66000000990000339900006699000099990000CC990000FF99000000CC000033CC000066CC000099CC0000CCCC0000FFCC000000FF000033FF000066FF000099FF0000CCFF0000FFFF000000003300330033006600330099003300CC003300FF003300003333003333
310
33006633330099333300CC333300FF33330000663300336633006666330099663300CC663300FF66330000993300339933006699330099993300CC993300FF99330000CC330033CC330066CC330099CC3300CCCC3300FFCC330000FF330033FF330066FF330099FF3300CCFF3300FFFF330000006600330066006600660099
310
006600CC006600FF00660000336600333366006633660099336600CC336600FF33660000666600336666006666660099666600CC666600FF66660000996600339966006699660099996600CC996600FF99660000CC660033CC660066CC660099CC6600CCCC6600FFCC660000FF660033FF660066FF660099FF6600CCFF6600
310
FFFF660000009900330099006600990099009900CC009900FF00990000339900333399006633990099339900CC339900FF33990000669900336699006666990099669900CC669900FF66990000999900339999006699990099999900CC999900FF99990000CC990033CC990066CC990099CC9900CCCC9900FFCC990000FF99
310
0033FF990066FF990099FF9900CCFF9900FFFF99000000CC003300CC006600CC009900CC00CC00CC00FF00CC000033CC003333CC006633CC009933CC00CC33CC00FF33CC000066CC003366CC006666CC009966CC00CC66CC00FF66CC000099CC003399CC006699CC009999CC00CC99CC00FF99CC0000CCCC0033CCCC0066CC
310
CC0099CCCC00CCCCCC00FFCCCC0000FFCC0033FFCC0066FFCC0099FFCC00CCFFCC00FFFFCC000000FF003300FF006600FF009900FF00CC00FF00FF00FF000033FF003333FF006633FF009933FF00CC33FF00FF33FF000066FF003366FF006666FF009966FF00CC66FF00FF66FF000099FF003399FF006699FF009999FF00CC
310
99FF00FF99FF0000CCFF0033CCFF0066CCFF0099CCFF00CCCCFF00FFCCFF0000FFFF0033FFFF0066FFFF0099FFFF00CCFFFF00FFFFFF00000000000D0D0D001A1A1A00282828003535350043434300505050005D5D5D006B6B6B00787878008686860093939300A1A1A100AEAEAE00BBBBBB00C9C9C900D6D6D600E4E4E400
310
F1F1F100FFFFFF0000000000000000000000000000000000000000000000000000000000000000000000000000000000E2E2E2E2E2E2E2E2E2E2E2E2E2E2E2E2E2E2E2E2E2E2E2E2E2E2E2E2E2E2E2E2E2E2E2E2E2E2E2E2E2E2E2E2E2E2E2E2E2E2E2E2E2E2E2E2E2E2E2E2E2E2E2E2E2E2E2E2E2E2E2E2E2E2E2E2E2E2E2
310
E2E2E2E2E2E2E2E2E2E2E2E2E2E2E2E2E2E2E2E2E2E2E2E2E2E2E2E2E2E2E2E2E2E2E2E2E2E2E2E2E2E2E2E2E2E2E2E2E2E2E2E2E2E2E2E2E2E2E2E2E2E2E2E2E2E2E2E2E2E2E2E2E2E2E2E2E2E2E2E2E2E2E2E2E2E2E2E2E2E2E2E2E2E2E2E2E2E2E2E2E2E2F5F5F5F5F5F5F5F5F5F5F5F5F5F5F5F5F5F5F5F5F5F5F5F5F5
310
F5F5F5F5F5F5F5F5F5F5F5F5F5F5F5F5F5F5F5F5F5F5F5F5F5F5F5F5F5F5F5F5F5F5F5F5F5F5F5F5F5F5F5F5F5F5F5F5F5F5F5F5F5F5F5F5F5F5F5F5F5F5F5F5F5F5F5F5F5F5F5F5F5F5F5F5F5F5F5F5F5F5F5F5F5F5F5F5F5F5F5F5F5F5F5F5F5F5F5F5F5F5F5F5F5F5F5F5F5F5F5F5F5F5F5F5F5F5F5F5F5F5F5F5F5F5F5
310
F5F5F5F5F5F5F5F5F5F5F5F5F5F5F5F5F5F5F5F5F5F5F5F5F5F5E2E2F5E2E2E2E2E2E2E2E2E2E2E2E2E2E2E2E2E2E2E2E2E2E2E2E2E2E2E2E2E2E2E2E2E2E2E2E2E2E2E2E2E2E2E2E2E2E2E2E2E2E2E2E2E2E2E2E2E2E2E2E2E2E2E2E2E2E2E2E2E2E2E2E2E2E2E2E2E2E2E2E2E2E2E2E2E2E2E2E2E2E2E2E2E2E2E2E2E2E2
310
E2E2E2E2E2E2E2E2E2E2E2E2E2E2E2E2E2E2E2E2E2E2E2E2E2E2E2E2E2E2E2E2E2E2E2E2E2E2E2E2E2E2E2E2E2E2E2E2E2E2E2E2E2E2E2E2E2E2E2E2E2E2E2E2E2E2E2E2E2E2E2E2E2E2E2E2E2E2F5E2E2F5E2F5F5F5F5F5F5F5F5F5F5F5F5F5F5F5F5F5F5F5F5F5F5F5F5F5F5F5F5F5F5F5F5F5F5F5F5F5F5F5F5F5F5F5F5
310
F5F5F5F5F5F5F5F5F5F5F5F5F5F5F5F5F5F5F5F5F5F5F5F5F5F5F5F5F5F5F5F5F5F5F5F5F5F5F5F5F5F5F5F5F5F5F5F5F5F5F5F5F5F5F5F5F5F5F5F5F5F5F5F5F5F5F5F5F5F5F5F5F5F5F5F5F5F5F5F5F5F5F5F5F5F5F5F5F5F5F5F5F5F5F5F5F5F5F5F5F5F5F5F5F5F5F5F5F5F5F5F5F5F5F5F5F5F5F5F5F5F5F5F5F5F5F5
310
F5F5E2E2F5E2E2F5E2F5F5F5F5F5F5F5F5F5F5F5F5F5F5F5F5F5F5F5F5F5F5F5F5F5F5F5F5F5F5F5F5F5F5F5F5F5F5F5F5F5F5F5F5F5F5F5F5F5F5F5F5F5F5F5F5F5F5F5F5F5F5F5F5F5F5F5F5F5F5F5F5F5F5F5F5F5F5F5F5F5F5F5F5F5F5F5F5F5F5F5F5F5F5F5F5F5F5F5F5F5F5F5F5F5F5F5F5F5F5F5F5F5F5F5F5F5F5
310
F5F5F5F5F5F5F5F5F5F5F5F5F5F5F5F5F5F5F5F5F5F5F5F5F5F5F5F5F5F5F5F5F5F5F5F5F5F5F5F5F5F5F5F5F5F5F5F5F5F5F5F5F5F5F5E2E2F5E2E2F5E2F5F5F5F5F5F5F5F5F5F5F5F5F5F5F5F5F5F5F5F5F5F5F5F5F5F5F5F5F5F5F5F5F5F5F5F5F5F5F5F5F5F5F5F5F5F5F5F5F5F5F5F5F5F5F5F5F5F5F5F5F5F5F5F5F5
310
F5F5F5F5F5F5F5F5F5F5F5F5F5F5F5F5F5F5F5F5F5F5F5F5F5F5F5F5F5F5F5F5F5F5F5F5F5F5F5F5F5F5F5F5F5F5F5F5F5F5F5F5F5F5F5F5F5F5F5F5F5F5F5F5F5F5F5F5F5F5F5F5F5F5F5F5F5F5F5F5F5F5F5F5F5F5F5F5F5F5F5F5F5F5F5F5F5F5F5F5F5F5F5F5F5F5F5F5E2E2F5E2E2F5E2F5F5F5F5F5F5F5F5F5F5F5F5
310
F5F5F5F5F5F5F5F5F5F5F5F5F5F5F5F5F5F5F5F5F5F5F5F5F5F5F5F5F5F5F5F5F5F5F5F5F5F5F5F5F5F5F5F5F5F5F5F5F5F5F5F5F5F5F5F5F5F5F5F5F5F5F5F5F5F5F5F5F5F5F5F5F5F5F5F5F5F5F5F5F5F5F5F5F5F5F5F5F5F5F5F5F5F5F5F5F5F5F5F5F5F5F5F5F5F5F5F5F5F5F5F5F5F5F5F5F5F5F5F5F5F5F5F5F5F5F5
310
F5F5F5F5F5F5F5F5F5F5F5F5F5F5F5F5F5F5F5F5F5F5F5F5F5F5F5F5F5F5F5F5F5F5E2E2F5E2E2F5E2F5F5F5F5F5F5F5F5F5F5F5F5F5F5F5F5F5F5F5F5F5F5F5F5F5F5F5F5F5F5F5F5F5F5F5F5F5F5F5F5F5F5F5F5F5F5F5F5F5F5F5F5F5F5F5F5F5F5F5F5F5F5F5F5F5F5F5F5F5F5F5F5F5F5F5F5F5F5F5F5F5F5F5F5F5F5
310
F5F5F5F5F5F5F5F5F5F5F5F5F5F5F5F5F5F5F5F5F5F5F5F5F5F5F5F5F5F5F5F5F5F5F5F5F5F5F5F5F5F5F5F5F5F5F5F5F5F5F5F5F5F5F5F5F5F5F5F5F5F5F5F5F5F5F5F5F5F5F5F5F5F5F5F5F5F5F5F5F5F5F5F5F5F5F5E2E2F5E2E2F5E2F5F5F5F5F5F5F5F5F5F5F5F5F5F5F5F5F5F5F5F5F5F5F5F5F5F5F5F5F5F5F5F5F5
310
F5F5F5F5F5F5F5F5F5F5F5F5F5F5F5F5F5F5F5F5F5F5F5F5F5F5F5F5F5F5F5F5F5F5F5F5F5F5F5F5F5F5F5F5F5F5F5F5F5F5F5F5F5F5F5F5F5F5F5F5F5F5F5F5F5F5F5F5F5F5F5F5F5F5F5F5F5F5F5F5F5F5F5F5F5F5F5F5F5F5F5F5F5F5F5F5F5F5F5F5F5F5F5F5F5F5F5F5F5F5F5F5F5F5F5F5F5F5F5F5F5F5F5F5F5F5F5
310
F5F5F5F5F5F5F5F5F5F5F5F5F5E2E2F5E2E2F5E2F5F5F5F5F5F5F5F5F5F5F5F5F5F5F5F5F5F5F5F5F5F5F5F5F5F5F5F5F5F5F5F5F5F5F5F5F5F5F5F5F5F5F5F5F5F5F5F5F5F5F5F5F5F5F5F5F5F5F5F5F5F5F5F5F5F5F5F5F5F5F5F5F5F5F5F5F5F5F5F5F5F5F5F5F5F5F5F5F5F5F5F5F5F5F5F5F5F5F5F5F5F5F5F5F5F5F5
310
F5F5F5F5F5F5F5F5F5F5F5F5F5F5F5F5F5F5F5F5F5F5F5F5F5F5F5F5F5F5F5F5F5F5F5F5F5F5F5F5F5F5F5F5F5F5F5F5F5F5F5F5F5F5F5F5F5F5F5F5F5F5F5F5F5F5E2E2F5E2E2F5E2F5F5F5F5F5F5F5F5F5F5F5F5F5F5F5F5F5F5F5F5F5F5F5F5F5F5F5F5F5F5F5F5F5F5F5F5F5F5F5F5F5F5F5F5F5F5F5F5F5F5F5F5F5F5
310
F5F5F5F5F5F5F5F5F5F5F5F5F5F5F5F5F5F5F5F5F5F5F5F5F5F5F5F5F5F5F5F5F5F5F5F5F5F5F5F5F5F5F5F5F5F5F5F5F5F5F5F5F5F5F5F5F5F5F5F5F5F5F5F5F5F5F5F5F5F5F5F5F5F5F5F5F5F5F5F5F5F5F5F5F5F5F5F5F5F5F5F5F5F5F5F5F5F5F5F5F5F5F5F5F5F5F5F5F5F5F5F5F5F5F5F5F5F5F5E2F5F5E2E2F5E2F5
310
F5F5F5F5F5F5F5F5F5F5F5F5F5F5F5F5F5F5F5F5F5F5F5F5F5F5F5F5F5F5F5F5F5F5F5F5F5F5F5F5F5F5F5F5F5F5F5F5F5F5F5F5F5F5F5F5F5F5F5F5F5F5F5F5F5F5F5F5F5F5F5F5F5F5F5F5F5F5F5F5F5F5F5F5F5F5F5F5F5F5F5F5F5F5F5F5F5F5F5F5F5F5F5F5F5F5F5F5F5F5F5F5F5F5F5F5F5F5F5F5F5F5F5F5F5F5F5
310
F5F5F5F5F5F5F5F5F5F5F5F5F5F5F5F5F5F5F5F5F5F5F5F5F5F5F5F5F5F5F5F5F5F5F5F5F5F5F5F5F5F5F5F5F5E2F5F5E2E2F5E2F5F5F5F5F5F5F5F5F5F5F5F5F5F5F5F5F5F5F5F5F5F5F5F5F5F5F5F5F5F5F5F5F5F5F5F5F5F5F5F5F5F5F5F5F5F5F5F5F5F5F5F5F5F5F5F5F5F5F5F5F5F5F5F5F5F5F5F5F5F5F5F5F5F5F5
310
F5F5F5F5F5F5F5F5F5F5F5F5F5F5F5F5F5F5F5F5F5F5F5F5F5F5F5F5F5F5F5F5F5F5F5F5F5F5F5F5F5F5F5F5F5F5F5F5F5F5F5F5F5F5F5F5F5F5F5F5F5F5F5F5F5F5F5F5F5F5F5F5F5F5F5F5F5F5F5F5F5F5F5F5F5F5F5F5F5F5F5F5F5F5F5F5F5F5E2F5F5E2E2F5E2F5F5F5F5F5F5F5F5F5F5F5F5F5F5F5F5F5F5F5F5F5F5
310
F5F5F5F5F5F5F5F5F5F5F5F5F5F5F5F5F5F5F5F5F5F5F5F5F5F5F5F5F5F5F5F5F5F5F5F5F5F5F5F5F5F5F5F5F5F5F5F5F5F5F5F5F5F5F5F5F5F5F5F5F5F5F5F5F5F5F5F5F5F5F5F5F5F5F5F5F5F5F5F5F5F5F5F5F5F5F5F5F5F5F5F5F5F5F5F5F5F5F5F5F5F5F5F5F5F5F5F5F5F5F5F5F5F5F5F5F5F5F5F5F5F5F5F5F5F5F5
310
F5F5F5F5F5F5F5F5F5F5F5F5F5F5F5F5F5F5F5F5F5F5F5F5E2F5F5E2E2F5E2F5F5F5F5F5F5F5F5F5F5F5F5F5F5F5F5F5F5F5F5F5F5F5F5F5F5F5F5F5F5F5F5F5F5F5F5F5F5F5F5F5F5F5F5F5F5F5F5F5F5F5F5F5F5F5F5F5F5F5F5F5F5F5F5F5F5F5F5F5F5F5F5F5F5F5F5F5F5F5F5F5F5F5F5F5F5F5F5F5F5F5F5F5F5F5F5
310
F5F5F5F5F5F5F5F5F5F5F5F5F5F5F5F5F5F5F5F5F5F5F5F5F5F5F5F5F5F5F5F5F5F5F5F5F5F5F5F5F5F5F5F5F5F5F5F5F5F5F5F5F5F5F5F5F5F5F5F5F5F5F5F5F5F5F5F5F5F5F5F5F5F5F5F5F5E2F5F5E2E2F5E2F5F5F5F5F5F5F5F5F5F5F5F5F5F5F5F5F5F5F5F5F5F5F5F5F5F5F5F5F5F5F5F5F5F5F5F5F5F5F5F5F5F5F5
310
F5F5F5F5F5F5F5F5F5F5F5F5F5F5F5F5F5F5F5F5F5F5F5F5F5F5F5F5F5F5F5F5F5F5F5F5F5F5F5F5F5F5F5F5F5F5F5F5F5F5F5F5F5F5F5F5F5F5F5F5F5F5F5F5F5F5F5F5F5F5F5F5F5F5F5F5F5F5F5F5F5F5F5F5F5F5F5F5F5F5F5F5F5F5F5F5F5F5F5F5F5F5F5F5F5F5F5F5F5F5F5F5F5F5F5F5F5F5F5F5F5F5F5F5F5F5F5
310
F5F5F5E2F5F5E2E2F5E2F5F5F5F5F5F5F5F5F5F5F5F5F5F5F5F5F5F5F5F5F5F5F5F5F5F5F5F5F5F5F5F5F5F5F5F5F5F5F5F5F5F5F5F5F5F5F5F5F5E2E2E2E2E2E2E2E2E2E2E2E2E2E2E2E2E2E2E2E2E2E2E2E2E2E2E2E2F5F5F5F5F5F5F5F5F5F5F5F5F5F5F5F5F5F5F5F5F5F5F5F5F5F5F5F5F5F5F5F5F5F5F5F5F5F5F5F5
310
F5F5F5F5F5F5F5F5F5F5F5F5F5F5F5F5F5F5F5F5F5F5F5F5F5F5F5F5F5F5F5F5F5F5F5F5F5F5F5F5F5F5F5F5F5F5F5F5F5F5F5F5F5F5F5F5E2F5F5E2E2F5E2F5F5F5F5F5F5F5F5F5F5F5F5F5F5F5F5F5F5F5F5F5F5F5F5F5F5F5F5F5F5F5F5F5F5F5F5F5F5F5F5F5F5F5F5F5F5F5F5F5E2E2E2E2E2E2E2E2E2E2E2E2E2E2E2
310
E2E2E2E2E2E2E2E2E2E2E2E2E2F5F5F5F5F5F5F5F5F5F5F5F5F5F5F5F5F5F5F5F5F5F5F5F5F5F5F5F5F5F5F5F5F5F5F5F5F5F5F5F5F5F5F5F5F5F5F5F5F5F5F5F5F5F5F5F5F5F5F5F5F5F5F5F5F5F5F5F5F5F5F5F5F5F5F5F5F5F5F5F5F5F5F5F5F5F5F5F5F5F5F5F5F5F5F5F5E2F5F5E2E2F5E2F5F5F5F5F5F5F5F5F5F5F5
310
F5F5F5F5F5F5F5F5F5F5F5F5F5F5F5F5F5F5F5F5F5F5F5F5F5F5F5F5F5F5F5F5F5F5F5F5F5F5E2E2E2E2E2E2E2E2E2E2E2E2E2E2E2E2E2E2E2E2E2E2E2E2E2E2E2E2F5F5F5F5F5F5F5F5F5F5F5F5F5F5F5F5F5F5F5F5F5F5F5F5F5F5F5F5F5F5F5F5F5F5F5F5F5F5F5F5F5F5F5F5F5F5F5F5F5F5F5F5F5F5F5F5F5F5F5F5F5
310
F5F5F5F5F5F5F5F5F5F5F5F5F5F5F5F5F5F5F5F5F5F5F5F5F5F5F5F5F5F5F5F5F5F5F5E2F5F5E2E2F5E2F5F5F5F5F5F5F5F5F5F5F5F5F5F5F5F5F5F5F5F5F5F5F5F5F5F5F5F5F5F5F5F5F5F5F5F5F5F5F5F5F5F5F5F5F5F5F5F5F5F5F5F5F5F5F5F5F5F5F5F5F5F5F5F5F5F5F5F5F5F5F5F5F5F5F5F5F5F5F5F5F5F5F5F5F5
310
F5F5F5F5F5F5F5F5F5F5F5F5F5F5F5F5F5F5F5F5F5F5F5F5F5F5F5F5F5F5F5F5F5F5F5F5F5F5F5F5F5F5F5F5F5F5F5F5F5F5F5F5F5F5F5F5F5F5F5F5F5F5F5F5F5F5F5F5F5F5F5F5F5F5F5F5F5F5F5F5F5F5F5F5F5F5F5F5E2E2F5E2E2F5E2F5F5F5F5F5F5F5F5F5F5F5F5F5F5F5F5F5F5F5F5F5F5F5F5F5F5F5F5F5F5F5F5
310
F5F5F5F5F5F5F5F5F5F5F5F5F5F5F5F5F5F5F5F5F5F5F5F5F5F5F5F5F5F5F5F5F5F5F5F5F5F5F5F5F5F5F5F5F5F5F5F5F5F5F5F5F5F5F5F5F5F5F5F5F5F5F5F5F5F5F5F5F5F5F5F5F5F5F5F5F5F5F5F5F5F5F5F5F5F5F5F5F5F5F5F5F5F5F5F5F5F5F5F5F5F5F5F5F5F5F5F5F5F5F5F5F5F5F5F5F5F5F5F5F5F5F5F5F5F5F5
310
F5F5F5F5F5F5F5F5F5F5F5F5F5F5E2E2F5E2E2F5E2F5F5F5F5F5F5F5F5F5F5F5F5F5F5F5F5F5F5F5F5F5F5F5F5F5F5F5F5F5F5F5F5F5E2BEF5F5F5F5F5F5F5F5F5F5F5F5F5F5F5F5F5F5F5F5F5F5F5F5F5F5F5F5F5F5F5F5F5F5F5F5F5F5F5F5F5F5F5F5F5F5F5F5F5F5F5F5F5F5F5F5F5F5F5F5F5F5F5F5F5F5F5F5F5F5F5
310
F5F5F5F5F5F5F5F5F5F5F5F5F5F5F5F5F5F5F5F5F5F5F5F5F5F5F5F5F5F5F5F5F5F5F5F5F5F5F5F5F5F5F5F5F5F5F5F5F5F5F5F5F5F5F5F5F5F5F5F5F5F5F5F5F5F5F5E2E2F5E2E2F5E2F5F5F5F5F5F5F5F5F5F5F5F5F5F5F5F5F5F5F5F5F5F5F5F5F5F5F5F5F5F5F5F5BEE2E2E2F5F5F5F5F5F5E2E2E2F5E2E2E2E2E2E2F5
310
F5E2E2E2E2E2F5F5E2E2E2E2E2E2F5E2E2E2E2E2E2F5E2E2E2E2E2E2F5E2E2E2E2F5F5F5F5F5F5F5F5F5F5F5F5F5F5F5F5F5F5F5F5F5F5F5F5F5F5F5F5F5F5F5F5F5F5F5F5F5F5F5F5F5F5F5F5F5F5F5F5F5F5F5F5F5F5F5F5F5F5F5F5F5F5F5F5F5F5F5F5F5F5F5F5F5F5F5F5F5F5F5F5F5F5F5F5F5F5F5E2E2F5E2E2F5E2
310
F5F5F5F5F5F5F5F5F5F5F5F5F5F5F5F5F5F5F5F5F5F5F5F5F5F5F5F5F5F5F5F5F5E2F5F5F5F5F5F5F5F5E2F5F5F5F5F5F5F5F5F5F5F5F5F5F5F5F5F5F5F5F5F5F5F5F5F5F5F5F5F5F5F5F5F5F5F5F5F5F5F5F5F5F5E2F5F5F5F5F5F5F5F5F5F5F5F5F5F5F5F5F5F5F5F5F5F5F5F5F5F5F5F5F5F5F5F5F5F5F5F5F5F5F5F5F5
310
F5F5F5F5F5F5F5F5F5F5F5F5F5F5F5F5F5F5F5F5F5F5F5F5F5F5F5F5F5F5F5F5F5F5F5F5F5F5F5F5F5F5F5F5F5F5E2E2F5E2E2F5E2F5F5F5F5F5F5F5F5F5F5F5F5F5F5F5F5F5F5F5F5F5F5F5F5F5F5F5F5F5F5F5F5F5E2F5F5F5F5F5F5F5F5E2F5F5F5F5F5F5F5F5F5F5F5F5F5F5F5F5F5F5F5F5F5F5F5F5F5F5F5F5F5F5F5
310
F5F5F5F5F5F5F5F5F5F5F5E2F5F5F5F5F5F5F5F5F5F5F5F5F5F5F5F5F5F5F5F5F5F5F5F5F5F5F5F5F5F5F5F5F5F5F5F5F5F5F5F5F5F5F5F5F5F5F5F5F5F5F5F5F5F5F5F5F5F5F5F5F5F5F5F5F5F5F5F5F5F5F5F5F5F5F5F5F5F5F5F5F5F5F5F5F5F5F5E2E2F5E2E2F5E2F5F5F5F5F5F5F5F5F5F5F5F5F5F5F5F5F5F5F5F5F5
310
F5F5F5F5F5F5F5F5F5F5F5F5E2F5F5F5F5F5F5F5F5E2F5F5F5F5F5F5F5F5F5F5F5F5F5F5F5F5F5F5F5F5F5F5F5F5F5F5F5F5F5F5F5F5F5F5F5F5F5F5F5F5F5F5E2F5F5F5F5F5F5F5F5F5F5F5F5F5F5F5F5F5F5F5F5F5F5F5F5F5F5F5F5F5F5F5F5F5F5F5F5F5F5F5F5F5F5F5F5F5F5F5F5F5F5F5F5F5F5F5F5F5F5F5F5F5F5
310
F5F5F5F5F5F5F5F5F5F5F5F5F5F5F5F5F5F5F5F5F5F5F5F5F5E2E2F5E2E2F5E2F5F5F5F5F5F5F5F5F5F5F5F5F5F5F5F5F5F5F5F5F5F5F5F5F5F5F5F5F5F5F5F5F5E2F5F5F5F5F5F5F5F5F5F5F5F5F5F5F5F5F5F5F5F5F5F5F5F5F5F5F5F5F5F5F5F5F5F5F5F5F5F5F5F5F5F5F5F5F5F5F5F5F5F5F5F5F5F5F5F5F5F5F5F5F5
310
F5F5F5F5F5F5F5F5F5F5F5F5F5F5F5F5F5F5F5F5F5F5F5F5F5F5F5F5F5F5F5F5F5F5F5F5F5F5F5F5F5F5F5F5F5F5F5F5F5F5F5F5F5F5F5F5F5F5F5F5F5F5F5F5F5F5F5F5F5F5F5F5F5F5F5F5F5F5E2E2F5E2E2F5E2F5F5F5F5F5F5F5F5F5F5F5F5F5F5F5F5F5F5F5F5F5F5F5F5F5F5F5F5F5F5F5F5F5E2F5F5F5F5F5F5F5F5
310
F5F5F5F5F5F5F5F5F5F5F5F5F5F5F5F5F5F5F5F5F5F5F5F5F5F5F5F5F5F5F5F5F5F5F5F5F5F5F5F5F5F5F5E2F5F5F5F5F5F5F5F5F5F5F5F5F5F5F5F5F5F5F5F5F5F5F5F5F5F5F5F5F5F5F5F5F5F5F5F5F5F5F5F5F5F5F5F5F5F5F5F5F5F5F5F5F5F5F5F5F5F5F5F5F5F5F5F5F5F5F5F5F5F5F5F5F5F5F5F5F5F5F5F5F5F5F5
310
F5F5F5F5E2E2F5E2E2F5E2F5F5F5F5F5F5F5F5F5F5F5F5F5F5F5F5F5F5F5F5F5F5F5F5F5F5F5F5F5F5F5F5F5E2F5F5F5F5F5F5F5F5E2F5F5F5F5F5F5F5F5F5F5F5F5F5F5F5F5F5F5F5F5F5F5F5F5F5F5F5F5F5F5F5F5F5F5F5F5F5F5F5F5F5F5E2F5F5F5F5F5F5F5F5F5F5F5F5F5F5F5F5F5F5F5F5F5F5F5F5F5F5F5F5F5F5
310
F5F5F5F5F5F5F5F5F5F5F5F5F5F5F5F5F5F5F5F5F5F5F5F5F5F5F5F5F5F5F5F5F5F5F5F5F5F5F5F5F5F5F5F5F5F5F5F5F5F5F5F5F5F5F5F5F5E2E2F5E2E2F5E2F5F5F5F5F5F5F5F5F5F5F5F5F5F5F5F5F5F5F5F5F5F5F5F5F5F5F5F5F5F5F5F5F5E2F5F5F5F5F5F5F5F5E2F5F5F5F5F5F5F5F5F5F5F5F5F5F5F5F5F5F5F5F5
310
F5F5F5F5F5F5F5F5F5F5F5F5F5F5F5F5F5F5F5F5F5F5E2F5F5F5F5F5F5F5F5F5F5F5F5F5F5F5F5F5F5F5F5F5F5F5F5F5F5F5F5F5F5F5F5F5F5F5F5F5F5F5F5F5F5F5F5F5F5F5F5F5F5F5F5F5F5F5F5F5F5F5F5F5F5F5F5F5F5F5F5F5F5F5F5F5F5F5F5F5F5F5F5F5F5F5F5F5F5F5E2E2F5E2E2F5E2F5F5F5F5F5F5F5F5F5F5
310
F5F5F5F5F5F5F5F5F5F5F5F5F5F5F5F5F5F5F5F5F5F5F5E2F5F5F5F5F5F5F5F5E2F5F5F5F5F5F5F5F5F5F5F5F5F5F5F5F5F5F5F5F5F5F5F5F5F5F5F5F5F5F5F5F5F5F5F5F5F5F5F5F5F5F5E2F5F5F5F5F5F5F5F5F5F5F5F5F5F5F5F5F5F5F5F5F5F5F5F5F5F5F5F5F5F5F5F5F5F5F5F5F5F5F5F5F5F5F5F5F5F5F5F5F5F5F5
310
F5F5F5F5F5F5F5F5F5F5F5F5F5F5F5F5F5F5F5F5F5F5F5F5F5F5F5F5F5F5F5F5F5F5F5F5E2E2F5E2E2F5E2F5F5F5F5F5F5F5F5F5F5F5F5F5F5F5F5F5F5F5F5F5F5F5F5F5F5F5F5F5F5F5F5F5E2F5F5F5F5F5F5F5F5E2F5F5F5F5F5F5F5F5F5F5F5F5F5F5F5F5F5F5F5F5F5F5F5F5F5F5F5F5F5F5F5F5F5F5F5F5F5F5F5F5F5
310
F5E2F5F5F5F5F5F5F5F5F5F5F5F5F5F5F5F5F5F5F5F5F5F5F5F5F5F5F5F5F5F5F5F5F5F5F5F5F5F5F5F5F5F5F5F5F5F5F5F5F5F5F5F5F5F5F5F5F5F5F5F5F5F5F5F5F5F5F5F5F5F5F5F5F5F5F5F5F5F5F5F5F5F5F5F5F5F5F5E2E2F5E2E2F5E2F5F5F5F5F5F5F5F5F5F5F5F5F5F5F5F5F5F5F5F5F5F5F5F5F5F5F5F5F5F5F5
310
F5F5E2F5F5F5F5F5F5F5F5E2F5F5F5F5F5F5F5F5F5F5F5F5F5F5F5F5F5F5F5F5F5F5F5F5F5F5F5F5F5F5F5F5F5F5F5F5F5F5F5F5F5F5E2F5F5F5F5F5F5F5F5F5F5F5F5F5F5F5F5F5F5F5F5F5F5F5F5F5F5F5F5F5F5F5F5F5F5F5F5F5F5F5F5F5F5F5F5F5F5F5F5F5F5F5F5F5F5F5F5F5F5F5F5F5F5F5F5F5F5F5F5F5F5F5F5
310
F5F5F5F5F5F5F5F5F5F5F5F5F5F5F5E2E2F5E2E2F5E2F5F5F5F5F5F5F5F5F5F5F5F5F5F5F5F5F5F5F5F5F5F5F5F5F5F5F5F5F5F5F5F5F5E2F5F5F5F5F5F5F5F5E2F5F5F5F5F5F5F5F5F5F5F5F5F5F5F5F5F5F5F5F5F5F5F5F5F5F5F5F5F5F5F5F5F5F5F5F5F5F5F5F5F5F5F5F5F5F5F5F5F5F5F5F5F5F5F5F5F5F5F5F5F5F5
310
F5F5F5F5F5F5F5F5F5F5F5F5F5F5F5F5F5F5F5F5F5F5F5F5F5F5F5F5F5F5F5F5F5F5F5F5F5F5F5F5F5F5F5F5F5F5F5F5F5F5F5F5F5F5F5F5F5F5F5F5F5F5F5F5F5F5F5F5E2E2F5E2E2F5E2F5F5F5F5F5F5F5F5F5F5F5F5F5F5F5F5F5F5F5F5F5F5F5F5F5F5F5F5F5F5F5F5F5E2F5F5F5F5F5F5F5F5F5F5F5F5F5F5F5F5F5F5
310
F5F5F5F5F5F5F5F5F5F5F5F5F5F5F5F5F5F5F5F5F5F5F5F5F5F5F5F5F5F5F5F5F5E2F5F5F5F5F5F5F5F5F5F5F5F5F5F5F5F5F5F5F5F5F5F5F5F5F5F5F5F5F5F5F5F5F5F5F5F5F5F5F5F5F5F5F5F5F5F5F5F5F5F5F5F5F5F5F5F5F5F5F5F5F5F5F5F5F5F5F5F5F5F5F5F5F5F5F5F5F5F5F5F5F5F5F5F5F5F5F5E2E2F5E2E2F5
310
E2F5F5F5F5F5F5F5F5F5F5F5F5F5F5F5F5F5F5F5F5F5F5F5F5F5F5F5F5F5F5F5F5F5E2F5F5F5F5F5F5F5F5E2F5F5F5F5F5F5F5F5F5F5F5F5F5F5F5F5F5F5F5F5F5F5F5F5F5F5F5F5F5F5F5F5F5F5F5F5F5F5F5F5F5F5E2F5F5F5F5F5F5F5F5F5F5F5F5F5F5F5F5F5F5F5F5F5F5F5F5F5F5F5F5F5F5F5F5F5F5F5F5F5F5F5F5
310
F5F5F5F5F5F5F5F5F5F5F5F5F5F5F5F5F5F5F5F5F5F5F5F5F5F5F5F5F5F5F5F5F5F5F5F5F5F5F5F5F5F5F5F5F5F5F5E2F5F5E2E2F5E2F5F5F5F5F5F5F5F5F5F5F5F5F5F5F5F5F5F5F5F5F5F5F5F5F5F5F5F5F5F5F5F5F5E2F5F5F5F5F5F5F5F5E2F5F5F5F5F5F5F5F5F5F5F5F5F5F5F5F5F5F5F5F5F5F5F5F5F5F5F5F5F5F5
310
F5F5F5F5F5F5F5F5F5F5F5F5E2F5F5F5F5F5F5F5F5F5F5F5F5F5F5F5F5F5F5F5F5F5F5F5F5F5F5F5F5F5F5F5F5F5F5F5F5F5F5F5F5F5F5F5F5F5F5F5F5F5F5F5F5F5F5F5F5F5F5F5F5F5F5F5F5F5F5F5F5F5F5F5F5F5F5F5F5F5F5F5F5F5F5F5F5F5F5F5E2F5F5E2E2F5E2F5F5F5F5F5F5F5F5F5F5F5F5F5F5F5F5F5F5F5F5
310
F5F5F5F5F5F5F5F5F5F5F5F5F5E2F5F5F5F5F5F5F5F5E2F5F5F5F5F5F5F5F5F5F5F5F5F5F5F5F5F5F5F5F5F5F5F5F5F5F5F5F5F5F5F5F5F5F5F5F5F5F5F5F5F5F5E2F5F5F5F5F5F5F5F5F5F5F5F5F5F5F5F5F5F5F5F5F5F5F5F5F5F5F5F5F5F5F5F5F5F5F5F5F5F5F5F5F5F5F5F5F5F5F5F5F5F5F5F5F5F5F5F5F5F5F5F5F5
310
F5F5F5F5F5F5F5F5F5F5F5F5F5F5F5F5F5F5F5F5F5F5F5F5F5F5E2F5F5E2E2F5E2F5F5F5F5F5F5F5F5F5F5F5F5F5F5F5F5F5F5F5F5F5F5F5F5F5F5F5F5F5F5F5F5F5E2F5F5F5F5F5F5F5F5E2F5F5F5F5F5F5F5F5F5F5F5F5F5F5F5F5F5F5F5F5F5F5F5F5F5F5F5F5F5F5F5F5F5F5F5F5F5F5F5F5F5F5E2F5F5F5F5F5F5F5F5
310
F5F5F5F5F5F5F5F5F5F5F5F5F5F5F5F5F5F5F5F5F5F5F5F5F5F5F5F5F5F5F5F5F5F5F5F5F5F5F5F5F5F5F5F5F5F5F5F5F5F5F5F5F5F5F5F5F5F5F5F5F5F5F5F5F5F5F5F5F5F5F5F5F5F5F5F5F5F5F5E2F5F5E2E2F5E2F5F5F5F5F5F5F5F5F5F5F5F5F5F5F5F5F5F5F5F5F5F5F5F5F5F5F5F5F5F5F5F5F5E2F5F5F5F5F5F5F5
310
F5E2F5F5F5F5F5F5F5F5F5F5F5F5F5F5F5F5F5F5F5F5F5F5F5F5F5F5F5F5F5F5F5F5F5F5F5F5F5F5F5F5F5F5E2F5F5F5F5F5F5F5F5F5F5F5F5F5F5F5F5F5F5F5F5F5F5F5F5F5F5F5F5F5F5F5F5F5F5F5F5F5F5F5F5F5F5F5F5F5F5F5F5F5F5F5F5F5F5F5F5F5F5F5F5F5F5F5F5F5F5F5F5F5F5F5F5F5F5F5F5F5F5F5F5F5F5
310
F5F5F5F5F5E2F5F5E2E2F5E2F5F5F5F5F5F5F5F5F5F5F5F5F5F5F5F5F5F5F5F5F5F5F5F5F5F5F5F5F5F5F5F5F5E2F5F5F5F5F5F5F5F5E2F5F5F5F5F5F5F5F5F5F5F5F5F5F5F5F5F5F5F5F5F5F5F5F5F5F5F5F5F5F5F5F5F5F5F5F5F5F5F5F5F5F5F5F5F5F5F5F5F5F5F5F5F5F5F5F5F5F5F5F5F5F5F5F5F5F5F5F5F5F5F5F5
310
F5F5F5F5F5F5F5F5F5F5F5F5F5F5F5F5F5F5F5F5F5F5F5F5F5F5F5F5F5F5F5F5F5F5F5F5F5F5F5F5F5F5F5F5F5F5F5F5F5F5F5F5F5F5F5F5F5F5E2F5F5E2E2F5E2F5F5F5F5F5F5F5F5F5F5F5F5F5F5F5F5F5F5F5F5F5F5F5F5F5F5F5F5F5F5F5F5F5E2F5F5F5F5F5F5F5F5F5F5F5F5F5F5F5F5F5F5F5F5F5F5F5F5F5F5E2E2
310
E2E2E2E2E2F5F5F5F5F5F5F5F5F5F5F5F5F5F5F5F5F5F5E2F5F5F5F5F5F5F5F5F5F5F5F5F5F5F5F5F5F5F5F5F5F5F5F5F5F5F5F5F5F5F5F5F5F5F5F5F5F5F5F5F5F5F5F5F5F5F5F5F5F5F5F5F5F5F5F5F5F5F5F5F5F5F5F5F5F5F5F5F5F5F5F5F5F5F5F5F5F5F5F5F5F5F5F5F5F5F5E2F5F5E2E2F5E2F5F5F5F5F5F5F5F5F5
310
F5F5F5F5F5F5F5F5F5F5F5F5F5F5F5F5F5F5F5F5F5F5F5F5E2F5F5F5F5F5F5F5F5E2F5F5F5F5F5F5F5F5F5F5F5F5F5F5F5F5F5E2E2F5F5F5E2E2F5F5F5F5F5F5F5F5F5F5F5F5F5F5F5F5F5F5E2F5F5F5F5F5F5F5F5F5F5F5F5F5F5F5F5F5F5F5F5F5F5F5F5F5F5F5F5F5F5F5F5F5F5F5F5F5F5F5F5F5F5F5F5F5F5F5F5F5F5
310
F5F5F5F5F5F5F5F5F5F5F5F5F5F5F5F5F5F5F5F5F5F5F5F5F5F5F5F5F5F5F5F5F5F5F5F5F5E2F5F5E2E2F5E2F5F5F5F5F5F5F5F5F5F5F5F5F5F5F5F5F5F5F5F5F5F5F5F5F5F5F5F5F5F5F5F5F5E2F5F5F5F5F5F5F5F5E2F5F5F5F5F5F5F5F5F5F5F5F5F5F5F5F5F5E2E2F5F5F5E2E2F5F5F5F5F5F5F5F5F5F5F5F5F5F5F5F5
310
F5F5E2F5F5F5F5F5F5F5F5F5F5F5F5F5F5F5F5F5F5F5F5F5F5F5F5F5F5F5F5F5F5F5F5F5F5F5F5F5F5F5F5F5F5F5F5F5F5F5F5F5F5F5F5F5F5F5F5F5F5F5F5F5F5F5F5F5F5F5F5F5F5F5F5F5F5F5F5F5F5F5F5F5F5F5F5F5F5F5E2E2F5E2E2F5E2F5F5F5F5F5F5F5F5F5F5F5F5F5F5F5F5F5F5F5F5F5F5F5F5F5F5F5F5F5F5
310
F5F5F5E2F5F5F5F5F5F5F5F5E2F5F5F5F5F5F5F5F5F5F5F5F5F5F5F5F5F5E2E2E2E2E2E2E2F5F5F5F5F5F5F5F5F5F5F5F5F5F5F5F5F5F5E2F5F5F5F5F5F5F5F5F5F5F5F5F5F5F5F5F5F5F5F5F5F5F5F5F5F5F5F5F5F5F5F5F5F5F5F5F5F5F5F5F5F5F5F5F5F5F5F5F5F5F5F5F5F5F5F5F5F5F5F5F5F5F5F5F5F5F5F5F5F5F5
310
F5F5F5F5F5F5F5F5F5F5F5F5F5F5F5F5E2E2F5E2E2F5E2F5F5F5F5F5F5F5F5F5F5F5F5F5F5F5F5F5F5F5F5F5F5F5F5F5F5F5F5F5F5F5F5F5E2F5F5F5F5F5F5F5F5E2F5F5F5F5F5F5F5F5F5F5F5F5F5F5F5E2F5E2E2F5F5F5E2E2F5E2F5F5F5F5F5F5F5F5F5F5F5F5F5F5F5F5E2F5F5F5F5F5F5F5F5F5F5F5F5F5F5F5F5F5F5
310
F5F5F5F5F5F5F5F5F5F5F5F5F5F5F5F5F5F5F5F5F5F5F5F5F5F5F5F5F5F5F5F5F5F5F5F5F5F5F5F5F5F5F5F5F5F5F5F5F5F5F5F5F5F5F5F5F5F5F5F5F5F5F5F5F5F5F5F5F5E2E2F5E2E2F5E2F5F5F5F5F5F5F5F5F5F5F5F5F5F5F5F5F5F5F5F5F5F5F5F5F5F5F5F5F5F5F5F5F5E2F5F5F5F5F5F5F5F5E2F5F5F5F5F5F5F5F5
310
F5F5F5F5F5F5F5E2F5E2E2F5F5F5E2E2F5E2F5F5F5F5F5F5F5F5F5F5F5F5F5F5F5F5E2F5F5F5F5F5F5F5F5F5F5F5F5F5F5F5F5F5F5F5F5F5F5F5F5F5F5F5F5F5F5F5F5F5F5F5F5F5F5F5F5F5F5F5F5F5F5F5F5F5F5F5F5F5F5F5F5F5F5F5F5F5F5F5F5F5F5F5F5F5F5F5F5F5F5F5F5F5F5F5F5F5F5F5F5F5F5F5E2E2F5E2E2
310
F5E2F5F5F5F5F5F5F5F5F5F5F5F5F5F5F5F5F5F5F5F5F5F5F5F5F5F5F5F5F5F5F5F5F5E2F5F5F5F5F5F5F5F5E2F5F5F5F5F5F5F5F5F5F5F5F5F5F5F5E2F5E2E2F5F5F5E2E2F5E2F5F5F5F5F5F5F5F5F5F5F5F5F5F5F5F5F5F5F5F5F5F5F5F5F5F5F5F5F5F5F5F5F5F5F5F5F5F5F5F5F5F5F5F5F5F5F5F5F5F5F5F5F5F5F5F5
310
F5F5F5F5F5F5F5F5F5F5F5F5F5F5F5F5F5F5F5F5F5F5F5F5F5F5F5F5F5F5F5F5F5F5F5F5F5F5F5F5F5F5F5F5F5F5F5F5E2E2F5E2E2F5E2F5F5F5F5F5F5F5F5F5F5F5F5F5F5F5F5F5F5F5F5F5F5F5F5F5F5F5F5F5F5F5F5F5E2F5F5F5F5F5F5F5F5F5F5F5F5F5F5F5F5F5F5F5F5F5F5F5F5E2E2E2E2F5F5F5E2E2E2E2F5F5F5
310
F5F5F5F5F5F5F5F5F5F5F5F5F5F5F5F5F5F5F5F5F5F5F5F5F5F5F5F5F5F5F5F5F5F5F5F5F5F5F5F5F5F5F5F5F5F5F5F5F5F5F5F5F5F5F5F5F5F5F5F5F5F5F5F5F5F5F5F5F5F5F5F5F5F5F5F5F5F5F5F5F5F5F5F5F5F5F5F5F5F5F5F5F5F5F5F5F5F5F5F5F5E2E2F5E2E2F5E2F5F5F5F5F5F5F5F5F5F5F5F5F5F5F5F5F5F5F5
310
F5F5F5F5F5F5F5F5F5F5F5F5F5F5E2F5F5F5F5F5F5F5F5E2F5F5F5F5F5F5F5F5F5F5F5F5F5F5F5E2F5E2E2F5F5F5E2E2F5E2F5F5F5F5F5F5F5F5F5F5F5F5F5F5F5F5E2F5F5F5F5F5F5F5F5F5F5F5F5F5F5F5F5F5F5F5F5F5F5F5F5F5F5F5F5F5F5F5F5F5F5F5F5F5F5F5F5F5F5F5F5F5F5F5F5F5F5F5F5F5F5F5F5F5F5F5F5
310
F5F5F5F5F5F5F5F5F5F5F5F5F5F5F5F5F5F5F5F5F5F5F5F5F5F5F5E2E2F5E2E2F5E2F5F5F5F5F5F5F5F5F5F5F5F5F5F5F5F5F5F5F5F5F5F5F5F5F5F5F5F5F5F5F5F5F5E2F5F5F5F5F5F5F5F5E2F5F5F5F5F5F5F5F5F5F5F5F5F5F5F5E2F5E2E2F5F5F5E2E2F5E2F5F5F5F5F5F5F5F5F5F5F5F5F5F5F5F5E2F5F5F5F5F5F5F5
310
F5F5F5F5F5F5F5F5F5F5F5F5F5F5F5F5F5F5F5F5F5F5F5F5F5F5F5F5F5F5F5F5F5F5F5F5F5F5F5F5F5F5F5F5F5F5F5F5F5F5F5F5F5F5F5F5F5F5F5F5F5F5F5F5F5F5F5F5F5F5F5F5F5F5F5F5F5F5F5F5E2E2F5E2E2F5E2F5F5F5F5F5F5F5F5F5F5F5F5F5F5F5F5F5F5F5F5F5F5F5F5F5F5F5F5F5F5F5F5F5E2F5F5F5F5F5F5
310
F5F5E2F5F5F5F5F5F5F5F5F5F5F5F5F5F5F5E2F5E2E2F5F5F5E2E2F5E2F5F5F5F5F5F5F5F5F5F5F5F5F5F5F5F5E2F5F5F5F5F5F5F5F5F5F5F5F5F5F5F5F5F5F5F5F5F5F5F5F5F5F5F5F5F5F5F5F5F5F5F5F5F5F5F5F5F5F5F5F5F5F5F5F5F5F5F5F5F5F5F5F5F5F5F5F5F5F5F5F5F5F5F5F5F5F5F5F5F5F5F5F5F5F5F5F5F5
310
F5F5F5F5F5F5E2E2F5E2E2F5E2F5F5F5F5F5F5F5F5F5F5F5F5F5F5F5F5F5F5F5F5F5F5F5F5F5F5F5F5F5F5F5F5F5E2F5F5F5F5F5F5F5F5E2F5F5F5F5F5F5F5F5F5F5F5F5F5F5F5E2F5E2E2F5F5F5E2E2F5E2F5F5F5F5F5F5F5F5F5F5F5F5F5F5F5F5E2F5F5F5F5F5F5F5F5F5F5F5F5F5F5F5F5F5F5F5F5F5F5F5F5F5F5F5F5
310
F5F5F5F5F5F5F5F5F5F5F5F5F5F5F5F5F5F5F5F5F5F5F5F5F5F5F5F5F5F5F5F5F5F5F5F5F5F5F5F5F5F5F5F5F5F5F5F5F5F5F5F5F5F5F5F5F5F5F5E2E2F5E2E2F5E2F5F5F5F5F5F5F5F5F5F5F5F5F5F5F5F5F5F5F5F5F5F5F5F5F5F5F5F5F5F5F5F5F5E2F5F5F5F5F5F5F5F5E2F5F5F5F5F5F5F5F5F5F5F5F5F5F5F5E2F5E2
310
E2F5F5F5E2E2F5E2F5F5F5F5F5F5F5F5F5F5F5F5F5F5F5F5E2F5F5F5F5F5F5F5F5F5F5F5F5F5F5F5F5F5F5F5F5F5F5F5F5F5F5F5F5F5F5F5F5F5F5F5F5F5F5F5F5F5F5F5F5F5F5F5F5F5F5F5F5F5F5F5F5F5F5F5F5F5F5F5F5F5F5F5F5F5F5F5F5F5F5F5F5F5F5F5F5F5F5F5F5F5F5F5E2E2F5E2E2F5E2F5F5F5F5F5F5F5F5
310
F5F5F5F5F5F5F5F5F5F5F5F5F5F5F5F5F5F5F5F5F5F5F5F5F5E2F5F5F5F5F5F5F5F5E2F5F5F5F5F5F5F5F5F5F5F5F5F5F5F5E2F5E2E2F5F5F5E2E2F5E2F5F5F5F5F5F5F5F5F5F5F5F5F5F5F5F5F5F5F5F5F5F5F5F5F5F5F5F5F5F5F5F5F5F5F5F5F5F5F5F5F5F5F5F5F5F5F5F5F5F5F5F5F5F5F5F5F5F5F5F5F5F5F5F5F5F5
310
F5F5F5F5F5F5F5F5F5F5F5F5F5F5F5F5F5F5F5F5F5F5F5F5F5F5F5F5F5F5F5F5F5F5F5F5F5F5E2E2F5E2E2F5E2F5F5F5F5F5F5F5F5F5F5F5F5F5F5F5F5F5F5F5F5F5F5F5F5F5F5F5F5F5F5F5F5F5E2F5F5F5F5F5F5F5F5F5F5F5F5F5F5F5F5F5F5F5F5F5F5F5F5E2F5E2E2F5F5F5E2E2F5E2F5F5F5F5F5F5F5F5F5F5F5F5F5
310
F5F5F5F5F5F5F5F5F5F5F5F5F5F5F5F5F5F5F5F5F5F5F5F5F5F5F5F5F5F5F5F5F5F5F5F5F5F5F5F5F5F5F5F5F5F5F5F5F5F5F5F5F5F5F5F5F5F5F5F5F5F5F5F5F5F5F5F5F5F5F5F5F5F5F5F5F5F5F5F5F5F5F5F5F5F5F5F5F5F5F5E2E2F5E2E2F5E2F5F5F5F5F5F5F5F5F5F5F5F5F5F5F5F5F5F5F5F5F5F5F5F5F5F5F5F5F5
310
F5E2E2E2E2F5F5F5F5F5F5F5F5E2F5F5F5F5F5F5F5F5F5F5F5F5F5F5F5E2F5E2E2F5F5F5E2E2F5E2F5F5F5F5F5F5F5F5F5F5F5F5F5F5F5F5E2F5F5F5F5F5F5F5F5F5F5F5F5F5F5F5F5F5F5F5F5F5F5F5F5F5F5F5F5F5F5F5F5F5F5F5F5F5F5F5F5F5F5F5F5F5F5F5F5F5F5F5F5F5F5F5F5F5F5F5F5F5F5F5F5F5F5F5F5F5F5
310
F5F5F5F5F5F5F5F5F5F5F5F5F5F5F5F5F5E2E2F5E2E2F5E2F5F5F5F5F5F5F5F5F5F5F5F5F5F5F5F5F5F5F5F5F5F5F5F5F5F5F5F5F5F5E2E2E2E2F5F5F5F5F5F5F5F5E2F5F5F5F5F5F5F5F5F5F5F5F5F5F5F5E2F5E2E2F5F5F5E2E2F5E2F5F5F5F5F5F5F5F5F5F5F5F5F5F5F5F5E2F5F5F5F5F5F5F5F5F5F5F5F5F5F5F5F5F5
310
F5F5F5F5F5F5F5F5F5F5F5F5F5F5F5F5F5F5F5F5F5F5F5F5F5F5F5F5F5F5F5F5F5F5F5F5F5F5F5F5F5F5F5F5F5F5F5F5F5F5F5F5F5F5F5F5F5F5F5F5F5F5F5F5F5F5F5F5F5F5E2E2F5E2E2F5E2F5F5F5F5F5F5F5F5F5F5F5F5F5F5F5F5F5F5F5F5F5F5F5F5F5F5F5F5F5F5E2E2E2E2F5F5F5F5F5F5F5F5E2F5F5F5F5F5F5F5
310
F5F5F5F5F5F5F5F5E2F5E2E2F5F5F5E2E2F5E2F5F5F5F5F5F5F5F5F5F5F5F5F5F5F5F5E2F5F5F5F5F5F5F5F5F5F5F5F5F5F5F5F5F5F5F5F5F5F5F5F5F5F5F5F5F5F5F5F5F5F5F5F5F5F5F5F5F5F5F5F5F5F5F5F5F5F5F5F5F5F5F5F5F5F5F5F5F5F5F5F5F5F5F5F5F5F5F5F5F5F5F5F5F5F5F5F5F5F5F5F5F5F5F5E2E2F5E2
310
E2F5E2F5F5F5F5F5F5F5F5F5F5F5F5F5F5F5F5F5F5F5F5F5F5F5F5F5F5F5F5F5F5E2E2E2E2F5F5F5F5F5F5F5F5E2F5F5F5F5F5F5F5F5F5F5F5F5F5F5E2E2E2E2E2E2E2E2E2E2E2E2E2F5F5F5F5F5F5F5F5F5F5F5F5F5F5F5E2F5F5F5F5F5F5F5F5F5F5F5F5F5F5F5F5F5F5F5F5F5F5F5F5F5F5F5F5F5F5F5F5F5F5F5F5F5F5
310
F5F5F5F5F5F5F5F5F5F5F5F5F5F5F5F5F5F5F5F5F5F5F5F5F5F5F5F5F5F5F5F5F5F5F5F5F5F5F5F5F5F5F5F5F5F5F5F5F5E2F5F5E2E2F5E2F5F5F5F5F5F5F5F5F5F5F5F5F5F5F5F5F5F5F5F5F5F5F5F5F5F5F5F5F5F5F5F5F5E2F5F5F5F5F5F5F5F5E2F5F5F5F5F5F5F5F5F5F5F5F5F5F5E2E2E2E2E2E2E2E2E2E2E2E2E2F5
310
F5F5F5F5F5F5F5F5F5F5F5F5F5F5E2F5F5F5F5F5F5F5F5F5F5F5F5F5F5F5F5F5F5F5F5F5F5F5F5F5F5F5F5F5F5F5F5F5F5F5F5F5F5F5F5F5F5F5F5F5F5F5F5F5F5F5F5F5F5F5F5F5F5F5F5F5F5F5F5F5F5F5F5F5F5F5F5F5F5F5F5F5F5F5F5F5F5F5F5F5F5F5E2F5F5E2E2F5E2F5F5F5F5F5F5F5F5F5F5F5F5F5F5F5F5F5F5
310
F5F5F5F5F5F5F5F5F5F5F5F5F5F5F5E2F5F5F5F5F5F5F5F5E2F5F5F5F5F5F5F5F5F5F5F5F5F5F5E2E2E2E2E2E2E2E2E2E2E2E2E2E2F5F5F5F5F5F5F5F5F5F5F5F5F5F5F5F5F5F5F5F5F5F5F5F5F5F5F5F5F5F5F5F5F5F5F5F5F5F5F5F5F5F5F5F5F5F5F5F5F5F5F5F5F5F5F5F5F5F5F5F5F5F5F5F5F5F5F5F5F5F5F5F5F5F5
310
F5F5F5F5F5F5F5F5F5F5F5F5F5F5F5F5F5F5F5F5F5F5F5F5F5F5F5F5E2F5F5E2E2F5E2F5F5F5F5F5F5F5F5F5F5F5F5F5F5F5F5F5F5F5F5F5F5F5F5F5F5F5F5F5F5F5F5F5E2F5F5F5F5F5F5F5F5F5F5F5F5F5F5F5F5F5F5F5F5F5F5F5E2E2E2E2E2E2E2E2E2E2E2E2E2E2E2F5F5F5F5F5F5F5F5F5F5F5F5F5F5F5F5F5F5F5F5
310
F5F5F5F5F5F5F5F5F5F5F5F5F5F5F5F5F5F5F5F5F5F5F5F5F5F5F5F5F5F5F5F5F5F5F5F5F5F5F5F5F5F5F5F5F5F5F5F5F5F5F5F5F5F5F5F5F5F5F5F5F5F5F5F5F5F5F5F5F5F5F5F5F5F5F5F5F5F5F5F5F5E2F5F5E2E2F5E2F5F5F5F5F5F5F5F5F5F5F5F5F5F5F5F5F5F5F5F5F5F5F5F5F5F5F5F5F5F5F5F5F5E2F5F5F5F5F5
310
F5F5F5E2F5F5F5F5F5F5F5F5F5F5F5F5F5F5E2E2E2E2E2E2E2E2E2E2E2E2E2E2E2F5F5F5F5F5F5F5F5F5F5F5F5F5E2F5F5F5F5F5F5F5F5F5F5F5F5F5F5F5F5F5F5F5F5F5F5F5F5F5F5F5F5F5F5F5F5F5F5F5F5F5F5F5F5F5F5F5F5F5F5F5F5F5F5F5F5F5F5F5F5F5F5F5F5F5F5F5F5F5F5F5F5F5F5F5F5F5F5F5F5F5F5F5F5
310
F5F5F5F5F5F5F5E2F5F5E2E2F5E2F5F5F5F5F5F5F5F5F5F5F5F5F5F5F5F5F5F5F5F5F5F5F5F5F5F5F5F5F5F5F5F5F5E2F5F5F5F5F5F5F5F5E2F5F5F5F5F5F5F5F5F5F5F5F5F5F5E2E2E2E2E2E2E2E2E2E2E2E2E2E2E2F5F5F5F5F5F5F5F5F5F5F5F5F5E2F5F5F5F5F5F5F5F5F5F5F5F5F5F5F5F5F5F5F5F5F5F5F5F5F5F5F5
310
F5F5F5F5F5F5F5F5F5F5F5F5F5F5F5F5F5F5F5F5F5F5F5F5F5F5F5F5F5F5F5F5F5F5F5F5F5F5F5F5F5F5F5F5F5F5F5F5F5F5F5F5F5F5F5F5F5F5F5F5E2F5F5E2E2F5E2F5F5F5F5F5F5F5F5F5F5F5F5F5F5F5F5F5F5F5F5F5F5F5F5F5F5F5F5F5F5F5F5F5E2F5F5F5F5F5F5F5F5E2F5F5F5F5F5F5F5F5F5F5F5F5F5F5E2E2E2
310
E2E2E2E2E2E2E2E2E2E2E2E2F5F5F5F5F5F5F5F5F5F5F5F5F5E2F5F5F5F5F5F5F5F5F5F5F5F5F5F5F5F5F5F5F5F5F5F5F5F5F5F5F5F5F5F5F5F5F5F5F5F5F5F5F5F5F5F5F5F5F5F5F5F5F5F5F5F5F5F5F5F5F5F5F5F5F5F5F5F5F5F5F5F5F5F5F5F5F5F5F5F5F5F5F5F5F5F5F5F5F5F5F5E2F5F5E2E2F5E2F5F5F5F5F5F5F5
310
F5F5F5F5F5F5F5F5F5F5F5F5F5F5F5F5F5F5F5F5F5F5F5F5F5F5E2F5F5F5F5F5F5F5F5E2F5F5F5F5F5F5F5F5F5F5F5F5F5F5E2E2E2E2E2E2E2E2E2E2E2E2E2E2E2F5F5F5F5F5F5F5F5F5F5F5F5F5E2F5F5F5F5F5F5F5F5F5F5F5F5F5F5F5F5F5F5F5F5F5F5F5F5F5F5F5F5F5F5F5F5F5F5F5F5F5F5F5F5F5F5F5F5F5F5F5F5
310
F5F5F5F5F5F5F5F5F5F5F5F5F5F5F5F5F5F5F5F5F5F5F5F5F5F5F5F5F5F5F5F5F5F5F5F5F5F5F5E2F5F5E2E2F5E2F5F5F5F5F5F5F5F5F5F5F5F5F5F5F5F5F5F5F5F5F5F5F5F5F5F5F5F5F5F5F5F5F5E2F5F5F5F5F5F5F5F5E2F5F5F5F5F5F5F5F5F5F5F5F5F5F5E2E2E2E2E2E2E2E2E2E2E2E2E2E2E2F5F5F5F5F5F5F5F5F5
310
F5F5F5F5E2F5F5F5F5F5F5F5F5F5F5F5F5F5F5F5F5F5F5F5F5F5F5F5F5F5F5F5F5F5F5F5F5F5F5F5F5F5F5F5F5F5F5F5F5F5F5F5F5F5F5F5F5F5F5F5F5F5F5F5F5F5F5F5F5F5F5F5F5F5F5F5F5F5F5F5F5F5F5F5F5F5F5F5F5F5F5F5E2F5F5E2E2F5E2F5F5F5F5F5F5F5F5F5F5F5F5F5F5F5F5F5F5F5F5F5F5F5F5F5F5F5F5
310
F5F5F5F5F5E2F5F5F5F5F5F5F5F5E2F5F5F5F5F5F5F5F5F5F5F5F5F5F5E2E2E2E2E2E2E2E2E2E2E2E2E2E2F5F5F5F5F5F5F5F5F5F5F5F5F5F5E2F5F5F5F5F5F5F5F5F5F5F5F5F5F5F5F5F5F5F5F5F5F5F5F5F5F5F5F5F5F5F5F5F5F5F5F5F5F5F5F5F5F5F5F5F5F5F5F5F5F5F5F5F5F5F5F5F5F5F5F5F5F5F5F5F5F5F5F5F5
310
F5F5F5F5F5F5F5F5F5F5F5F5F5F5F5F5F5F5E2E2F5E2E2F5E2F5F5F5F5F5F5F5F5F5F5F5F5F5F5F5F5F5F5F5F5F5F5F5F5F5F5F5F5F5F5F5F5F5E2F5F5F5F5F5F5F5F5F5F5F5F5F5F5F5F5F5F5F5F5F5F5F5E2E2E2E2E2E2E2E2E2E2E2E2E2F5F5F5F5F5F5F5F5F5F5F5F5F5F5F5F5F5F5F5F5F5F5F5F5F5F5F5F5F5F5F5F5
310
F5F5F5F5F5F5F5F5F5F5F5F5F5F5F5F5F5F5F5F5F5F5F5F5F5F5F5F5F5F5F5F5F5F5F5F5F5F5F5F5F5F5F5F5F5F5F5F5F5F5F5F5F5F5F5F5F5F5F5F5F5F5F5F5F5F5F5F5F5F5F5E2E2F5E2E2F5E2F5F5F5F5F5F5F5F5F5F5F5F5F5F5F5F5F5F5F5F5F5F5F5F5F5F5F5F5F5F5F5F5F5E2F5F5F5F5F5F5F5F5F5F5F5F5F5F5F5
310
F5F5F5F5F5F5F5F5E2E2E2E2E2E2E2E2E2E2E2E2E2F5F5F5F5F5F5F5F5F5F5F5F5F5F5F5E2F5F5F5F5F5F5F5F5F5F5F5F5F5F5F5F5F5F5F5F5F5F5F5F5F5F5F5F5F5F5F5F5F5F5F5F5F5F5F5F5F5F5F5F5F5F5F5F5F5F5F5F5F5F5F5F5F5F5F5F5F5F5F5F5F5F5F5F5F5F5F5F5F5F5F5F5F5F5F5F5F5F5F5F5F5F5F5E2E2F5
310
E2E2F5E2F5F5F5F5F5F5F5F5F5F5F5F5F5F5F5F5F5F5F5F5F5F5F5F5F5F5F5F5F5F5F5F5F5E2F5F5F5F5F5F5F5F5E2F5F5F5F5F5F5F5F5F5F5F5F5F5F5E2E2E2E2E2E2E2E2E2E2E2E2E2F5F5F5F5F5F5F5F5F5F5F5F5F5F5F5E2F5F5F5F5F5F5F5F5F5F5F5F5F5F5F5F5F5F5F5F5F5F5F5F5F5F5F5F5F5F5F5F5F5F5F5F5F5
310
F5F5F5F5F5F5F5F5F5F5F5F5F5F5F5F5F5F5F5F5F5F5F5F5F5F5F5F5F5F5F5F5F5F5F5F5F5F5F5F5F5F5F5F5F5F5F5F5F5F5E2E2F5E2E2F5E2F5F5F5F5F5F5F5F5F5F5F5F5F5F5F5F5F5F5F5F5F5F5F5F5F5F5F5F5F5F5F5F5F5E2F5F5F5F5F5F5F5F5E2F5F5F5F5F5F5F5F5F5F5F5F5F5F5F5E2F5F5F5F5F5F5F5F5F5E2F5
310
F5F5F5F5F5F5F5F5F5F5F5F5F5F5F5E2F5F5F5F5F5F5F5F5F5F5F5F5F5F5F5F5F5F5F5F5F5F5F5F5F5F5F5F5F5F5F5F5F5F5F5F5F5F5F5F5F5F5F5F5F5F5F5F5F5F5F5F5F5F5F5F5F5F5F5F5F5F5F5F5F5F5F5F5F5F5F5F5F5F5F5F5F5F5F5F5F5F5F5F5F5F5F5E2E2F5E2E2F5E2F5F5F5F5F5F5F5F5F5F5F5F5F5F5F5F5F5
310
F5F5F5F5F5F5F5F5F5F5F5F5F5F5F5F5E2F5F5F5F5F5F5F5F5E2F5F5F5F5F5F5F5F5F5F5F5F5F5F5F5E2F5F5F5F5F5F5F5F5F5E2F5F5F5F5F5F5F5F5F5F5F5F5F5F5F5F5E2F5F5F5F5F5F5F5F5F5F5F5F5F5F5F5F5F5F5F5F5F5F5F5F5F5F5F5F5F5F5F5F5F5F5F5F5F5F5F5F5F5F5F5F5F5F5F5F5F5F5F5F5F5F5F5F5F5F5
310
F5F5F5F5F5F5F5F5F5F5F5F5F5F5F5F5F5F5F5F5F5F5F5F5F5F5F5F5F5E2E2F5E2E2F5E2F5F5F5F5F5F5F5F5F5F5F5F5F5F5F5F5F5F5F5F5F5F5F5F5F5F5F5F5F5F5F5F5F5E2F5F5F5F5F5F5F5F5E2F5F5F5F5F5F5F5F5F5F5F5F5F5F5F5E2F5F5F5F5F5F5F5F5F5E2F5F5F5F5F5F5F5F5F5F5F5F5F5F5F5F5E2F5F5F5F5F5
310
F5F5F5F5F5F5F5F5F5F5F5F5F5F5F5F5F5F5F5F5F5F5F5F5F5F5F5F5F5F5F5F5F5F5F5F5F5F5F5F5F5F5F5F5F5F5F5F5F5F5F5F5F5F5F5F5F5F5F5F5F5F5F5F5F5F5F5F5F5F5F5F5F5F5F5F5F5F5F5F5F5F5E2E2F5E2E2F5E2F5F5F5F5F5F5F5F5F5F5F5F5F5F5F5F5F5F5F5F5F5F5F5F5F5F5F5F5F5F5F5F5F5E2F5F5F5F5
310
F5F5F5F5E2F5F5F5F5F5F5F5F5F5F5F5F5F5F5F5E2F5F5F5F5F5F5F5F5F5E2F5F5F5F5F5F5F5F5F5F5F5F5F5F5F5F5E2F5F5F5F5F5F5F5F5F5F5F5F5F5F5F5F5F5F5F5F5F5F5F5F5F5F5F5F5F5F5F5F5F5F5F5F5F5F5F5F5F5F5F5F5F5F5F5F5F5F5F5F5F5F5F5F5F5F5F5F5F5F5F5F5F5F5F5F5F5F5F5F5F5F5F5F5F5F5F5
310
F5F5F5F5F5F5F5F5E2E2F5E2E2F5E2F5F5F5F5F5F5F5F5F5F5F5F5F5F5F5F5F5F5F5F5F5F5F5F5F5F5F5F5F5F5F5F5F5E2F5F5F5F5F5F5F5F5F5F5F5F5F5F5F5F5F5F5F5F5F5F5F5F5E2F5F5F5F5F5F5F5F5F5E2F5F5F5F5F5F5F5F5F5F5F5F5F5F5F5F5F5F5F5F5F5F5F5F5F5F5F5F5F5F5F5F5F5F5F5F5F5F5F5F5F5F5F5
310
F5F5F5F5F5F5F5F5F5F5F5F5F5F5F5F5F5F5F5F5F5F5F5F5F5F5F5F5F5F5F5F5F5F5F5F5F5F5F5F5F5F5F5F5F5F5F5F5F5F5F5F5F5F5F5F5F5F5F5F5F5E2E2F5E2E2F5E2F5F5F5F5F5F5F5F5F5F5F5F5F5F5F5F5F5F5F5F5F5F5F5F5F5F5F5F5F5F5F5F5F5E2F5F5F5F5F5F5F5F5F5F5F5F5F5F5F5F5F5F5F5F5F5F5F5F5E2
310
E2E2E2E2E2E2E2E2E2E2F5F5F5F5F5F5F5F5F5F5F5F5F5F5F5F5E2F5F5F5F5F5F5F5F5F5F5F5F5F5F5F5F5F5F5F5F5F5F5F5F5F5F5F5F5F5F5F5F5F5F5F5F5F5F5F5F5F5F5F5F5F5F5F5F5F5F5F5F5F5F5F5F5F5F5F5F5F5F5F5F5F5F5F5F5F5F5F5F5F5F5F5F5F5F5F5F5F5F5F5F5F5F5F5E2E2F5E2E2F5E2F5F5F5F5F5F5
310
F5F5F5F5F5F5F5F5F5F5F5F5F5F5F5F5F5F5F5F5F5F5F5F5F5F5F5E2F5F5F5F5F5F5F5F5E2F5F5F5F5F5F5F5F5F5F5F5F5F5F5F5E2E2E2E2E2E2E2E2E2E2E2F5F5F5F5F5F5F5F5F5F5F5F5F5F5F5F5E2F5F5F5F5F5F5F5F5F5F5F5F5F5F5F5F5F5F5F5F5F5F5F5F5F5F5F5F5F5F5F5F5F5F5F5F5F5F5F5F5F5F5F5F5F5F5F5
310
F5F5F5F5F5F5F5F5F5F5F5F5F5F5F5F5F5F5F5F5F5F5F5F5F5F5F5F5F5F5F5F5F5F5F5F5F5F5F5F5E2E2F5E2E2F5E2F5F5F5F5F5F5F5F5F5F5F5F5F5F5F5F5F5F5F5F5F5F5F5F5F5F5F5F5F5F5F5F5F5E2F5F5F5F5F5F5F5F5E2F5F5F5F5F5F5F5F5F5F5F5F5F5F5F5E2F5F5F5F5F5F5F5F5F5E2F5F5F5F5F5F5F5F5F5F5F5
310
F5F5F5F5F5E2F5F5F5F5F5F5F5F5F5F5F5F5F5F5F5F5F5F5F5F5F5F5F5F5F5F5F5F5F5F5F5F5F5F5F5F5F5F5F5F5F5F5F5F5F5F5F5F5F5F5F5F5F5F5F5F5F5F5F5F5F5F5F5F5F5F5F5F5F5F5F5F5F5F5F5F5F5F5F5F5F5F5F5F5F5F5F5E2E2F5E2E2F5E2F5F5F5F5F5F5F5F5F5F5F5F5F5F5F5F5F5F5F5F5F5F5F5F5F5F5F5
310
F5F5F5F5F5F5E2F5F5F5F5F5F5F5F5E2F5F5F5F5F5F5F5F5F5F5F5F5F5F5F5E2F5F5F5F5F5F5F5F5F5E2F5F5F5F5F5F5F5F5F5F5F5F5F5F5F5F5E2F5F5F5F5F5F5F5F5F5F5F5F5F5F5F5F5F5F5F5F5F5F5F5F5F5F5F5F5F5F5F5F5F5F5F5F5F5F5F5F5F5F5F5F5F5F5F5F5F5F5F5F5F5F5F5F5F5F5F5F5F5F5F5F5F5F5F5F5
310
F5F5F5F5F5F5F5F5F5F5F5F5F5F5F5F5F5F5F5E2E2F5E2E2F5E2F5F5F5F5F5F5F5F5F5F5F5F5F5F5F5F5F5F5F5F5F5F5F5F5F5F5F5F5F5F5F5F5F5E2F5F5F5F5F5F5F5F5E2F5F5F5F5F5F5F5F5F5F5F5F5F5F5F5F5F5F5F5F5F5F5F5F5F5F5F5F5F5F5F5F5F5F5F5F5F5F5F5F5F5F5E2F5F5F5F5F5F5F5F5F5F5F5F5F5F5F5
310
F5F5F5F5F5F5F5F5F5F5F5F5F5F5F5F5F5F5F5F5F5F5F5F5F5F5F5F5F5F5F5F5F5F5F5F5F5F5F5F5F5F5F5F5F5F5F5F5F5F5F5F5F5F5F5F5F5F5F5F5F5F5F5F5F5F5F5F5F5F5F5F5E2E2F5E2E2F5E2F5F5F5F5F5F5F5F5F5F5F5F5F5F5F5F5F5F5F5F5F5F5F5F5F5F5F5F5F5F5F5F5F5E2F5F5F5F5F5F5F5F5E2F5F5F5F5F5
310
F5F5F5F5F5F5F5F5F5F5F5F5F5F5F5F5F5F5F5F5F5F5F5F5F5F5F5F5F5F5F5F5F5F5F5F5F5E2F5F5F5F5F5F5F5F5F5F5F5F5F5F5F5F5F5F5F5F5F5F5F5F5F5F5F5F5F5F5F5F5F5F5F5F5F5F5F5F5F5F5F5F5F5F5F5F5F5F5F5F5F5F5F5F5F5F5F5F5F5F5F5F5F5F5F5F5F5F5F5F5F5F5F5F5F5F5F5F5F5F5F5F5F5F5F5E2E2
310
F5E2E2F5E2F5F5F5F5F5F5F5F5F5F5F5F5F5F5F5F5F5F5F5F5F5F5F5F5F5F5F5F5F5F5F5F5F5E2F5F5F5F5F5F5F5F5E2F5F5F5F5F5F5F5F5F5F5F5F5F5F5F5F5F5F5F5F5F5F5F5F5F5F5F5F5F5F5F5F5F5F5F5F5F5F5F5F5F5F5F5F5F5F5F5F5F5F5F5F5F5F5F5F5F5F5F5F5F5F5F5F5F5F5F5F5F5F5F5F5F5F5F5F5F5F5F5
310
F5F5F5F5F5F5F5F5F5F5F5F5F5F5F5F5F5F5F5F5F5F5F5F5F5F5F5F5F5F5F5F5F5F5F5F5F5F5F5F5F5F5F5F5F5F5F5F5F5F5F5E2E2F5E2E2F5E2F5F5F5F5F5F5F5F5F5F5F5F5F5F5F5F5F5F5F5F5F5F5F5F5F5F5F5F5F5F5F5F5F5E2F5F5F5F5F5F5F5F5F5F5F5F5F5F5F5F5F5F5F5F5F5F5F5F5F5F5F5F5F5F5F5F5F5F5F5
310
F5F5F5F5F5F5F5F5F5F5F5F5F5F5F5F5E2F5F5F5F5F5F5F5F5F5F5F5F5F5F5F5F5F5F5F5F5F5F5F5F5F5F5F5F5F5F5F5F5F5F5F5F5F5F5F5F5F5F5F5F5F5F5F5F5F5F5F5F5F5F5F5F5F5F5F5F5F5F5F5F5F5F5F5F5F5F5F5F5F5F5F5F5F5F5F5F5F5F5F5F5F5F5F5E2F5F5E2E2F5E2F5F5F5F5F5F5F5F5F5F5F5F5F5F5F5F5
310
F5F5F5F5F5F5F5F5F5F5F5F5F5F5F5F5F5E2F5F5F5F5F5F5F5F5E2F5F5F5F5F5F5F5F5F5F5F5F5F5F5F5F5F5F5F5F5F5F5F5F5F5F5F5F5F5F5F5F5F5F5F5F5F5F5F5F5F5F5E2F5F5F5F5F5F5F5F5F5F5F5F5F5F5F5F5F5F5F5F5F5F5F5F5F5F5F5F5F5F5F5F5F5F5F5F5F5F5F5F5F5F5F5F5F5F5F5F5F5F5F5F5F5F5F5F5F5
310
F5F5F5F5F5F5F5F5F5F5F5F5F5F5F5F5F5F5F5F5F5F5F5F5F5F5F5F5F5F5E2F5F5E2E2F5E2F5F5F5F5F5F5F5F5F5F5F5F5F5F5F5F5F5F5F5F5F5F5F5F5F5F5F5F5F5F5F5F5F5E2F5F5F5F5F5F5F5F5E2F5F5F5F5F5F5F5F5F5F5F5F5F5F5F5F5F5F5F5F5F5F5F5F5F5F5F5F5F5F5F5F5F5F5F5F5F5F5F5F5F5F5E2F5F5F5F5
310
F5F5F5F5F5F5F5F5F5F5F5F5F5F5F5F5F5F5F5F5F5F5F5F5F5F5F5F5F5F5F5F5F5F5F5F5F5F5F5F5F5F5F5F5F5F5F5F5F5F5F5F5F5F5F5F5F5F5F5F5F5F5F5F5F5F5F5F5F5F5F5F5F5F5F5F5F5F5F5F5F5F5F5E2F5F5E2E2F5E2F5F5F5F5F5F5F5F5F5F5F5F5F5F5F5F5F5F5F5F5F5F5F5F5F5F5F5F5F5F5F5F5F5E2F5F5F5
310
F5F5F5F5F5E2F5F5F5F5F5F5F5F5F5F5F5F5F5F5F5F5F5F5F5F5F5F5F5F5F5F5F5F5F5F5F5F5F5F5F5F5F5F5F5F5F5F5E2F5F5F5F5F5F5F5F5F5F5F5F5F5F5F5F5F5F5F5F5F5F5F5F5F5F5F5F5F5F5F5F5F5F5F5F5F5F5F5F5F5F5F5F5F5F5F5F5F5F5F5F5F5F5F5F5F5F5F5F5F5F5F5F5F5F5F5F5F5F5F5F5F5F5F5F5F5F5
310
F5F5F5F5F5F5F5F5F5E2F5F5E2E2F5E2F5F5F5F5F5F5F5F5F5F5F5F5F5F5F5F5F5F5F5F5F5F5F5F5F5F5F5F5F5F5F5F5F5E2F5F5F5F5F5F5F5F5E2F5F5F5F5F5F5F5F5F5F5F5F5F5F5F5F5F5F5F5F5F5F5F5F5F5F5F5F5F5F5F5F5F5F5F5F5F5F5F5F5F5F5E2F5F5F5F5F5F5F5F5F5F5F5F5F5F5F5F5F5F5F5F5F5F5F5F5F5
310
F5F5F5F5F5F5F5F5F5F5F5F5F5F5F5F5F5F5F5F5F5F5F5F5F5F5F5F5F5F5F5F5F5F5F5F5F5F5F5F5F5F5F5F5F5F5F5F5F5F5F5F5F5F5F5F5F5F5F5F5F5F5E2F5F5E2E2F5E2F5F5F5F5F5F5F5F5F5F5F5F5F5F5F5F5F5F5F5F5F5F5F5F5F5F5F5F5F5F5F5F5F5E2F5F5F5F5F5F5F5F5E2F5F5F5F5F5F5F5F5F5F5F5F5F5F5F5
310
F5F5F5F5F5F5F5F5F5F5F5F5F5F5F5F5F5F5F5F5F5F5F5F5F5F5F5E2F5F5F5F5F5F5F5F5F5F5F5F5F5F5F5F5F5F5F5F5F5F5F5F5F5F5F5F5F5F5F5F5F5F5F5F5F5F5F5F5F5F5F5F5F5F5F5F5F5F5F5F5F5F5F5F5F5F5F5F5F5F5F5F5F5F5F5F5F5F5F5F5F5F5F5F5F5F5F5F5F5F5F5F5F5F5F5E2F5F5E2E2F5E2F5F5F5F5F5
310
F5F5F5F5F5F5F5F5F5F5F5F5F5F5F5F5F5F5F5F5F5F5F5F5F5F5F5F5E2F5F5F5F5F5F5F5F5E2F5F5F5F5F5F5F5F5F5F5F5F5F5F5F5F5F5F5F5F5F5F5F5F5F5F5F5F5F5F5F5F5F5F5F5F5F5F5F5F5F5F5F5F5F5F5F5F5F5F5F5F5F5F5F5F5F5F5F5F5F5F5F5F5F5F5F5F5F5F5F5F5F5F5F5F5F5F5F5F5F5F5F5F5F5F5F5F5F5
310
F5F5F5F5F5F5F5F5F5F5F5F5F5F5F5F5F5F5F5F5F5F5F5F5F5F5F5F5F5F5F5F5F5F5F5F5F5F5F5F5F5E2F5F5E2E2F5E2F5F5F5F5F5F5F5F5F5F5F5F5F5F5F5F5F5F5F5F5F5F5F5F5F5F5F5F5F5F5F5F5F5E2F5F5F5F5F5F5F5F5F5F5F5F5F5F5F5F5F5F5F5F5F5F5F5F5F5F5F5F5F5F5F5F5F5F5F5F5F5F5F5F5F5F5F5F5F5
310
F5F5F5F5F5F5E2F5F5F5F5F5F5F5F5F5F5F5F5F5F5F5F5F5F5F5F5F5F5F5F5F5F5F5F5F5F5F5F5F5F5F5F5F5F5F5F5F5F5F5F5F5F5F5F5F5F5F5F5F5F5F5F5F5F5F5F5F5F5F5F5F5F5F5F5F5F5F5F5F5F5F5F5F5F5F5F5F5F5F5F5F5F5F5E2F5F5E2E2F5E2F5F5F5F5F5F5F5F5F5F5F5F5F5F5F5F5F5F5F5F5F5F5F5F5F5F5
310
F5F5F5F5F5F5F5E2F5F5F5F5F5F5F5F5E2F5F5F5F5F5F5F5F5F5F5F5F5F5F5F5F5F5F5F5F5F5F5F5F5F5F5F5F5F5F5F5F5F5F5F5F5F5F5F5F5F5F5E2F5F5F5F5F5F5F5F5F5F5F5F5F5F5F5F5F5F5F5F5F5F5F5F5F5F5F5F5F5F5F5F5F5F5F5F5F5F5F5F5F5F5F5F5F5F5F5F5F5F5F5F5F5F5F5F5F5F5F5F5F5F5F5F5F5F5F5
310
F5F5F5F5F5F5F5F5F5F5F5F5F5F5F5F5F5F5F5F5E2E2F5E2E2F5E2F5F5F5F5F5F5F5F5F5F5F5F5F5F5F5F5F5F5F5F5F5F5F5F5F5F5F5F5F5F5F5F5F5E2F5F5F5F5F5F5F5F5E2F5F5F5F5F5F5F5F5F5F5F5F5F5F5F5F5F5F5F5F5F5F5F5F5F5F5F5F5F5F5F5F5F5F5F5F5F5F5F5F5F5F5E2F5F5F5F5F5F5F5F5F5F5F5F5F5F5
310
F5F5F5F5F5F5F5F5F5F5F5F5F5F5F5F5F5F5F5F5F5F5F5F5F5F5F5F5F5F5F5F5F5F5F5F5F5F5F5F5F5F5F5F5F5F5F5F5F5F5F5F5F5F5F5F5F5F5F5F5F5F5F5F5F5F5F5F5F5F5F5F5F5E2E2F5E2E2F5E2F5F5F5F5F5F5F5F5F5F5F5F5F5F5F5F5F5F5F5F5F5F5F5F5F5F5F5F5F5F5F5F5F5E2BEF5F5F5F5F5F5F5E2F5F5F5F5
310
F5F5F5F5F5F5F5F5F5F5F5F5F5F5F5F5F5F5F5F5F5F5F5F5F5F5F5F5F5F5F5F5F5F5F5F5F5F5E2F5F5F5F5F5F5F5F5F5F5F5F5F5F5F5F5F5F5F5F5F5F5F5F5F5F5F5F5F5F5F5F5F5F5F5F5F5F5F5F5F5F5F5F5F5F5F5F5F5F5F5F5F5F5F5F5F5F5F5F5F5F5F5F5F5F5F5F5F5F5F5F5F5F5F5F5F5F5F5F5F5F5F5F5F5F5F5E2
310
E2F5E2E2F5E2F5F5F5F5F5F5F5F5F5F5F5F5F5F5F5F5F5F5F5F5F5F5F5F5F5F5F5F5F5F5F5F5E2E2E2E2F5F5F5F5F5F5E2E2E2E2E2E2E2E2E2E2E2F5E2E2E2E2E2F5F5E2E2E2E2E2E2F5E2E2E2E2E2E2F5E2E2E2E2E2E2F5E2E2E2E2F5F5F5F5F5F5F5F5F5F5F5F5F5F5F5F5F5F5F5F5F5F5F5F5F5F5F5F5F5F5F5F5F5F5F5
310
F5F5F5F5F5F5F5F5F5F5F5F5F5F5F5F5F5F5F5F5F5F5F5F5F5F5F5F5F5F5F5F5F5F5F5F5F5F5F5F5F5F5F5F5F5F5F5F5F5F5F5F5E2E2F5E2E2F5E2F5F5F5F5F5F5F5F5F5F5F5F5F5F5F5F5F5F5F5F5F5F5F5F5F5F5F5F5F5F5F5F5BEE2F5F5F5F5F5F5F5F5F5F5F5F5F5F5F5F5F5F5F5F5F5F5F5F5F5F5F5F5F5F5F5F5F5F5
310
F5F5F5F5F5F5F5F5F5F5F5F5F5F5F5F5F5F5F5F5F5F5F5F5F5F5F5F5F5F5F5F5F5F5F5F5F5F5F5F5F5F5F5F5F5F5F5F5F5F5F5F5F5F5F5F5F5F5F5F5F5F5F5F5F5F5F5F5F5F5F5F5F5F5F5F5F5F5F5F5F5F5F5F5F5F5F5F5F5F5F5F5F5F5F5F5F5F5F5F5F5F5F5F5F5E2E2F5E2E2F5E2F5F5F5F5F5F5F5F5F5F5F5F5F5F5F5
310
F5F5F5F5F5F5F5F5F5F5F5F5F5F5F5F5F5F5F5F5F5F5F5F5F5F5F5F5F5F5F5F5F5F5F5F5F5F5F5F5F5F5F5F5F5F5F5F5F5F5F5F5F5F5F5F5F5F5F5F5F5F5F5F5F5F5F5F5F5F5F5F5F5F5F5F5F5F5F5F5F5F5F5F5F5F5F5F5F5F5F5F5F5F5F5F5F5F5F5F5F5F5F5F5F5F5F5F5F5F5F5F5F5F5F5F5F5F5F5F5F5F5F5F5F5F5F5
310
F5F5F5F5F5F5F5F5F5F5F5F5F5F5F5F5F5F5F5F5F5F5F5F5F5F5F5F5F5F5F5E2E2F5E2E2F5E2F5F5F5F5F5F5F5F5F5F5F5F5F5F5F5F5F5F5F5F5F5F5F5F5F5F5F5F5F5F5F5F5F5F5F5F5F5F5F5F5F5F5F5F5F5F5F5F5F5F5F5F5F5F5F5F5F5F5F5F5F5F5F5F5F5F5F5F5F5F5F5F5F5F5F5F5F5F5F5F5F5F5F5F5F5F5F5F5F5
310
F5F5F5F5F5F5F5F5F5F5F5F5F5F5F5F5F5F5F5F5F5F5F5F5F5F5F5F5F5F5F5F5F5F5F5F5F5F5F5F5F5F5F5F5F5F5F5F5F5F5F5F5F5F5F5F5F5F5F5F5F5F5F5F5F5F5F5F5F5F5F5F5F5F5F5F5F5F5F5F5F5F5F5F5E2E2F5E2E2F5E2F5F5F5F5F5F5F5F5F5F5F5F5F5F5F5F5F5F5F5F5F5F5F5F5F5F5F5F5F5F5F5F5F5F5F5F5
310
F5F5F5F5F5F5F5F5F5F5F5F5F5F5F5F5F5F5F5F5F5F5F5F5F5F5F5F5F5F5F5F5F5F5F5F5F5F5F5F5F5F5F5F5F5F5F5F5F5F5F5F5F5F5F5F5F5F5F5F5F5F5F5F5F5F5F5F5F5F5F5F5F5F5F5F5F5F5F5F5F5F5F5F5F5F5F5F5F5F5F5F5F5F5F5F5F5F5F5F5F5F5F5F5F5F5F5F5F5F5F5F5F5F5F5F5F5F5F5F5F5F5F5F5F5F5F5
310
F5F5F5F5F5F5F5F5F5F5E2E2F5E2E2F5E2F5F5F5F5F5F5F5F5F5F5F5F5F5F5F5F5F5F5F5F5F5F5F5F5F5F5F5F5F5F5F5F5F5F5F5F5F5F5F5F5F5F5F5F5F5F5F5F5F5F5F5F5F5F5F5F5F5F5F5F5F5F5F5F5F5F5F5F5F5F5F5F5F5F5F5F5F5F5F5F5F5F5F5F5F5F5F5F5F5F5F5F5F5F5F5F5F5F5F5F5F5F5F5F5F5F5F5F5F5F5
310
F5F5F5F5F5F5F5F5F5F5F5F5F5F5F5F5F5F5F5F5F5F5F5F5F5F5F5F5F5F5F5F5F5F5F5F5F5F5F5F5F5F5F5F5F5F5F5F5F5F5F5F5F5F5F5F5F5F5F5F5F5F5F5E2E2F5E2E2F5E2F5F5F5F5F5F5F5F5F5F5F5F5F5F5F5F5F5F5F5F5F5F5F5F5F5F5F5F5F5F5F5F5F5F5F5F5F5F5F5F5F5F5E2F5F5F5F5F5F5F5F5F5F5F5F5F5F5
310
F5F5F5F5F5F5F5F5F5F5F5F5F5F5F5F5F5F5F5F5F5F5F5F5F5F5F5F5E2F5F5F5F5F5F5F5F5F5F5F5F5F5F5F5F5F5F5F5F5F5F5F5F5F5F5F5F5F5F5F5F5F5F5F5F5F5F5F5F5F5F5F5F5F5F5F5F5F5F5F5F5F5F5F5F5F5F5F5F5F5F5F5F5F5F5F5F5F5F5F5F5F5F5F5F5F5F5F5F5F5F5F5F5F5F5F5E2E2F5E2E2F5E2F5F5F5F5
310
F5F5F5F5F5F5F5F5F5F5F5F5F5F5F5F5F5F5F5F5F5F5F5F5F5F5F5F5F5F5F5F5F5F5F5F5F5BEE2F5F5F5F5F5F5F5F5F5F5F5F5F5F5F5F5F5F5F5F5F5F5F5F5F5F5F5F5F5F5F5F5F5F5F5F5F5F5F5F5F5BEE2F5F5F5F5F5F5F5F5F5F5F5F5F5F5F5F5F5F5F5F5F5F5F5F5F5F5F5F5F5F5F5F5F5F5F5F5F5F5F5F5F5F5F5F5F5
310
F5F5F5F5F5F5F5F5F5F5F5F5F5F5F5F5F5F5F5F5F5F5F5F5F5F5F5F5F5F5F5F5F5F5F5F5F5F5F5F5F5F5E2E2F5E2E2F5E2F5F5F5F5F5F5F5F5F5F5F5F5F5F5F5F5F5F5F5F5F5F5F5F5F5F5F5F5F5F5F5F5F5F5F5F5F5F5F5F5F5E2E2BEE2E2E2E2E2E2E2E2E2E2E2E2E2E2E2E2E2E2E2E2E2E2E2E2E2E2E2E2E2E2E2E2E2E2
310
E2E2E2E2E2E2E2E2E2F5F5F5F5F5F5F5F5F5F5F5F5F5F5F5F5F5F5F5F5F5F5F5F5F5F5F5F5F5F5F5F5F5F5F5F5F5F5F5F5F5F5F5F5F5F5F5F5F5F5F5F5F5F5F5F5F5F5F5F5F5F5F5F5F5F5F5F5F5F5F5F5F5F5F5F5F5F5F5F5F5F5F5F5F5F5E2E2F5E2E2F5E2F5F5F5F5F5F5F5F5F5F5F5F5F5F5F5F5F5F5F5F5F5F5F5F5F5
310
F5F5F5F5F5F5F5F5F5F5F5F5F5F5F5F5F5E2F5F5F5F5F5F5F5F5F5F5F5F5F5F5F5F5F5F5E2E2E2E2F5F5F5F5F5F5F5F5F5F5F5F5F5F5F5F5F5F5F5F5E2F5F5F5F5F5F5F5F5F5F5F5F5F5F5F5F5F5F5F5F5F5F5F5F5F5F5F5F5F5F5F5F5F5F5F5F5F5F5F5F5F5F5F5F5F5F5F5F5F5F5F5F5F5F5F5F5F5F5F5F5F5F5F5F5F5F5
310
F5F5F5F5F5F5F5F5F5F5F5F5F5F5F5F5F5F5F5F5F5E2E2F5E2E2F5E2F5F5F5F5F5F5F5F5F5F5F5F5F5F5F5F5F5F5F5F5F5F5F5F5F5F5F5F5F5F5F5F5F5F5F5F5F5F5F5F5F5F5F5F5F5F5F5F5F5F5F5F5F5F5F5F5F5F5F5F5F5E2E2E2E2F5F5F5F5F5F5F5F5F5F5F5F5F5F5F5F5F5F5F5F5F5F5F5F5F5F5F5F5F5F5F5F5F5F5
310
F5F5F5F5F5F5F5F5F5F5F5F5F5F5F5F5F5F5F5F5F5F5F5F5F5F5F5F5F5F5F5F5F5F5F5F5F5F5F5F5F5F5F5F5F5F5F5F5F5F5F5F5F5F5F5F5F5F5F5F5F5F5F5F5F5F5F5F5F5F5F5F5F5F5E2E2F5E2E2F5E2F5F5F5F5F5F5F5F5F5F5F5F5F5F5F5F5F5F5F5F5F5F5F5F5F5F5F5F5F5F5F5F5F5F5F5F5F5F5F5F5F5F5F5F5F5F5
310
F5F5F5F5F5F5F5F5F5F5F5F5F5F5F5F5F5F5F5F5F5F5F5F5F5F5F5F5F5F5F5F5F5F5F5F5F5F5F5F5F5F5F5F5F5F5F5F5F5F5F5F5F5F5F5F5F5F5F5F5F5F5F5F5F5F5F5F5F5F5F5F5F5F5F5F5F5F5F5F5F5F5F5F5F5F5F5F5F5F5F5F5F5F5F5F5F5F5F5F5F5F5F5F5F5F5F5F5F5F5F5F5F5F5F5F5F5F5F5F5F5F5F5F5F5F5F5
310
E2E2F5E2E2F5E2F5F5F5F5F5F5F5F5F5F5F5F5F5F5F5F5F5F5F5F5F5F5F5F5F5F5F5F5F5F5F5F5F5F5F5F5F5F5F5F5F5F5F5F5F5F5F5F5F5F5F5F5F5F5F5F5F5F5F5F5F5F5F5F5F5F5F5F5F5F5F5F5F5F5F5F5F5F5F5F5F5F5F5F5F5F5F5F5F5F5F5F5F5F5F5F5F5F5F5F5F5F5F5F5F5F5F5F5F5F5F5F5F5F5F5F5F5F5F5F5
310
F5F5F5F5F5F5F5F5F5F5F5F5F5F5F5F5F5F5F5F5F5F5F5F5F5F5F5F5F5F5F5F5F5F5F5F5F5F5F5F5F5F5F5F5F5F5F5F5F5F5F5F5F5E2E2F5E2E2F5E2F5F5F5F5F5F5F5F5F5F5F5F5F5F5F5F5F5F5F5F5F5F5F5F5F5F5F5F5F5F5F5F5F5F5F5F5F5F5F5F5F5F5F5F5F5F5F5F5F5F5F5F5F5F5F5F5F5F5F5F5F5F5F5F5F5F5F5
310
F5F5F5F5F5F5F5F5F5F5F5F5F5F5F5F5F5F5F5F5F5F5F5F5F5F5F5F5F5F5F5F5F5F5F5F5F5F5F5F5F5F5F5F5F5F5F5F5F5F5F5F5F5F5F5F5F5F5F5F5F5F5F5F5F5F5F5F5F5F5F5F5F5F5F5F5F5F5F5F5F5F5F5F5F5F5F5F5F5F5F5F5F5F5F5F5F5F5F5F5F5F5F5F5F5F5E2F5F5E2E2F5E2F5F5F5F5F5F5F5F5F5F5F5F5F5F5
310
F5F5F5F5F5F5F5F5F5F5F5F5F5F5F5F5F5F5F5F5F5F5F5F5F5F5F5F5F5F5F5F5F5F5F5F5F5F5F5F5F5F5F5F5F5F5F5F5F5F5F5F5F5F5F5F5F5F5F5F5F5F5F5F5F5F5F5F5F5F5F5F5F5F5F5F5F5F5F5F5F5F5F5F5F5F5F5F5F5F5F5F5F5F5F5F5F5F5F5F5F5F5F5F5F5F5F5F5F5F5F5F5F5F5F5F5F5F5F5F5F5F5F5F5F5F5F5
310
F5F5F5F5F5F5F5F5F5F5F5F5F5F5F5F5F5F5F5F5F5F5F5F5F5F5F5F5F5F5F5F5E2F5F5E2E2F5E2F5F5F5F5F5F5F5F5F5F5F5F5F5F5F5F5F5F5F5F5F5F5F5F5F5F5F5F5F5F5F5F5F5F5F5F5F5F5F5F5F5F5F5F5F5F5F5F5F5F5F5F5F5F5F5F5F5F5F5F5F5F5F5F5F5F5F5F5F5F5F5F5F5F5F5F5F5F5F5F5F5F5F5F5F5F5F5F5
310
F5F5F5F5F5F5F5F5F5F5F5F5F5F5F5F5F5F5F5F5F5F5F5F5F5F5F5F5F5F5F5F5F5F5F5F5F5F5F5F5F5F5F5F5F5F5F5F5F5F5F5F5F5F5F5F5F5F5F5F5F5F5F5F5F5F5F5F5F5F5F5F5F5F5F5F5F5F5F5F5F5F5F5F5F5E2F5F5E2E2F5E2F5F5F5F5F5F5F5F5F5F5F5F5F5F5F5F5F5F5F5F5F5F5F5F5F5F5F5F5F5F5F5F5F5F5F5
310
F5F5F5F5F5F5F5F5F5F5F5F5F5F5F5F5F5F5F5F5F5F5F5F5F5F5F5F5F5F5F5F5F5F5F5F5F5F5F5F5F5F5F5F5F5F5F5F5F5F5F5F5F5F5F5F5F5F5F5F5F5F5F5F5F5F5F5F5F5F5F5F5F5F5F5F5F5F5F5F5F5F5F5F5F5F5F5F5F5F5F5F5F5F5F5F5F5F5F5F5F5F5F5F5F5F5F5F5F5F5F5F5F5F5F5F5F5F5F5F5F5F5F5F5F5F5F5
310
F5F5F5F5F5F5F5F5F5F5F5E2F5F5E2E2F5E2F5F5F5F5F5F5F5F5F5F5F5F5F5F5F5F5F5F5F5F5F5F5F5F5F5F5F5F5F5F5F5F5F5F5F5F5F5F5F5F5F5F5F5F5F5F5F5F5F5F5F5F5F5F5F5F5F5F5F5F5F5F5F5F5F5F5F5F5F5F5F5F5F5F5F5F5F5F5F5F5F5F5F5F5F5F5F5F5F5F5F5F5F5F5F5F5F5F5F5F5F5F5F5F5F5F5F5F5F5
310
F5F5F5F5F5F5F5F5F5F5F5F5F5F5F5F5F5F5F5F5F5F5F5F5F5F5F5F5F5F5F5F5F5F5F5F5F5F5F5F5F5F5F5F5F5F5F5F5F5F5F5F5F5F5F5F5F5F5F5F5F5F5F5F5E2F5F5E2E2F5E2F5F5F5F5F5F5F5F5F5F5F5F5F5F5F5F5F5F5F5F5F5F5F5F5F5F5F5F5F5F5F5F5F5F5F5F5F5F5F5F5F5F5F5F5F5F5F5F5F5F5F5F5F5F5F5F5
310
F5F5F5F5F5F5F5F5F5F5F5F5F5F5F5F5F5F5F5F5F5F5F5F5F5F5F5F5F5F5F5F5F5F5F5F5F5F5F5F5F5F5F5F5F5F5F5F5F5F5F5F5F5F5F5F5F5F5F5F5F5F5F5F5F5F5F5F5F5F5F5F5F5F5F5F5F5F5F5F5F5F5F5F5F5F5F5F5F5F5F5F5F5F5F5F5F5F5F5F5F5F5F5F5F5F5F5F5F5F5F5F5F5F5F5F5F5E2F5F5E2E2F5E2F5F5F5
310
F5F5F5F5F5F5F5F5F5F5F5F5F5F5F5F5F5F5F5F5F5F5F5F5F5F5F5F5F5F5F5F5F5F5F5F5F5F5F5F5F5F5F5F5F5F5F5F5F5F5F5F5F5F5F5F5F5F5F5F5F5F5F5F5F5F5F5F5F5F5F5F5F5F5F5F5F5F5F5F5F5F5F5F5F5F5F5F5F5F5F5F5F5F5F5F5F5F5F5F5F5F5F5F5F5F5F5F5F5F5F5F5F5F5F5F5F5F5F5F5F5F5F5F5F5F5F5
310
F5F5F5F5F5F5F5F5F5F5F5F5F5F5F5F5F5F5F5F5F5F5F5F5F5F5F5F5F5F5F5F5F5F5F5F5F5F5F5F5F5F5F5E2F5F5E2E2F5E2F5F5F5F5F5F5F5F5F5F5F5F5F5F5F5F5F5F5F5F5F5F5F5F5F5F5F5F5F5F5F5F5F5F5F5F5F5F5F5F5F5F5F5F5F5F5F5F5F5F5F5F5F5F5F5F5F5F5F5F5F5F5F5F5F5F5F5F5F5F5F5F5F5F5F5F5F5
310
F5F5F5F5F5F5F5F5F5F5F5F5F5F5F5F5F5F5F5F5F5F5F5F5F5F5F5F5F5F5F5F5F5F5F5F5F5F5F5F5F5F5F5F5F5F5F5F5F5F5F5F5F5F5F5F5F5F5F5F5F5F5F5F5F5F5F5F5F5F5F5F5F5F5F5F5F5F5F5F5F5F5F5F5F5F5F5F5F5F5F5F5F5F5F5F5E2F5F5E2E2F5E2F5F5F5F5F5F5F5F5F5F5F5F5F5F5F5F5F5F5F5F5F5F5F5F5
310
F5F5F5F5F5F5F5F5F5F5F5F5F5F5F5F5F5F5F5F5F5F5F5F5F5F5F5F5F5F5F5F5F5F5F5F5F5F5F5F5F5F5F5F5F5F5F5F5F5F5F5F5F5F5F5F5F5F5F5F5F5F5F5F5F5F5F5F5F5F5F5F5F5F5F5F5F5F5F5F5F5F5F5F5F5F5F5F5F5F5F5F5F5F5F5F5F5F5F5F5F5F5F5F5F5F5F5F5F5F5F5F5F5F5F5F5F5F5F5F5F5F5F5F5F5F5F5
310
F5F5F5F5F5F5F5F5F5F5F5F5F5F5F5F5F5F5F5F5F5F5E2F5F5E2E2F5E2F5F5F5F5F5F5F5F5F5F5F5F5F5F5F5F5F5F5F5F5F5F5F5F5F5F5F5F5F5F5F5F5F5F5F5F5F5F5F5F5F5F5F5F5F5F5F5F5F5F5F5F5F5F5F5F5F5F5F5F5F5F5F5F5F5F5F5F5F5F5F5F5F5F5F5F5F5F5F5F5F5F5F5F5F5F5F5F5F5F5F5F5F5F5F5F5F5F5
310
F5F5F5F5F5F5F5F5F5F5F5F5F5F5F5F5F5F5F5F5F5F5F5F5F5F5F5F5F5F5F5F5F5F5F5F5F5F5F5F5F5F5F5F5F5F5F5F5F5F5F5F5F5F5F5F5F5F5F5F5F5F5F5F5F5F5F5F5F5F5F5F5F5F5F5E2E2F5E2E2F5E2F5F5F5F5F5F5F5F5F5F5F5F5F5F5F5F5F5F5F5F5F5F5F5F5F5F5F5F5F5F5F5F5F5F5F5F5F5F5F5F5F5F5F5F5F5
310
F5F5F5F5F5F5F5F5F5F5F5F5F5F5F5F5F5F5F5F5F5F5F5F5F5F5F5F5F5F5F5F5F5F5F5F5F5F5F5F5F5F5F5F5F5F5F5F5F5F5F5F5F5F5F5F5F5F5F5F5F5F5F5F5F5F5F5F5F5F5F5F5F5F5F5F5F5F5F5F5F5F5F5F5F5F5F5F5F5F5F5F5F5F5F5F5F5F5F5F5F5F5F5F5F5F5F5F5F5F5F5F5F5F5F5F5F5F5F5F5F5F5F5F5F5F5F5
310
F5E2E2F5E2E2F5E2F5F5F5F5F5F5F5F5F5F5F5F5F5F5F5F5F5F5F5F5F5F5F5F5F5F5F5F5F5F5F5F5F5F5F5F5F5F5F5F5F5F5F5F5F5F5F5F5F5F5F5F5F5F5F5F5F5F5F5F5F5F5F5F5F5F5F5F5F5F5F5F5F5F5F5F5F5F5F5F5F5F5F5F5F5F5F5F5F5F5F5F5F5F5F5F5F5F5F5F5F5F5F5F5F5F5F5F5F5F5F5F5F5F5F5F5F5F5F5
310
F5F5F5F5F5F5F5F5F5F5F5F5F5F5F5F5F5F5F5F5F5F5F5F5F5F5F5F5F5F5F5F5F5F5F5F5F5F5F5F5F5F5F5F5F5F5F5F5F5F5F5F5F5F5E2E2F5E2E2F5E2F5F5F5F5F5F5F5F5F5F5F5F5F5F5F5F5F5F5F5F5F5F5F5F5F5F5F5F5F5F5F5F5F5F5F5F5F5F5F5F5F5F5F5F5F5F5F5F5F5F5F5F5F5F5F5F5F5F5F5F5F5F5F5F5F5F5
310
F5F5F5F5F5F5F5F5F5F5F5F5F5F5F5F5F5F5F5F5F5F5F5F5F5F5F5F5F5F5F5F5F5F5F5F5F5F5F5F5F5F5F5F5F5F5F5F5F5F5F5F5F5F5F5F5F5F5F5F5F5F5F5F5F5F5F5F5F5F5F5F5F5F5F5F5F5F5F5F5F5F5F5F5F5F5F5F5F5F5F5F5F5F5F5F5F5F5F5F5F5F5F5F5F5F5F5E2E2F5E2E2F5E2F5F5F5F5F5F5F5F5F5F5F5F5F5
310
F5F5F5F5F5F5F5F5F5F5F5F5F5F5F5F5F5F5F5F5F5F5F5F5F5F5F5F5F5F5F5F5F5F5F5F5F5F5F5F5F5F5F5F5F5F5F5F5F5F5F5F5F5F5F5F5F5F5F5F5F5F5F5F5F5F5F5F5F5F5F5F5F5F5F5F5F5F5F5F5F5F5F5F5F5F5F5F5F5F5F5F5F5F5F5F5F5F5F5F5F5F5F5F5F5F5F5F5F5F5F5F5F5F5F5F5F5F5F5F5F5F5F5F5F5F5F5
310
F5F5F5F5F5F5F5F5F5F5F5F5F5F5F5F5F5F5F5F5F5F5F5F5F5F5F5F5F5F5F5F5F5E2E2F5E2E2F5E2F5F5F5F5F5F5F5F5F5F5F5F5F5F5F5F5F5F5F5F5F5F5F5F5F5F5F5F5F5F5F5F5F5F5F5F5F5F5F5F5F5F5F5F5F5F5F5F5F5F5F5F5F5F5F5F5F5F5F5F5F5F5F5F5F5F5F5F5F5F5F5F5F5F5F5F5F5F5F5F5F5F5F5F5F5F5F5
310
F5F5F5F5F5F5F5F5F5F5F5F5F5F5F5F5F5F5F5F5F5F5F5F5F5F5F5F5F5F5F5F5F5F5F5F5F5F5F5F5F5F5F5F5F5F5F5F5F5F5F5F5F5F5F5F5F5F5F5F5F5F5F5F5F5F5F5F5F5F5F5F5F5F5F5F5F5F5F5F5F5F5F5F5F5F5E2E2F5E2E2F5E2F5F5F5F5F5F5F5F5F5F5F5F5F5F5F5F5F5F5F5F5F5F5F5F5F5F5F5F5F5F5F5F5F5F5
310
F5F5F5F5F5F5F5F5F5F5F5F5F5F5F5F5F5F5F5F5F5F5F5F5F5F5F5F5F5F5F5F5F5F5F5F5F5F5F5F5F5F5F5F5F5F5F5F5F5F5F5F5F5F5F5F5F5F5F5F5F5F5F5F5F5F5F5F5F5F5F5F5F5F5F5F5F5F5F5F5F5F5F5F5F5F5F5F5F5F5F5F5F5F5F5F5F5F5F5F5F5F5F5F5F5F5F5F5F5F5F5F5F5F5F5F5F5F5F5F5F5F5F5F5F5F5F5
310
F5F5F5F5F5F5F5F5F5F5F5F5E2E2F5E2E2F5E2E2E2E2E2E2E2E2E2E2E2E2E2E2E2E2E2E2E2E2E2E2E2E2E2E2E2E2E2E2E2E2E2E2E2E2E2E2E2E2E2E2E2E2E2E2E2E2E2E2E2E2E2E2E2E2E2E2E2E2E2E2E2E2E2E2E2E2E2E2E2E2E2E2E2E2E2E2E2E2E2E2E2E2E2E2E2E2E2E2E2E2E2E2E2E2E2E2E2E2E2E2E2E2E2E2E2E2E2
310
E2E2E2E2E2E2E2E2E2E2E2E2E2E2E2E2E2E2E2E2E2E2E2E2E2E2E2E2E2E2E2E2E2E2E2E2E2E2E2E2E2E2E2E2E2E2E2E2E2E2E2E2E2E2E2E2E2E2E2E2E2E2E2E2E2E2E2F5E2E2F5F5F5F5F5F5F5F5F5F5F5F5F5F5F5F5F5F5F5F5F5F5F5F5F5F5F5F5F5F5F5F5F5F5F5F5F5F5F5F5F5F5F5F5F5F5F5F5F5F5F5F5F5F5F5F5F5
310
F5F5F5F5F5F5F5F5F5F5F5F5F5F5F5F5F5F5F5F5F5F5F5F5F5F5F5F5F5F5F5F5F5F5F5F5F5F5F5F5F5F5F5F5F5F5F5F5F5F5F5F5F5F5F5F5F5F5F5F5F5F5F5F5F5F5F5F5F5F5F5F5F5F5F5F5F5F5F5F5F5F5F5F5F5F5F5F5F5F5F5F5F5F5F5F5F5F5F5F5F5F5F5F5F5F5F5F5F5F5F5F5F5F5F5F5F5F5F5F5F5E2E2E2E2E2E2
310
E2E2E2E2E2E2E2E2E2E2E2E2E2E2E2E2E2E2E2E2E2E2E2E2E2E2E2E2E2E2E2E2E2E2E2E2E2E2E2E2E2E2E2E2E2E2E2E2E2E2E2E2E2E2E2E2E2E2E2E2E2E2E2E2E2E2E2E2E2E2E2E2E2E2E2E2E2E2E2E2E2E2E2E2E2E2E2E2E2E2E2E2E2E2E2E2E2E2E2E2E2E2E2E2E2E2E2E2E2E2E2E2E2E2E2E2E2E2E2E2E2E2E2E2E2E2E2
310
E2E2E2E2E2E2E2E2E2E2E2E2E2E2E2E2E2E2E2E2E2E2E2E2E2E2E2E2E2E2E2E2E2E2E2E2E2E2E2E2E2E2E2E2E2E2E2E2
  0
XRECORD
  5
1632
102
{ACAD_REACTORS
330
1631
102
}
330
1631
100
AcDbXrecord
280
     1
102
MATERIAL
148
0.0
149
0.0
149
0.0
 93
        0
 94
      127
282
     0
 72
     1
 77
     1
171
     1
175
     1
179
     1
273
     0
  0
XRECORD
  5
1630
102
{ACAD_REACTORS
330
162F
102
}
330
162F
100
AcDbXrecord
280
     1
102
MATERIAL
148
0.0
149
0.0
149
0.0
 93
        0
 94
      127
282
     0
 72
     1
 77
     1
171
     1
175
     1
179
     1
273
     0
  0
XRECORD
  5
1634
102
{ACAD_REACTORS
330
1633
102
}
330
1633
100
AcDbXrecord
280
     1
102
MATERIAL
148
0.0
149
0.0
149
0.0
 93
        0
 94
      127
282
     0
 72
     1
 77
     1
171
     1
175
     1
179
     1
273
     0
  0
CELLSTYLEMAP
  5
162E
102
{ACAD_REACTORS
330
B52
102
}
330
B52
100
AcDbCellStyleMap
 90
        3
300
CELLSTYLE
  1
TABLEFORMAT_BEGIN
 90
        5
170
     1
 91
        0
 92
    32768
 62
   257
 93
        1
300
CONTENTFORMAT
  1
CONTENTFORMAT_BEGIN
 90
        0
 91
        0
 92
      512
 93
        0
300

 40
0.0
140
1.0
 94
        5
 62
     0
340
11
144
0.25
309
CONTENTFORMAT_END
171
     0
 94
        6
 95
        1
302
GRIDFORMAT
  1
GRIDFORMAT_BEGIN
 90
        0
 91
        1
 62
     0
 92
       -2
340
0
 93
        0
 40
0.045
309
GRIDFORMAT_END
 95
        2
302
GRIDFORMAT
  1
GRIDFORMAT_BEGIN
 90
        0
 91
        1
 62
     0
 92
       -2
340
0
 93
        0
 40
0.045
309
GRIDFORMAT_END
 95
        4
302
GRIDFORMAT
  1
GRIDFORMAT_BEGIN
 90
        0
 91
        1
 62
     0
 92
       -2
340
0
 93
        0
 40
0.045
309
GRIDFORMAT_END
 95
        8
302
GRIDFORMAT
  1
GRIDFORMAT_BEGIN
 90
        0
 91
        1
 62
     0
 92
       -2
340
0
 93
        0
 40
0.045
309
GRIDFORMAT_END
 95
       16
302
GRIDFORMAT
  1
GRIDFORMAT_BEGIN
 90
        0
 91
        1
 62
     0
 92
       -2
340
0
 93
        0
 40
0.045
309
GRIDFORMAT_END
 95
       32
302
GRIDFORMAT
  1
GRIDFORMAT_BEGIN
 90
        0
 91
        1
 62
     0
 92
       -2
340
0
 93
        0
 40
0.045
309
GRIDFORMAT_END
309
TABLEFORMAT_END
  1
CELLSTYLE_BEGIN
 90
        1
 91
        1
300
_TITLE
309
CELLSTYLE_END
300
CELLSTYLE
  1
TABLEFORMAT_BEGIN
 90
        5
170
     1
 91
        0
 92
        0
 62
   257
 93
        1
300
CONTENTFORMAT
  1
CONTENTFORMAT_BEGIN
 90
        0
 91
        0
 92
      512
 93
        0
300

 40
0.0
140
1.0
 94
        5
 62
     0
340
11
144
0.18
309
CONTENTFORMAT_END
171
     0
 94
        6
 95
        1
302
GRIDFORMAT
  1
GRIDFORMAT_BEGIN
 90
        0
 91
        1
 62
     0
 92
       -2
340
0
 93
        0
 40
0.045
309
GRIDFORMAT_END
 95
        2
302
GRIDFORMAT
  1
GRIDFORMAT_BEGIN
 90
        0
 91
        1
 62
     0
 92
       -2
340
0
 93
        0
 40
0.045
309
GRIDFORMAT_END
 95
        4
302
GRIDFORMAT
  1
GRIDFORMAT_BEGIN
 90
        0
 91
        1
 62
     0
 92
       -2
340
0
 93
        0
 40
0.045
309
GRIDFORMAT_END
 95
        8
302
GRIDFORMAT
  1
GRIDFORMAT_BEGIN
 90
        0
 91
        1
 62
     0
 92
       -2
340
0
 93
        0
 40
0.045
309
GRIDFORMAT_END
 95
       16
302
GRIDFORMAT
  1
GRIDFORMAT_BEGIN
 90
        0
 91
        1
 62
     0
 92
       -2
340
0
 93
        0
 40
0.045
309
GRIDFORMAT_END
 95
       32
302
GRIDFORMAT
  1
GRIDFORMAT_BEGIN
 90
        0
 91
        1
 62
     0
 92
       -2
340
0
 93
        0
 40
0.045
309
GRIDFORMAT_END
309
TABLEFORMAT_END
  1
CELLSTYLE_BEGIN
 90
        2
 91
        1
300
_HEADER
309
CELLSTYLE_END
300
CELLSTYLE
  1
TABLEFORMAT_BEGIN
 90
        5
170
     1
 91
        0
 92
        0
 62
   257
 93
        1
300
CONTENTFORMAT
  1
CONTENTFORMAT_BEGIN
 90
        0
 91
        0
 92
      512
 93
        0
300

 40
0.0
140
1.0
 94
        2
 62
     0
340
11
144
0.18
309
CONTENTFORMAT_END
171
     0
 94
        6
 95
        1
302
GRIDFORMAT
  1
GRIDFORMAT_BEGIN
 90
        0
 91
        1
 62
     0
 92
       -2
340
0
 93
        0
 40
0.045
309
GRIDFORMAT_END
 95
        2
302
GRIDFORMAT
  1
GRIDFORMAT_BEGIN
 90
        0
 91
        1
 62
     0
 92
       -2
340
0
 93
        0
 40
0.045
309
GRIDFORMAT_END
 95
        4
302
GRIDFORMAT
  1
GRIDFORMAT_BEGIN
 90
        0
 91
        1
 62
     0
 92
       -2
340
0
 93
        0
 40
0.045
309
GRIDFORMAT_END
 95
        8
302
GRIDFORMAT
  1
GRIDFORMAT_BEGIN
 90
        0
 91
        1
 62
     0
 92
       -2
340
0
 93
        0
 40
0.045
309
GRIDFORMAT_END
 95
       16
302
GRIDFORMAT
  1
GRIDFORMAT_BEGIN
 90
        0
 91
        1
 62
     0
 92
       -2
340
0
 93
        0
 40
0.045
309
GRIDFORMAT_END
 95
       32
302
GRIDFORMAT
  1
GRIDFORMAT_BEGIN
 90
        0
 91
        1
 62
     0
 92
       -2
340
0
 93
        0
 40
0.045
309
GRIDFORMAT_END
309
TABLEFORMAT_END
  1
CELLSTYLE_BEGIN
 90
        3
 91
        2
300
_DATA
309
CELLSTYLE_END
  0
XRECORD
  5
1635
102
{ACAD_REACTORS
330
B52
102
}
330
B52
100
AcDbXrecord
280
     1
102
ACAD_ROUNDTRIP_PRE2007_TABLESTYLE
 90
      512
 91
        0
  1

 92
      512
 93
        0
  2

 94
      512
 95
        0
  3

  0
XRECORD
  5
49B
102
{ACAD_REACTORS
330
49A
102
}
330
49A
100
AcDbXrecord
280
     1
102
RTVSPropertyOp0
 70
     1
102
RTVSPropertyOp1
 70
     1
102
RTVSPropertyOp2
 70
     1
102
RTVSPropertyOp3
 70
     1
102
RTVSPropertyOp4
 70
     1
102
RTVSPropertyOp5
 70
     1
102
RTVSPropertyOp6
 70
     1
102
RTVSPropertyOp7
 70
     1
102
RTVSPropertyOp8
 70
     1
102
RTVSPropertyOp9
 70
     1
102
RTVSPropertyOp10
 70
     1
102
RTVSPropertyOp11
 70
     1
102
RTVSPropertyOp12
 70
     1
102
RTVSPropertyOp13
 70
     1
102
RTVSPropertyOp14
 70
     1
102
RTVSPropertyOp15
 70
     1
102
RTVSPropertyOp16
 70
     1
102
RTVSPropertyOp17
 70
     1
102
RTVSPropertyOp18
 70
     1
102
RTVSPropertyOp19
 70
     1
102
RTVSPropertyOp20
 70
     1
102
RTVSPropertyOp21
 70
     1
102
RTVSPropertyOp22
 70
     1
102
RTVSPropertyOp23
 70
     1
102
RTVSPropertyOp24
 70
     1
102
RTVSPropertyOp25
 70
     1
102
RTVSPropertyOp26
 70
     1
102
RTVSPropertyOp27
 70
     1
  0
XRECORD
  5
4A1
102
{ACAD_REACTORS
330
4A0
102
}
330
4A0
100
AcDbXrecord
280
     1
102
RTVSPropertyOp0
 70
     1
102
RTVSPropertyOp1
 70
     1
102
RTVSPropertyOp2
 70
     1
102
RTVSPropertyOp3
 70
     1
102
RTVSPropertyOp4
 70
     1
102
RTVSPropertyOp5
 70
     1
102
RTVSPropertyOp6
 70
     1
102
RTVSPropertyOp7
 70
     1
102
RTVSPropertyOp8
 70
     1
102
RTVSPropertyOp9
 70
     1
102
RTVSPropertyOp10
 70
     1
102
RTVSPropertyOp11
 70
     1
102
RTVSPropertyOp12
 70
     1
102
RTVSPropertyOp13
 70
     1
102
RTVSPropertyOp14
 70
     1
102
RTVSPropertyOp15
 70
     1
102
RTVSPropertyOp16
 70
     1
102
RTVSPropertyOp17
 70
     1
102
RTVSPropertyOp18
 70
     1
102
RTVSPropertyOp19
 70
     1
102
RTVSPropertyOp20
 70
     1
102
RTVSPropertyOp21
 70
     1
102
RTVSPropertyOp22
 70
     1
102
RTVSPropertyOp23
 70
     1
102
RTVSPropertyOp24
 70
     1
102
RTVSPropertyOp25
 70
     1
102
RTVSPropertyOp26
 70
     1
102
RTVSPropertyOp27
 70
     1
  0
XRECORD
  5
4A9
102
{ACAD_REACTORS
330
4A8
102
}
330
4A8
100
AcDbXrecord
280
     1
102
RTVSPropertyOp0
 70
     1
102
RTVSPropertyOp1
 70
     1
102
RTVSPropertyOp2
 70
     1
102
RTVSPropertyOp3
 70
     1
102
RTVSPropertyOp4
 70
     1
102
RTVSPropertyOp5
 70
     1
102
RTVSPropertyOp6
 70
     1
102
RTVSPropertyOp7
 70
     1
102
RTVSPropertyOp8
 70
     1
102
RTVSPropertyOp9
 70
     1
102
RTVSPropertyOp10
 70
     1
102
RTVSPropertyOp11
 70
     1
102
RTVSPropertyOp12
 70
     1
102
RTVSPropertyOp13
 70
     1
102
RTVSPropertyOp14
 70
     1
102
RTVSPropertyOp15
 70
     1
102
RTVSPropertyOp16
 70
     1
102
RTVSPropertyOp17
 70
     1
102
RTVSPropertyOp18
 70
     1
102
RTVSPropertyOp19
 70
     1
102
RTVSPropertyOp20
 70
     1
102
RTVSPropertyOp21
 70
     1
102
RTVSPropertyOp22
 70
     1
102
RTVSPropertyOp23
 70
     1
102
RTVSPropertyOp24
 70
     1
102
RTVSPropertyOp25
 70
     1
102
RTVSPropertyOp26
 70
     1
102
RTVSPropertyOp27
 70
     1
  0
XRECORD
  5
4B1
102
{ACAD_REACTORS
330
4B0
102
}
330
4B0
100
AcDbXrecord
280
     1
102
RTVSPropertyOp0
 70
     1
102
RTVSPropertyOp1
 70
     1
102
RTVSPropertyOp2
 70
     1
102
RTVSPropertyOp3
 70
     1
102
RTVSPropertyOp4
 70
     1
102
RTVSPropertyOp5
 70
     1
102
RTVSPropertyOp6
 70
     1
102
RTVSPropertyOp7
 70
     1
102
RTVSPropertyOp8
 70
     1
102
RTVSPropertyOp9
 70
     1
102
RTVSPropertyOp10
 70
     1
102
RTVSPropertyOp11
 70
     1
102
RTVSPropertyOp12
 70
     1
102
RTVSPropertyOp13
 70
     1
102
RTVSPropertyOp14
 70
     1
102
RTVSPropertyOp15
 70
     1
102
RTVSPropertyOp16
 70
     1
102
RTVSPropertyOp17
 70
     1
102
RTVSPropertyOp18
 70
     1
102
RTVSPropertyOp19
 70
     1
102
RTVSPropertyOp20
 70
     1
102
RTVSPropertyOp21
 70
     1
102
RTVSPropertyOp22
 70
     1
102
RTVSPropertyOp23
 70
     1
102
RTVSPropertyOp24
 70
     1
102
RTVSPropertyOp25
 70
     1
102
RTVSPropertyOp26
 70
     1
102
RTVSPropertyOp27
 70
     1
  0
XRECORD
  5
4A7
102
{ACAD_REACTORS
330
4A6
102
}
330
4A6
100
AcDbXrecord
280
     1
102
RTVSPropertyOp0
 70
     1
102
RTVSPropertyOp1
 70
     1
102
RTVSPropertyOp2
 70
     1
102
RTVSPropertyOp3
 70
     1
102
RTVSPropertyOp4
 70
     1
102
RTVSPropertyOp5
 70
     1
102
RTVSPropertyOp6
 70
     1
102
RTVSPropertyOp7
 70
     1
102
RTVSPropertyOp8
 70
     1
102
RTVSPropertyOp9
 70
     1
102
RTVSPropertyOp10
 70
     1
102
RTVSPropertyOp11
 70
     1
102
RTVSPropertyOp12
 70
     1
102
RTVSPropertyOp13
 70
     1
102
RTVSPropertyOp14
 70
     1
102
RTVSPropertyOp15
 70
     1
102
RTVSPropertyOp16
 70
     1
102
RTVSPropertyOp17
 70
     1
102
RTVSPropertyOp18
 70
     1
102
RTVSPropertyOp19
 70
     1
102
RTVSPropertyOp20
 70
     1
102
RTVSPropertyOp21
 70
     1
102
RTVSPropertyOp22
 70
     1
102
RTVSPropertyOp23
 70
     1
102
RTVSPropertyOp24
 70
     1
102
RTVSPropertyOp25
 70
     1
102
RTVSPropertyOp26
 70
     1
102
RTVSPropertyOp27
 70
     1
  0
XRECORD
  5
4AF
102
{ACAD_REACTORS
330
4AE
102
}
330
4AE
100
AcDbXrecord
280
     1
102
RTVSPropertyOp0
 70
     1
102
RTVSPropertyOp1
 70
     1
102
RTVSPropertyOp2
 70
     1
102
RTVSPropertyOp3
 70
     1
102
RTVSPropertyOp4
 70
     1
102
RTVSPropertyOp5
 70
     1
102
RTVSPropertyOp6
 70
     1
102
RTVSPropertyOp7
 70
     1
102
RTVSPropertyOp8
 70
     1
102
RTVSPropertyOp9
 70
     1
102
RTVSPropertyOp10
 70
     1
102
RTVSPropertyOp11
 70
     1
102
RTVSPropertyOp12
 70
     1
102
RTVSPropertyOp13
 70
     1
102
RTVSPropertyOp14
 70
     1
102
RTVSPropertyOp15
 70
     1
102
RTVSPropertyOp16
 70
     1
102
RTVSPropertyOp17
 70
     1
102
RTVSPropertyOp18
 70
     1
102
RTVSPropertyOp19
 70
     1
102
RTVSPropertyOp20
 70
     1
102
RTVSPropertyOp21
 70
     1
102
RTVSPropertyOp22
 70
     1
102
RTVSPropertyOp23
 70
     1
102
RTVSPropertyOp24
 70
     1
102
RTVSPropertyOp25
 70
     1
102
RTVSPropertyOp26
 70
     1
102
RTVSPropertyOp27
 70
     1
  0
XRECORD
  5
493
102
{ACAD_REACTORS
330
492
102
}
330
492
100
AcDbXrecord
280
     1
102
RTVSPropertyOp0
 70
     1
102
RTVSPropertyOp1
 70
     1
102
RTVSPropertyOp2
 70
     1
102
RTVSPropertyOp3
 70
     1
102
RTVSPropertyOp4
 70
     1
102
RTVSPropertyOp5
 70
     1
102
RTVSPropertyOp6
 70
     1
102
RTVSPropertyOp7
 70
     1
102
RTVSPropertyOp8
 70
     1
102
RTVSPropertyOp9
 70
     1
102
RTVSPropertyOp10
 70
     1
102
RTVSPropertyOp11
 70
     1
102
RTVSPropertyOp12
 70
     1
102
RTVSPropertyOp13
 70
     1
102
RTVSPropertyOp14
 70
     1
102
RTVSPropertyOp15
 70
     1
102
RTVSPropertyOp16
 70
     1
102
RTVSPropertyOp17
 70
     1
102
RTVSPropertyOp18
 70
     1
102
RTVSPropertyOp19
 70
     1
102
RTVSPropertyOp20
 70
     1
102
RTVSPropertyOp21
 70
     1
102
RTVSPropertyOp22
 70
     1
102
RTVSPropertyOp23
 70
     1
102
RTVSPropertyOp24
 70
     1
102
RTVSPropertyOp25
 70
     1
102
RTVSPropertyOp26
 70
     1
102
RTVSPropertyOp27
 70
     1
  0
XRECORD
  5
495
102
{ACAD_REACTORS
330
494
102
}
330
494
100
AcDbXrecord
280
     1
102
RTVSPropertyOp0
 70
     1
102
RTVSPropertyOp1
 70
     1
102
RTVSPropertyOp2
 70
     1
102
RTVSPropertyOp3
 70
     1
102
RTVSPropertyOp4
 70
     1
102
RTVSPropertyOp5
 70
     1
102
RTVSPropertyOp6
 70
     1
102
RTVSPropertyOp7
 70
     1
102
RTVSPropertyOp8
 70
     1
102
RTVSPropertyOp9
 70
     1
102
RTVSPropertyOp10
 70
     1
102
RTVSPropertyOp11
 70
     1
102
RTVSPropertyOp12
 70
     1
102
RTVSPropertyOp13
 70
     1
102
RTVSPropertyOp14
 70
     1
102
RTVSPropertyOp15
 70
     1
102
RTVSPropertyOp16
 70
     1
102
RTVSPropertyOp17
 70
     1
102
RTVSPropertyOp18
 70
     1
102
RTVSPropertyOp19
 70
     1
102
RTVSPropertyOp20
 70
     1
102
RTVSPropertyOp21
 70
     1
102
RTVSPropertyOp22
 70
     1
102
RTVSPropertyOp23
 70
     1
102
RTVSPropertyOp24
 70
     1
102
RTVSPropertyOp25
 70
     1
102
RTVSPropertyOp26
 70
     1
102
RTVSPropertyOp27
 70
     1
  0
XRECORD
  5
497
102
{ACAD_REACTORS
330
496
102
}
330
496
100
AcDbXrecord
280
     1
102
RTVSPropertyOp0
 70
     1
102
RTVSPropertyOp1
 70
     1
102
RTVSPropertyOp2
 70
     1
102
RTVSPropertyOp3
 70
     1
102
RTVSPropertyOp4
 70
     1
102
RTVSPropertyOp5
 70
     1
102
RTVSPropertyOp6
 70
     1
102
RTVSPropertyOp7
 70
     1
102
RTVSPropertyOp8
 70
     1
102
RTVSPropertyOp9
 70
     1
102
RTVSPropertyOp10
 70
     1
102
RTVSPropertyOp11
 70
     1
102
RTVSPropertyOp12
 70
     1
102
RTVSPropertyOp13
 70
     1
102
RTVSPropertyOp14
 70
     1
102
RTVSPropertyOp15
 70
     1
102
RTVSPropertyOp16
 70
     1
102
RTVSPropertyOp17
 70
     1
102
RTVSPropertyOp18
 70
     1
102
RTVSPropertyOp19
 70
     1
102
RTVSPropertyOp20
 70
     1
102
RTVSPropertyOp21
 70
     1
102
RTVSPropertyOp22
 70
     1
102
RTVSPropertyOp23
 70
     1
102
RTVSPropertyOp24
 70
     1
102
RTVSPropertyOp25
 70
     1
102
RTVSPropertyOp26
 70
     1
102
RTVSPropertyOp27
 70
     1
  0
XRECORD
  5
499
102
{ACAD_REACTORS
330
498
102
}
330
498
100
AcDbXrecord
280
     1
102
RTVSPropertyOp0
 70
     1
102
RTVSPropertyOp1
 70
     1
102
RTVSPropertyOp2
 70
     1
102
RTVSPropertyOp3
 70
     1
102
RTVSPropertyOp4
 70
     1
102
RTVSPropertyOp5
 70
     1
102
RTVSPropertyOp6
 70
     1
102
RTVSPropertyOp7
 70
     1
102
RTVSPropertyOp8
 70
     1
102
RTVSPropertyOp9
 70
     1
102
RTVSPropertyOp10
 70
     1
102
RTVSPropertyOp11
 70
     1
102
RTVSPropertyOp12
 70
     1
102
RTVSPropertyOp13
 70
     1
102
RTVSPropertyOp14
 70
     1
102
RTVSPropertyOp15
 70
     1
102
RTVSPropertyOp16
 70
     1
102
RTVSPropertyOp17
 70
     1
102
RTVSPropertyOp18
 70
     1
102
RTVSPropertyOp19
 70
     1
102
RTVSPropertyOp20
 70
     1
102
RTVSPropertyOp21
 70
     1
102
RTVSPropertyOp22
 70
     1
102
RTVSPropertyOp23
 70
     1
102
RTVSPropertyOp24
 70
     1
102
RTVSPropertyOp25
 70
     1
102
RTVSPropertyOp26
 70
     1
102
RTVSPropertyOp27
 70
     1
  0
XRECORD
  5
4AD
102
{ACAD_REACTORS
330
4AC
102
}
330
4AC
100
AcDbXrecord
280
     1
102
RTVSPropertyOp0
 70
     1
102
RTVSPropertyOp1
 70
     1
102
RTVSPropertyOp2
 70
     1
102
RTVSPropertyOp3
 70
     1
102
RTVSPropertyOp4
 70
     1
102
RTVSPropertyOp5
 70
     1
102
RTVSPropertyOp6
 70
     1
102
RTVSPropertyOp7
 70
     1
102
RTVSPropertyOp8
 70
     1
102
RTVSPropertyOp9
 70
     1
102
RTVSPropertyOp10
 70
     1
102
RTVSPropertyOp11
 70
     1
102
RTVSPropertyOp12
 70
     1
102
RTVSPropertyOp13
 70
     1
102
RTVSPropertyOp14
 70
     1
102
RTVSPropertyOp15
 70
     1
102
RTVSPropertyOp16
 70
     1
102
RTVSPropertyOp17
 70
     1
102
RTVSPropertyOp18
 70
     1
102
RTVSPropertyOp19
 70
     1
102
RTVSPropertyOp20
 70
     1
102
RTVSPropertyOp21
 70
     1
102
RTVSPropertyOp22
 70
     1
102
RTVSPropertyOp23
 70
     1
102
RTVSPropertyOp24
 70
     1
102
RTVSPropertyOp25
 70
     1
102
RTVSPropertyOp26
 70
     1
102
RTVSPropertyOp27
 70
     1
  0
XRECORD
  5
4AB
102
{ACAD_REACTORS
330
4AA
102
}
330
4AA
100
AcDbXrecord
280
     1
102
RTVSPropertyOp0
 70
     1
102
RTVSPropertyOp1
 70
     1
102
RTVSPropertyOp2
 70
     1
102
RTVSPropertyOp3
 70
     1
102
RTVSPropertyOp4
 70
     1
102
RTVSPropertyOp5
 70
     1
102
RTVSPropertyOp6
 70
     1
102
RTVSPropertyOp7
 70
     1
102
RTVSPropertyOp8
 70
     1
102
RTVSPropertyOp9
 70
     1
102
RTVSPropertyOp10
 70
     1
102
RTVSPropertyOp11
 70
     1
102
RTVSPropertyOp12
 70
     1
102
RTVSPropertyOp13
 70
     1
102
RTVSPropertyOp14
 70
     1
102
RTVSPropertyOp15
 70
     1
102
RTVSPropertyOp16
 70
     1
102
RTVSPropertyOp17
 70
     1
102
RTVSPropertyOp18
 70
     1
102
RTVSPropertyOp19
 70
     1
102
RTVSPropertyOp20
 70
     1
102
RTVSPropertyOp21
 70
     1
102
RTVSPropertyOp22
 70
     1
102
RTVSPropertyOp23
 70
     1
102
RTVSPropertyOp24
 70
     1
102
RTVSPropertyOp25
 70
     1
102
RTVSPropertyOp26
 70
     1
102
RTVSPropertyOp27
 70
     1
  0
ENDSEC
  0
EOF
