  0
SECTION
  2
HEADER
  9
$ACADVER
  1
AC1018
  9
$ACADMAINTVER
 70
   104
  9
$DWGCODEPAGE
  3
ANSI_1250
  9
$LASTSAVEDBY
  1
bonzo
  9
$INSBASE
 10
0.0
 20
0.0
 30
0.0
  9
$EXTMIN
 10
7.568788526827526
 20
3.938036847407979
 30
0.0
  9
$EXTMAX
 10
12.57174435163343
 20
10.54325525502668
 30
0.0
  9
$LIMMIN
 10
0.0
 20
0.0
  9
$LIMMAX
 10
12.0
 20
9.0
  9
$ORTHOMODE
 70
     1
  9
$REGENMODE
 70
     1
  9
$FILLMODE
 70
     1
  9
$QTEXTMODE
 70
     0
  9
$MIRRTEXT
 70
     1
  9
$LTSCALE
 40
1.0
  9
$ATTMODE
 70
     1
  9
$TEXTSIZE
 40
0.2
  9
$TRACEWID
 40
0.05
  9
$TEXTSTYLE
  7
Standard
  9
$CLAYER
  8
WYMIAR
  9
$CELTYPE
  6
ByLayer
  9
$CECOLOR
 62
   256
  9
$CELTSCALE
 40
1.0
  9
$DISPSILH
 70
     0
  9
$DIMSCALE
 40
0.02
  9
$DIMASZ
 40
3.0
  9
$DIMEXO
 40
20.0
  9
$DIMDLI
 40
0.0
  9
$DIMRND
 40
0.1
  9
$DIMDLE
 40
0.0
  9
$DIMEXE
 40
5.0
  9
$DIMTP
 40
0.0
  9
$DIMTM
 40
0.0
  9
$DIMTXT
 40
9.0
  9
$DIMCEN
 40
12.0
  9
$DIMTSZ
 40
0.0
  9
$DIMTOL
 70
     0
  9
$DIMLIM
 70
     0
  9
$DIMTIH
 70
     0
  9
$DIMTOH
 70
     0
  9
$DIMSE1
 70
     1
  9
$DIMSE2
 70
     1
  9
$DIMTAD
 70
     1
  9
$DIMZIN
 70
     1
  9
$DIMBLK
  1

  9
$DIMASO
 70
     1
  9
$DIMSHO
 70
     1
  9
$DIMPOST
  1

  9
$DIMAPOST
  1

  9
$DIMALT
 70
     0
  9
$DIMALTD
 70
     4
  9
$DIMALTF
 40
1.0
  9
$DIMLFAC
 40
1.0
  9
$DIMTOFL
 70
     1
  9
$DIMTVP
 40
0.0
  9
$DIMTIX
 70
     1
  9
$DIMSOXD
 70
     0
  9
$DIMSAH
 70
     1
  9
$DIMBLK1
  1
MAR-STRZ
  9
$DIMBLK2
  1
MAR-STRZ
  9
$DIMSTYLE
  2
AR SKALA 1-50
  9
$DIMCLRD
 70
   256
  9
$DIMCLRE
 70
   256
  9
$DIMCLRT
 70
   256
  9
$DIMTFAC
 40
0.01
  9
$DIMGAP
 40
6.0
  9
$DIMJUST
 70
     0
  9
$DIMSD1
 70
     0
  9
$DIMSD2
 70
     0
  9
$DIMTOLJ
 70
     1
  9
$DIMTZIN
 70
     0
  9
$DIMALTZ
 70
     0
  9
$DIMALTTZ
 70
     0
  9
$DIMUPT
 70
     0
  9
$DIMDEC
 70
     2
  9
$DIMTDEC
 70
     2
  9
$DIMALTU
 70
     2
  9
$DIMALTTD
 70
     4
  9
$DIMTXSTY
  7
AR 01 SWIS
  9
$DIMAUNIT
 70
     0
  9
$DIMADEC
 70
     1
  9
$DIMALTRND
 40
0.0
  9
$DIMAZIN
 70
     0
  9
$DIMDSEP
 70
    46
  9
$DIMATFIT
 70
     3
  9
$DIMFRAC
 70
     0
  9
$DIMLDRBLK
  1
MAR-STRZ
  9
$DIMLUNIT
 70
     2
  9
$DIMLWD
 70
    -2
  9
$DIMLWE
 70
    -2
  9
$DIMTMOVE
 70
     2
  9
$LUNITS
 70
     2
  9
$LUPREC
 70
     4
  9
$SKETCHINC
 40
0.1
  9
$FILLETRAD
 40
0.0
  9
$AUNITS
 70
     0
  9
$AUPREC
 70
     0
  9
$MENU
  1
.
  9
$ELEVATION
 40
0.0
  9
$PELEVATION
 40
0.0
  9
$THICKNESS
 40
0.0
  9
$LIMCHECK
 70
     0
  9
$CHAMFERA
 40
0.5
  9
$CHAMFERB
 40
0.5
  9
$CHAMFERC
 40
1.0
  9
$CHAMFERD
 40
0.0
  9
$SKPOLY
 70
     0
  9
$TDCREATE
 40
2455956.499359827
  9
$TDUCREATE
 40
2455956.416026493
  9
$TDUPDATE
 40
2459311.313444815
  9
$TDUUPDATE
 40
2459311.230111482
  9
$TDINDWG
 40
0.1046777315
  9
$TDUSRTIMER
 40
0.1046777315
  9
$USRTIMER
 70
     1
  9
$ANGBASE
 50
0.0
  9
$ANGDIR
 70
     0
  9
$PDMODE
 70
     0
  9
$PDSIZE
 40
0.0
  9
$PLINEWID
 40
0.0
  9
$SPLFRAME
 70
     0
  9
$SPLINETYPE
 70
     6
  9
$SPLINESEGS
 70
     8
  9
$HANDSEED
  5
47E7
  9
$SURFTAB1
 70
     6
  9
$SURFTAB2
 70
     6
  9
$SURFTYPE
 70
     6
  9
$SURFU
 70
     6
  9
$SURFV
 70
     6
  9
$UCSBASE
  2

  9
$UCSNAME
  2

  9
$UCSORG
 10
0.0
 20
0.0
 30
0.0
  9
$UCSXDIR
 10
1.0
 20
0.0
 30
0.0
  9
$UCSYDIR
 10
0.0
 20
1.0
 30
0.0
  9
$UCSORTHOREF
  2

  9
$UCSORTHOVIEW
 70
     0
  9
$UCSORGTOP
 10
0.0
 20
0.0
 30
0.0
  9
$UCSORGBOTTOM
 10
0.0
 20
0.0
 30
0.0
  9
$UCSORGLEFT
 10
0.0
 20
0.0
 30
0.0
  9
$UCSORGRIGHT
 10
0.0
 20
0.0
 30
0.0
  9
$UCSORGFRONT
 10
0.0
 20
0.0
 30
0.0
  9
$UCSORGBACK
 10
0.0
 20
0.0
 30
0.0
  9
$PUCSBASE
  2

  9
$PUCSNAME
  2

  9
$PUCSORG
 10
0.0
 20
0.0
 30
0.0
  9
$PUCSXDIR
 10
1.0
 20
0.0
 30
0.0
  9
$PUCSYDIR
 10
0.0
 20
1.0
 30
0.0
  9
$PUCSORTHOREF
  2

  9
$PUCSORTHOVIEW
 70
     0
  9
$PUCSORGTOP
 10
0.0
 20
0.0
 30
0.0
  9
$PUCSORGBOTTOM
 10
0.0
 20
0.0
 30
0.0
  9
$PUCSORGLEFT
 10
0.0
 20
0.0
 30
0.0
  9
$PUCSORGRIGHT
 10
0.0
 20
0.0
 30
0.0
  9
$PUCSORGFRONT
 10
0.0
 20
0.0
 30
0.0
  9
$PUCSORGBACK
 10
0.0
 20
0.0
 30
0.0
  9
$USERI1
 70
     0
  9
$USERI2
 70
     0
  9
$USERI3
 70
     0
  9
$USERI4
 70
     0
  9
$USERI5
 70
     0
  9
$USERR1
 40
0.0
  9
$USERR2
 40
0.0
  9
$USERR3
 40
0.0
  9
$USERR4
 40
0.0
  9
$USERR5
 40
0.0
  9
$WORLDVIEW
 70
     1
  9
$SHADEDGE
 70
     3
  9
$SHADEDIF
 70
    70
  9
$TILEMODE
 70
     1
  9
$MAXACTVP
 70
    64
  9
$PINSBASE
 10
0.0
 20
0.0
 30
0.0
  9
$PLIMCHECK
 70
     0
  9
$PEXTMIN
 10
6.561544945354853
 20
3.282189374834842
 30
0.0
  9
$PEXTMAX
 10
296.6096419909582
 20
206.4421558651099
 30
0.0
  9
$PLIMMIN
 10
3.386557152386103
 20
0.1071894225185588
  9
$PLIMMAX
 10
300.4395661855892
 20
209.9958460387295
  9
$UNITMODE
 70
     0
  9
$VISRETAIN
 70
     1
  9
$PLINEGEN
 70
     0
  9
$PSLTSCALE
 70
     0
  9
$TREEDEPTH
 70
  3020
  9
$CMLSTYLE
  2
Standard
  9
$CMLJUST
 70
     0
  9
$CMLSCALE
 40
1.0
  9
$PROXYGRAPHICS
 70
     1
  9
$MEASUREMENT
 70
     0
  9
$CELWEIGHT
370
    -1
  9
$ENDCAPS
280
     0
  9
$JOINSTYLE
280
     0
  9
$LWDISPLAY
290
     0
  9
$INSUNITS
 70
     1
  9
$HYPERLINKBASE
  1

  9
$STYLESHEET
  1

  9
$XEDIT
290
     1
  9
$CEPSNTYPE
380
     0
  9
$PSTYLEMODE
290
     1
  9
$FINGERPRINTGUID
  2
{1B330B5B-CE04-4EC8-B886-8C8BFC3A02BF}
  9
$VERSIONGUID
  2
{822B20C6-D608-4FCF-8A16-33854BD52DF4}
  9
$EXTNAMES
290
     1
  9
$PSVPSCALE
 40
0.0
  9
$OLESTARTUP
290
     0
  9
$SORTENTS
280
   127
  9
$INDEXCTL
280
     0
  9
$HIDETEXT
280
     1
  9
$XCLIPFRAME
290
     0
  9
$HALOGAP
280
     0
  9
$OBSCOLOR
 70
   257
  9
$OBSLTYPE
280
     0
  9
$INTERSECTIONDISPLAY
280
     0
  9
$INTERSECTIONCOLOR
 70
   257
  9
$DIMASSOC
280
     2
  9
$PROJECTNAME
  1

  0
ENDSEC
  0
SECTION
  2
CLASSES
  0
CLASS
  1
ACDBDICTIONARYWDFLT
  2
AcDbDictionaryWithDefault
  3
ObjectDBX Classes
 90
        0
 91
        1
280
     0
281
     0
  0
CLASS
  1
VISUALSTYLE
  2
AcDbVisualStyle
  3
ObjectDBX Classes
 90
     4095
 91
       16
280
     0
281
     0
  0
CLASS
  1
MATERIAL
  2
AcDbMaterial
  3
ObjectDBX Classes
 90
     1153
 91
        3
280
     0
281
     0
  0
CLASS
  1
DICTIONARYVAR
  2
AcDbDictionaryVar
  3
ObjectDBX Classes
 90
        0
 91
        9
280
     0
281
     0
  0
CLASS
  1
TABLESTYLE
  2
AcDbTableStyle
  3
ObjectDBX Classes
 90
     4095
 91
        1
280
     0
281
     0
  0
CLASS
  1
SORTENTSTABLE
  2
AcDbSortentsTable
  3
ObjectDBX Classes
 90
        0
 91
        2
280
     0
281
     0
  0
CLASS
  1
DIMASSOC
  2
AcDbDimAssoc
  3
"AcDbDimAssoc|Product Desc:     AcDim ARX App For Dimension|Company:          Autodesk, Inc.|WEB Address:      www.autodesk.com"
 90
        0
 91
        2
280
     0
281
     0
  0
CLASS
  1
SCALE
  2
AcDbScale
  3
ObjectDBX Classes
 90
     1153
 91
       33
280
     0
281
     0
  0
CLASS
  1
MLEADERSTYLE
  2
AcDbMLeaderStyle
  3
ACDB_MLEADERSTYLE_CLASS
 90
     4095
 91
        1
280
     0
281
     0
  0
CLASS
  1
CELLSTYLEMAP
  2
AcDbCellStyleMap
  3
ObjectDBX Classes
 90
     1152
 91
        2
280
     0
281
     0
  0
ENDSEC
  0
SECTION
  2
TABLES
  0
TABLE
  2
VPORT
  5
8
102
{ACAD_XDICTIONARY
360
84C
102
}
330
0
100
AcDbSymbolTable
 70
     1
  0
VPORT
  5
29
330
8
100
AcDbSymbolTableRecord
100
AcDbViewportTableRecord
  2
*Active
 70
     0
 10
0.0
 20
0.0
 11
1.0
 21
1.0
 12
9.817673045671403
 22
7.355216948168317
 13
0.0
 23
0.0
 14
0.5
 24
0.5
 15
0.5
 25
0.5
 16
0.0
 26
0.0
 36
1.0
 17
0.0
 27
0.0
 37
-1000.0
 40
7.97879312273984
 41
2.060556464811783
 42
50.0
 43
4.148984367261674
 44
9.217858496371269
 50
0.0
 51
0.0
 71
     0
 72
   100
 73
     1
 74
     3
 75
     0
 76
     0
 77
     0
 78
     0
281
     0
 65
     1
110
0.0
120
0.0
130
0.0
111
1.0
121
0.0
131
0.0
112
0.0
122
1.0
132
0.0
 79
     0
146
0.0
  0
ENDTAB
  0
TABLE
  2
LTYPE
  5
5
330
0
100
AcDbSymbolTable
 70
     2
  0
LTYPE
  5
14
330
5
100
AcDbSymbolTableRecord
100
AcDbLinetypeTableRecord
  2
ByBlock
 70
     0
  3

 72
    65
 73
     0
 40
0.0
  0
LTYPE
  5
15
330
5
100
AcDbSymbolTableRecord
100
AcDbLinetypeTableRecord
  2
ByLayer
 70
     0
  3

 72
    65
 73
     0
 40
0.0
  0
LTYPE
  5
16
330
5
100
AcDbSymbolTableRecord
100
AcDbLinetypeTableRecord
  2
Continuous
 70
     0
  3
Solid line
 72
    65
 73
     0
 40
0.0
  0
LTYPE
  5
886
330
5
100
AcDbSymbolTableRecord
100
AcDbLinetypeTableRecord
  2
DASHED
 70
     0
  3
Dashed __ __ __ __ __ __ __ __ __ __ __ __ __ _
 72
    65
 73
     2
 40
0.75
 49
0.5
 74
     0
 49
-0.25
 74
     0
  0
ENDTAB
  0
TABLE
  2
LAYER
  5
2
102
{ACAD_XDICTIONARY
360
7D1
102
}
330
0
100
AcDbSymbolTable
 70
     4
  0
LAYER
  5
10
102
{ACAD_XDICTIONARY
360
3CC5
102
}
330
2
100
AcDbSymbolTableRecord
100
AcDbLayerTableRecord
  2
0
 70
     0
 62
     7
  6
Continuous
370
    80
390
F
  0
LAYER
  5
87B
102
{ACAD_XDICTIONARY
360
3CC7
102
}
330
2
100
AcDbSymbolTableRecord
100
AcDbLayerTableRecord
  2
STREFA BEZPIECZEŃSTWA
 70
     0
 62
     7
  6
DASHED
370
    80
390
F
1001
AcAecLayerStandard
1000

1000

  0
LAYER
  5
87D
102
{ACAD_XDICTIONARY
360
3CC9
102
}
330
2
100
AcDbSymbolTableRecord
100
AcDbLayerTableRecord
  2
WYMIAR
 70
     0
 62
     7
  6
Continuous
370
    80
390
F
1001
AcAecLayerStandard
1000

1000

  0
LAYER
  5
8CC
330
2
100
AcDbSymbolTableRecord
100
AcDbLayerTableRecord
  2
Defpoints
 70
     0
 62
     7
  6
Continuous
290
     0
370
    80
390
F
1001
RAK
1000
{ACET-LAYISO
1070
     0
1070
     7
1000
Continuous
1071
        5
1071
        0
1005
F
1000
ACET-LAYISO}
  0
ENDTAB
  0
TABLE
  2
STYLE
  5
3
330
0
100
AcDbSymbolTable
 70
     2
  0
STYLE
  5
11
330
3
100
AcDbSymbolTableRecord
100
AcDbTextStyleTableRecord
  2
Standard
 70
     0
 40
0.0
 41
1.0
 50
0.0
 71
     0
 42
0.2
  3
txt
  4

  0
STYLE
  5
8CE
330
3
100
AcDbSymbolTableRecord
100
AcDbTextStyleTableRecord
  2
AR 01 SWIS
 70
     0
 40
0.0
 41
1.0
 50
0.0
 71
     0
 42
55.0
  3

  4

1001
ACAD
1000
Swis721 Cn BT
1071
       34
  0
ENDTAB
  0
TABLE
  2
VIEW
  5
6
330
0
100
AcDbSymbolTable
 70
     0
  0
ENDTAB
  0
TABLE
  2
UCS
  5
7
330
0
100
AcDbSymbolTable
 70
     0
  0
ENDTAB
  0
TABLE
  2
APPID
  5
9
330
0
100
AcDbSymbolTable
 70
     9
  0
APPID
  5
12
330
9
100
AcDbSymbolTableRecord
100
AcDbRegAppTableRecord
  2
ACAD
 70
     0
  0
APPID
  5
7CB
330
9
100
AcDbSymbolTableRecord
100
AcDbRegAppTableRecord
  2
ACAD_PSEXT
 70
     0
  0
APPID
  5
875
330
9
100
AcDbSymbolTableRecord
100
AcDbRegAppTableRecord
  2
ACAD_EXEMPT_FROM_CAD_STANDARDS
 70
     0
  0
APPID
  5
87C
330
9
100
AcDbSymbolTableRecord
100
AcDbRegAppTableRecord
  2
AcAecLayerStandard
 70
     0
  0
APPID
  5
8D4
330
9
100
AcDbSymbolTableRecord
100
AcDbRegAppTableRecord
  2
RAK
 70
     0
  0
APPID
  5
8D5
330
9
100
AcDbSymbolTableRecord
100
AcDbRegAppTableRecord
  2
ACAD_DSTYLE_DIMJOGGED_JOGANGLE_SYMBOL
 70
     0
  0
APPID
  5
8D6
330
9
100
AcDbSymbolTableRecord
100
AcDbRegAppTableRecord
  2
ACAD_DSTYLE_DIMJAG
 70
     0
  0
APPID
  5
8D7
330
9
100
AcDbSymbolTableRecord
100
AcDbRegAppTableRecord
  2
ACAD_DSTYLE_DIMTALN
 70
     0
  0
APPID
  5
3CB7
330
9
100
AcDbSymbolTableRecord
100
AcDbRegAppTableRecord
  2
ACAD_MLEADERVER
 70
     0
  0
ENDTAB
  0
TABLE
  2
DIMSTYLE
  5
A
330
0
100
AcDbSymbolTable
 70
     2
100
AcDbDimStyleTable
 71
     1
340
8CF
  0
DIMSTYLE
105
8CF
102
{ACAD_REACTORS
330
4798
330
47AC
102
}
330
A
100
AcDbSymbolTableRecord
100
AcDbDimStyleTableRecord
  2
AR SKALA 1-50
 70
     0
 40
0.02
 41
3.0
 42
20.0
 43
0.0
 44
5.0
 45
0.1
 73
     0
 74
     0
 75
     1
 76
     1
 77
     1
 78
     1
140
9.0
141
12.0
143
1.0
146
0.01
147
6.0
171
     4
172
     1
173
     1
174
     1
176
   256
177
   256
178
   256
179
     1
271
     2
272
     2
274
     4
279
     2
340
8CE
341
8BC
343
8BC
344
8BC
  0
DIMSTYLE
105
A46
330
A
100
AcDbSymbolTableRecord
100
AcDbDimStyleTableRecord
  2
Standard
 70
     0
340
11
  0
ENDTAB
  0
TABLE
  2
BLOCK_RECORD
  5
1
330
0
100
AcDbSymbolTable
 70
     6
  0
BLOCK_RECORD
  5
1F
102
{ACAD_XDICTIONARY
360
5F8
102
}
330
1
100
AcDbSymbolTableRecord
100
AcDbBlockTableRecord
  2
*Model_Space
340
22
  0
BLOCK_RECORD
  5
1B
330
1
100
AcDbSymbolTableRecord
100
AcDbBlockTableRecord
  2
*Paper_Space
340
1E
  0
BLOCK_RECORD
  5
8BC
330
1
100
AcDbSymbolTableRecord
100
AcDbBlockTableRecord
  2
MAR-STRZ
340
0
310
2800000020000000200000000100080000000000000400000000000000000000000000000000000000000000000080000080000000808000800000008000800080800000C0C0C000C0DCC000F0CAA6000020400000206000002080000020A0000020C0000020E00000400000004020000040400000406000004080000040A0
310
000040C0000040E00000600000006020000060400000606000006080000060A0000060C0000060E00000800000008020000080400000806000008080000080A0000080C0000080E00000A0000000A0200000A0400000A0600000A0800000A0A00000A0C00000A0E00000C0000000C0200000C0400000C0600000C0800000C0
310
A00000C0C00000C0E00000E0000000E0200000E0400000E0600000E0800000E0A00000E0C00000E0E00040000000400020004000400040006000400080004000A0004000C0004000E00040200000402020004020400040206000402080004020A0004020C0004020E000404000004040200040404000404060004040800040
310
40A0004040C0004040E00040600000406020004060400040606000406080004060A0004060C0004060E00040800000408020004080400040806000408080004080A0004080C0004080E00040A0000040A0200040A0400040A0600040A0800040A0A00040A0C00040A0E00040C0000040C0200040C0400040C0600040C08000
310
40C0A00040C0C00040C0E00040E0000040E0200040E0400040E0600040E0800040E0A00040E0C00040E0E00080000000800020008000400080006000800080008000A0008000C0008000E00080200000802020008020400080206000802080008020A0008020C0008020E00080400000804020008040400080406000804080
310
008040A0008040C0008040E00080600000806020008060400080606000806080008060A0008060C0008060E00080800000808020008080400080806000808080008080A0008080C0008080E00080A0000080A0200080A0400080A0600080A0800080A0A00080A0C00080A0E00080C0000080C0200080C0400080C0600080C0
310
800080C0A00080C0C00080C0E00080E0000080E0200080E0400080E0600080E0800080E0A00080E0C00080E0E000C0000000C0002000C0004000C0006000C0008000C000A000C000C000C000E000C0200000C0202000C0204000C0206000C0208000C020A000C020C000C020E000C0400000C0402000C0404000C0406000C0
310
408000C040A000C040C000C040E000C0600000C0602000C0604000C0606000C0608000C060A000C060C000C060E000C0800000C0802000C0804000C0806000C0808000C080A000C080C000C080E000C0A00000C0A02000C0A04000C0A06000C0A08000C0A0A000C0A0C000C0A0E000C0C00000C0C02000C0C04000C0C06000
310
C0C08000C0C0A000F0FBFF00A4A0A000808080000000FF0000FF000000FFFF00FF000000FF00FF00FFFF0000FFFFFF00000000000000000000000000000000000000000000000000000000000000000000000000000000000000000000000000FF000000000000000000000000000000000000000000000000000000000000
310
00FF00000000000000000000000000000000000000000000000000000000000000FF00000000000000000000000000000000000000000000000000000000000000FF00000000000000000000000000000000000000000000000000000000000000FF000000000000000000000000000000000000000000F900000000000000
310
0000FF00000000000000000000000000000000000000000000F90000000000000000FF0000000000000000000000000000000000000000000000F900000000000000FF000000000000000000000000000000000000000000000000F9000000000000FF00000000000000000000000000000000000000000000000000F90000
310
000000FF0000000000000000000000000000000000000000000000000000F900000000FF000000000000000000000000000000000000000000000000000000F9000000FF00000000000000000000000000000000000000000000000000000000F90000FF000000000000000000000000000000000000000000000000000000
310
0000F900FF000000000000000000000000000000000000000000000000000000000000F9FF00000000000000000000000000000000000000000000FFFFFFFFFFFFFFFFFFFFFFFFFFFFFFFFFFFF0000000000000000000000000000000000000000000000FFF900000000000000000000000000000000000000000000000000
310
0000000000FF00F90000000000000000000000000000000000000000000000000000000000FF0000F900000000000000000000000000000000000000000000000000000000FF000000F9000000000000000000000000000000000000000000000000000000FF00000000F90000000000000000000000000000000000000000
310
000000000000FF0000000000F900000000000000000000000000000000000000000000000000FF000000000000F9000000000000000000000000000000000000000000000000FF00000000000000F90000000000000000000000000000000000000000000000FF0000000000000000F9000000000000000000000000000000
310
00000000000000FF00000000000000000000000000000000000000000000000000000000000000FF00000000000000000000000000000000000000000000000000000000000000FF00000000000000000000000000000000000000000000000000000000000000FF0000000000000000000000000000000000000000000000
310
0000000000000000FF0000000000000000000000000000000000000000000000000000000000000000000000000000000000000000000000
102
{BLKREFS
331
3C48
331
3C49
331
3C4F
331
3C50
331
47A5
331
47A6
331
47B9
331
47BA
102
}
  0
BLOCK_RECORD
  5
3CDA
102
{ACAD_XDICTIONARY
360
3CDC
102
}
330
1
100
AcDbSymbolTableRecord
100
AcDbBlockTableRecord
  2
A$C0B862B38
340
0
1001
ACAD
1000
DesignCenter Data
1002
{
1070
     1
1070
     1
1002
}
  0
BLOCK_RECORD
  5
4799
330
1
100
AcDbSymbolTableRecord
100
AcDbBlockTableRecord
  2
*D4
340
0
  0
BLOCK_RECORD
  5
47AD
330
1
100
AcDbSymbolTableRecord
100
AcDbBlockTableRecord
  2
*D5
340
0
  0
ENDTAB
  0
ENDSEC
  0
SECTION
  2
BLOCKS
  0
BLOCK
  5
20
330
1F
100
AcDbEntity
  8
0
100
AcDbBlockBegin
  2
*Model_Space
 70
     0
 10
0.0
 20
0.0
 30
0.0
  3
*Model_Space
  1

  0
ENDBLK
  5
21
330
1F
100
AcDbEntity
  8
0
100
AcDbBlockEnd
  0
BLOCK
  5
1C
330
1B
100
AcDbEntity
 67
     1
  8
0
100
AcDbBlockBegin
  2
*Paper_Space
 70
     0
 10
0.0
 20
0.0
 30
0.0
  3
*Paper_Space
  1

  0
ENDBLK
  5
1D
330
1B
100
AcDbEntity
 67
     1
  8
0
100
AcDbBlockEnd
  0
BLOCK
  5
8BD
330
8BC
100
AcDbEntity
  8
0
100
AcDbBlockBegin
  2
MAR-STRZ
 70
     0
 10
0.0
 20
0.0
 30
0.0
  3
MAR-STRZ
  1

  0
LINE
  5
8BE
330
8BC
100
AcDbEntity
  8
0
100
AcDbLine
 10
0.0
 20
2.299999999999272
 30
0.0
 11
0.0
 21
-2.299999999999272
 31
0.0
  0
LINE
  5
8BF
330
8BC
100
AcDbEntity
  8
0
 62
    10
100
AcDbLine
 10
1.5
 20
1.5
 30
0.0
 11
-1.5
 21
-1.5
 31
0.0
  0
LINE
  5
8C0
330
8BC
100
AcDbEntity
  8
0
100
AcDbLine
 10
1.399999999999636
 20
0.0
 30
0.0
 11
-1.399999999999636
 21
0.0
 31
0.0
  0
ENDBLK
  5
8C1
330
8BC
100
AcDbEntity
  8
0
100
AcDbBlockEnd
  0
BLOCK
  5
3CDE
330
3CDA
100
AcDbEntity
  8
0
100
AcDbBlockBegin
  2
A$C0B862B38
 70
     0
 10
0.0
 20
0.0
 30
0.0
  3
A$C0B862B38
  1

  0
MTEXT
  5
3CDB
330
3CDA
100
AcDbEntity
  8
STREFA BEZPIECZEŃSTWA
100
AcDbMText
 10
0.078234669748019
 20
0.2870554137381918
 30
0.0
 40
0.2
 41
4.357323168243354
 71
     1
 72
     5
  1
{\fArial|b0|i0|c238|p34;Lokomotywa nr kat. 9.3}
 73
     1
 44
1.0
  0
ENDBLK
  5
3CDF
330
3CDA
100
AcDbEntity
  8
0
100
AcDbBlockEnd
  0
BLOCK
  5
479A
330
4799
100
AcDbEntity
  8
0
100
AcDbBlockBegin
  2
*D4
 70
     1
 10
0.0
 20
0.0
 30
0.0
  3
*D4
  1

  0
LINE
  5
47A4
330
4799
100
AcDbEntity
  8
WYMIAR
370
    -2
100
AcDbLine
 10
8.441744351633429
 20
10.19095006022148
 30
0.0
 11
12.42174435163343
 21
10.19095006022148
 31
0.0
  0
INSERT
  5
47A5
330
4799
100
AcDbEntity
  8
WYMIAR
370
    -2
100
AcDbBlockReference
  2
MAR-STRZ
 10
8.381744351633429
 20
10.19095006022148
 30
0.0
 41
0.06
 42
0.06
 43
0.06
 50
180.0
  0
INSERT
  5
47A6
330
4799
100
AcDbEntity
  8
WYMIAR
370
    -2
100
AcDbBlockReference
  2
MAR-STRZ
 10
12.48174435163343
 20
10.19095006022148
 30
0.0
 41
0.06
 42
0.06
 43
0.06
  0
MTEXT
  5
47A7
330
4799
100
AcDbEntity
  8
WYMIAR
100
AcDbMText
 10
10.43174435163343
 20
10.40095006022148
 30
0.0
 40
0.18
 41
0.0
 71
     5
 72
     1
  1
\A1;4.10
  7
AR 01 SWIS
 73
     1
 44
1.0
  0
POINT
  5
47A8
330
4799
100
AcDbEntity
  8
Defpoints
 62
     0
100
AcDbPoint
 10
8.381744351633429
 20
9.844319219092602
 30
0.0
  0
POINT
  5
47A9
330
4799
100
AcDbEntity
  8
Defpoints
 62
     0
100
AcDbPoint
 10
12.48174435163343
 20
9.844319219092636
 30
0.0
  0
POINT
  5
47AA
330
4799
100
AcDbEntity
  8
Defpoints
 62
     0
100
AcDbPoint
 10
12.48174435163343
 20
10.19095006022148
 30
0.0
  0
ENDBLK
  5
479B
330
4799
100
AcDbEntity
  8
0
100
AcDbBlockEnd
  0
BLOCK
  5
47AE
330
47AD
100
AcDbEntity
  8
0
100
AcDbBlockBegin
  2
*D5
 70
     1
 10
0.0
 20
0.0
 30
0.0
  3
*D5
  1

  0
LINE
  5
47B8
330
47AD
100
AcDbEntity
  8
WYMIAR
370
    -2
100
AcDbLine
 10
7.921093721632723
 20
9.784319219092601
 30
0.0
 11
7.921093721632722
 21
4.704319219092636
 31
0.0
  0
INSERT
  5
47B9
330
47AD
100
AcDbEntity
  8
WYMIAR
370
    -2
100
AcDbBlockReference
  2
MAR-STRZ
 10
7.921093721632723
 20
9.844319219092602
 30
0.0
 41
0.06
 42
0.06
 43
0.06
 50
90.0
  0
INSERT
  5
47BA
330
47AD
100
AcDbEntity
  8
WYMIAR
370
    -2
100
AcDbBlockReference
  2
MAR-STRZ
 10
7.921093721632722
 20
4.644319219092636
 30
0.0
 41
0.06
 42
0.06
 43
0.06
 50
270.0
  0
MTEXT
  5
47BB
330
47AD
100
AcDbEntity
  8
WYMIAR
100
AcDbMText
 10
7.711093721632721
 20
7.244319219092619
 30
0.0
 40
0.18
 41
0.0
 71
     5
 72
     1
  1
\A1;5.20
  7
AR 01 SWIS
 11
0.0000000000000001
 21
1.0
 31
0.0
 73
     1
 44
1.0
  0
POINT
  5
47BC
330
47AD
100
AcDbEntity
  8
Defpoints
 62
     0
100
AcDbPoint
 10
8.381744351633429
 20
9.844319219092602
 30
0.0
  0
POINT
  5
47BD
330
47AD
100
AcDbEntity
  8
Defpoints
 62
     0
100
AcDbPoint
 10
8.381744351633429
 20
4.644319219092636
 30
0.0
  0
POINT
  5
47BE
330
47AD
100
AcDbEntity
  8
Defpoints
 62
     0
100
AcDbPoint
 10
7.921093721632722
 20
4.644319219092636
 30
0.0
  0
ENDBLK
  5
47AF
330
47AD
100
AcDbEntity
  8
0
100
AcDbBlockEnd
  0
ENDSEC
  0
SECTION
  2
ENTITIES
  0
LINE
  5
467A
330
1F
100
AcDbEntity
  8
STREFA BEZPIECZEŃSTWA
100
AcDbLine
 10
8.381744351633429
 20
4.644319219092636
 30
0.0
 11
12.48174435163343
 21
4.644319219092636
 31
0.0
  0
LINE
  5
467B
330
1F
100
AcDbEntity
  8
STREFA BEZPIECZEŃSTWA
100
AcDbLine
 10
12.48174435163343
 20
4.644319219092636
 30
0.0
 11
12.48174435163343
 21
9.844319219092636
 31
0.0
  0
LINE
  5
467C
102
{ACAD_REACTORS
330
47AB
102
}
330
1F
100
AcDbEntity
  8
STREFA BEZPIECZEŃSTWA
100
AcDbLine
 10
12.48174435163343
 20
9.844319219092636
 30
0.0
 11
8.381744351633429
 21
9.844319219092602
 31
0.0
  0
LINE
  5
467D
102
{ACAD_REACTORS
330
47AB
330
47BF
102
}
330
1F
100
AcDbEntity
  8
STREFA BEZPIECZEŃSTWA
100
AcDbLine
 10
8.381744351633429
 20
9.844319219092602
 30
0.0
 11
8.381744351633429
 21
4.644319219092636
 31
0.0
  0
LINE
  5
467E
330
1F
100
AcDbEntity
  8
0
100
AcDbLine
 10
9.969324475461744
 20
6.153792069546595
 30
0.0
 11
9.949324475461745
 21
6.153792069546595
 31
0.0
  0
LINE
  5
467F
330
1F
100
AcDbEntity
  8
0
100
AcDbLine
 10
10.94902818414729
 20
6.153792069546595
 30
0.0
 11
10.96902818414729
 21
6.153792069546595
 31
0.0
  0
LINE
  5
4680
330
1F
100
AcDbEntity
  8
0
100
AcDbLine
 10
9.971028184147781
 20
8.533483553667389
 30
0.0
 11
9.951028184147782
 21
8.533483553667389
 31
0.0
  0
LINE
  5
4681
330
1F
100
AcDbEntity
  8
0
100
AcDbLine
 10
10.44808719837692
 20
6.254513061571592
 30
0.0
 11
10.45071705064967
 21
6.254513061571592
 31
0.0
  0
LINE
  5
4682
330
1F
100
AcDbEntity
  8
0
100
AcDbLine
 10
10.9770687009214
 20
6.242797332819054
 30
0.0
 11
10.98410280533429
 21
6.244160299767491
 31
0.0
  0
LINE
  5
4683
330
1F
100
AcDbEntity
  8
0
100
AcDbLine
 10
10.99065754715586
 20
6.248156316667676
 30
0.0
 11
10.99628623156318
 21
6.254513061571592
 31
0.0
  0
LINE
  5
4684
330
1F
100
AcDbEntity
  8
0
100
AcDbLine
 10
10.98410280533429
 20
6.244160299767491
 30
0.0
 11
10.99065754715586
 21
6.248156316667676
 31
0.0
  0
LINE
  5
4685
330
1F
100
AcDbEntity
  8
0
100
AcDbLine
 10
10.98410280533479
 20
8.461726803571009
 30
0.0
 11
10.97706870092189
 21
8.463089770519447
 31
0.0
  0
LINE
  5
4686
330
1F
100
AcDbEntity
  8
0
100
AcDbLine
 10
10.99065754715636
 20
8.457730786670824
 30
0.0
 11
10.98410280533479
 21
8.461726803571009
 31
0.0
  0
LINE
  5
4687
330
1F
100
AcDbEntity
  8
0
100
AcDbLine
 10
10.99628623156368
 20
8.451374041766909
 30
0.0
 11
10.99065754715636
 21
8.457730786670824
 31
0.0
  0
LINE
  5
4688
330
1F
100
AcDbEntity
  8
0
100
AcDbLine
 10
9.876740353088981
 20
6.242797332819049
 30
0.0
 11
9.870253145585921
 21
6.244160299767487
 31
0.0
  0
LINE
  5
4689
330
1F
100
AcDbEntity
  8
0
100
AcDbLine
 10
9.864208030553578
 20
6.248156316667672
 30
0.0
 11
9.859016972591378
 21
6.254513061571587
 31
0.0
  0
LINE
  5
468A
330
1F
100
AcDbEntity
  8
0
100
AcDbLine
 10
9.870253145585921
 20
6.244160299767487
 30
0.0
 11
9.864208030553578
 21
6.248156316667672
 31
0.0
  0
LINE
  5
468B
330
1F
100
AcDbEntity
  8
0
100
AcDbLine
 10
9.870253145586415
 20
8.461726803571009
 30
0.0
 11
9.876740353089475
 21
8.463089770519447
 31
0.0
  0
LINE
  5
468C
330
1F
100
AcDbEntity
  8
0
100
AcDbLine
 10
9.864208030554072
 20
8.457730786670824
 30
0.0
 11
9.870253145586415
 21
8.461726803571009
 31
0.0
  0
LINE
  5
468D
330
1F
100
AcDbEntity
  8
0
100
AcDbLine
 10
9.859016972591872
 20
8.451374041766909
 30
0.0
 11
9.864208030554072
 21
8.457730786670824
 31
0.0
  0
LINE
  5
468E
330
1F
100
AcDbEntity
  8
0
100
AcDbLine
 10
10.94732447546223
 20
8.533483553667389
 30
0.0
 11
10.96732447546223
 21
8.533483553667389
 31
0.0
  0
LINE
  5
468F
330
1F
100
AcDbEntity
  8
0
100
AcDbLine
 10
10.99628623156318
 20
6.254513061571592
 30
0.0
 11
10.45071705064967
 21
6.254513061571592
 31
0.0
  0
LINE
  5
4690
330
1F
100
AcDbEntity
  8
0
100
AcDbLine
 10
10.40739441492826
 20
8.463089770519447
 30
0.0
 11
10.94732447546223
 21
8.463089770519447
 31
0.0
  0
LINE
  5
4691
330
1F
100
AcDbEntity
  8
0
100
AcDbLine
 10
10.94902818414729
 20
6.242797332819047
 30
0.0
 11
9.876740353088981
 21
6.242797332819049
 31
0.0
  0
LINE
  5
4692
330
1F
100
AcDbEntity
  8
0
100
AcDbLine
 10
9.951028184147782
 20
8.463089770519447
 30
0.0
 11
9.876740353089475
 21
8.463089770519447
 31
0.0
  0
LINE
  5
4693
330
1F
100
AcDbEntity
  8
0
100
AcDbLine
 10
10.94902818414729
 20
6.242797332819054
 30
0.0
 11
10.96902818414729
 21
6.242797332819054
 31
0.0
  0
LINE
  5
4694
330
1F
100
AcDbEntity
  8
0
100
AcDbLine
 10
10.96902818414729
 20
6.242797332819054
 30
0.0
 11
10.9770687009214
 21
6.242797332819054
 31
0.0
  0
LINE
  5
4695
330
1F
100
AcDbEntity
  8
0
100
AcDbLine
 10
10.94732447546223
 20
8.463089770519447
 30
0.0
 11
10.96732447546223
 21
8.463089770519447
 31
0.0
  0
LINE
  5
4696
330
1F
100
AcDbEntity
  8
0
100
AcDbLine
 10
10.96732447546223
 20
8.463089770519447
 30
0.0
 11
10.97706870092189
 21
8.463089770519447
 31
0.0
  0
LINE
  5
4697
330
1F
100
AcDbEntity
  8
0
100
AcDbLine
 10
9.969324475461744
 20
6.242797332819049
 30
0.0
 11
9.949324475461741
 21
6.242797332819049
 31
0.0
  0
LINE
  5
4698
330
1F
100
AcDbEntity
  8
0
100
AcDbLine
 10
10.42317140433543
 20
8.463089770519443
 30
0.0
 11
9.971028184147785
 21
8.463089770519447
 31
0.0
  0
LINE
  5
4699
330
1F
100
AcDbEntity
  8
0
100
AcDbLine
 10
9.971028184147785
 20
8.463089770519447
 30
0.0
 11
9.951028184147782
 21
8.463089770519447
 31
0.0
  0
LINE
  5
469A
330
1F
100
AcDbEntity
  8
0
100
AcDbLine
 10
9.859016972591378
 20
6.254513061571587
 30
0.0
 11
10.38439946415932
 21
6.254513061571587
 31
0.0
  0
LINE
  5
469B
330
1F
100
AcDbEntity
  8
0
100
AcDbLine
 10
10.38439946415932
 20
6.254513061571587
 30
0.0
 11
10.38817688428598
 21
6.254513061571592
 31
0.0
  0
LINE
  5
469C
330
1F
100
AcDbEntity
  8
0
100
AcDbLine
 10
10.38817688428598
 20
6.254513061571592
 30
0.0
 11
10.42661194556955
 21
6.254513061571592
 31
0.0
  0
LINE
  5
469D
330
1F
100
AcDbEntity
  8
0
100
AcDbLine
 10
10.42661194556955
 20
6.254513061571592
 30
0.0
 11
10.42687399494133
 21
6.254513061571592
 31
0.0
  0
LINE
  5
469E
330
1F
100
AcDbEntity
  8
0
100
AcDbLine
 10
9.969324475461744
 20
6.242797332819049
 30
0.0
 11
9.969324475461744
 21
6.153792069546595
 31
0.0
  0
LINE
  5
469F
330
1F
100
AcDbEntity
  8
0
100
AcDbLine
 10
9.949324475461741
 20
6.242797332819049
 30
0.0
 11
9.949324475461745
 21
6.153792069546595
 31
0.0
  0
LINE
  5
46A0
330
1F
100
AcDbEntity
  8
0
100
AcDbLine
 10
10.94902818414729
 20
6.242797332819054
 30
0.0
 11
10.94902818414729
 21
6.153792069546595
 31
0.0
  0
LINE
  5
46A1
330
1F
100
AcDbEntity
  8
0
100
AcDbLine
 10
10.96902818414729
 20
6.242797332819054
 30
0.0
 11
10.96902818414729
 21
6.153792069546595
 31
0.0
  0
LINE
  5
46A2
330
1F
100
AcDbEntity
  8
0
100
AcDbLine
 10
9.971028184147781
 20
8.533483553667389
 30
0.0
 11
9.971028184147785
 21
8.463089770519447
 31
0.0
  0
LINE
  5
46A3
330
1F
100
AcDbEntity
  8
0
100
AcDbLine
 10
9.951028184147782
 20
8.463089770519447
 30
0.0
 11
9.951028184147782
 21
8.533483553667389
 31
0.0
  0
LINE
  5
46A4
330
1F
100
AcDbEntity
  8
0
100
AcDbLine
 10
10.44808719837692
 20
6.254513061571592
 30
0.0
 11
10.42687399494133
 21
6.254513061571592
 31
0.0
  0
LINE
  5
46A5
330
1F
100
AcDbEntity
  8
0
100
AcDbLine
 10
10.94732447546223
 20
8.463089770519447
 30
0.0
 11
10.94732447546223
 21
8.533483553667389
 31
0.0
  0
LINE
  5
46A6
330
1F
100
AcDbEntity
  8
0
100
AcDbLine
 10
10.96732447546223
 20
8.463089770519447
 30
0.0
 11
10.96732447546223
 21
8.533483553667389
 31
0.0
  0
LINE
  5
46A7
330
1F
100
AcDbEntity
  8
0
100
AcDbLine
 10
10.47734128572943
 20
6.350943118268912
 30
0.0
 11
10.4560502596516
 21
6.350943118268916
 31
0.0
  0
LINE
  5
46A8
330
1F
100
AcDbEntity
  8
0
100
AcDbLine
 10
9.860602216130452
 20
6.350943118268916
 30
0.0
 11
10.43027650212407
 21
6.350943118268916
 31
0.0
  0
LINE
  5
46A9
330
1F
100
AcDbEntity
  8
0
100
AcDbLine
 10
10.43027650212407
 20
6.350943118268916
 30
0.0
 11
10.43483705621601
 21
6.350943118268916
 31
0.0
  0
LINE
  5
46AA
330
1F
100
AcDbEntity
  8
0
100
AcDbLine
 10
10.43483705621648
 20
7.450943118268972
 30
0.0
 11
10.43027650212454
 21
7.450943118268972
 31
0.0
  0
LINE
  5
46AB
330
1F
100
AcDbEntity
  8
0
100
AcDbLine
 10
10.43027650212454
 20
7.450943118268972
 30
0.0
 11
9.860602216130933
 21
7.450943118268972
 31
0.0
  0
LINE
  5
46AC
330
1F
100
AcDbEntity
  8
0
100
AcDbLine
 10
10.48779040993514
 20
7.450943118268972
 30
0.0
 11
11.01317290150308
 21
7.450943118268972
 31
0.0
  0
LINE
  5
46AD
330
1F
100
AcDbEntity
  8
0
100
AcDbLine
 10
10.48463188706195
 20
6.350943118268912
 30
0.0
 11
10.47734128572943
 21
6.350943118268912
 31
0.0
  0
LINE
  5
46AE
330
1F
100
AcDbEntity
  8
0
100
AcDbLine
 10
10.45605025965208
 20
7.450943118268972
 30
0.0
 11
10.47603797143043
 21
7.450943118268972
 31
0.0
  0
LINE
  5
46AF
330
1F
100
AcDbEntity
  8
0
100
AcDbLine
 10
10.48779040993466
 20
6.350943118268912
 30
0.0
 11
10.48463188706195
 21
6.350943118268912
 31
0.0
  0
LINE
  5
46B0
330
1F
100
AcDbEntity
  8
0
100
AcDbLine
 10
10.47603797143043
 20
7.450943118268972
 30
0.0
 11
10.48463188706242
 21
7.450943118268972
 31
0.0
  0
LINE
  5
46B1
330
1F
100
AcDbEntity
  8
0
100
AcDbLine
 10
10.48463188706242
 20
7.450943118268972
 30
0.0
 11
10.48779040993514
 21
7.450943118268972
 31
0.0
  0
LINE
  5
46B2
330
1F
100
AcDbEntity
  8
0
100
AcDbLine
 10
11.01317290150261
 20
6.350943118268916
 30
0.0
 11
10.48779040993466
 21
6.350943118268912
 31
0.0
  0
LINE
  5
46B3
330
1F
100
AcDbEntity
  8
0
100
AcDbLine
 10
9.836734320883273
 20
6.350943118268916
 30
0.0
 11
9.860602216130452
 21
6.350943118268916
 31
0.0
  0
LINE
  5
46B4
330
1F
100
AcDbEntity
  8
0
100
AcDbLine
 10
9.836734320883751
 20
7.450943118268972
 30
0.0
 11
9.860602216130933
 21
7.450943118268972
 31
0.0
  0
LINE
  5
46B5
330
1F
100
AcDbEntity
  8
0
100
AcDbLine
 10
11.0363295334719
 20
7.450943118268972
 30
0.0
 11
11.01317290150308
 21
7.450943118268972
 31
0.0
  0
LINE
  5
46B6
330
1F
100
AcDbEntity
  8
0
100
AcDbLine
 10
11.03632953347142
 20
6.350943118268916
 30
0.0
 11
11.01317290150261
 21
6.350943118268916
 31
0.0
  0
LINE
  5
46B7
330
1F
100
AcDbEntity
  8
0
100
AcDbLine
 10
10.45605025965208
 20
7.450943118268972
 30
0.0
 11
10.45605025965208
 21
7.350943118268972
 31
0.0
  0
LINE
  5
46B8
330
1F
100
AcDbEntity
  8
0
100
AcDbLine
 10
10.45605025965208
 20
7.350943118268972
 30
0.0
 11
11.0363295334719
 21
7.350943118268963
 31
0.0
  0
LINE
  5
46B9
330
1F
100
AcDbEntity
  8
0
100
AcDbLine
 10
11.0363295334719
 20
7.250943118268963
 30
0.0
 11
10.45605025965208
 21
7.250943118268963
 31
0.0
  0
LINE
  5
46BA
330
1F
100
AcDbEntity
  8
0
100
AcDbLine
 10
10.45605025965208
 20
7.250943118268963
 30
0.0
 11
10.45605025965208
 21
7.150943118268964
 31
0.0
  0
LINE
  5
46BB
330
1F
100
AcDbEntity
  8
0
100
AcDbLine
 10
10.45605025965208
 20
7.150943118268964
 30
0.0
 11
11.0363295334719
 21
7.150943118268961
 31
0.0
  0
ARC
  5
46BC
330
1F
100
AcDbEntity
  8
0
100
AcDbCircle
 10
11.03720436939333
 20
7.400943118268967
 30
0.0
 40
0.0500076527932462
100
AcDbArc
 50
268.9976141588702
 51
91.00238584113085
  0
ARC
  5
46BD
330
1F
100
AcDbEntity
  8
0
100
AcDbCircle
 10
11.03720436939337
 20
7.300943118268958
 30
0.0
 40
0.0500076527932462
100
AcDbArc
 50
268.9976141588702
 51
91.00238584113096
  0
ARC
  5
46BE
330
1F
100
AcDbEntity
  8
0
100
AcDbCircle
 10
11.03720436939337
 20
7.200943118268949
 30
0.0
 40
0.0500076527932462
100
AcDbArc
 50
268.9976141588702
 51
91.00238584113096
  0
LINE
  5
46BF
330
1F
100
AcDbEntity
  8
0
100
AcDbLine
 10
10.45605025965208
 20
7.050943118268961
 30
0.0
 11
11.0363295334719
 21
7.050943118268953
 31
0.0
  0
LINE
  5
46C0
330
1F
100
AcDbEntity
  8
0
100
AcDbLine
 10
11.0363295334719
 20
6.950943118268953
 30
0.0
 11
10.45605025965208
 21
6.950943118268953
 31
0.0
  0
LINE
  5
46C1
330
1F
100
AcDbEntity
  8
0
100
AcDbLine
 10
10.45605025965208
 20
6.850943118268953
 30
0.0
 11
11.0363295334719
 21
6.850943118268951
 31
0.0
  0
ARC
  5
46C2
330
1F
100
AcDbEntity
  8
0
100
AcDbCircle
 10
11.03720436939333
 20
7.100943118268957
 30
0.0
 40
0.0500076527932462
100
AcDbArc
 50
268.9976141588702
 51
91.00238584113096
  0
ARC
  5
46C3
330
1F
100
AcDbEntity
  8
0
100
AcDbCircle
 10
11.03720436939337
 20
7.000943118268947
 30
0.0
 40
0.0500076527932462
100
AcDbArc
 50
268.9976141588702
 51
91.00238584113096
  0
ARC
  5
46C4
330
1F
100
AcDbEntity
  8
0
100
AcDbCircle
 10
11.03720436939337
 20
6.900943118268939
 30
0.0
 40
0.0500076527932462
100
AcDbArc
 50
268.9976141588702
 51
91.00238584113096
  0
LINE
  5
46C5
330
1F
100
AcDbEntity
  8
0
100
AcDbLine
 10
10.45605025965211
 20
6.750943118268935
 30
0.0
 11
11.03632953347193
 21
6.750943118268926
 31
0.0
  0
LINE
  5
46C6
330
1F
100
AcDbEntity
  8
0
100
AcDbLine
 10
11.03632953347193
 20
6.650943118268926
 30
0.0
 11
10.45605025965211
 21
6.650943118268926
 31
0.0
  0
LINE
  5
46C7
330
1F
100
AcDbEntity
  8
0
100
AcDbLine
 10
10.45605025965211
 20
6.550943118268927
 30
0.0
 11
11.03632953347193
 21
6.550943118268924
 31
0.0
  0
ARC
  5
46C8
330
1F
100
AcDbEntity
  8
0
100
AcDbCircle
 10
11.03720436939337
 20
6.80094311826893
 30
0.0
 40
0.0500076527932462
100
AcDbArc
 50
268.9976141588702
 51
91.00238584113096
  0
ARC
  5
46C9
330
1F
100
AcDbEntity
  8
0
100
AcDbCircle
 10
11.0372043693934
 20
6.700943118268921
 30
0.0
 40
0.0500076527932462
100
AcDbArc
 50
268.9976141588702
 51
91.00238584113096
  0
ARC
  5
46CA
330
1F
100
AcDbEntity
  8
0
100
AcDbCircle
 10
11.0372043693934
 20
6.600943118268912
 30
0.0
 40
0.0500076527932462
100
AcDbArc
 50
268.9976141588702
 51
91.00238584113096
  0
LINE
  5
46CB
330
1F
100
AcDbEntity
  8
0
100
AcDbLine
 10
10.45605025965211
 20
6.450943118268924
 30
0.0
 11
11.03632953347193
 21
6.450943118268916
 31
0.0
  0
LINE
  5
46CC
330
1F
100
AcDbEntity
  8
0
100
AcDbLine
 10
11.03632953347193
 20
6.350943118268916
 30
0.0
 11
10.45605025965211
 21
6.350943118268916
 31
0.0
  0
ARC
  5
46CD
330
1F
100
AcDbEntity
  8
0
100
AcDbCircle
 10
11.03720436939337
 20
6.50094311826892
 30
0.0
 40
0.0500076527932462
100
AcDbArc
 50
268.9976141588702
 51
91.00238584113096
  0
ARC
  5
46CE
330
1F
100
AcDbEntity
  8
0
100
AcDbCircle
 10
11.0372043693934
 20
6.40094311826891
 30
0.0
 40
0.0500076527932462
100
AcDbArc
 50
268.9976141588702
 51
91.00238584113096
  0
LINE
  5
46CF
330
1F
100
AcDbEntity
  8
0
100
AcDbLine
 10
10.45605025965208
 20
7.450943118268972
 30
0.0
 11
10.45605025965211
 21
6.350943118268916
 31
0.0
  0
LINE
  5
46D0
330
1F
100
AcDbEntity
  8
0
100
AcDbLine
 10
10.43483705621648
 20
6.349356370798362
 30
0.0
 11
10.43483705621648
 21
7.450943118268972
 31
0.0
  0
LINE
  5
46D1
330
1F
100
AcDbEntity
  8
0
100
AcDbLine
 10
10.41701359470363
 20
6.450943118268906
 30
0.0
 11
9.836734320883817
 21
6.450943118268915
 31
0.0
  0
LINE
  5
46D2
330
1F
100
AcDbEntity
  8
0
100
AcDbLine
 10
9.836734320883817
 20
6.550943118268914
 30
0.0
 11
10.41701359470363
 21
6.550943118268914
 31
0.0
  0
LINE
  5
46D3
330
1F
100
AcDbEntity
  8
0
100
AcDbLine
 10
10.41701359470363
 20
6.650943118268914
 30
0.0
 11
9.836734320883817
 21
6.650943118268917
 31
0.0
  0
ARC
  5
46D4
330
1F
100
AcDbEntity
  8
0
100
AcDbCircle
 10
9.83585948496238
 20
6.40094311826891
 30
0.0
 40
0.0500076527932462
100
AcDbArc
 50
88.99761415887006
 51
271.0023858411306
  0
ARC
  5
46D5
330
1F
100
AcDbEntity
  8
0
100
AcDbCircle
 10
9.835859484962348
 20
6.50094311826892
 30
0.0
 40
0.0500076527932462
100
AcDbArc
 50
88.99761415887006
 51
271.0023858411306
  0
ARC
  5
46D6
330
1F
100
AcDbEntity
  8
0
100
AcDbCircle
 10
9.835859484962348
 20
6.600943118268928
 30
0.0
 40
0.0500076527932462
100
AcDbArc
 50
88.99761415887006
 51
271.0023858411306
  0
LINE
  5
46D7
330
1F
100
AcDbEntity
  8
0
100
AcDbLine
 10
10.41701359470363
 20
6.750943118268916
 30
0.0
 11
9.836734320883817
 21
6.750943118268925
 31
0.0
  0
LINE
  5
46D8
330
1F
100
AcDbEntity
  8
0
100
AcDbLine
 10
9.836734320883817
 20
6.850943118268925
 30
0.0
 11
10.41701359470363
 21
6.850943118268925
 31
0.0
  0
LINE
  5
46D9
330
1F
100
AcDbEntity
  8
0
100
AcDbLine
 10
10.41701359470363
 20
6.950943118268924
 30
0.0
 11
9.836734320883817
 21
6.950943118268927
 31
0.0
  0
ARC
  5
46DA
330
1F
100
AcDbEntity
  8
0
100
AcDbCircle
 10
9.835859484962378
 20
6.700943118268921
 30
0.0
 40
0.0500076527932462
100
AcDbArc
 50
88.99761415887006
 51
271.0023858411306
  0
ARC
  5
46DB
330
1F
100
AcDbEntity
  8
0
100
AcDbCircle
 10
9.835859484962348
 20
6.80094311826893
 30
0.0
 40
0.0500076527932462
100
AcDbArc
 50
88.99761415887006
 51
271.0023858411306
  0
ARC
  5
46DC
330
1F
100
AcDbEntity
  8
0
100
AcDbCircle
 10
9.835859484962346
 20
6.900943118268939
 30
0.0
 40
0.0500076527932462
100
AcDbArc
 50
88.99761415887006
 51
271.0023858411306
  0
LINE
  5
46DD
330
1F
100
AcDbEntity
  8
0
100
AcDbLine
 10
10.4170135947036
 20
7.050943118268943
 30
0.0
 11
9.836734320883783
 21
7.050943118268952
 31
0.0
  0
LINE
  5
46DE
330
1F
100
AcDbEntity
  8
0
100
AcDbLine
 10
9.836734320883783
 20
7.150943118268951
 30
0.0
 11
10.4170135947036
 21
7.150943118268951
 31
0.0
  0
LINE
  5
46DF
330
1F
100
AcDbEntity
  8
0
100
AcDbLine
 10
10.4170135947036
 20
7.250943118268951
 30
0.0
 11
9.836734320883783
 21
7.250943118268954
 31
0.0
  0
ARC
  5
46E0
330
1F
100
AcDbEntity
  8
0
100
AcDbCircle
 10
9.835859484962345
 20
7.000943118268947
 30
0.0
 40
0.0500076527932462
100
AcDbArc
 50
88.99761415887006
 51
271.0023858411306
  0
ARC
  5
46E1
330
1F
100
AcDbEntity
  8
0
100
AcDbCircle
 10
9.835859484962314
 20
7.100943118268957
 30
0.0
 40
0.0500076527932462
100
AcDbArc
 50
88.99761415887006
 51
271.0023858411306
  0
ARC
  5
46E2
330
1F
100
AcDbEntity
  8
0
100
AcDbCircle
 10
9.835859484962313
 20
7.200943118268965
 30
0.0
 40
0.0500076527932462
100
AcDbArc
 50
88.99761415887006
 51
271.0023858411306
  0
LINE
  5
46E3
330
1F
100
AcDbEntity
  8
0
100
AcDbLine
 10
10.4170135947036
 20
7.350943118268953
 30
0.0
 11
9.836734320883781
 21
7.350943118268962
 31
0.0
  0
ARC
  5
46E4
330
1F
100
AcDbEntity
  8
0
100
AcDbCircle
 10
9.835859484962345
 20
7.300943118268958
 30
0.0
 40
0.0500076527932462
100
AcDbArc
 50
88.99761415887006
 51
271.0023858411306
  0
ARC
  5
46E5
330
1F
100
AcDbEntity
  8
0
100
AcDbCircle
 10
9.835859484962313
 20
7.400943118268967
 30
0.0
 40
0.0500076527932462
100
AcDbArc
 50
88.99761415887006
 51
271.0023858411306
  0
LINE
  5
46E6
330
1F
100
AcDbEntity
  8
0
100
AcDbLine
 10
10.43027650212454
 20
7.55094311826898
 30
0.0
 11
9.860602216130924
 21
7.55094311826898
 31
0.0
  0
LINE
  5
46E7
330
1F
100
AcDbEntity
  8
0
100
AcDbLine
 10
10.48779040993514
 20
7.55094311826898
 30
0.0
 11
11.01317290150307
 21
7.55094311826898
 31
0.0
  0
LINE
  5
46E8
330
1F
100
AcDbEntity
  8
0
100
AcDbLine
 10
10.45605025965207
 20
7.55094311826898
 30
0.0
 11
10.47603797143042
 21
7.55094311826898
 31
0.0
  0
LINE
  5
46E9
330
1F
100
AcDbEntity
  8
0
100
AcDbLine
 10
9.836734320883742
 20
7.55094311826898
 30
0.0
 11
9.860602216130924
 21
7.55094311826898
 31
0.0
  0
LINE
  5
46EA
330
1F
100
AcDbEntity
  8
0
100
AcDbLine
 10
11.03632953347189
 20
7.55094311826898
 30
0.0
 11
11.01317290150307
 21
7.55094311826898
 31
0.0
  0
ARC
  5
46EB
330
1F
100
AcDbEntity
  8
0
100
AcDbCircle
 10
11.03720436939332
 20
7.500943118268976
 30
0.0
 40
0.0500076527932462
100
AcDbArc
 50
268.9976141588702
 51
91.00238584113085
  0
ARC
  5
46EC
330
1F
100
AcDbEntity
  8
0
100
AcDbCircle
 10
9.835859484962304
 20
7.500943118268976
 30
0.0
 40
0.0500076527932462
100
AcDbArc
 50
88.99761415887006
 51
271.0023858411306
  0
LINE
  5
46ED
330
1F
100
AcDbEntity
  8
0
100
AcDbLine
 10
10.43027650212454
 20
7.55094311826898
 30
0.0
 11
10.45605025965207
 21
7.55094311826898
 31
0.0
  0
LINE
  5
46EE
330
1F
100
AcDbEntity
  8
0
100
AcDbLine
 10
10.45605025965207
 20
7.55094311826898
 30
0.0
 11
10.45605025965208
 21
7.450943118268972
 31
0.0
  0
LINE
  5
46EF
330
1F
100
AcDbEntity
  8
0
100
AcDbLine
 10
10.43483705621648
 20
7.450943118268972
 30
0.0
 11
10.43483705621648
 21
7.55094311826898
 31
0.0
  0
LINE
  5
46F0
330
1F
100
AcDbEntity
  8
0
100
AcDbLine
 10
10.19789633225034
 20
6.249356370798364
 30
0.0
 11
10.67190541876821
 21
6.249356370798364
 31
0.0
  0
LINE
  5
46F1
330
1F
100
AcDbEntity
  8
0
100
AcDbLine
 10
9.860602216129908
 20
6.250943118268917
 30
0.0
 11
10.43027650212353
 21
6.250943118268917
 31
0.0
  0
LINE
  5
46F2
330
1F
100
AcDbEntity
  8
0
100
AcDbLine
 10
11.01317290150207
 20
6.250943118268917
 30
0.0
 11
10.48779040993412
 21
6.250943118268914
 31
0.0
  0
LINE
  5
46F3
330
1F
100
AcDbEntity
  8
0
100
AcDbLine
 10
9.83673432088273
 20
6.250943118268917
 30
0.0
 11
9.860602216129908
 21
6.250943118268917
 31
0.0
  0
LINE
  5
46F4
330
1F
100
AcDbEntity
  8
0
100
AcDbLine
 10
11.03632953347139
 20
6.250943118268917
 30
0.0
 11
10.45605025965157
 21
6.250943118268917
 31
0.0
  0
ARC
  5
46F5
330
1F
100
AcDbEntity
  8
0
100
AcDbCircle
 10
11.03720436939286
 20
6.300943118268912
 30
0.0
 40
0.0500076527932462
100
AcDbArc
 50
268.9976141588702
 51
91.00238584113096
  0
ARC
  5
46F6
330
1F
100
AcDbEntity
  8
0
100
AcDbCircle
 10
9.835859484961837
 20
6.300943118268912
 30
0.0
 40
0.0500076527932462
100
AcDbArc
 50
88.99761415887006
 51
271.0023858411306
  0
LINE
  5
46F7
330
1F
100
AcDbEntity
  8
0
100
AcDbLine
 10
10.43483705621648
 20
6.349356370798362
 30
0.0
 11
10.43483705621648
 21
6.250943118268916
 31
0.0
  0
LINE
  5
46F8
330
1F
100
AcDbEntity
  8
0
100
AcDbLine
 10
10.4560502596516
 20
6.350943118268916
 30
0.0
 11
10.45605025965157
 21
6.250943118268917
 31
0.0
  0
CIRCLE
  5
46F9
330
1F
100
AcDbEntity
  8
0
100
AcDbCircle
 10
10.56999250788666
 20
7.492681089079603
 30
0.0
 40
0.01089627287962
  0
CIRCLE
  5
46FA
330
1F
100
AcDbEntity
  8
0
100
AcDbCircle
 10
10.56999250788666
 20
7.394705373040451
 30
0.0
 40
0.01089627287962
  0
CIRCLE
  5
46FB
330
1F
100
AcDbEntity
  8
0
100
AcDbCircle
 10
10.56999250788666
 20
7.296729657001304
 30
0.0
 40
0.01089627287962
  0
CIRCLE
  5
46FC
330
1F
100
AcDbEntity
  8
0
100
AcDbCircle
 10
10.56999250788666
 20
7.196032415154707
 30
0.0
 40
0.01089627287962
  0
CIRCLE
  5
46FD
330
1F
100
AcDbEntity
  8
0
100
AcDbCircle
 10
10.56999250788666
 20
7.098056699115556
 30
0.0
 40
0.01089627287962
  0
CIRCLE
  5
46FE
330
1F
100
AcDbEntity
  8
0
100
AcDbCircle
 10
10.56999250788666
 20
7.000080983076404
 30
0.0
 40
0.01089627287962
  0
CIRCLE
  5
46FF
330
1F
100
AcDbEntity
  8
0
100
AcDbCircle
 10
10.56999250788666
 20
6.899383741229808
 30
0.0
 40
0.01089627287962
  0
CIRCLE
  5
4700
330
1F
100
AcDbEntity
  8
0
100
AcDbCircle
 10
10.56999250788666
 20
6.798686476898325
 30
0.0
 40
0.01089627287962
  0
CIRCLE
  5
4701
330
1F
100
AcDbEntity
  8
0
100
AcDbCircle
 10
10.56999250788666
 20
6.697989212566842
 30
0.0
 40
0.01089627287962
  0
CIRCLE
  5
4702
330
1F
100
AcDbEntity
  8
0
100
AcDbCircle
 10
10.56999250788666
 20
6.600013519012577
 30
0.0
 40
0.01089627287962
  0
CIRCLE
  5
4703
330
1F
100
AcDbEntity
  8
0
100
AcDbCircle
 10
10.57017098296509
 20
6.49998922736254
 30
0.0
 40
0.01089627287962
  0
CIRCLE
  5
4704
330
1F
100
AcDbEntity
  8
0
100
AcDbCircle
 10
10.56588495995324
 20
6.401502070073401
 30
0.0
 40
0.01089627287962
  0
CIRCLE
  5
4705
330
1F
100
AcDbEntity
  8
0
100
AcDbCircle
 10
10.56374197227577
 20
6.300873901801057
 30
0.0
 40
0.01089627287962
  0
CIRCLE
  5
4706
330
1F
100
AcDbEntity
  8
0
100
AcDbCircle
 10
10.93079810771315
 20
7.494491842035909
 30
0.0
 40
0.01089627287962
  0
CIRCLE
  5
4707
330
1F
100
AcDbEntity
  8
0
100
AcDbCircle
 10
10.93079810771315
 20
7.396516125996758
 30
0.0
 40
0.01089627287962
  0
CIRCLE
  5
4708
330
1F
100
AcDbEntity
  8
0
100
AcDbCircle
 10
10.93079810771315
 20
7.29854040995761
 30
0.0
 40
0.01089627287962
  0
CIRCLE
  5
4709
330
1F
100
AcDbEntity
  8
0
100
AcDbCircle
 10
10.93079810771315
 20
7.197843168111013
 30
0.0
 40
0.01089627287962
  0
CIRCLE
  5
470A
330
1F
100
AcDbEntity
  8
0
100
AcDbCircle
 10
10.93079810771315
 20
7.099867452071862
 30
0.0
 40
0.01089627287962
  0
CIRCLE
  5
470B
330
1F
100
AcDbEntity
  8
0
100
AcDbCircle
 10
10.93079810771315
 20
7.00189173603271
 30
0.0
 40
0.01089627287962
  0
CIRCLE
  5
470C
330
1F
100
AcDbEntity
  8
0
100
AcDbCircle
 10
10.93079810771315
 20
6.901194494186114
 30
0.0
 40
0.01089627287962
  0
CIRCLE
  5
470D
330
1F
100
AcDbEntity
  8
0
100
AcDbCircle
 10
10.93079810771315
 20
6.800497229854631
 30
0.0
 40
0.01089627287962
  0
CIRCLE
  5
470E
330
1F
100
AcDbEntity
  8
0
100
AcDbCircle
 10
10.93079810771315
 20
6.699799965523148
 30
0.0
 40
0.01089627287962
  0
CIRCLE
  5
470F
330
1F
100
AcDbEntity
  8
0
100
AcDbCircle
 10
10.93079810771315
 20
6.601824271968883
 30
0.0
 40
0.01089627287962
  0
CIRCLE
  5
4710
330
1F
100
AcDbEntity
  8
0
100
AcDbCircle
 10
10.93097658279158
 20
6.501799980318846
 30
0.0
 40
0.01089627287962
  0
CIRCLE
  5
4711
330
1F
100
AcDbEntity
  8
0
100
AcDbCircle
 10
10.92669055977973
 20
6.403312823029708
 30
0.0
 40
0.01089627287962
  0
CIRCLE
  5
4712
330
1F
100
AcDbEntity
  8
0
100
AcDbCircle
 10
10.92454757210226
 20
6.302684654757364
 30
0.0
 40
0.01089627287962
  0
CIRCLE
  5
4713
330
1F
100
AcDbEntity
  8
0
100
AcDbCircle
 10
10.32895817338904
 20
7.494885057747673
 30
0.0
 40
0.01089627287962
  0
CIRCLE
  5
4714
330
1F
100
AcDbEntity
  8
0
100
AcDbCircle
 10
10.32895817338904
 20
7.396909341708521
 30
0.0
 40
0.01089627287962
  0
CIRCLE
  5
4715
330
1F
100
AcDbEntity
  8
0
100
AcDbCircle
 10
10.32895817338904
 20
7.298933625669373
 30
0.0
 40
0.01089627287962
  0
CIRCLE
  5
4716
330
1F
100
AcDbEntity
  8
0
100
AcDbCircle
 10
10.32895817338904
 20
7.198236383822777
 30
0.0
 40
0.01089627287962
  0
CIRCLE
  5
4717
330
1F
100
AcDbEntity
  8
0
100
AcDbCircle
 10
10.32895817338904
 20
7.100260667783626
 30
0.0
 40
0.01089627287962
  0
CIRCLE
  5
4718
330
1F
100
AcDbEntity
  8
0
100
AcDbCircle
 10
10.32895817338904
 20
7.002284951744474
 30
0.0
 40
0.01089627287962
  0
CIRCLE
  5
4719
330
1F
100
AcDbEntity
  8
0
100
AcDbCircle
 10
10.32895817338904
 20
6.901587709897878
 30
0.0
 40
0.01089627287962
  0
CIRCLE
  5
471A
330
1F
100
AcDbEntity
  8
0
100
AcDbCircle
 10
10.32895817338904
 20
6.800890445566395
 30
0.0
 40
0.01089627287962
  0
CIRCLE
  5
471B
330
1F
100
AcDbEntity
  8
0
100
AcDbCircle
 10
10.32895817338904
 20
6.700193181234912
 30
0.0
 40
0.01089627287962
  0
CIRCLE
  5
471C
330
1F
100
AcDbEntity
  8
0
100
AcDbCircle
 10
10.32895817338904
 20
6.602217487680647
 30
0.0
 40
0.01089627287962
  0
CIRCLE
  5
471D
330
1F
100
AcDbEntity
  8
0
100
AcDbCircle
 10
10.32913664846747
 20
6.50219319603061
 30
0.0
 40
0.01089627287962
  0
CIRCLE
  5
471E
330
1F
100
AcDbEntity
  8
0
100
AcDbCircle
 10
10.32485062545562
 20
6.403706038741471
 30
0.0
 40
0.01089627287962
  0
CIRCLE
  5
471F
330
1F
100
AcDbEntity
  8
0
100
AcDbCircle
 10
10.32270763777815
 20
6.303077870469127
 30
0.0
 40
0.01089627287962
  0
CIRCLE
  5
4720
330
1F
100
AcDbEntity
  8
0
100
AcDbCircle
 10
9.955050596529289
 20
7.494885057747673
 30
0.0
 40
0.01089627287962
  0
CIRCLE
  5
4721
330
1F
100
AcDbEntity
  8
0
100
AcDbCircle
 10
9.955050596529289
 20
7.396909341708521
 30
0.0
 40
0.01089627287962
  0
CIRCLE
  5
4722
330
1F
100
AcDbEntity
  8
0
100
AcDbCircle
 10
9.955050596529289
 20
7.298933625669373
 30
0.0
 40
0.01089627287962
  0
CIRCLE
  5
4723
330
1F
100
AcDbEntity
  8
0
100
AcDbCircle
 10
9.955050596529289
 20
7.198236383822777
 30
0.0
 40
0.01089627287962
  0
CIRCLE
  5
4724
330
1F
100
AcDbEntity
  8
0
100
AcDbCircle
 10
9.955050596529289
 20
7.100260667783626
 30
0.0
 40
0.01089627287962
  0
CIRCLE
  5
4725
330
1F
100
AcDbEntity
  8
0
100
AcDbCircle
 10
9.955050596529289
 20
7.002284951744474
 30
0.0
 40
0.01089627287962
  0
CIRCLE
  5
4726
330
1F
100
AcDbEntity
  8
0
100
AcDbCircle
 10
9.955050596529289
 20
6.901587709897878
 30
0.0
 40
0.01089627287962
  0
CIRCLE
  5
4727
330
1F
100
AcDbEntity
  8
0
100
AcDbCircle
 10
9.955050596529289
 20
6.800890445566395
 30
0.0
 40
0.01089627287962
  0
CIRCLE
  5
4728
330
1F
100
AcDbEntity
  8
0
100
AcDbCircle
 10
9.955050596529289
 20
6.700193181234912
 30
0.0
 40
0.01089627287962
  0
CIRCLE
  5
4729
330
1F
100
AcDbEntity
  8
0
100
AcDbCircle
 10
9.955050596529289
 20
6.602217487680647
 30
0.0
 40
0.01089627287962
  0
CIRCLE
  5
472A
330
1F
100
AcDbEntity
  8
0
100
AcDbCircle
 10
9.955229071607725
 20
6.50219319603061
 30
0.0
 40
0.01089627287962
  0
CIRCLE
  5
472B
330
1F
100
AcDbEntity
  8
0
100
AcDbCircle
 10
9.950943048595874
 20
6.403706038741471
 30
0.0
 40
0.01089627287962
  0
CIRCLE
  5
472C
330
1F
100
AcDbEntity
  8
0
100
AcDbCircle
 10
9.948800060918401
 20
6.303077870469127
 30
0.0
 40
0.01089627287962
  0
LINE
  5
472D
330
1F
100
AcDbEntity
  8
0
100
AcDbLine
 10
10.47734128572993
 20
7.650943118268974
 30
0.0
 11
10.4560502596521
 21
7.650943118268978
 31
0.0
  0
LINE
  5
472E
330
1F
100
AcDbEntity
  8
0
100
AcDbLine
 10
9.860602216130953
 20
7.650943118268978
 30
0.0
 11
10.43027650212458
 21
7.650943118268978
 31
0.0
  0
LINE
  5
472F
330
1F
100
AcDbEntity
  8
0
100
AcDbLine
 10
10.43027650212458
 20
7.650943118268978
 30
0.0
 11
10.43483705621651
 21
7.650943118268978
 31
0.0
  0
LINE
  5
4730
330
1F
100
AcDbEntity
  8
0
100
AcDbLine
 10
10.48463188706245
 20
7.650943118268974
 30
0.0
 11
10.47734128572993
 21
7.650943118268974
 31
0.0
  0
LINE
  5
4731
330
1F
100
AcDbEntity
  8
0
100
AcDbLine
 10
10.48779040993517
 20
7.650943118268974
 30
0.0
 11
10.48463188706245
 21
7.650943118268974
 31
0.0
  0
LINE
  5
4732
330
1F
100
AcDbEntity
  8
0
100
AcDbLine
 10
11.01317290150311
 20
7.650943118268978
 30
0.0
 11
10.48779040993517
 21
7.650943118268974
 31
0.0
  0
LINE
  5
4733
330
1F
100
AcDbEntity
  8
0
100
AcDbLine
 10
9.836734320883774
 20
7.650943118268978
 30
0.0
 11
9.860602216130953
 21
7.650943118268978
 31
0.0
  0
LINE
  5
4734
330
1F
100
AcDbEntity
  8
0
100
AcDbLine
 10
11.03632953347193
 20
7.650943118268978
 30
0.0
 11
11.01317290150311
 21
7.650943118268978
 31
0.0
  0
LINE
  5
4735
330
1F
100
AcDbEntity
  8
0
100
AcDbLine
 10
11.03632953347289
 20
8.450943118269027
 30
0.0
 11
10.45605025965308
 21
8.450943118269027
 31
0.0
  0
LINE
  5
4736
330
1F
100
AcDbEntity
  8
0
100
AcDbLine
 10
10.45605025965308
 20
8.450943118269027
 30
0.0
 11
10.45605025965308
 21
8.350943118269027
 31
0.0
  0
LINE
  5
4737
330
1F
100
AcDbEntity
  8
0
100
AcDbLine
 10
10.45605025965308
 20
8.350943118269027
 30
0.0
 11
11.03632953347289
 21
8.350943118269025
 31
0.0
  0
ARC
  5
4738
330
1F
100
AcDbEntity
  8
0
100
AcDbCircle
 10
11.03720436939436
 20
8.400943118269012
 30
0.0
 40
0.0500076527932462
100
AcDbArc
 50
268.9976141588702
 51
91.00238584113096
  0
LINE
  5
4739
330
1F
100
AcDbEntity
  8
0
100
AcDbLine
 10
10.45605025965308
 20
8.250943118269024
 30
0.0
 11
11.03632953347289
 21
8.250943118269017
 31
0.0
  0
LINE
  5
473A
330
1F
100
AcDbEntity
  8
0
100
AcDbLine
 10
11.03632953347289
 20
8.150943118269015
 30
0.0
 11
10.45605025965308
 21
8.150943118269015
 31
0.0
  0
LINE
  5
473B
330
1F
100
AcDbEntity
  8
0
100
AcDbLine
 10
10.45605025965308
 20
8.050943118269017
 30
0.0
 11
11.03632953347289
 21
8.050943118269014
 31
0.0
  0
ARC
  5
473C
330
1F
100
AcDbEntity
  8
0
100
AcDbCircle
 10
11.03720436939433
 20
8.300943118269021
 30
0.0
 40
0.0500076527932462
100
AcDbArc
 50
268.9976141588702
 51
91.00238584113096
  0
ARC
  5
473D
330
1F
100
AcDbEntity
  8
0
100
AcDbCircle
 10
11.03720436939436
 20
8.200943118269011
 30
0.0
 40
0.0500076527932462
100
AcDbArc
 50
268.9976141588702
 51
91.00238584113096
  0
ARC
  5
473E
330
1F
100
AcDbEntity
  8
0
100
AcDbCircle
 10
11.03720436939436
 20
8.100943118269002
 30
0.0
 40
0.0500076527932462
100
AcDbArc
 50
268.9976141588702
 51
91.00238584113096
  0
LINE
  5
473F
330
1F
100
AcDbEntity
  8
0
100
AcDbLine
 10
10.45605025965311
 20
7.950943118268998
 30
0.0
 11
11.03632953347292
 21
7.950943118268989
 31
0.0
  0
LINE
  5
4740
330
1F
100
AcDbEntity
  8
0
100
AcDbLine
 10
11.03632953347243
 20
7.950943118268989
 30
0.0
 11
10.45605025965262
 21
7.950943118268989
 31
0.0
  0
LINE
  5
4741
330
1F
100
AcDbEntity
  8
0
100
AcDbLine
 10
10.45605025965262
 20
7.85094311826899
 30
0.0
 11
11.03632953347243
 21
7.850943118268988
 31
0.0
  0
ARC
  5
4742
330
1F
100
AcDbEntity
  8
0
100
AcDbCircle
 10
11.03720436939436
 20
8.000943118268994
 30
0.0
 40
0.0500076527932462
100
AcDbArc
 50
268.9976141588702
 51
91.00238584113096
  0
ARC
  5
4743
330
1F
100
AcDbEntity
  8
0
100
AcDbCircle
 10
11.03720436939439
 20
7.900943118268983
 30
0.0
 40
0.0500076527932462
100
AcDbArc
 50
268.9976141588702
 51
91.00238584113096
  0
ARC
  5
4744
330
1F
100
AcDbEntity
  8
0
100
AcDbCircle
 10
11.0372043693939
 20
7.900943118268974
 30
0.0
 40
0.0500076527932462
100
AcDbArc
 50
268.9976141588702
 51
91.00238584113096
  0
LINE
  5
4745
330
1F
100
AcDbEntity
  8
0
100
AcDbLine
 10
10.45605025965262
 20
7.750943118268986
 30
0.0
 11
11.03632953347243
 21
7.750943118268979
 31
0.0
  0
LINE
  5
4746
330
1F
100
AcDbEntity
  8
0
100
AcDbLine
 10
11.03632953347243
 20
7.650943118268978
 30
0.0
 11
10.45605025965262
 21
7.650943118268978
 31
0.0
  0
ARC
  5
4747
330
1F
100
AcDbEntity
  8
0
100
AcDbCircle
 10
11.03720436939387
 20
7.800943118268984
 30
0.0
 40
0.0500076527932462
100
AcDbArc
 50
268.9976141588702
 51
91.00238584113096
  0
ARC
  5
4748
330
1F
100
AcDbEntity
  8
0
100
AcDbCircle
 10
11.0372043693939
 20
7.700943118268973
 30
0.0
 40
0.0500076527932462
100
AcDbArc
 50
268.9976141588702
 51
91.00238584113096
  0
LINE
  5
4749
330
1F
100
AcDbEntity
  8
0
100
AcDbLine
 10
10.41701359470413
 20
7.750943118268969
 30
0.0
 11
9.836734320884318
 21
7.750943118268978
 31
0.0
  0
LINE
  5
474A
330
1F
100
AcDbEntity
  8
0
100
AcDbLine
 10
9.836734320884318
 20
7.850943118268977
 30
0.0
 11
10.41701359470413
 21
7.850943118268977
 31
0.0
  0
LINE
  5
474B
330
1F
100
AcDbEntity
  8
0
100
AcDbLine
 10
10.41701359470413
 20
7.950943118268977
 30
0.0
 11
9.836734320884318
 21
7.950943118268979
 31
0.0
  0
ARC
  5
474C
330
1F
100
AcDbEntity
  8
0
100
AcDbCircle
 10
9.835859484962881
 20
7.700943118268973
 30
0.0
 40
0.0500076527932462
100
AcDbArc
 50
88.99761415887006
 51
271.0023858411306
  0
ARC
  5
474D
330
1F
100
AcDbEntity
  8
0
100
AcDbCircle
 10
9.835859484962849
 20
7.800943118268984
 30
0.0
 40
0.0500076527932462
100
AcDbArc
 50
88.99761415887006
 51
271.0023858411306
  0
ARC
  5
474E
330
1F
100
AcDbEntity
  8
0
100
AcDbCircle
 10
9.835859484962849
 20
7.900943118268992
 30
0.0
 40
0.0500076527932462
100
AcDbArc
 50
88.99761415887006
 51
271.0023858411306
  0
LINE
  5
474F
330
1F
100
AcDbEntity
  8
0
100
AcDbLine
 10
10.41701359470462
 20
7.95094311826898
 30
0.0
 11
9.836734320884811
 21
7.950943118268988
 31
0.0
  0
LINE
  5
4750
330
1F
100
AcDbEntity
  8
0
100
AcDbLine
 10
9.836734320884811
 20
8.050943118268989
 30
0.0
 11
10.41701359470462
 21
8.050943118268989
 31
0.0
  0
LINE
  5
4751
330
1F
100
AcDbEntity
  8
0
100
AcDbLine
 10
10.41701359470462
 20
8.150943118268987
 30
0.0
 11
9.836734320884811
 21
8.15094311826899
 31
0.0
  0
ARC
  5
4752
330
1F
100
AcDbEntity
  8
0
100
AcDbCircle
 10
9.835859484963373
 20
7.900943118268983
 30
0.0
 40
0.0500076527932462
100
AcDbArc
 50
88.99761415887006
 51
271.0023858411306
  0
ARC
  5
4753
330
1F
100
AcDbEntity
  8
0
100
AcDbCircle
 10
9.835859484963343
 20
8.000943118268994
 30
0.0
 40
0.0500076527932462
100
AcDbArc
 50
88.99761415887006
 51
271.0023858411306
  0
ARC
  5
4754
330
1F
100
AcDbEntity
  8
0
100
AcDbCircle
 10
9.835859484963341
 20
8.100943118269002
 30
0.0
 40
0.0500076527932462
100
AcDbArc
 50
88.99761415887006
 51
271.0023858411306
  0
LINE
  5
4755
330
1F
100
AcDbEntity
  8
0
100
AcDbLine
 10
10.41701359470459
 20
8.250943118269006
 30
0.0
 11
9.836734320884778
 21
8.250943118269015
 31
0.0
  0
LINE
  5
4756
330
1F
100
AcDbEntity
  8
0
100
AcDbLine
 10
9.836734320884778
 20
8.350943118269015
 30
0.0
 11
10.41701359470459
 21
8.350943118269015
 31
0.0
  0
LINE
  5
4757
330
1F
100
AcDbEntity
  8
0
100
AcDbLine
 10
10.41701359470459
 20
8.450943118269014
 30
0.0
 11
9.836734320884778
 21
8.450943118269016
 31
0.0
  0
ARC
  5
4758
330
1F
100
AcDbEntity
  8
0
100
AcDbCircle
 10
9.835859484963339
 20
8.200943118269011
 30
0.0
 40
0.0500076527932462
100
AcDbArc
 50
88.99761415887006
 51
271.0023858411306
  0
ARC
  5
4759
330
1F
100
AcDbEntity
  8
0
100
AcDbCircle
 10
9.835859484963309
 20
8.300943118269021
 30
0.0
 40
0.0500076527932462
100
AcDbArc
 50
88.99761415887006
 51
271.0023858411306
  0
ARC
  5
475A
330
1F
100
AcDbEntity
  8
0
100
AcDbCircle
 10
9.835859484963307
 20
8.400943118269029
 30
0.0
 40
0.0500076527932462
100
AcDbArc
 50
88.99761415887006
 51
271.0023858411306
  0
LINE
  5
475B
330
1F
100
AcDbEntity
  8
0
100
AcDbLine
 10
9.860602216130409
 20
7.55094311826898
 30
0.0
 11
10.43027650212403
 21
7.55094311826898
 31
0.0
  0
LINE
  5
475C
330
1F
100
AcDbEntity
  8
0
100
AcDbLine
 10
11.01317290150257
 20
7.55094311826898
 30
0.0
 11
10.48779040993462
 21
7.550943118268977
 31
0.0
  0
LINE
  5
475D
330
1F
100
AcDbEntity
  8
0
100
AcDbLine
 10
9.83673432088323
 20
7.55094311826898
 30
0.0
 11
9.860602216130409
 21
7.55094311826898
 31
0.0
  0
ARC
  5
475E
330
1F
100
AcDbEntity
  8
0
100
AcDbCircle
 10
11.03720436939336
 20
7.600943118268974
 30
0.0
 40
0.0500076527932462
100
AcDbArc
 50
268.9976141588702
 51
91.00238584113096
  0
ARC
  5
475F
330
1F
100
AcDbEntity
  8
0
100
AcDbCircle
 10
9.835859484962337
 20
7.600943118268974
 30
0.0
 40
0.0500076527932462
100
AcDbArc
 50
88.99761415887006
 51
271.0023858411306
  0
LINE
  5
4760
330
1F
100
AcDbEntity
  8
0
100
AcDbLine
 10
10.43483705621699
 20
7.649356370798425
 30
0.0
 11
10.43483705621698
 21
7.55094311826898
 31
0.0
  0
LINE
  5
4761
330
1F
100
AcDbEntity
  8
0
100
AcDbLine
 10
10.4560502596521
 20
7.650943118268978
 30
0.0
 11
10.45605025965207
 21
7.55094311826898
 31
0.0
  0
CIRCLE
  5
4762
330
1F
100
AcDbEntity
  8
0
100
AcDbCircle
 10
10.56999250788765
 20
8.39603241515477
 30
0.0
 40
0.01089627287962
  0
CIRCLE
  5
4763
330
1F
100
AcDbEntity
  8
0
100
AcDbCircle
 10
10.56999250788765
 20
8.298056699115619
 30
0.0
 40
0.01089627287962
  0
CIRCLE
  5
4764
330
1F
100
AcDbEntity
  8
0
100
AcDbCircle
 10
10.56999250788765
 20
8.200080983076468
 30
0.0
 40
0.01089627287962
  0
CIRCLE
  5
4765
330
1F
100
AcDbEntity
  8
0
100
AcDbCircle
 10
10.56999250788765
 20
8.099383741229871
 30
0.0
 40
0.01089627287962
  0
CIRCLE
  5
4766
330
1F
100
AcDbEntity
  8
0
100
AcDbCircle
 10
10.56999250788765
 20
7.998686476898388
 30
0.0
 40
0.01089627287962
  0
CIRCLE
  5
4767
330
1F
100
AcDbEntity
  8
0
100
AcDbCircle
 10
10.56999250788765
 20
7.897989212566905
 30
0.0
 40
0.01089627287962
  0
CIRCLE
  5
4768
330
1F
100
AcDbEntity
  8
0
100
AcDbCircle
 10
10.56999250788716
 20
7.90001351901264
 30
0.0
 40
0.01089627287962
  0
CIRCLE
  5
4769
330
1F
100
AcDbEntity
  8
0
100
AcDbCircle
 10
10.57017098296559
 20
7.799989227362603
 30
0.0
 40
0.01089627287962
  0
CIRCLE
  5
476A
330
1F
100
AcDbEntity
  8
0
100
AcDbCircle
 10
10.56588495995374
 20
7.701502070073464
 30
0.0
 40
0.01089627287962
  0
CIRCLE
  5
476B
330
1F
100
AcDbEntity
  8
0
100
AcDbCircle
 10
10.56374197227627
 20
7.60087390180112
 30
0.0
 40
0.01089627287962
  0
CIRCLE
  5
476C
330
1F
100
AcDbEntity
  8
0
100
AcDbCircle
 10
10.93079810771414
 20
8.397843168111077
 30
0.0
 40
0.01089627287962
  0
CIRCLE
  5
476D
330
1F
100
AcDbEntity
  8
0
100
AcDbCircle
 10
10.93079810771414
 20
8.299867452071925
 30
0.0
 40
0.01089627287962
  0
CIRCLE
  5
476E
330
1F
100
AcDbEntity
  8
0
100
AcDbCircle
 10
10.93079810771414
 20
8.201891736032774
 30
0.0
 40
0.01089627287962
  0
CIRCLE
  5
476F
330
1F
100
AcDbEntity
  8
0
100
AcDbCircle
 10
10.93079810771414
 20
8.101194494186177
 30
0.0
 40
0.01089627287962
  0
CIRCLE
  5
4770
330
1F
100
AcDbEntity
  8
0
100
AcDbCircle
 10
10.93079810771414
 20
8.000497229854694
 30
0.0
 40
0.01089627287962
  0
CIRCLE
  5
4771
330
1F
100
AcDbEntity
  8
0
100
AcDbCircle
 10
10.93079810771414
 20
7.899799965523211
 30
0.0
 40
0.01089627287962
  0
CIRCLE
  5
4772
330
1F
100
AcDbEntity
  8
0
100
AcDbCircle
 10
10.93079810771365
 20
7.901824271968946
 30
0.0
 40
0.01089627287962
  0
CIRCLE
  5
4773
330
1F
100
AcDbEntity
  8
0
100
AcDbCircle
 10
10.93097658279209
 20
7.801799980318909
 30
0.0
 40
0.01089627287962
  0
CIRCLE
  5
4774
330
1F
100
AcDbEntity
  8
0
100
AcDbCircle
 10
10.92669055978023
 20
7.70331282302977
 30
0.0
 40
0.01089627287962
  0
CIRCLE
  5
4775
330
1F
100
AcDbEntity
  8
0
100
AcDbCircle
 10
10.92454757210276
 20
7.602684654757426
 30
0.0
 40
0.01089627287962
  0
CIRCLE
  5
4776
330
1F
100
AcDbEntity
  8
0
100
AcDbCircle
 10
10.32895817339003
 20
8.39823638382284
 30
0.0
 40
0.01089627287962
  0
CIRCLE
  5
4777
330
1F
100
AcDbEntity
  8
0
100
AcDbCircle
 10
10.32895817339003
 20
8.300260667783689
 30
0.0
 40
0.01089627287962
  0
CIRCLE
  5
4778
330
1F
100
AcDbEntity
  8
0
100
AcDbCircle
 10
10.32895817339003
 20
8.202284951744537
 30
0.0
 40
0.01089627287962
  0
CIRCLE
  5
4779
330
1F
100
AcDbEntity
  8
0
100
AcDbCircle
 10
10.32895817339003
 20
8.101587709897941
 30
0.0
 40
0.01089627287962
  0
CIRCLE
  5
477A
330
1F
100
AcDbEntity
  8
0
100
AcDbCircle
 10
10.32895817339003
 20
8.000890445566458
 30
0.0
 40
0.01089627287962
  0
CIRCLE
  5
477B
330
1F
100
AcDbEntity
  8
0
100
AcDbCircle
 10
10.32895817339003
 20
7.900193181234975
 30
0.0
 40
0.01089627287962
  0
CIRCLE
  5
477C
330
1F
100
AcDbEntity
  8
0
100
AcDbCircle
 10
10.32895817338954
 20
7.90221748768071
 30
0.0
 40
0.01089627287962
  0
CIRCLE
  5
477D
330
1F
100
AcDbEntity
  8
0
100
AcDbCircle
 10
10.32913664846797
 20
7.802193196030673
 30
0.0
 40
0.01089627287962
  0
CIRCLE
  5
477E
330
1F
100
AcDbEntity
  8
0
100
AcDbCircle
 10
10.32485062545612
 20
7.703706038741534
 30
0.0
 40
0.01089627287962
  0
CIRCLE
  5
477F
330
1F
100
AcDbEntity
  8
0
100
AcDbCircle
 10
10.32270763777865
 20
7.60307787046919
 30
0.0
 40
0.01089627287962
  0
CIRCLE
  5
4780
330
1F
100
AcDbEntity
  8
0
100
AcDbCircle
 10
9.955050596530284
 20
8.39823638382284
 30
0.0
 40
0.01089627287962
  0
CIRCLE
  5
4781
330
1F
100
AcDbEntity
  8
0
100
AcDbCircle
 10
9.955050596530284
 20
8.300260667783689
 30
0.0
 40
0.01089627287962
  0
CIRCLE
  5
4782
330
1F
100
AcDbEntity
  8
0
100
AcDbCircle
 10
9.955050596530284
 20
8.202284951744537
 30
0.0
 40
0.01089627287962
  0
CIRCLE
  5
4783
330
1F
100
AcDbEntity
  8
0
100
AcDbCircle
 10
9.955050596530284
 20
8.101587709897941
 30
0.0
 40
0.01089627287962
  0
CIRCLE
  5
4784
330
1F
100
AcDbEntity
  8
0
100
AcDbCircle
 10
9.955050596530284
 20
8.000890445566458
 30
0.0
 40
0.01089627287962
  0
CIRCLE
  5
4785
330
1F
100
AcDbEntity
  8
0
100
AcDbCircle
 10
9.955050596530284
 20
7.900193181234975
 30
0.0
 40
0.01089627287962
  0
CIRCLE
  5
4786
330
1F
100
AcDbEntity
  8
0
100
AcDbCircle
 10
9.95505059652979
 20
7.90221748768071
 30
0.0
 40
0.01089627287962
  0
CIRCLE
  5
4787
330
1F
100
AcDbEntity
  8
0
100
AcDbCircle
 10
9.955229071608226
 20
7.802193196030673
 30
0.0
 40
0.01089627287962
  0
CIRCLE
  5
4788
330
1F
100
AcDbEntity
  8
0
100
AcDbCircle
 10
9.950943048596375
 20
7.703706038741534
 30
0.0
 40
0.01089627287962
  0
CIRCLE
  5
4789
330
1F
100
AcDbEntity
  8
0
100
AcDbCircle
 10
9.948800060918902
 20
7.60307787046919
 30
0.0
 40
0.01089627287962
  0
LINE
  5
478A
330
1F
100
AcDbEntity
  8
0
100
AcDbLine
 10
10.48779040993462
 20
7.550943118268977
 30
0.0
 11
10.47603797143042
 21
7.55094311826898
 31
0.0
  0
LINE
  5
478B
330
1F
100
AcDbEntity
  8
0
100
AcDbLine
 10
10.45605025965311
 20
7.550943118268978
 30
0.0
 11
10.45605025965308
 21
8.450943118269027
 31
0.0
  0
LINE
  5
478C
330
1F
100
AcDbEntity
  8
0
100
AcDbLine
 10
10.43483705621748
 20
7.549356370798426
 30
0.0
 11
10.43483705621748
 21
8.450943118269012
 31
0.0
  0
LINE
  5
478D
330
1F
100
AcDbEntity
  8
0
100
AcDbLine
 10
10.43483705621748
 20
8.450943118269012
 30
0.0
 11
10.45605025965308
 21
8.450943118269027
 31
0.0
  0
LINE
  5
478E
330
1F
100
AcDbEntity
  8
0
100
AcDbLine
 10
10.45605025965308
 20
8.450943118269027
 30
0.0
 11
10.41701359470459
 21
8.450943118269014
 31
0.0
  0
LINE
  5
478F
330
1F
100
AcDbEntity
  8
0
100
AcDbLine
 10
10.41701359470459
 20
8.350943118269015
 30
0.0
 11
10.43483705621748
 21
8.350943118269015
 31
0.0
  0
LINE
  5
4790
330
1F
100
AcDbEntity
  8
0
100
AcDbLine
 10
10.41701359470459
 20
8.250943118269006
 30
0.0
 11
10.43483705621748
 21
8.250943118268999
 31
0.0
  0
LINE
  5
4791
330
1F
100
AcDbEntity
  8
0
100
AcDbLine
 10
10.41701359470462
 20
8.150943118268987
 30
0.0
 11
10.43483705621747
 21
8.150943118268985
 31
0.0
  0
LINE
  5
4792
330
1F
100
AcDbEntity
  8
0
100
AcDbLine
 10
10.41701359470413
 20
7.750943118268969
 30
0.0
 11
10.43483705621699
 21
7.75094311826897
 31
0.0
  0
LINE
  5
4793
330
1F
100
AcDbEntity
  8
0
100
AcDbLine
 10
10.41701359470413
 20
7.850943118268977
 30
0.0
 11
10.41701359470413
 21
7.850943118268977
 31
0.0
  0
LINE
  5
4794
330
1F
100
AcDbEntity
  8
0
100
AcDbLine
 10
10.41701359470462
 20
7.95094311826898
 30
0.0
 11
10.43483705621747
 21
7.950943118268979
 31
0.0
  0
LINE
  5
4795
330
1F
100
AcDbEntity
  8
0
100
AcDbLine
 10
10.41701359470462
 20
8.050943118268989
 30
0.0
 11
10.43483705621747
 21
8.050943118268987
 31
0.0
  0
LINE
  5
4796
330
1F
100
AcDbEntity
  8
0
100
AcDbLine
 10
10.41701359470413
 20
7.950943118268977
 30
0.0
 11
10.43483705621698
 21
7.950943118268975
 31
0.0
  0
LINE
  5
4797
330
1F
100
AcDbEntity
  8
0
100
AcDbLine
 10
10.41701359470413
 20
7.850943118268977
 30
0.0
 11
10.43483705621698
 21
7.850943118268975
 31
0.0
  0
DIMENSION
  5
4798
102
{ACAD_XDICTIONARY
360
47A3
102
}
102
{ACAD_REACTORS
330
47AB
102
}
330
1F
100
AcDbEntity
  8
WYMIAR
100
AcDbDimension
  2
*D4
 10
12.48174435163343
 20
10.19095006022148
 30
0.0
 11
10.43174435163343
 21
10.40095006022148
 31
0.0
 70
    32
 71
     5
 42
4.099999999999999
  3
AR SKALA 1-50
100
AcDbAlignedDimension
 13
8.381744351633429
 23
9.844319219092602
 33
0.0
 14
12.48174435163343
 24
9.844319219092636
 34
0.0
100
AcDbRotatedDimension
  0
DIMENSION
  5
47AC
102
{ACAD_XDICTIONARY
360
47B7
102
}
102
{ACAD_REACTORS
330
47BF
102
}
330
1F
100
AcDbEntity
  8
WYMIAR
100
AcDbDimension
  2
*D5
 10
7.921093721632722
 20
4.644319219092636
 30
0.0
 11
7.711093721632721
 21
7.244319219092619
 31
0.0
 70
    32
 71
     5
 42
5.199999999999965
  3
AR SKALA 1-50
100
AcDbAlignedDimension
 13
8.381744351633429
 23
9.844319219092602
 33
0.0
 14
8.381744351633429
 24
4.644319219092636
 34
0.0
 50
90.0
100
AcDbRotatedDimension
  0
VIEWPORT
  5
7CA
330
1B
100
AcDbEntity
 67
     1
  8
0
100
AcDbViewport
 10
243.901373445621
 20
123.0363382941305
 30
0.0
 40
680.1887038129457
 41
344.3296489414227
 68
     1
 69
     1
 12
243.901373445621
 22
123.0363382941305
 13
0.0
 23
0.0
 14
10.0
 24
10.0
 15
10.0
 25
10.0
 16
0.0
 26
0.0
 36
1.0
 17
0.0
 27
0.0
 37
0.0
 42
50.0
 43
0.0
 44
0.0
 45
344.3296489414227
 50
0.0
 51
0.0
 72
   100
 90
   819232
  1

281
     0
 71
     1
 74
     0
110
0.0
120
0.0
130
0.0
111
1.0
121
0.0
131
0.0
112
0.0
122
1.0
132
0.0
 79
     0
146
0.0
170
     0
  0
VIEWPORT
  5
99A
330
1B
100
AcDbEntity
 67
     1
  8
Defpoints
100
AcDbViewport
 10
151.5855934681565
 20
104.8621726199724
 30
0.0
 40
290.0480970456033
 41
203.1599664902751
 68
     2
 69
     2
 12
10.52628202427198
 22
7.055332186530126
 13
0.0
 23
0.0
 14
0.5
 24
0.5
 15
0.5
 25
0.5
 16
0.0
 26
0.0
 36
1.0
 17
0.0
 27
0.0
 37
-1000.0
 42
50.0
 43
4.148984367261674
 44
9.217858496371269
 45
10.15799927015914
 50
0.0
 51
0.0
 72
   100
 90
   819296
  1

281
     0
 71
     1
 74
     0
110
0.0
120
0.0
130
0.0
111
1.0
121
0.0
131
0.0
112
0.0
122
1.0
132
0.0
 79
     0
146
0.0
170
     0
  0
ENDSEC
  0
SECTION
  2
OBJECTS
  0
DICTIONARY
  5
C
330
0
100
AcDbDictionary
281
     1
  3
ACAD_COLOR
350
4B9
  3
ACAD_GROUP
350
D
  3
ACAD_LAYOUT
350
1A
  3
ACAD_MATERIAL
350
3B
  3
ACAD_MLEADERSTYLE
350
489
  3
ACAD_MLINESTYLE
350
17
  3
ACAD_PLOTSETTINGS
350
19
  3
ACAD_PLOTSTYLENAME
350
E
  3
ACAD_SCALELIST
350
3C94
  3
ACAD_TABLESTYLE
350
4BA
  3
ACAD_VISUALSTYLE
350
2A
  3
ACDB_RECOMPOSE_DATA
350
3CCD
  3
AcDbVariableDictionary
350
487
  0
DICTIONARY
  5
84C
330
8
100
AcDbDictionary
280
     1
281
     1
  0
DICTIONARY
  5
7D1
330
2
100
AcDbDictionary
280
     1
281
     1
  3
ACAD_LAYERFILTERS
360
47CB
  3
ACAD_LAYERSTATES
360
7D2
  3
ACLYDICTIONARY
360
47CA
  0
DICTIONARY
  5
3CC5
330
10
100
AcDbDictionary
280
     1
281
     1
  3
ADSK_XREC_LAYER_RECONCILED
360
3CC6
  0
DICTIONARY
  5
3CC7
330
87B
100
AcDbDictionary
280
     1
281
     1
  3
ADSK_XREC_LAYER_RECONCILED
360
3CC8
  0
DICTIONARY
  5
3CC9
330
87D
100
AcDbDictionary
280
     1
281
     1
  3
ADSK_XREC_LAYER_RECONCILED
360
3CCA
  0
DICTIONARY
  5
5F8
330
1F
100
AcDbDictionary
280
     1
281
     1
  3
ACAD_SORTENTS
360
5F9
  0
DICTIONARY
  5
3CDC
330
3CDA
100
AcDbDictionary
280
     1
281
     1
  3
ACAD_SORTENTS
360
3CDD
  0
DICTIONARY
  5
47A3
330
4798
100
AcDbDictionary
280
     1
281
     1
  3
ACAD_DIMASSOC
360
47AB
  0
DICTIONARY
  5
47B7
330
47AC
100
AcDbDictionary
280
     1
281
     1
  3
ACAD_DIMASSOC
360
47BF
  0
DICTIONARY
  5
4B9
102
{ACAD_REACTORS
330
C
102
}
330
C
100
AcDbDictionary
281
     1
  0
DICTIONARY
  5
D
102
{ACAD_REACTORS
330
C
102
}
330
C
100
AcDbDictionary
281
     1
  0
DICTIONARY
  5
1A
102
{ACAD_REACTORS
330
C
102
}
330
C
100
AcDbDictionary
281
     1
  3
Layout1
350
1E
  3
Model
350
22
  0
DICTIONARY
  5
3B
102
{ACAD_REACTORS
330
C
102
}
330
C
100
AcDbDictionary
281
     1
  3
ByBlock
350
3D
  3
ByLayer
350
3C
  3
Global
350
3E
  0
DICTIONARY
  5
489
102
{ACAD_REACTORS
330
C
102
}
330
C
100
AcDbDictionary
281
     1
  3
Standard
350
3CB6
  0
DICTIONARY
  5
17
102
{ACAD_REACTORS
330
C
102
}
330
C
100
AcDbDictionary
281
     1
  3
Standard
350
18
  0
DICTIONARY
  5
19
102
{ACAD_REACTORS
330
C
102
}
330
C
100
AcDbDictionary
281
     1
  0
ACDBDICTIONARYWDFLT
  5
E
102
{ACAD_REACTORS
330
C
102
}
330
C
100
AcDbDictionary
281
     1
  3
Normal
350
F
100
AcDbDictionaryWithDefault
340
F
  0
DICTIONARY
  5
3C94
102
{ACAD_REACTORS
330
C
102
}
330
C
100
AcDbDictionary
281
     1
  3
A0
350
3C95
  3
A1
350
3C96
  3
A2
350
3C97
  3
A3
350
3C98
  3
A4
350
3C99
  3
A5
350
3C9A
  3
A6
350
3C9B
  3
A7
350
3C9C
  3
A8
350
3C9D
  3
A9
350
3C9E
  3
B0
350
3C9F
  3
B1
350
3CA0
  3
B2
350
3CA1
  3
B3
350
3CA2
  3
B4
350
3CA3
  3
B5
350
3CA4
  3
B6
350
3CA5
  3
B7
350
3CA6
  3
B8
350
3CA7
  3
B9
350
3CA8
  3
C0
350
3CA9
  3
C1
350
3CAA
  3
C2
350
3CAB
  3
C3
350
3CAC
  3
C4
350
3CAD
  3
C5
350
3CAE
  3
C6
350
3CAF
  3
C7
350
3CB0
  3
C8
350
3CB1
  3
C9
350
3CB2
  3
D0
350
3CB3
  3
D1
350
3CB4
  3
D2
350
3CB5
  0
DICTIONARY
  5
4BA
102
{ACAD_REACTORS
330
C
102
}
330
C
100
AcDbDictionary
281
     1
  3
Standard
350
4BB
  0
DICTIONARY
  5
2A
102
{ACAD_REACTORS
330
C
102
}
330
C
100
AcDbDictionary
281
     1
  3
2dWireframe
350
2F
  3
3D Hidden
350
A47
  3
3dWireframe
350
A48
  3
Basic
350
32
  3
Brighten
350
36
  3
ColorChange
350
3A
  3
Conceptual
350
A4B
  3
Dim
350
35
  3
Facepattern
350
39
  3
Flat
350
2B
  3
FlatWithEdges
350
2C
  3
Gouraud
350
2D
  3
GouraudWithEdges
350
2E
  3
Linepattern
350
38
  3
Realistic
350
A4C
  3
Thicken
350
37
  0
XRECORD
  5
3CCD
102
{ACAD_REACTORS
330
C
102
}
330
C
100
AcDbXrecord
280
     1
 90
        1
330
4BB
  0
DICTIONARY
  5
487
102
{ACAD_REACTORS
330
C
102
}
330
C
100
AcDbDictionary
281
     1
  3
CANNOSCALE
350
3CD0
  3
CMLEADERSTYLE
350
3CCE
  3
CTABLESTYLE
350
5FE
  3
DIMASSOC
350
48A
  3
HIDETEXT
350
48B
  3
INDEXCTL
350
86B
  3
LIGHTINGUNITS
350
3CD1
  3
MSLTSCALE
350
3CCF
  3
SORTENTS
350
86A
  0
DICTIONARY
  5
47CB
102
{ACAD_REACTORS
330
7D1
102
}
330
7D1
100
AcDbDictionary
281
     1
  0
DICTIONARY
  5
7D2
102
{ACAD_REACTORS
330
7D1
102
}
330
7D1
100
AcDbDictionary
281
     1
  0
DICTIONARY
  5
47CA
102
{ACAD_REACTORS
330
7D1
102
}
330
7D1
100
AcDbDictionary
281
     1
1001
ACAD
1000
<All
  0
XRECORD
  5
3CC6
102
{ACAD_REACTORS
330
3CC5
102
}
330
3CC5
100
AcDbXrecord
280
     1
290
     1
  0
XRECORD
  5
3CC8
102
{ACAD_REACTORS
330
3CC7
102
}
330
3CC7
100
AcDbXrecord
280
     1
290
     1
  0
XRECORD
  5
3CCA
102
{ACAD_REACTORS
330
3CC9
102
}
330
3CC9
100
AcDbXrecord
280
     1
290
     1
  0
SORTENTSTABLE
  5
5F9
102
{ACAD_REACTORS
330
5F8
102
}
330
5F8
100
AcDbSortentsTable
330
1F
  0
SORTENTSTABLE
  5
3CDD
102
{ACAD_REACTORS
330
3CDC
102
}
330
3CDC
100
AcDbSortentsTable
330
3CDA
  0
DIMASSOC
  5
47AB
102
{ACAD_REACTORS
330
47A3
102
}
330
47A3
100
AcDbDimAssoc
330
4798
 90
        3
 70
     0
 71
     0
  1
AcDbOsnapPointRef
 72
    13
331
467D
 73
     2
 91
        0
 40
0.0
 10
0.0
 20
0.0
 30
2.000000000000000E+50
 75
     0
  1
AcDbOsnapPointRef
 72
    13
331
467C
 73
     2
 91
        0
 40
0.0
 10
0.0
 20
0.0
 30
2.000000000000000E+50
 75
     0
  0
DIMASSOC
  5
47BF
102
{ACAD_REACTORS
330
47B7
102
}
330
47B7
100
AcDbDimAssoc
330
47AC
 90
        3
 70
     0
 71
     0
  1
AcDbOsnapPointRef
 72
    13
331
467D
 73
     2
 91
        0
 40
0.0
 10
0.0
 20
0.0
 30
2.000000000000000E+50
 75
     0
  1
AcDbOsnapPointRef
 72
     1
331
467D
 73
     2
 91
        0
 40
1.0
 10
0.0
 20
0.0
 30
2.000000000000000E+50
 75
     0
  0
LAYOUT
  5
1E
102
{ACAD_XDICTIONARY
360
7D4
102
}
102
{ACAD_REACTORS
330
1A
102
}
330
1A
100
AcDbPlotSettings
  1

  2
Bullzip PDF Printer
  4
A4
  6

 40
3.174999952316284
 41
3.174999952316284
 42
3.175003051757812
 43
3.17498779296875
 44
209.8886566162109
 45
297.0530090332031
 46
0.0
 47
0.0
 48
6.561544945354853
 49
3.282189374834842
140
296.6096419909582
141
206.4421558651099
142
1.0
143
1.0
 70
   672
 72
     1
 73
     1
 74
     4
  7
monochrome.ctb
 75
    16
147
25.4
 76
     0
 77
     2
 78
   300
148
-6.561544945354853
149
-3.282189374834842
100
AcDbLayout
  1
Layout1
 70
     0
 71
     1
 10
3.386557152386103
 20
0.1071894225185588
 11
300.4395661855892
 21
209.9958460387295
 12
0.0
 22
0.0
 32
0.0
 14
6.561544945354853
 24
3.282189374834842
 34
0.0
 15
296.6096419909582
 25
206.4421558651099
 35
0.0
146
0.0
 13
0.0
 23
0.0
 33
0.0
 16
1.0
 26
0.0
 36
0.0
 17
0.0
 27
1.0
 37
0.0
 76
     0
330
1B
331
7CA
1001
ACAD_PSEXT
1000
Bullzip PDF Printer
1000
Bullzip PDF Printer
1000
BULLZIP
1000
Bullzip PDF Printer 7.2.0.1338
1070
     0
  0
LAYOUT
  5
22
102
{ACAD_REACTORS
330
1A
102
}
330
1A
100
AcDbPlotSettings
  1

  2
none_device
  4
Letter_(8.50_x_11.00_Inches)
  6

 40
6.349999904632568
 41
6.349999904632568
 42
6.350006103515625
 43
6.350006103515625
 44
215.8999938964844
 45
279.3999938964844
 46
0.0
 47
0.0
 48
0.0
 49
0.0
140
0.0
141
0.0
142
1.0
143
1.535044259872064
 70
 11952
 72
     0
 73
     1
 74
     0
  7

 75
     0
147
0.6514470143573212
 76
     0
 77
     2
 78
   300
148
-40.57132272924493
149
-85.49183782467927
100
AcDbLayout
  1
Model
 70
     1
 71
     0
 10
0.0
 20
0.0
 11
12.0
 21
9.0
 12
0.0
 22
0.0
 32
0.0
 14
1.000000000000000E+20
 24
1.000000000000000E+20
 34
1.000000000000000E+20
 15
-1.000000000000000E+20
 25
-1.000000000000000E+20
 35
-1.000000000000000E+20
146
0.0
 13
0.0
 23
0.0
 33
0.0
 16
1.0
 26
0.0
 36
0.0
 17
0.0
 27
1.0
 37
0.0
 76
     0
330
1F
331
29
1001
ACAD_PSEXT
1000
Brak
1000
Brak
1000
Nie można zastosować.
1000
Arkusz nie zostanie wydrukowany dopóki nie wybrano konfiguracji plotera.
1070
     0
  0
MATERIAL
  5
3D
102
{ACAD_XDICTIONARY
360
47E2
102
}
102
{ACAD_REACTORS
330
3B
102
}
330
3B
100
AcDbMaterial
  1
ByBlock
 73
     1
 78
     1
172
     1
176
     1
270
     1
274
     1
  0
MATERIAL
  5
3C
102
{ACAD_XDICTIONARY
360
47E0
102
}
102
{ACAD_REACTORS
330
3B
102
}
330
3B
100
AcDbMaterial
  1
ByLayer
 73
     1
 78
     1
172
     1
176
     1
270
     1
274
     1
  0
MATERIAL
  5
3E
102
{ACAD_XDICTIONARY
360
47E4
102
}
102
{ACAD_REACTORS
330
3B
102
}
330
3B
100
AcDbMaterial
  1
Global
 73
     1
 78
     1
172
     1
176
     1
270
     1
274
     1
  0
MLEADERSTYLE
  5
3CB6
102
{ACAD_REACTORS
330
489
102
}
330
489
100
AcDbMLeaderStyle
170
     2
171
     1
172
     0
 90
        2
 40
0.0
 41
0.0
173
     1
 91
-1056964608
340
14
 92
       -2
290
     1
 42
0.09
291
     1
 43
0.36
  3
Standard
 44
0.18
300

342
11
174
     1
178
     6
175
     1
176
     0
 93
-1056964608
 45
0.18
292
     0
297
     0
 46
0.18
 94
-1056964608
 47
1.0
 49
1.0
140
1.0
293
     1
141
0.0
294
     1
177
     0
142
1.0
295
     0
296
     0
143
0.125
1001
ACAD_MLEADERVER
1070
     2
  0
MLINESTYLE
  5
18
102
{ACAD_REACTORS
330
17
102
}
330
17
100
AcDbMlineStyle
  2
STANDARD
 70
     0
  3

 62
   256
 51
90.0
 52
90.0
 71
     2
 49
0.5
 62
   256
  6
BYLAYER
 49
-0.5
 62
   256
  6
BYLAYER
  0
ACDBPLACEHOLDER
  5
F
102
{ACAD_REACTORS
330
E
102
}
330
E
  0
SCALE
  5
3C95
102
{ACAD_REACTORS
330
3C94
102
}
330
3C94
100
AcDbScale
 70
     0
300
1:1
140
1.0
141
1.0
290
     1
  0
SCALE
  5
3C96
102
{ACAD_REACTORS
330
3C94
102
}
330
3C94
100
AcDbScale
 70
     0
300
1:2
140
1.0
141
2.0
290
     0
  0
SCALE
  5
3C97
102
{ACAD_REACTORS
330
3C94
102
}
330
3C94
100
AcDbScale
 70
     0
300
1:4
140
1.0
141
4.0
290
     0
  0
SCALE
  5
3C98
102
{ACAD_REACTORS
330
3C94
102
}
330
3C94
100
AcDbScale
 70
     0
300
1:5
140
1.0
141
5.0
290
     0
  0
SCALE
  5
3C99
102
{ACAD_REACTORS
330
3C94
102
}
330
3C94
100
AcDbScale
 70
     0
300
1:8
140
1.0
141
8.0
290
     0
  0
SCALE
  5
3C9A
102
{ACAD_REACTORS
330
3C94
102
}
330
3C94
100
AcDbScale
 70
     0
300
1:10
140
1.0
141
10.0
290
     0
  0
SCALE
  5
3C9B
102
{ACAD_REACTORS
330
3C94
102
}
330
3C94
100
AcDbScale
 70
     0
300
1:16
140
1.0
141
16.0
290
     0
  0
SCALE
  5
3C9C
102
{ACAD_REACTORS
330
3C94
102
}
330
3C94
100
AcDbScale
 70
     0
300
1:20
140
1.0
141
20.0
290
     0
  0
SCALE
  5
3C9D
102
{ACAD_REACTORS
330
3C94
102
}
330
3C94
100
AcDbScale
 70
     0
300
1:30
140
1.0
141
30.0
290
     0
  0
SCALE
  5
3C9E
102
{ACAD_REACTORS
330
3C94
102
}
330
3C94
100
AcDbScale
 70
     0
300
1:40
140
1.0
141
40.0
290
     0
  0
SCALE
  5
3C9F
102
{ACAD_REACTORS
330
3C94
102
}
330
3C94
100
AcDbScale
 70
     0
300
1:50
140
1.0
141
50.0
290
     0
  0
SCALE
  5
3CA0
102
{ACAD_REACTORS
330
3C94
102
}
330
3C94
100
AcDbScale
 70
     0
300
1:100
140
1.0
141
100.0
290
     0
  0
SCALE
  5
3CA1
102
{ACAD_REACTORS
330
3C94
102
}
330
3C94
100
AcDbScale
 70
     0
300
2:1
140
2.0
141
1.0
290
     0
  0
SCALE
  5
3CA2
102
{ACAD_REACTORS
330
3C94
102
}
330
3C94
100
AcDbScale
 70
     0
300
4:1
140
4.0
141
1.0
290
     0
  0
SCALE
  5
3CA3
102
{ACAD_REACTORS
330
3C94
102
}
330
3C94
100
AcDbScale
 70
     0
300
8:1
140
8.0
141
1.0
290
     0
  0
SCALE
  5
3CA4
102
{ACAD_REACTORS
330
3C94
102
}
330
3C94
100
AcDbScale
 70
     0
300
10:1
140
10.0
141
1.0
290
     0
  0
SCALE
  5
3CA5
102
{ACAD_REACTORS
330
3C94
102
}
330
3C94
100
AcDbScale
 70
     0
300
100:1
140
100.0
141
1.0
290
     0
  0
SCALE
  5
3CA6
102
{ACAD_REACTORS
330
3C94
102
}
330
3C94
100
AcDbScale
 70
     0
300
1/128" = 1'-0"
140
0.0078125
141
12.0
290
     0
  0
SCALE
  5
3CA7
102
{ACAD_REACTORS
330
3C94
102
}
330
3C94
100
AcDbScale
 70
     0
300
1/64" = 1'-0"
140
0.015625
141
12.0
290
     0
  0
SCALE
  5
3CA8
102
{ACAD_REACTORS
330
3C94
102
}
330
3C94
100
AcDbScale
 70
     0
300
1/32" = 1'-0"
140
0.03125
141
12.0
290
     0
  0
SCALE
  5
3CA9
102
{ACAD_REACTORS
330
3C94
102
}
330
3C94
100
AcDbScale
 70
     0
300
1/16" = 1'-0"
140
0.0625
141
12.0
290
     0
  0
SCALE
  5
3CAA
102
{ACAD_REACTORS
330
3C94
102
}
330
3C94
100
AcDbScale
 70
     0
300
3/32" = 1'-0"
140
0.09375
141
12.0
290
     0
  0
SCALE
  5
3CAB
102
{ACAD_REACTORS
330
3C94
102
}
330
3C94
100
AcDbScale
 70
     0
300
1/8" = 1'-0"
140
0.125
141
12.0
290
     0
  0
SCALE
  5
3CAC
102
{ACAD_REACTORS
330
3C94
102
}
330
3C94
100
AcDbScale
 70
     0
300
3/16" = 1'-0"
140
0.1875
141
12.0
290
     0
  0
SCALE
  5
3CAD
102
{ACAD_REACTORS
330
3C94
102
}
330
3C94
100
AcDbScale
 70
     0
300
1/4" = 1'-0"
140
0.25
141
12.0
290
     0
  0
SCALE
  5
3CAE
102
{ACAD_REACTORS
330
3C94
102
}
330
3C94
100
AcDbScale
 70
     0
300
3/8" = 1'-0"
140
0.375
141
12.0
290
     0
  0
SCALE
  5
3CAF
102
{ACAD_REACTORS
330
3C94
102
}
330
3C94
100
AcDbScale
 70
     0
300
1/2" = 1'-0"
140
0.5
141
12.0
290
     0
  0
SCALE
  5
3CB0
102
{ACAD_REACTORS
330
3C94
102
}
330
3C94
100
AcDbScale
 70
     0
300
3/4" = 1'-0"
140
0.75
141
12.0
290
     0
  0
SCALE
  5
3CB1
102
{ACAD_REACTORS
330
3C94
102
}
330
3C94
100
AcDbScale
 70
     0
300
1" = 1'-0"
140
1.0
141
12.0
290
     0
  0
SCALE
  5
3CB2
102
{ACAD_REACTORS
330
3C94
102
}
330
3C94
100
AcDbScale
 70
     0
300
1-1/2" = 1'-0"
140
1.5
141
12.0
290
     0
  0
SCALE
  5
3CB3
102
{ACAD_REACTORS
330
3C94
102
}
330
3C94
100
AcDbScale
 70
     0
300
3" = 1'-0"
140
3.0
141
12.0
290
     0
  0
SCALE
  5
3CB4
102
{ACAD_REACTORS
330
3C94
102
}
330
3C94
100
AcDbScale
 70
     0
300
6" = 1'-0"
140
6.0
141
12.0
290
     0
  0
SCALE
  5
3CB5
102
{ACAD_REACTORS
330
3C94
102
}
330
3C94
100
AcDbScale
 70
     0
300
1'-0" = 1'-0"
140
12.0
141
12.0
290
     0
  0
TABLESTYLE
  5
4BB
102
{ACAD_XDICTIONARY
360
3CCB
102
}
102
{ACAD_REACTORS
330
4BA
102
}
330
4BA
100
AcDbTableStyle
  3
Standard
 70
     0
 71
     0
 40
0.06
 41
0.06
280
     0
281
     0
  7
Standard
140
0.18
170
     2
 62
     0
 63
     7
283
     0
274
    -2
284
     1
 64
     0
275
    -2
285
     1
 65
     0
276
    -2
286
     1
 66
     0
277
    -2
287
     1
 67
     0
278
    -2
288
     1
 68
     0
279
    -2
289
     1
 69
     0
  7
Standard
140
0.25
170
     5
 62
     0
 63
     7
283
     0
274
    -2
284
     1
 64
     0
275
    -2
285
     1
 65
     0
276
    -2
286
     1
 66
     0
277
    -2
287
     1
 67
     0
278
    -2
288
     1
 68
     0
279
    -2
289
     1
 69
     0
  7
Standard
140
0.18
170
     5
 62
     0
 63
     7
283
     0
274
    -2
284
     1
 64
     0
275
    -2
285
     1
 65
     0
276
    -2
286
     1
 66
     0
277
    -2
287
     1
 67
     0
278
    -2
288
     1
 68
     0
279
    -2
289
     1
 69
     0
  0
VISUALSTYLE
  5
2F
102
{ACAD_XDICTIONARY
360
49A
102
}
102
{ACAD_REACTORS
330
2A
102
}
330
2A
100
AcDbVisualStyle
  2
2dWireframe
 70
     4
 71
     0
 72
     2
 73
     0
 90
        0
 40
-0.6
 41
-30.0
 62
     5
 63
     7
 74
     1
 91
        4
 64
     7
 65
   257
 75
     1
175
     1
 42
1.0
 92
        0
 66
   257
 43
1.0
 76
     1
 77
     6
 78
     2
 67
     7
 79
     5
170
     0
171
     0
290
     0
174
     0
 93
        1
 44
0.0
173
     0
291
     0
 45
0.0
1001
ACAD
1000
AcDbSavedByObjectVersion
1070
     0
  0
VISUALSTYLE
  5
A47
102
{ACAD_REACTORS
330
2A
102
}
330
2A
100
AcDbVisualStyle
  2
3D Hidden
 70
     6
 71
     1
 72
     2
 73
     2
 90
        0
 40
-0.6
 41
-30.0
 62
     5
 63
     7
 74
     2
 91
        2
 64
     7
 65
   257
 75
     2
175
     1
 42
40.0
 92
        0
 66
   257
 43
1.0
 76
     1
 77
     6
 78
     2
 67
     7
 79
     3
170
     0
171
     0
290
     0
174
     0
 93
        1
 44
0.0
173
     0
291
     0
 45
0.0
1001
ACAD
1000
AcDbSavedByObjectVersion
1070
     0
  0
VISUALSTYLE
  5
A48
102
{ACAD_XDICTIONARY
360
A49
102
}
102
{ACAD_REACTORS
330
2A
102
}
330
2A
100
AcDbVisualStyle
  2
3dWireframe
 70
     5
 71
     0
 72
     2
 73
     0
 90
        0
 40
-0.6
 41
-30.0
 62
     5
 63
     7
 74
     1
 91
        4
 64
     7
 65
   257
 75
     1
175
     1
 42
1.0
 92
        0
 66
   257
 43
1.0
 76
     1
 77
     6
 78
     2
 67
     7
 79
     5
170
     0
171
     0
290
     0
174
     0
 93
        1
 44
0.0
173
     0
291
     0
 45
0.0
1001
ACAD
1000
AcDbSavedByObjectVersion
1070
     0
  0
VISUALSTYLE
  5
32
102
{ACAD_XDICTIONARY
360
4A0
102
}
102
{ACAD_REACTORS
330
2A
102
}
330
2A
100
AcDbVisualStyle
  2
Basic
 70
     7
 71
     1
 72
     0
 73
     1
 90
        0
 40
-0.6
 41
-30.0
 62
     5
 63
     7
 74
     0
 91
        4
 64
     7
 65
   257
 75
     1
175
     1
 42
1.0
 92
        8
 66
     7
 43
1.0
 76
     1
 77
     6
 78
     2
 67
     7
 79
     5
170
     0
171
     0
290
     0
174
     0
 93
        1
 44
0.0
173
     0
291
     1
 45
0.0
1001
ACAD
1000
AcDbSavedByObjectVersion
1070
     0
  0
VISUALSTYLE
  5
36
102
{ACAD_XDICTIONARY
360
4A8
102
}
102
{ACAD_REACTORS
330
2A
102
}
330
2A
100
AcDbVisualStyle
  2
Brighten
 70
    12
 71
     2
 72
     2
 73
     0
 90
        0
 40
-0.6
 41
-30.0
 62
     5
 63
     7
 74
     1
 91
        4
 64
     7
 65
   257
 75
     1
175
     1
 42
1.0
 92
        8
 66
     7
 43
1.0
 76
     1
 77
     6
 78
     2
 67
     7
 79
     5
170
     0
171
     0
290
     0
174
     0
 93
        1
 44
50.0
173
     0
291
     1
 45
0.0
1001
ACAD
1000
AcDbSavedByObjectVersion
1070
     0
  0
VISUALSTYLE
  5
3A
102
{ACAD_XDICTIONARY
360
4B0
102
}
102
{ACAD_REACTORS
330
2A
102
}
330
2A
100
AcDbVisualStyle
  2
ColorChange
 70
    16
 71
     2
 72
     2
 73
     3
 90
        0
 40
-0.6
 41
-30.0
 62
     5
 63
     8
 74
     1
 91
        4
 64
     7
 65
   257
 75
     1
175
     1
 42
1.0
 92
        8
 66
     8
 43
1.0
 76
     1
 77
     6
 78
     2
 67
     7
 79
     5
170
     0
171
     0
290
     0
174
     0
 93
        1
 44
0.0
173
     0
291
     1
 45
0.0
1001
ACAD
1000
AcDbSavedByObjectVersion
1070
     0
  0
VISUALSTYLE
  5
A4B
102
{ACAD_REACTORS
330
2A
102
}
330
2A
100
AcDbVisualStyle
  2
Conceptual
 70
     9
 71
     3
 72
     2
 73
     0
 90
        0
 40
-0.6
 41
-30.0
 62
     5
 63
     7
 74
     2
 91
        2
 64
     7
 65
   257
 75
     1
175
     1
 42
40.0
 92
        8
 66
     7
 43
1.0
 76
     1
 77
     6
 78
     2
 67
     7
 79
     3
170
     0
171
     0
290
     0
174
     0
 93
        1
 44
0.0
173
     0
291
     0
 45
0.0
1001
ACAD
1000
AcDbSavedByObjectVersion
1070
     0
  0
VISUALSTYLE
  5
35
102
{ACAD_XDICTIONARY
360
4A6
102
}
102
{ACAD_REACTORS
330
2A
102
}
330
2A
100
AcDbVisualStyle
  2
Dim
 70
    11
 71
     2
 72
     2
 73
     0
 90
        0
 40
-0.6
 41
-30.0
 62
     5
 63
     7
 74
     1
 91
        4
 64
     7
 65
   257
 75
     1
175
     1
 42
1.0
 92
        8
 66
     7
 43
1.0
 76
     1
 77
     6
 78
     2
 67
     7
 79
     5
170
     0
171
     0
290
     0
174
     0
 93
        1
 44
-50.0
173
     0
291
     1
 45
0.0
1001
ACAD
1000
AcDbSavedByObjectVersion
1070
     0
  0
VISUALSTYLE
  5
39
102
{ACAD_XDICTIONARY
360
4AE
102
}
102
{ACAD_REACTORS
330
2A
102
}
330
2A
100
AcDbVisualStyle
  2
Facepattern
 70
    15
 71
     2
 72
     2
 73
     0
 90
        0
 40
-0.6
 41
-30.0
 62
     5
 63
     7
 74
     1
 91
        4
 64
     7
 65
   257
 75
     1
175
     1
 42
1.0
 92
        8
 66
     7
 43
1.0
 76
     1
 77
     6
 78
     2
 67
     7
 79
     5
170
     0
171
     0
290
     0
174
     0
 93
        1
 44
0.0
173
     0
291
     1
 45
0.0
1001
ACAD
1000
AcDbSavedByObjectVersion
1070
     0
  0
VISUALSTYLE
  5
2B
102
{ACAD_XDICTIONARY
360
492
102
}
102
{ACAD_REACTORS
330
2A
102
}
330
2A
100
AcDbVisualStyle
  2
Flat
 70
     0
 71
     2
 72
     1
 73
     1
 90
        2
 40
-0.6
 41
30.0
 62
     5
 63
     7
 74
     0
 91
        4
 64
     7
 65
   257
 75
     1
175
     1
 42
1.0
 92
        8
 66
     7
 43
1.0
 76
     1
 77
     6
 78
     2
 67
     7
 79
     5
170
     0
171
     0
290
     0
174
     0
 93
       13
 44
0.0
173
     0
291
     1
 45
0.0
1001
ACAD
1000
AcDbSavedByObjectVersion
1070
     0
  0
VISUALSTYLE
  5
2C
102
{ACAD_XDICTIONARY
360
494
102
}
102
{ACAD_REACTORS
330
2A
102
}
330
2A
100
AcDbVisualStyle
  2
FlatWithEdges
 70
     1
 71
     2
 72
     1
 73
     1
 90
        2
 40
-0.6
 41
30.0
 62
     5
 63
     7
 74
     1
 91
        4
 64
     7
 65
   257
 75
     1
175
     1
 42
1.0
 92
        0
 66
   257
 43
1.0
 76
     1
 77
     6
 78
     2
 67
     7
 79
     5
170
     0
171
     0
290
     0
174
     0
 93
       13
 44
0.0
173
     0
291
     1
 45
0.0
1001
ACAD
1000
AcDbSavedByObjectVersion
1070
     0
  0
VISUALSTYLE
  5
2D
102
{ACAD_XDICTIONARY
360
496
102
}
102
{ACAD_REACTORS
330
2A
102
}
330
2A
100
AcDbVisualStyle
  2
Gouraud
 70
     2
 71
     2
 72
     2
 73
     1
 90
        2
 40
-0.6
 41
30.0
 62
     5
 63
     7
 74
     0
 91
        4
 64
     7
 65
   257
 75
     1
175
     1
 42
1.0
 92
        0
 66
     7
 43
1.0
 76
     1
 77
     6
 78
     2
 67
     7
 79
     5
170
     0
171
     0
290
     0
174
     0
 93
       13
 44
0.0
173
     0
291
     1
 45
0.0
1001
ACAD
1000
AcDbSavedByObjectVersion
1070
     0
  0
VISUALSTYLE
  5
2E
102
{ACAD_XDICTIONARY
360
498
102
}
102
{ACAD_REACTORS
330
2A
102
}
330
2A
100
AcDbVisualStyle
  2
GouraudWithEdges
 70
     3
 71
     2
 72
     2
 73
     1
 90
        2
 40
-0.6
 41
30.0
 62
     5
 63
     7
 74
     1
 91
        4
 64
     7
 65
   257
 75
     1
175
     1
 42
1.0
 92
        0
 66
   257
 43
1.0
 76
     1
 77
     6
 78
     2
 67
     7
 79
     5
170
     0
171
     0
290
     0
174
     0
 93
       13
 44
0.0
173
     0
291
     1
 45
0.0
1001
ACAD
1000
AcDbSavedByObjectVersion
1070
     0
  0
VISUALSTYLE
  5
38
102
{ACAD_XDICTIONARY
360
4AC
102
}
102
{ACAD_REACTORS
330
2A
102
}
330
2A
100
AcDbVisualStyle
  2
Linepattern
 70
    14
 71
     2
 72
     2
 73
     0
 90
        0
 40
-0.6
 41
-30.0
 62
     5
 63
     7
 74
     1
 91
        4
 64
     7
 65
   257
 75
     7
175
     7
 42
1.0
 92
        8
 66
     7
 43
1.0
 76
     1
 77
     6
 78
     2
 67
     7
 79
     5
170
     0
171
     0
290
     0
174
     0
 93
        1
 44
0.0
173
     0
291
     1
 45
0.0
1001
ACAD
1000
AcDbSavedByObjectVersion
1070
     0
  0
VISUALSTYLE
  5
A4C
102
{ACAD_XDICTIONARY
360
A4D
102
}
102
{ACAD_REACTORS
330
2A
102
}
330
2A
100
AcDbVisualStyle
  2
Realistic
 70
     8
 71
     2
 72
     2
 73
     0
 90
        0
 40
-0.6
 41
-30.0
 62
     5
 63
     7
 74
     1
 91
        0
 64
     7
 65
   257
 75
     1
175
     1
 42
1.0
 92
        8
 66
     8
 43
1.0
 76
     1
 77
     6
 78
     2
 67
     7
 79
     5
170
     0
171
     0
290
     0
174
     0
 93
       13
 44
0.0
173
     0
291
     0
 45
0.0
1001
ACAD
1000
AcDbSavedByObjectVersion
1070
     0
  0
VISUALSTYLE
  5
37
102
{ACAD_XDICTIONARY
360
4AA
102
}
102
{ACAD_REACTORS
330
2A
102
}
330
2A
100
AcDbVisualStyle
  2
Thicken
 70
    13
 71
     2
 72
     2
 73
     0
 90
        0
 40
-0.6
 41
-30.0
 62
     5
 63
     7
 74
     1
 91
        4
 64
     7
 65
   257
 75
     1
175
     1
 42
1.0
 92
       12
 66
     7
 43
1.0
 76
     1
 77
     6
 78
     2
 67
     7
 79
     5
170
     0
171
     0
290
     0
174
     0
 93
        1
 44
0.0
173
     0
291
     1
 45
0.0
1001
ACAD
1000
AcDbSavedByObjectVersion
1070
     0
  0
DICTIONARYVAR
  5
3CD0
102
{ACAD_REACTORS
330
487
102
}
330
487
100
DictionaryVariables
280
     0
  1
1:1
  0
DICTIONARYVAR
  5
3CCE
102
{ACAD_REACTORS
330
487
102
}
330
487
100
DictionaryVariables
280
     0
  1
STANDARD
  0
DICTIONARYVAR
  5
5FE
102
{ACAD_REACTORS
330
487
102
}
330
487
100
DictionaryVariables
280
     0
  1
STANDARD
  0
DICTIONARYVAR
  5
48A
102
{ACAD_REACTORS
330
487
102
}
330
487
100
DictionaryVariables
280
     0
  1
2
  0
DICTIONARYVAR
  5
48B
102
{ACAD_REACTORS
330
487
102
}
330
487
100
DictionaryVariables
280
     0
  1
1
  0
DICTIONARYVAR
  5
86B
102
{ACAD_REACTORS
330
487
102
}
330
487
100
DictionaryVariables
280
     0
  1
0
  0
DICTIONARYVAR
  5
3CD1
102
{ACAD_REACTORS
330
487
102
}
330
487
100
DictionaryVariables
280
     0
  1
0
  0
DICTIONARYVAR
  5
3CCF
102
{ACAD_REACTORS
330
487
102
}
330
487
100
DictionaryVariables
280
     0
  1
0
  0
DICTIONARYVAR
  5
86A
102
{ACAD_REACTORS
330
487
102
}
330
487
100
DictionaryVariables
280
     0
  1
127
  0
DICTIONARY
  5
7D4
330
1E
100
AcDbDictionary
280
     1
281
     1
  3
ADSK_XREC_LAYOUTTHUMBNAIL
360
7D5
  0
DICTIONARY
  5
47E2
330
3D
100
AcDbDictionary
280
     1
281
     1
  3
ACAD_XREC_ROUNDTRIP
360
47E3
  0
DICTIONARY
  5
47E0
330
3C
100
AcDbDictionary
280
     1
281
     1
  3
ACAD_XREC_ROUNDTRIP
360
47E1
  0
DICTIONARY
  5
47E4
330
3E
100
AcDbDictionary
280
     1
281
     1
  3
ACAD_XREC_ROUNDTRIP
360
47E5
  0
DICTIONARY
  5
3CCB
330
4BB
100
AcDbDictionary
280
     1
281
     1
  3
ACAD_ROUNDTRIP_2008_TABLESTYLE_CELLSTYLEMAP
360
47DF
  3
ACAD_XREC_ROUNDTRIP
360
47E6
  0
DICTIONARY
  5
49A
330
2F
100
AcDbDictionary
280
     1
281
     1
  3
ACAD_XREC_ROUNDTRIP
360
49B
  0
DICTIONARY
  5
A49
330
A48
100
AcDbDictionary
280
     1
281
     1
  3
ACAD_XREC_ROUNDTRIP
360
A4A
  0
DICTIONARY
  5
4A0
330
32
100
AcDbDictionary
280
     1
281
     1
  3
ACAD_XREC_ROUNDTRIP
360
4A1
  0
DICTIONARY
  5
4A8
330
36
100
AcDbDictionary
280
     1
281
     1
  3
ACAD_XREC_ROUNDTRIP
360
4A9
  0
DICTIONARY
  5
4B0
330
3A
100
AcDbDictionary
280
     1
281
     1
  3
ACAD_XREC_ROUNDTRIP
360
4B1
  0
DICTIONARY
  5
4A6
330
35
100
AcDbDictionary
280
     1
281
     1
  3
ACAD_XREC_ROUNDTRIP
360
4A7
  0
DICTIONARY
  5
4AE
330
39
100
AcDbDictionary
280
     1
281
     1
  3
ACAD_XREC_ROUNDTRIP
360
4AF
  0
DICTIONARY
  5
492
330
2B
100
AcDbDictionary
280
     1
281
     1
  3
ACAD_XREC_ROUNDTRIP
360
493
  0
DICTIONARY
  5
494
330
2C
100
AcDbDictionary
280
     1
281
     1
  3
ACAD_XREC_ROUNDTRIP
360
495
  0
DICTIONARY
  5
496
330
2D
100
AcDbDictionary
280
     1
281
     1
  3
ACAD_XREC_ROUNDTRIP
360
497
  0
DICTIONARY
  5
498
330
2E
100
AcDbDictionary
280
     1
281
     1
  3
ACAD_XREC_ROUNDTRIP
360
499
  0
DICTIONARY
  5
4AC
330
38
100
AcDbDictionary
280
     1
281
     1
  3
ACAD_XREC_ROUNDTRIP
360
4AD
  0
DICTIONARY
  5
A4D
330
A4C
100
AcDbDictionary
280
     1
281
     1
  3
ACAD_XREC_ROUNDTRIP
360
A4E
  0
DICTIONARY
  5
4AA
330
37
100
AcDbDictionary
280
     1
281
     1
  3
ACAD_XREC_ROUNDTRIP
360
4AB
  0
XRECORD
  5
7D5
102
{ACAD_REACTORS
330
7D4
102
}
330
7D4
100
AcDbXrecord
280
     1
310
28000000B40000007F00000001000800000000004C59000000000000000000000001000000000000FFFFFF0000000000FFFFFF000000000000000000000000000000000000000000000000000000000000000000330000006600000099000000CC000000FF00000000330000333300006633000099330000CC330000FF3300
310
0000660000336600006666000099660000CC660000FF66000000990000339900006699000099990000CC990000FF99000000CC000033CC000066CC000099CC0000CCCC0000FFCC000000FF000033FF000066FF000099FF0000CCFF0000FFFF000000003300330033006600330099003300CC003300FF003300003333003333
310
33006633330099333300CC333300FF33330000663300336633006666330099663300CC663300FF66330000993300339933006699330099993300CC993300FF99330000CC330033CC330066CC330099CC3300CCCC3300FFCC330000FF330033FF330066FF330099FF3300CCFF3300FFFF330000006600330066006600660099
310
006600CC006600FF00660000336600333366006633660099336600CC336600FF33660000666600336666006666660099666600CC666600FF66660000996600339966006699660099996600CC996600FF99660000CC660033CC660066CC660099CC6600CCCC6600FFCC660000FF660033FF660066FF660099FF6600CCFF6600
310
FFFF660000009900330099006600990099009900CC009900FF00990000339900333399006633990099339900CC339900FF33990000669900336699006666990099669900CC669900FF66990000999900339999006699990099999900CC999900FF99990000CC990033CC990066CC990099CC9900CCCC9900FFCC990000FF99
310
0033FF990066FF990099FF9900CCFF9900FFFF99000000CC003300CC006600CC009900CC00CC00CC00FF00CC000033CC003333CC006633CC009933CC00CC33CC00FF33CC000066CC003366CC006666CC009966CC00CC66CC00FF66CC000099CC003399CC006699CC009999CC00CC99CC00FF99CC0000CCCC0033CCCC0066CC
310
CC0099CCCC00CCCCCC00FFCCCC0000FFCC0033FFCC0066FFCC0099FFCC00CCFFCC00FFFFCC000000FF003300FF006600FF009900FF00CC00FF00FF00FF000033FF003333FF006633FF009933FF00CC33FF00FF33FF000066FF003366FF006666FF009966FF00CC66FF00FF66FF000099FF003399FF006699FF009999FF00CC
310
99FF00FF99FF0000CCFF0033CCFF0066CCFF0099CCFF00CCCCFF00FFCCFF0000FFFF0033FFFF0066FFFF0099FFFF00CCFFFF00FFFFFF00000000000D0D0D001A1A1A00282828003535350043434300505050005D5D5D006B6B6B00787878008686860093939300A1A1A100AEAEAE00BBBBBB00C9C9C900D6D6D600E4E4E400
310
F1F1F100FFFFFF0000000000000000000000000000000000000000000000000000000000000000000000000000000000E2E2E2E2E2E2E2E2E2E2E2E2E2E2E2E2E2E2E2E2E2E2E2E2E2E2E2E2E2E2E2E2E2E2E2E2E2E2E2E2E2E2E2E2E2E2E2E2E2E2E2E2E2E2E2E2E2E2E2E2E2E2E2E2E2E2E2E2E2E2E2E2E2E2E2E2E2E2E2
310
E2E2E2E2E2E2E2E2E2E2E2E2E2E2E2E2E2E2E2E2E2E2E2E2E2E2E2E2E2E2E2E2E2E2E2E2E2E2E2E2E2E2E2E2E2E2E2E2E2E2E2E2E2E2E2E2E2E2E2E2E2E2E2E2E2E2E2E2E2E2E2E2E2E2E2E2E2E2E2E2E2E2E2E2E2E2E2E2E2E2E2E2E2E2E2E2E2E2E2E2E2E2F5F5F5F5F5F5F5F5F5F5F5F5F5F5F5F5F5F5F5F5F5F5F5F5F5
310
F5F5F5F5F5F5F5F5F5F5F5F5F5F5F5F5F5F5F5F5F5F5F5F5F5F5F5F5F5F5F5F5F5F5F5F5F5F5F5F5F5F5F5F5F5F5F5F5F5F5F5F5F5F5F5F5F5F5F5F5F5F5F5F5F5F5F5F5F5F5F5F5F5F5F5F5F5F5F5F5F5F5F5F5F5F5F5F5F5F5F5F5F5F5F5F5F5F5F5F5F5F5F5F5F5F5F5F5F5F5F5F5F5F5F5F5F5F5F5F5F5F5F5F5F5F5F5
310
F5F5F5F5F5F5F5F5F5F5F5F5F5F5F5F5F5F5F5F5F5F5F5F5F5F5E2E2F5E2E2E2E2E2E2E2E2E2E2E2E2E2E2E2E2E2E2E2E2E2E2E2E2E2E2E2E2E2E2E2E2E2E2E2E2E2E2E2E2E2E2E2E2E2E2E2E2E2E2E2E2E2E2E2E2E2E2E2E2E2E2E2E2E2E2E2E2E2E2E2E2E2E2E2E2E2E2E2E2E2E2E2E2E2E2E2E2E2E2E2E2E2E2E2E2E2E2
310
E2E2E2E2E2E2E2E2E2E2E2E2E2E2E2E2E2E2E2E2E2E2E2E2E2E2E2E2E2E2E2E2E2E2E2E2E2E2E2E2E2E2E2E2E2E2E2E2E2E2E2E2E2E2E2E2E2E2E2E2E2E2E2E2E2E2E2E2E2E2E2E2E2E2E2E2E2E2F5E2E2F5E2F5F5F5F5F5F5F5F5F5F5F5F5F5F5F5F5F5F5F5F5F5F5F5F5F5F5F5F5F5F5F5F5F5F5F5F5F5F5F5F5F5F5F5F5
310
F5F5F5F5F5F5F5F5F5F5F5F5F5F5F5F5F5F5F5F5F5F5F5F5F5F5F5F5F5F5F5F5F5F5F5F5F5F5F5F5F5F5F5F5F5F5F5F5F5F5F5F5F5F5F5F5F5F5F5F5F5F5F5F5F5F5F5F5F5F5F5F5F5F5F5F5F5F5F5F5F5F5F5F5F5F5F5F5F5F5F5F5F5F5F5F5F5F5F5F5F5F5F5F5F5F5F5F5F5F5F5F5F5F5F5F5F5F5F5F5F5F5F5F5F5F5F5
310
F5F5E2E2F5E2E2F5E2F5F5F5F5F5F5F5F5F5F5F5F5F5F5F5F5F5F5F5F5F5F5F5F5F5F5F5F5F5F5F5F5F5F5F5F5F5F5F5F5F5F5F5F5F5F5F5F5F5F5F5F5F5F5F5F5F5F5F5F5F5F5F5F5F5F5F5F5F5F5F5F5F5F5F5F5F5F5F5F5F5F5F5F5F5F5F5F5F5F5F5F5F5F5F5F5F5F5F5F5F5F5F5F5F5F5F5F5F5F5F5F5F5F5F5F5F5F5
310
F5F5F5F5F5F5F5F5F5F5F5F5F5F5F5F5F5F5F5F5F5F5F5F5F5F5F5F5F5F5F5F5F5F5F5F5F5F5F5F5F5F5F5F5F5F5F5F5F5F5F5F5F5F5F5E2E2F5E2E2F5E2F5F5F5F5F5F5F5F5F5F5F5F5F5F5F5F5F5F5F5F5F5F5F5F5F5F5F5F5F5F5F5F5F5F5F5F5F5F5F5F5F5F5F5F5F5F5F5F5F5F5F5F5F5F5F5F5F5F5F5F5F5F5F5F5F5
310
F5F5F5F5F5F5F5F5F5F5F5F5F5F5F5F5F5F5F5F5F5F5F5F5F5F5F5F5F5F5F5F5F5F5F5F5F5F5F5F5F5F5F5F5F5F5F5F5F5F5F5F5F5F5F5F5F5F5F5F5F5F5F5F5F5F5F5F5F5F5F5F5F5F5F5F5F5F5F5F5F5F5F5F5F5F5F5F5F5F5F5F5F5F5F5F5F5F5F5F5F5F5F5F5F5F5F5F5E2E2F5E2E2F5E2F5F5F5F5F5F5F5F5F5F5F5F5
310
F5F5F5F5F5F5F5F5F5F5F5F5F5F5F5F5F5F5F5F5F5F5F5F5F5F5F5F5F5F5F5F5F5F5F5F5F5F5F5F5F5F5F5F5F5F5F5F5F5F5F5F5F5F5F5F5F5F5F5F5F5F5F5F5F5F5F5F5F5F5F5F5F5F5F5F5F5F5F5F5F5F5F5F5F5F5F5F5F5F5F5F5F5F5F5F5F5F5F5F5F5F5F5F5F5F5F5F5F5F5F5F5F5F5F5F5F5F5F5F5F5F5F5F5F5F5F5
310
F5F5F5F5F5F5F5F5F5F5F5F5F5F5F5F5F5F5F5F5F5F5F5F5F5F5F5F5F5F5F5F5F5F5E2E2F5E2E2F5E2F5F5F5F5F5F5F5F5F5F5F5F5F5F5F5F5F5F5F5F5F5F5F5F5F5F5F5F5F5F5F5F5F5F5F5F5F5F5F5F5F5F5F5F5F5F5F5F5F5F5F5F5F5F5F5F5F5F5F5F5F5F5F5F5F5F5F5F5F5F5F5F5F5F5F5F5F5F5F5F5F5F5F5F5F5F5
310
F5F5F5F5F5F5F5F5F5F5F5F5F5F5F5F5F5F5F5F5F5F5F5F5F5F5F5F5F5F5F5F5F5F5F5F5F5F5F5F5F5F5F5F5F5F5F5F5F5F5F5F5F5F5F5F5F5F5F5F5F5F5F5F5F5F5F5F5F5F5F5F5F5F5F5F5F5F5F5F5F5F5F5F5F5F5F5E2E2F5E2E2F5E2F5F5F5F5F5F5F5F5F5F5F5F5F5F5F5F5F5F5F5F5F5F5F5F5F5F5F5F5F5F5F5F5F5
310
F5F5F5F5F5F5F5F5F5F5F5F5F5F5F5F5F5F5F5F5F5F5F5F5F5F5F5F5F5F5F5F5F5F5F5F5F5F5F5F5F5F5F5F5F5F5F5F5F5F5F5F5F5F5F5F5F5F5F5F5F5F5F5F5F5F5F5F5F5F5F5F5F5F5F5F5F5F5F5F5F5F5F5F5F5F5F5F5F5F5F5F5F5F5F5F5F5F5F5F5F5F5F5F5F5F5F5F5F5F5F5F5F5F5F5F5F5F5F5F5F5F5F5F5F5F5F5
310
F5F5F5F5F5F5F5F5F5F5F5F5F5E2E2F5E2E2F5E2F5F5F5F5F5F5F5F5F5F5F5F5F5F5F5F5F5F5F5F5F5F5F5F5F5F5F5F5F5F5F5F5F5F5F5F5F5F5F5F5F5F5F5F5F5F5F5F5F5F5F5F5F5F5F5F5F5F5F5F5F5F5F5F5F5F5F5F5F5F5F5F5F5F5F5F5F5F5F5F5F5F5F5F5F5F5F5F5F5F5F5F5F5F5F5F5F5F5F5F5F5F5F5F5F5F5F5
310
F5F5F5F5F5F5F5F5F5F5F5F5F5F5F5F5F5F5F5F5F5F5F5F5F5F5F5F5F5F5F5F5F5F5F5F5F5F5F5F5F5F5F5F5F5F5F5F5F5F5F5F5F5F5F5F5F5F5F5F5F5F5F5F5F5F5E2E2F5E2E2F5E2F5F5F5F5F5F5F5F5F5F5F5F5F5F5F5F5F5F5F5F5F5F5F5F5F5F5F5F5F5F5F5F5F5F5F5F5F5F5F5F5F5F5F5F5F5F5F5F5F5F5F5F5F5F5
310
F5F5F5F5F5F5F5F5F5F5F5F5F5F5F5F5F5F5F5F5F5F5F5F5F5F5F5F5F5F5F5F5F5F5F5F5F5F5F5F5F5F5F5F5F5F5F5F5F5F5F5F5F5F5F5F5F5F5F5F5F5F5F5F5F5F5F5F5F5F5F5F5F5F5F5F5F5F5F5F5F5F5F5F5F5F5F5F5F5F5F5F5F5F5F5F5F5F5F5F5F5F5F5F5F5F5F5F5F5F5F5F5F5F5F5F5F5F5F5E2F5F5E2E2F5E2F5
310
F5F5F5F5F5F5F5F5F5F5F5F5F5F5F5F5F5F5F5F5F5F5F5F5F5F5F5F5F5F5F5F5F5F5F5F5F5F5F5F5F5F5F5F5F5F5F5F5F5F5F5F5F5F5F5F5F5F5F5F5F5F5F5F5F5F5F5F5F5F5F5F5F5F5F5F5F5F5F5F5F5F5F5F5F5F5F5F5F5F5F5F5F5F5F5F5F5F5F5F5F5F5F5F5F5F5F5F5F5F5F5F5F5F5F5F5F5F5F5F5F5F5F5F5F5F5F5
310
F5F5F5F5F5F5F5F5F5F5F5F5F5F5F5F5F5F5F5F5F5F5F5F5F5F5F5F5F5F5F5F5F5F5F5F5F5F5F5F5F5F5F5F5F5E2F5F5E2E2F5E2F5F5F5F5F5F5F5F5F5F5F5F5F5F5F5F5F5F5F5F5F5F5F5F5F5F5F5F5F5F5F5F5F5F5F5F5F5F5F5F5F5F5F5F5F5F5F5F5F5F5F5F5F5F5F5F5F5F5F5F5F5F5F5F5F5F5F5F5F5F5F5F5F5F5F5
310
F5F5F5F5F5F5F5F5F5F5F5F5F5F5F5F5F5F5F5F5F5F5F5F5F5F5F5F5F5F5F5F5F5F5F5F5F5F5F5F5F5F5F5F5F5F5F5F5F5F5F5F5F5F5F5F5F5F5F5F5F5F5F5F5F5F5F5F5F5F5F5F5F5F5F5F5F5F5F5F5F5F5F5F5F5F5F5F5F5F5F5F5F5F5F5F5F5F5E2F5F5E2E2F5E2F5F5F5F5F5F5F5F5F5F5F5F5F5F5F5F5F5F5F5F5F5F5
310
F5F5F5F5F5F5F5F5F5F5F5F5F5F5F5F5F5F5F5F5F5F5F5F5F5F5F5F5F5F5F5F5F5F5F5F5F5F5F5F5F5F5F5F5F5F5F5F5F5F5F5F5F5F5F5F5F5F5F5F5F5F5F5F5F5F5F5F5F5F5F5F5F5F5F5F5F5F5F5F5F5F5F5F5F5F5F5F5F5F5F5F5F5F5F5F5F5F5F5F5F5F5F5F5F5F5F5F5F5F5F5F5F5F5F5F5F5F5F5F5F5F5F5F5F5F5F5
310
F5F5F5F5F5F5F5F5F5F5F5F5F5F5F5F5F5F5F5F5F5F5F5F5E2F5F5E2E2F5E2F5F5F5F5F5F5F5F5F5F5F5F5F5F5F5F5F5F5F5F5F5F5F5F5F5F5F5F5F5F5F5F5F5F5F5F5F5F5F5F5F5F5F5F5F5F5F5F5F5F5F5F5F5F5F5F5F5F5F5F5F5F5F5F5F5F5F5F5F5F5F5F5F5F5F5F5F5F5F5F5F5F5F5F5F5F5F5F5F5F5F5F5F5F5F5F5
310
F5F5F5F5F5F5F5F5F5F5F5F5F5F5F5F5F5F5F5F5F5F5F5F5F5F5F5F5F5F5F5F5F5F5F5F5F5F5F5F5F5F5F5F5F5F5F5F5F5F5F5F5F5F5F5F5F5F5F5F5F5F5F5F5F5F5F5F5F5F5F5F5F5F5F5F5F5E2F5F5E2E2F5E2F5F5F5F5F5F5F5F5F5F5F5F5F5F5F5F5F5F5F5F5F5F5F5F5F5F5F5F5F5F5F5F5F5F5F5F5F5F5F5F5F5F5F5
310
F5F5F5F5F5F5F5F5F5F5F5F5F5F5F5F5F5F5F5F5F5F5F5F5F5F5F5F5F5F5F5F5F5F5F5F5F5F5F5F5F5F5F5F5F5F5F5F5F5F5F5F5F5F5F5F5F5F5F5F5F5F5F5F5F5F5F5F5F5F5F5F5F5F5F5F5F5F5F5F5F5F5F5F5F5F5F5F5F5F5F5F5F5F5F5F5F5F5F5F5F5F5F5F5F5F5F5F5F5F5F5F5F5F5F5F5F5F5F5F5F5F5F5F5F5F5F5
310
F5F5F5E2F5F5E2E2F5E2F5F5F5F5F5F5F5F5F5F5F5F5F5F5F5F5F5F5F5F5F5F5F5F5F5F5F5F5F5F5F5F5F5F5F5F5F5F5F5F5F5F5F5F5F5F5F5F5F5F5F5F5F5F5F5F5F5F5F5F5F5F5F5F5F5F5F5F5F5F5F5F5F5F5F5F5F5F5F5F5F5F5F5F5F5F5F5F5F5F5F5F5F5F5F5F5F5F5F5F5F5F5F5F5F5F5F5F5F5F5F5F5F5F5F5F5F5
310
F5F5F5F5F5F5F5F5F5F5F5F5F5F5F5F5F5F5F5F5F5F5F5F5F5F5F5F5F5F5F5F5F5F5F5F5F5F5F5F5F5F5F5F5F5F5F5F5F5F5F5F5F5F5F5F5E2F5F5E2E2F5E2F5F5F5F5F5F5F5F5F5F5F5F5F5F5F5F5F5F5F5F5F5F5F5F5F5F5F5F5F5F5F5F5F5F5F5F5F5F5F5F5F5F5F5F5F5F5F5F5F5F5F5F5F5F5F5F5F5F5F5F5F5F5F5F5
310
F5F5F5F5F5F5F5F5F5F5F5F5F5F5F5F5F5F5F5F5F5F5F5F5F5F5F5F5F5F5F5F5F5F5F5F5F5F5F5F5F5F5F5F5F5F5F5F5F5F5F5F5F5F5F5F5F5F5F5F5F5F5F5F5F5F5F5F5F5F5F5F5F5F5F5F5F5F5F5F5F5F5F5F5F5F5F5F5F5F5F5F5F5F5F5F5F5F5F5F5F5F5F5F5F5F5F5F5F5E2F5F5E2E2F5E2F5F5F5F5F5F5F5F5F5F5F5
310
F5F5F5F5F5F5F5F5F5F5F5F5F5F5F5F5F5F5F5F5F5F5F5F5F5F5F5F5F5F5F5F5F5F5F5F5F5F5F5F5F5F5F5F5F5F5F5F5F5F5F5F5F5F5F5F5F5F5F5F5F5F5F5F5F5F5F5F5F5F5F5F5F5F5F5F5F5F5F5F5F5F5F5F5F5F5F5F5F5F5F5F5F5F5F5F5F5F5F5F5F5F5F5F5F5F5F5F5F5F5F5F5F5F5F5F5F5F5F5F5F5F5F5F5F5F5F5
310
F5F5F5F5F5F5F5F5F5F5F5F5F5F5F5F5F5F5F5F5F5F5F5F5F5F5F5F5F5F5F5F5F5F5F5E2F5F5E2E2F5E2F5F5F5F5F5F5F5F5F5F5F5F5F5F5F5F5F5F5F5F5F5F5F5F5F5F5F5F5F5F5F5F5F5F5F5F5F5F5F5F5F5F5F5F5F5F5F5F5F5F5F5F5F5F5F5F5F5F5F5F5F5F5F5F5F5F5F5F5F5F5F5F5F5F5F5F5F5F5F5F5F5F5F5F5F5
310
F5F5F5F5F5F5F5F5F5F5F5F5F5F5F5F5F5F5F5F5F5F5F5F5F5F5F5F5F5F5F5F5F5F5F5F5F5F5F5F5F5F5F5F5F5F5F5F5F5F5F5F5F5F5F5F5F5F5F5F5F5F5F5F5F5F5F5F5F5F5F5F5F5F5F5F5F5F5F5F5F5F5F5F5F5F5F5F5E2E2F5E2E2F5E2F5F5F5F5F5F5F5F5F5F5F5F5F5F5F5F5F5F5F5F5F5F5F5F5F5F5F5F5F5F5F5F5
310
F5F5F5F5F5F5F5F5F5F5F5F5F5F5F5F5F5F5F5F5F5F5F5F5F5F5F5F5F5F5F5F5F5F5F5F5F5F5F5F5F5F5F5F5F5F5F5F5F5F5F5F5F5F5F5F5F5F5F5F5F5F5F5F5F5F5F5F5F5F5F5F5F5F5F5F5F5F5F5F5F5F5F5F5F5F5F5F5F5F5F5F5F5F5F5F5F5F5F5F5F5F5F5F5F5F5F5F5F5F5F5F5F5F5F5F5F5F5F5F5F5F5F5F5F5F5F5
310
F5F5F5F5F5F5F5F5F5F5F5F5F5F5E2E2F5E2E2F5E2F5F5F5F5F5F5F5F5F5F5F5F5F5F5F5F5F5F5F5F5F5F5F5F5F5F5F5F5F5F5F5F5F5F5F5F5F5F5F5F5F5F5F5F5F5F5F5F5F5F5F5F5F5F5F5F5F5F5F5F5F5F5F5F5F5F5F5F5F5F5F5F5F5F5F5F5F5F5F5F5F5F5F5F5F5F5F5F5F5F5F5F5F5F5F5F5F5F5F5F5F5F5F5F5F5F5
310
F5F5F5F5F5F5F5F5F5F5F5F5F5F5F5F5F5F5F5F5F5F5F5F5F5F5F5F5F5F5F5F5F5F5F5F5F5F5F5F5F5F5F5F5F5F5F5F5F5F5F5F5F5F5F5F5F5F5F5F5F5F5F5F5F5F5F5E2E2F5E2E2F5E2F5F5F5F5F5F5F5F5F5F5F5F5F5F5F5F5F5F5F5F5F5F5F5F5F5F5F5F5F5F5F5F5F5F5F5F5F5F5F5F5F5F5F5F5F5F5F5F5F5F5F5F5F5
310
F5F5F5F5F5F5F5F5F5F5F5F5F5F5F5F5F5F5F5F5F5F5F5F5F5F5F5F5F5F5F5F5F5F5F5F5F5F5F5F5F5F5F5F5F5F5F5F5F5F5F5F5F5F5F5F5F5F5F5F5F5F5F5F5F5F5F5F5F5F5F5F5F5F5F5F5F5F5F5F5F5F5F5F5F5F5F5F5F5F5F5F5F5F5F5F5F5F5F5F5F5F5F5F5F5F5F5F5F5F5F5F5F5F5F5F5F5F5F5F5E2E2F5E2E2F5E2
310
F5F5F5F5F5F5F5F5F5F5F5F5F5F5F5F5F5F5F5F5F5F5F5F5F5F5F5F5F5F5F5F5F5F5F5F5F5F5F5F5F5F5F5F5F5F5F5F5F5F5F5F5F5F5F5F5F5F5F5F5F5F5F5F5F5F5F5F5F5F5F5F5F5F5F5F5F5F5F5F5F5F5F5F5F5F5F5F5F5F5F5F5F5F5F5F5F5F5F5F5F5F5F5F5F5F5F5F5F5F5F5F5F5F5F5F5F5F5F5F5F5F5F5F5F5F5F5
310
F5F5F5F5F5F5F5F5F5F5F5F5F5F5F5F5F5F5F5F5F5F5F5F5F5F5F5F5F5F5F5F5F5F5F5F5F5F5F5F5F5F5F5F5F5F5E2E2F5E2E2F5E2F5F5F5F5F5F5F5F5F5F5F5F5F5F5F5F5F5F5F5F5F5F5F5F5F5F5F5F5F5F5F5F5F5F5F5F5F5F5F5F5F5F5F5F5F5F5F5F5F5F5F5F5F5F5F5F5F5F5F5F5F5F5F5E2E2E2E2E2E2E2E2E2E2E2
310
E2E2E2E2E2E2E2E2E2E2E2E2E2E2E2E2E2E2E2E2E2E2E2E2E2E2E2E2E2E2E2E2E2E2F5F5F5F5F5F5F5F5F5F5F5F5F5F5F5F5F5F5F5F5F5F5F5F5F5F5F5F5F5F5F5F5F5F5F5F5F5F5F5F5F5F5F5F5F5F5F5F5F5F5F5F5F5F5F5F5F5F5F5F5F5F5F5F5F5E2E2F5E2E2F5E2F5F5F5F5F5F5F5F5F5F5F5F5F5F5F5F5F5F5F5F5F5
310
F5F5F5F5F5F5F5F5F5F5F5F5F5F5F5F5F5F5F5F5F5F5F5F5F5F5F5F5F5F5F5F5F5F5F5F5F5F5F5F5F5F5E2E2E2E2E2E2E2E2E2E2E2E2E2E2E2E2E2E2E2E2E2E2E2E2E2E2E2E2E2E2E2E2E2E2E2E2E2E2E2E2E2E2E2E2E2F5F5F5F5F5F5F5F5F5F5F5F5F5F5F5F5F5F5F5F5F5F5F5F5F5F5F5F5F5F5F5F5F5F5F5F5F5F5F5F5
310
F5F5F5F5F5F5F5F5F5F5F5F5F5F5F5F5F5F5F5F5F5F5F5F5F5E2E2F5E2E2F5E2F5F5F5F5F5F5F5F5F5F5F5F5F5F5F5F5F5F5F5F5F5F5F5F5F5F5F5F5F5F5F5F5F5F5F5F5F5F5F5F5F5F5F5F5F5F5F5F5F5F5F5F5F5F5F5F5F5F5F5F5F5F5F5E2E2E2E2E2E2E2E2E2E2E2E2E2E2E2E2E2E2E2E2E2E2E2E2E2E2E2E2E2E2E2E2
310
E2E2E2E2E2E2E2E2E2E2E2E2E2F5F5F5F5F5F5F5F5F5F5F5F5F5F5F5F5F5F5F5F5F5F5F5F5F5F5F5F5F5F5F5F5F5F5F5F5F5F5F5F5F5F5F5F5F5F5F5F5F5F5F5F5F5F5F5F5F5F5F5F5F5F5F5F5F5E2E2F5E2E2F5E2F5F5F5F5F5F5F5F5F5F5F5F5F5F5F5F5F5F5F5F5F5F5F5F5F5F5F5F5F5F5F5F5F5F5F5F5F5F5F5F5F5F5
310
F5F5F5F5F5F5F5F5F5F5F5F5F5F5F5F5F5F5F5F5F5E2E2E2E2E2E2E2E2E2E2E2E2E2E2E2E2E2E2E2E2E2E2E2E2E2E2E2E2E2E2E2E2E2E2E2E2E2E2E2E2E2E2E2E2E2F5F5F5F5F5F5F5F5F5F5F5F5F5F5F5F5F5F5F5F5F5F5F5F5F5F5F5F5F5F5F5F5F5F5F5F5F5F5F5F5F5F5F5F5F5F5F5F5F5F5F5F5F5F5F5F5F5F5F5F5F5
310
F5F5F5F5E2E2F5E2E2F5E2F5F5F5F5F5F5F5F5F5F5F5F5F5F5F5F5F5F5F5F5F5F5F5F5F5F5F5F5F5F5F5F5F5F5F5F5F5F5F5F5F5F5F5F5F5F5F5F5F5F5F5F5F5F5F5F5F5F5F5F5F5F5F5F5F5F5F5F5F5F5F5F5F5F5F5F5F5F5F5F5F5F5F5F5F5F5F5F5F5F5F5F5F5F5F5F5F5F5F5F5F5F5F5F5F5F5F5F5F5F5F5F5F5F5F5F5
310
F5F5F5F5F5F5F5F5F5F5F5F5F5F5F5F5F5F5F5F5F5F5F5F5F5F5F5F5F5F5F5F5F5F5F5F5F5F5F5F5F5F5F5F5F5F5F5F5F5F5F5F5F5F5F5F5F5E2E2F5E2E2F5E2F5F5F5F5F5F5F5F5F5F5F5F5F5F5F5F5F5F5F5F5F5F5F5F5F5F5F5F5F5F5F5F5F5F5F5F5F5F5F5F5F5F5F5F5F5F5F5F5F5F5F5F5F5F5F5F5F5F5F5F5F5F5F5
310
F5F5F5F5F5F5F5F5F5F5F5F5F5F5F5F5F5F5F5F5F5F5F5F5F5F5F5F5F5F5F5F5F5F5F5F5F5F5F5F5F5F5F5F5F5F5F5F5F5F5F5F5F5F5F5F5F5F5F5F5F5F5F5F5F5F5F5F5F5F5F5F5F5F5F5F5F5F5F5F5F5F5F5F5F5F5F5F5F5F5F5F5F5F5F5F5F5F5F5F5F5F5F5F5F5F5F5F5F5F5E2E2F5E2E2F5E2F5F5F5F5F5F5F5F5F5F5
310
F5F5F5F5F5F5F5F5F5F5F5F5F5F5F5F5F5F5F5F5F5F5F5F5F5F5F5F5F5F5F5F5F5F5F5F5F5F5F5F5F5F5F5F5F5F5F5E2BEF5F5F5F5F5F5F5F5F5F5F5F5F5F5F5F5F5F5F5F5F5F5F5F5F5F5F5F5F5F5F5F5F5F5F5F5F5F5F5F5F5F5F5F5F5F5F5F5F5F5F5F5F5F5F5F5F5F5F5F5F5F5F5F5F5F5F5F5F5F5F5F5F5F5F5F5F5F5
310
F5F5F5F5F5F5F5F5F5F5F5F5F5F5F5F5F5F5F5F5F5F5F5F5F5F5F5F5F5F5F5F5F5F5F5F5E2E2F5E2E2F5E2F5F5F5F5F5F5F5F5F5F5F5F5F5F5F5F5F5F5F5F5F5F5F5F5F5F5F5F5F5F5F5F5F5F5F5F5F5F5F5F5F5F5F5F5F5F5F5F5F5F5F5F5F5F5F5E2BEE2E2F5F5F5F5E2E2E2E2F5E2E2E2E2E2E2E2E2F5E2E2E2E2E2E2E2
310
E2F5E2E2E2E2E2E2E2E2F5E2E2E2E2E2E2E2E2F5E2E2E2E2E2E2E2E2F5F5F5F5F5F5F5F5F5F5F5F5F5F5F5F5F5F5F5F5F5F5F5F5F5F5F5F5F5F5F5F5F5F5F5F5F5F5F5F5F5F5F5F5F5F5F5F5F5F5F5F5F5F5F5F5F5F5F5F5F5E2E2F5E2E2F5E2F5F5F5F5F5F5F5F5F5F5F5F5F5F5F5F5F5F5F5F5F5F5F5F5F5F5F5F5F5F5F5
310
F5F5F5F5F5F5F5F5F5F5F5F5F5F5F5F5F5F5F5F5F5F5F5F5BEF5E2F5F5F5F5F5E2F5F5F5F5F5F5F5F5F5F5F5F5F5F5F5F5F5F5F5F5F5F5F5F5F5F5F5F5F5F5F5F5F5F5F5F5F5F5F5F5F5F5F5F5F5F5F5E2F5F5F5F5F5F5F5F5F5F5F5F5F5F5F5F5F5F5F5F5F5F5F5F5F5F5F5F5F5F5F5F5F5F5F5F5F5F5F5F5F5F5F5F5F5F5
310
F5F5F5F5F5F5F5F5F5F5F5F5F5F5F5E2E2F5E2E2F5E2F5F5F5F5F5F5F5F5F5F5F5F5F5F5F5F5F5F5F5F5F5F5F5F5F5F5F5F5F5F5F5F5F5F5F5F5F5F5F5F5F5F5F5F5F5F5F5F5F5F5F5F5F5F5F5F5F5E2F5F5F5F5F5E2F5F5F5F5F5F5F5F5F5F5F5F5F5F5F5F5F5F5F5F5F5F5F5F5F5F5F5F5F5F5F5F5F5F5F5F5F5F5F5F5F5
310
F5F5F5F5F5F5E2F5F5F5F5F5F5F5F5F5F5F5F5F5F5F5F5F5F5F5F5F5F5F5F5F5F5F5F5F5F5F5F5F5F5F5F5F5F5F5F5F5F5F5F5F5F5F5F5F5F5F5F5F5F5F5F5F5F5F5F5F5E2E2F5E2E2F5E2F5F5F5F5F5F5F5F5F5F5F5F5F5F5F5F5F5F5F5F5F5F5F5F5F5F5F5F5F5F5F5F5F5F5F5F5F5F5F5F5F5F5F5F5F5F5F5F5F5F5F5F5
310
F5F5F5F5F5E2F5F5F5F5F5F5F5F5F5F5F5F5F5F5F5F5F5F5F5F5F5F5F5F5F5F5F5F5F5F5F5F5F5F5F5F5F5F5F5F5F5F5F5F5F5F5F5F5F5F5F5F5F5F5F5F5F5F5F5F5F5F5F5F5F5F5F5F5F5F5F5F5F5F5F5F5F5F5F5F5F5F5F5F5F5F5F5F5F5F5F5F5F5F5F5F5F5F5F5F5F5F5F5F5F5F5F5F5F5F5F5F5F5F5F5E2E2F5E2E2F5
310
E2F5F5F5F5F5F5F5F5F5F5F5F5F5F5F5F5F5F5F5F5F5F5F5F5F5F5F5F5F5F5F5F5F5F5F5F5F5F5F5F5F5F5F5F5F5F5F5F5F5F5F5F5F5F5F5F5F5E2F5F5F5F5F5E2F5F5F5F5F5F5F5F5F5F5F5F5F5F5F5F5F5F5F5F5F5F5F5F5F5F5F5F5F5F5F5F5F5F5F5F5F5F5F5F5F5F5F5F5F5F5F5E2F5F5F5F5F5F5F5F5F5F5F5F5F5F5
310
F5F5F5F5F5F5F5F5F5F5F5F5F5F5F5F5F5F5F5F5F5F5F5F5F5F5F5F5F5F5F5F5F5F5F5F5F5F5F5F5F5F5F5F5F5F5F5E2F5F5E2E2F5E2F5F5F5F5F5F5F5F5F5F5F5F5F5F5F5F5F5F5F5F5F5F5F5F5F5F5F5F5F5F5F5F5F5F5F5F5F5F5F5F5F5F5F5F5F5F5F5F5F5F5F5F5F5F5F5F5F5E2F5F5F5F5F5E2F5F5F5F5F5F5F5F5F5
310
F5F5F5F5F5F5F5F5F5F5F5F5F5F5F5F5F5F5F5F5F5F5F5F5F5F5F5F5F5F5F5F5F5F5F5F5F5F5E2F5F5F5F5F5F5F5F5F5F5F5F5F5F5F5F5F5F5F5F5F5F5F5F5F5F5F5F5F5F5F5F5F5F5F5F5F5F5F5F5F5F5F5F5F5F5F5F5F5F5F5F5F5F5F5F5F5F5F5F5F5E2F5F5E2E2F5E2F5F5F5F5F5F5F5F5F5F5F5F5F5F5F5F5F5F5F5F5
310
F5F5F5F5F5F5F5F5F5F5F5F5F5F5F5F5F5F5F5F5F5F5F5F5F5F5F5F5F5F5F5F5F5F5F5F5F5E2F5F5F5F5F5E2F5F5F5F5F5F5F5F5F5F5F5F5F5F5F5F5F5F5F5F5F5F5F5F5F5F5F5F5F5F5F5F5F5F5F5F5F5F5F5F5F5F5F5F5F5F5F5E2F5F5F5F5F5F5F5F5F5F5F5F5F5F5F5F5F5F5F5F5F5F5F5F5F5F5F5F5F5F5F5F5F5F5F5
310
F5F5F5F5F5F5F5F5F5F5F5F5F5F5F5F5F5F5F5F5F5F5F5F5F5F5E2F5F5E2E2F5E2F5F5F5F5F5F5F5F5F5F5F5F5F5F5F5F5F5F5F5F5F5F5F5F5F5F5F5F5F5F5F5F5F5F5F5F5F5F5F5F5F5F5F5F5F5F5F5F5F5F5F5F5F5F5F5F5F5E2F5F5F5F5F5E2F5F5F5F5F5F5F5F5F5F5F5F5F5F5F5F5F5F5F5F5F5F5F5F5F5F5F5F5F5F5
310
F5F5F5F5F5F5F5F5F5F5F5F5F5F5F5F5F5E2F5F5F5F5F5F5F5F5F5F5F5F5F5F5F5F5F5F5F5F5F5F5F5F5F5F5F5F5F5F5F5F5F5F5F5F5F5F5F5F5F5F5F5F5F5F5F5F5F5F5F5F5F5F5F5F5F5F5F5F5F5E2F5F5E2E2F5E2F5F5F5F5F5F5F5F5F5F5F5F5F5F5F5F5F5F5F5F5F5F5F5F5F5F5F5F5F5F5F5F5F5F5F5F5F5F5F5F5F5
310
F5F5F5F5F5F5F5F5F5F5F5F5F5F5F5F5E2F5F5F5F5F5E2F5F5F5F5F5F5F5F5F5F5F5F5F5F5F5F5F5F5F5F5F5F5F5F5F5F5F5F5F5F5F5F5F5F5F5F5F5F5F5F5F5F5F5F5F5F5F5E2F5F5F5F5F5F5F5F5F5F5F5F5F5F5F5F5F5F5F5F5F5F5F5F5F5F5F5F5F5F5F5F5F5F5F5F5F5F5F5F5F5F5F5F5F5F5F5F5F5F5F5F5F5F5F5F5
310
F5F5F5F5F5E2F5F5E2E2F5E2F5F5F5F5F5F5F5F5F5F5F5F5F5F5F5F5F5F5F5F5F5F5F5F5F5F5F5F5F5F5F5F5F5F5F5F5F5F5F5F5F5F5F5F5F5F5F5F5F5F5F5F5F5F5F5F5F5E2F5F5F5F5F5E2F5F5F5F5F5F5F5F5F5F5F5F5F5F5F5F5F5F5F5F5F5F5F5F5F5F5F5F5F5F5F5F5F5F5F5F5F5F5F5F5F5F5F5F5F5F5F5E2F5F5F5
310
F5F5F5F5F5F5F5F5F5F5F5F5F5F5F5F5F5F5F5F5F5F5F5F5F5F5F5F5F5F5F5F5F5F5F5F5F5F5F5F5F5F5F5F5F5F5F5F5F5F5F5F5F5F5F5F5F5F5E2F5F5E2E2F5E2F5F5F5F5F5F5F5F5F5F5F5F5F5F5F5F5F5F5F5F5F5F5F5F5F5F5F5F5F5F5F5F5F5F5F5F5F5F5F5F5F5F5F5F5F5F5F5F5F5F5F5F5F5F5F5F5F5E2F5F5F5F5
310
F5E2F5F5F5F5F5F5F5F5F5F5F5F5F5F5F5F5F5F5F5F5F5F5F5F5F5F5F5F5F5F5F5F5F5F5F5F5F5F5F5F5F5F5F5F5F5F5F5E2F5F5F5F5F5F5F5F5F5F5F5F5F5F5F5F5F5F5F5F5F5F5F5F5F5F5F5F5F5F5F5F5F5F5F5F5F5F5F5F5F5F5F5F5F5F5F5F5F5F5F5F5F5F5F5F5F5F5F5F5F5E2F5F5E2E2F5E2F5F5F5F5F5F5F5F5F5
310
F5F5F5F5F5F5F5F5F5F5F5F5F5F5F5F5F5F5F5F5F5F5F5F5F5F5F5F5F5F5F5F5F5F5F5F5F5F5F5F5F5F5F5F5F5F5F5F5E2F5F5F5F5F5E2F5F5F5F5F5F5F5F5F5F5F5F5F5F5F5F5F5F5F5F5F5F5F5F5F5F5F5F5F5F5F5F5F5F5F5F5F5F5F5F5F5F5F5F5F5F5F5E2F5F5F5F5F5F5F5F5F5F5F5F5F5F5F5F5F5F5F5F5F5F5F5F5
310
F5F5F5F5F5F5F5F5F5F5F5F5F5F5F5F5F5F5F5F5F5F5F5F5F5F5F5F5F5F5F5F5F5F5F5F5F5E2F5F5E2E2F5E2F5F5F5F5F5F5F5F5F5F5F5F5F5F5F5F5F5F5F5F5F5F5F5F5F5F5F5F5F5F5F5F5F5F5F5F5F5F5F5F5F5F5F5F5F5F5F5F5F5F5F5F5F5F5F5F5F5E2F5F5F5F5F5F5F5F5F5F5F5F5F5F5F5F5F5F5F5F5F5F5F5F5F5
310
F5F5F5F5F5F5F5F5F5F5F5F5F5F5F5F5F5F5F5F5F5F5F5F5F5F5F5F5F5F5F5F5F5F5F5F5F5F5F5F5F5F5F5F5F5F5F5F5F5F5F5F5F5F5F5F5F5F5F5F5F5F5F5F5F5F5F5F5F5F5F5F5F5F5F5F5F5F5F5F5F5F5F5F5F5F5F5F5F5F5E2E2F5E2E2F5E2F5F5F5F5F5F5F5F5F5F5F5F5F5F5F5F5F5F5F5F5F5F5F5F5F5F5F5F5F5F5
310
F5F5F5F5F5F5F5F5F5F5F5F5F5F5F5F5F5F5F5F5F5F5F5F5F5F5F5E2F5F5F5F5F5E2F5F5F5F5F5F5F5F5F5F5F5F5F5F5F5F5F5F5F5F5F5F5F5F5F5F5F5F5F5F5F5F5F5F5F5F5F5F5F5F5F5F5F5F5F5F5F5E2F5F5F5F5F5F5F5F5F5F5F5F5F5F5F5F5F5F5F5F5F5F5F5F5F5F5F5F5F5F5F5F5F5F5F5F5F5F5F5F5F5F5F5F5F5
310
F5F5F5F5F5F5F5F5F5F5F5F5F5F5F5F5E2E2F5E2E2F5E2F5F5F5F5F5F5F5F5F5F5F5F5F5F5F5F5F5F5F5F5F5F5F5F5F5F5F5F5F5F5F5F5F5F5F5F5F5F5F5F5F5F5F5F5F5F5F5F5F5F5F5F5F5F5F5F5F5E2F5F5F5F5F5E2F5F5F5F5F5F5F5F5F5F5F5F5F5F5F5F5F5F5F5F5F5F5F5F5F5F5F5F5F5F5F5F5F5F5F5F5F5F5F5F5
310
F5F5F5F5F5F5F5E2F5F5F5F5F5F5F5F5F5F5F5F5F5F5F5F5F5F5F5F5F5F5F5F5F5F5F5F5F5F5F5F5F5F5F5F5F5F5F5F5F5F5F5F5F5F5F5F5F5F5F5F5F5F5F5F5F5F5F5F5F5E2E2F5E2E2F5E2F5F5F5F5F5F5F5F5F5F5F5F5F5F5F5F5F5F5F5F5F5F5F5F5F5F5F5F5F5F5F5F5F5F5F5F5F5F5F5F5F5F5F5F5F5F5F5F5F5F5F5
310
F5F5F5F5F5F5E2F5F5F5F5F5E2F5F5F5F5F5F5F5F5F5F5F5F5F5F5F5F5F5F5F5F5F5F5F5F5F5F5F5F5F5F5F5F5F5F5F5F5F5F5F5F5F5F5F5F5F5F5F5E2F5F5F5F5F5F5F5F5F5F5F5F5F5F5F5F5F5F5F5F5F5F5F5F5F5F5F5F5F5F5F5F5F5F5F5F5F5F5F5F5F5F5F5F5F5F5F5F5F5F5F5F5F5F5F5F5F5F5F5F5F5E2E2F5E2E2
310
F5E2F5F5F5F5F5F5F5F5F5F5F5F5F5F5F5F5F5F5F5F5F5F5F5F5F5F5F5F5F5F5F5F5F5F5F5F5F5F5F5F5F5F5F5F5F5F5F5F5F5F5F5F5F5F5F5F5F5E2F5F5F5F5F5E2F5F5F5F5F5F5F5F5F5F5F5F5F5F5F5F5F5E2E2F5F5F5F5F5F5F5F5F5F5E2E2F5F5F5F5F5F5F5F5F5F5F5F5F5F5F5F5E2F5F5F5F5F5F5F5F5F5F5F5F5F5
310
F5F5F5F5F5F5F5F5F5F5F5F5F5F5F5F5F5F5F5F5F5F5F5F5F5F5F5F5F5F5F5F5F5F5F5F5F5F5F5F5F5F5F5F5F5F5F5F5E2E2F5E2E2F5E2F5F5F5F5F5F5F5F5F5F5F5F5F5F5F5F5F5F5F5F5F5F5F5F5F5F5F5F5F5F5F5F5F5F5F5F5F5F5F5F5F5F5F5F5F5F5F5F5F5F5F5F5F5F5F5F5F5E2F5F5F5F5F5F5F5F5F5F5F5F5F5F5
310
F5F5F5F5F5F5F5F5E2E2E2E2E2E2E2E2E2E2E2E2E2E2E2F5F5F5F5F5F5F5F5F5F5F5F5F5F5F5F5F5F5F5F5F5F5F5F5F5F5F5F5F5F5F5F5F5F5F5F5F5F5F5F5F5F5F5F5F5F5F5F5F5F5F5F5F5F5F5F5F5F5F5F5F5F5F5F5F5F5F5F5F5F5F5F5F5F5F5F5F5F5E2E2F5E2E2F5E2F5F5F5F5F5F5F5F5F5F5F5F5F5F5F5F5F5F5F5
310
F5F5F5F5F5F5F5F5F5F5F5F5F5F5F5F5F5F5F5F5F5F5F5F5F5F5F5F5F5F5F5F5F5F5F5F5F5F5E2F5F5F5F5F5E2F5F5F5F5F5F5F5F5F5F5F5F5F5F5F5F5E2E2E2E2E2E2E2E2E2E2E2E2E2E2E2F5F5F5F5F5F5F5F5F5F5F5F5F5F5F5F5E2F5F5F5F5F5F5F5F5F5F5F5F5F5F5F5F5F5F5F5F5F5F5F5F5F5F5F5F5F5F5F5F5F5F5
310
F5F5F5F5F5F5F5F5F5F5F5F5F5F5F5F5F5F5F5F5F5F5F5F5F5F5F5E2E2F5E2E2F5E2F5F5F5F5F5F5F5F5F5F5F5F5F5F5F5F5F5F5F5F5F5F5F5F5F5F5F5F5F5F5F5F5F5F5F5F5F5F5F5F5F5F5F5F5F5F5F5F5F5F5F5F5F5F5F5F5F5E2F5F5F5F5F5E2F5F5F5F5F5F5F5F5F5F5F5F5F5F5F5F5E2F5F5F5F5F5F5E2E2F5F5F5F5
310
F5E2F5F5F5F5F5F5F5F5F5F5F5F5F5F5F5F5E2F5F5F5F5F5F5F5F5F5F5F5F5F5F5F5F5F5F5F5F5F5F5F5F5F5F5F5F5F5F5F5F5F5F5F5F5F5F5F5F5F5F5F5F5F5F5F5F5F5F5F5F5F5F5F5F5F5F5F5F5F5E2E2F5E2E2F5E2F5F5F5F5F5F5F5F5F5F5F5F5F5F5F5F5F5F5F5F5F5F5F5F5F5F5F5F5F5F5F5F5F5F5F5F5F5F5F5F5
310
F5F5F5F5F5F5F5F5F5F5F5F5F5F5F5F5F5E2F5F5F5F5F5E2F5F5F5F5F5F5F5F5F5F5F5F5F5F5F5F5E2F5F5F5F5F5F5E2F5F5F5F5F5F5E2F5F5F5F5F5F5F5F5F5F5F5F5F5F5F5F5E2F5F5F5F5F5F5F5F5F5F5F5F5F5F5F5F5F5F5F5F5F5F5F5F5F5F5F5F5F5F5F5F5F5F5F5F5F5F5F5F5F5F5F5F5F5F5F5F5F5F5F5F5F5F5F5
310
F5F5F5F5F5F5E2E2F5E2E2F5E2F5F5F5F5F5F5F5F5F5F5F5F5F5F5F5F5F5F5F5F5F5F5F5F5F5F5F5F5F5F5F5F5F5F5F5F5F5F5F5F5F5F5F5F5F5F5F5F5F5F5F5F5F5F5F5F5F5E2F5F5F5F5F5E2F5F5F5F5F5F5F5F5F5F5F5F5F5F5F5F5E2F5F5F5F5F5F5E2F5F5F5F5F5F5E2F5F5F5F5F5F5F5F5F5F5F5F5F5F5F5F5E2F5F5
310
F5F5F5F5F5F5F5F5F5F5F5F5F5F5F5F5F5F5F5F5F5F5F5F5F5F5F5F5F5F5F5F5F5F5F5F5F5F5F5F5F5F5F5F5F5F5F5F5F5F5F5F5F5F5F5F5F5F5F5E2E2F5E2E2F5E2F5F5F5F5F5F5F5F5F5F5F5F5F5F5F5F5F5F5F5F5F5F5F5F5F5F5F5F5F5F5F5F5F5F5F5F5F5F5F5F5F5F5F5F5F5F5F5F5F5F5F5F5F5F5F5F5F5E2F5F5F5
310
F5F5E2F5F5F5F5F5F5F5F5F5F5F5F5F5F5F5F5E2F5F5F5F5F5F5E2F5F5F5F5F5F5E2F5F5F5F5F5F5F5F5F5F5F5F5F5F5F5F5E2F5F5F5F5F5F5F5F5F5F5F5F5F5F5F5F5F5F5F5F5F5F5F5F5F5F5F5F5F5F5F5F5F5F5F5F5F5F5F5F5F5F5F5F5F5F5F5F5F5F5F5F5F5F5F5F5F5F5F5F5F5E2E2F5E2E2F5E2F5F5F5F5F5F5F5F5
310
F5F5F5F5F5F5F5F5F5F5F5F5F5F5F5F5F5F5F5F5F5F5F5F5F5F5F5F5F5F5F5F5F5F5F5F5F5F5F5F5F5F5F5F5F5F5F5F5F5E2F5F5F5F5F5E2F5F5F5F5F5F5F5F5F5F5F5F5F5F5F5F5E2F5F5F5F5F5F5E2F5F5F5F5F5F5E2F5F5F5F5F5F5F5F5F5F5F5F5F5F5F5F5E2F5F5F5F5F5F5F5F5F5F5F5F5F5F5F5F5F5F5F5F5F5F5F5
310
F5F5F5F5F5F5F5F5F5F5F5F5F5F5F5F5F5F5F5F5F5F5F5F5F5F5F5F5F5F5F5F5F5F5F5F5F5F5E2E2F5E2E2F5E2F5F5F5F5F5F5F5F5F5F5F5F5F5F5F5F5F5F5F5F5F5F5F5F5F5F5F5F5F5F5F5F5F5F5F5F5F5F5F5F5F5F5F5F5F5F5F5F5F5F5F5F5F5F5F5F5F5E2F5F5F5F5F5E2F5F5F5F5F5F5F5F5F5F5F5F5F5F5F5F5E2F5
310
F5F5F5F5F5E2F5F5F5F5F5F5E2F5F5F5F5F5F5F5F5F5F5F5F5F5F5F5F5E2F5F5F5F5F5F5F5F5F5F5F5F5F5F5F5F5F5F5F5F5F5F5F5F5F5F5F5F5F5F5F5F5F5F5F5F5F5F5F5F5F5F5F5F5F5F5F5F5F5F5F5F5F5F5F5F5F5F5F5F5F5E2E2F5E2E2F5E2F5F5F5F5F5F5F5F5F5F5F5F5F5F5F5F5F5F5F5F5F5F5F5F5F5F5F5F5F5
310
F5F5F5F5F5F5F5F5F5F5F5F5F5F5F5F5F5F5F5F5F5F5F5F5F5F5F5F5E2F5F5F5F5F5E2F5F5F5F5F5F5F5F5F5F5F5F5F5F5F5F5E2F5F5F5F5F5F5E2F5F5F5F5F5F5E2F5F5F5F5F5F5F5F5F5F5F5F5F5F5F5F5E2F5F5F5F5F5F5F5F5F5F5F5F5F5F5F5F5F5F5F5F5F5F5F5F5F5F5F5F5F5F5F5F5F5F5F5F5F5F5F5F5F5F5F5F5
310
F5F5F5F5F5F5F5F5F5F5F5F5F5F5F5F5F5E2E2F5E2E2F5E2F5F5F5F5F5F5F5F5F5F5F5F5F5F5F5F5F5F5F5F5F5F5F5F5F5F5F5F5F5F5F5F5F5F5F5F5F5F5F5F5F5F5F5F5F5F5F5F5F5F5F5F5F5F5F5F5F5E2F5F5F5F5F5F5F5F5F5F5F5F5F5F5F5F5F5F5F5F5F5F5E2F5F5F5F5F5F5E2F5F5F5F5F5F5E2F5F5F5F5F5F5F5F5
310
F5F5F5F5F5F5F5F5F5F5F5F5F5F5F5F5F5F5F5F5F5F5F5F5F5F5F5F5F5F5F5F5F5F5F5F5F5F5F5F5F5F5F5F5F5F5F5F5F5F5F5F5F5F5F5F5F5F5F5F5F5F5F5F5F5F5F5F5F5F5E2E2F5E2E2F5E2F5F5F5F5F5F5F5F5F5F5F5F5F5F5F5F5F5F5F5F5F5F5F5F5F5F5F5F5F5F5F5F5F5F5F5F5F5F5F5F5F5F5F5F5F5F5F5F5F5F5
310
F5F5F5F5F5F5F5E2F5F5F5F5F5E2F5F5F5F5F5F5F5F5F5F5F5F5F5F5F5F5E2F5F5F5F5F5F5E2F5F5F5F5F5F5E2F5F5F5F5F5F5F5F5F5F5F5F5F5F5F5F5E2F5F5F5F5F5F5F5F5F5F5F5F5F5F5F5F5F5F5F5F5F5F5F5F5F5F5F5F5F5F5F5F5F5F5F5F5F5F5F5F5F5F5F5F5F5F5F5F5F5F5F5F5F5F5F5F5F5F5F5F5F5E2E2F5E2
310
E2F5E2F5F5F5F5F5F5F5F5F5F5F5F5F5F5F5F5F5F5F5F5F5F5F5F5F5F5F5F5F5F5F5F5F5F5F5F5F5F5F5F5F5F5F5F5F5F5F5F5F5F5F5F5E2E2E2E2F5E2F5F5F5F5F5E2F5F5F5F5F5F5F5F5F5F5F5F5F5F5F5F5E2F5F5F5F5F5F5E2F5F5F5F5F5F5E2F5F5F5F5F5F5F5F5F5F5F5F5F5F5F5F5E2F5F5F5F5F5F5F5F5F5F5F5F5
310
F5F5F5F5F5F5F5F5F5F5F5F5F5F5F5F5F5F5F5F5F5F5F5F5F5F5F5F5F5F5F5F5F5F5F5F5F5F5F5F5F5F5F5F5F5F5F5F5F5E2F5F5E2E2F5E2F5F5F5F5F5F5F5F5F5F5F5F5F5F5F5F5F5F5F5F5F5F5F5F5F5F5F5F5F5F5F5F5F5F5F5F5F5F5F5F5F5F5F5F5F5F5F5F5F5F5F5F5E2E2E2E2F5E2F5F5F5F5F5E2F5F5F5F5F5F5F5
310
F5F5F5F5F5F5F5F5F5E2F5F5F5F5F5F5E2F5F5F5F5F5F5E2F5F5F5F5F5F5F5F5F5F5F5F5F5F5F5F5E2F5F5F5F5F5F5F5F5F5F5F5F5F5F5F5F5F5F5F5F5F5F5F5F5F5F5F5F5F5F5F5F5F5F5F5F5F5F5F5F5F5F5F5F5F5F5F5F5F5F5F5F5F5F5F5F5F5F5F5F5F5E2F5F5E2E2F5E2F5F5F5F5F5F5F5F5F5F5F5F5F5F5F5F5F5F5
310
F5F5F5F5F5F5F5F5F5F5F5F5F5F5F5F5F5F5F5F5F5F5F5F5F5F5F5F5F5F5F5F5F5F5E2E2E2E2F5E2F5F5F5F5F5E2F5F5F5F5F5F5F5F5F5F5F5F5F5F5F5F5E2F5F5F5F5F5F5E2F5F5F5F5F5F5E2F5F5F5F5F5F5F5F5F5F5F5F5F5F5F5F5E2F5F5F5F5F5F5F5F5F5F5F5F5F5F5F5F5F5F5F5F5F5F5F5F5F5F5F5F5F5F5F5F5F5
310
F5F5F5F5F5F5F5F5F5F5F5F5F5F5F5F5F5F5F5F5F5F5F5F5F5F5F5F5E2F5F5E2E2F5E2F5F5F5F5F5F5F5F5F5F5F5F5F5F5F5F5F5F5F5F5F5F5F5F5F5F5F5F5F5F5F5F5F5F5F5F5F5F5F5F5F5F5F5F5F5F5F5F5F5F5F5F5E2E2E2E2F5E2F5F5F5F5F5E2F5F5F5F5F5F5F5F5F5F5F5F5F5F5F5F5E2F5F5F5F5F5F5E2F5F5F5F5
310
F5F5E2F5F5F5F5F5F5F5F5F5F5F5F5F5F5F5F5E2F5F5F5F5F5F5F5F5F5F5F5F5F5F5F5F5F5F5F5F5F5F5F5F5F5F5F5F5F5F5F5F5F5F5F5F5F5F5F5F5F5F5F5F5F5F5F5F5F5F5F5F5F5F5F5F5F5F5F5F5F5E2F5F5E2E2F5E2F5F5F5F5F5F5F5F5F5F5F5F5F5F5F5F5F5F5F5F5F5F5F5F5F5F5F5F5F5F5F5F5F5F5F5F5F5F5F5
310
F5F5F5F5F5F5F5F5F5F5F5F5F5E2E2E2E2F5E2F5F5F5F5F5E2F5F5F5F5F5F5F5F5F5F5F5F5F5F5F5F5E2F5F5F5F5F5F5E2F5F5F5F5F5F5E2F5F5F5F5F5F5F5F5F5F5F5F5F5F5F5F5E2F5F5F5F5F5F5F5F5F5F5F5F5F5F5F5F5F5F5F5F5F5F5F5F5F5F5F5F5F5F5F5F5F5F5F5F5F5F5F5F5F5F5F5F5F5F5F5F5F5F5F5F5F5F5
310
F5F5F5F5F5F5F5E2F5F5E2E2F5E2F5F5F5F5F5F5F5F5F5F5F5F5F5F5F5F5F5F5F5F5F5F5F5F5F5F5F5F5F5F5F5F5F5F5F5F5F5F5F5F5F5F5F5F5F5F5F5F5F5F5F5F5F5F5F5F5F5E2F5F5F5F5F5E2F5F5F5F5F5F5F5F5F5F5F5F5F5F5F5F5E2F5F5F5F5F5F5E2F5F5F5F5F5F5E2F5F5F5F5F5F5F5F5F5F5F5F5F5F5F5F5E2F5
310
F5F5F5F5F5F5F5F5F5F5F5F5F5F5F5F5F5F5F5F5F5F5F5F5F5F5F5F5F5F5F5F5F5F5F5F5F5F5F5F5F5F5F5F5F5F5F5F5F5F5F5F5F5F5F5F5F5F5F5F5E2F5F5E2E2F5E2F5F5F5F5F5F5F5F5F5F5F5F5F5F5F5F5F5F5F5F5F5F5F5F5F5F5F5F5F5F5F5F5F5F5F5F5F5F5F5F5F5F5F5F5F5F5F5F5F5F5F5F5F5F5F5F5F5E2F5F5
310
F5F5F5E2F5F5F5F5F5F5F5F5F5F5F5F5F5F5F5F5E2F5F5F5F5F5F5E2F5F5F5F5F5F5E2F5F5F5F5F5F5F5F5F5F5F5F5F5F5F5F5E2F5F5F5F5F5F5F5F5F5F5F5F5F5F5F5F5F5F5F5F5F5F5F5F5F5F5F5F5F5F5F5F5F5F5F5F5F5F5F5F5F5F5F5F5F5F5F5F5F5F5F5F5F5F5F5F5F5F5F5F5F5E2F5F5E2E2F5E2F5F5F5F5F5F5F5
310
F5F5F5F5F5F5F5F5F5F5F5F5F5F5F5F5F5F5F5F5F5F5F5F5F5F5F5F5F5F5F5F5F5F5F5F5F5F5F5F5F5F5F5F5F5F5F5F5F5F5E2F5F5F5F5F5F5F5F5F5F5F5F5F5F5F5F5F5F5F5F5F5F5E2F5F5F5F5F5F5E2F5F5F5F5F5F5E2F5F5F5F5F5F5F5F5F5F5F5F5F5F5F5F5F5F5F5F5F5F5F5F5F5F5F5F5F5F5F5F5F5F5F5F5F5F5F5
310
F5F5F5F5F5F5F5F5F5F5F5F5F5F5F5F5F5F5F5F5F5F5F5F5F5F5F5F5F5F5F5F5F5F5F5F5F5F5F5E2F5F5E2E2F5E2F5F5F5F5F5F5F5F5F5F5F5F5F5F5F5F5F5F5F5F5F5F5F5F5F5F5F5F5F5F5F5F5F5F5F5F5F5F5F5F5F5F5F5F5F5F5F5F5F5F5F5F5F5F5F5F5F5E2F5F5F5F5F5E2F5F5F5F5F5F5F5F5F5F5F5F5F5F5F5F5E2
310
F5F5F5F5F5F5E2F5F5F5F5F5F5E2F5F5F5F5F5F5F5F5F5F5F5F5F5F5F5F5E2F5F5F5F5F5F5F5F5F5F5F5F5F5F5F5F5F5F5F5F5F5F5F5F5F5F5F5F5F5F5F5F5F5F5F5F5F5F5F5F5F5F5F5F5F5F5F5F5F5F5F5F5F5F5F5F5F5F5F5F5F5E2F5F5E2E2F5E2F5F5F5F5F5F5F5F5F5F5F5F5F5F5F5F5F5F5F5F5F5F5F5F5F5F5F5F5
310
F5F5F5F5F5F5F5F5F5F5F5F5F5F5F5F5F5F5F5F5F5F5F5F5F5F5F5F5F5E2F5F5F5F5F5E2F5F5F5F5F5F5F5F5F5F5F5F5F5F5F5F5E2F5F5F5F5F5F5E2F5F5F5F5F5F5E2F5F5F5F5F5F5F5F5F5F5F5F5F5F5F5F5E2F5F5F5F5F5F5F5F5F5F5F5F5F5F5F5F5F5F5F5F5F5F5F5F5F5F5F5F5F5F5F5F5F5F5F5F5F5F5F5F5F5F5F5
310
F5F5F5F5F5F5F5F5F5F5F5F5F5F5F5F5F5F5E2E2F5E2E2F5E2F5F5F5F5F5F5F5F5F5F5F5F5F5F5F5F5F5F5F5F5F5F5F5F5F5F5F5F5F5F5F5F5F5F5F5F5F5F5F5F5F5F5F5F5F5F5F5F5F5F5F5F5F5F5F5F5F5E2F5F5F5F5F5E2F5F5F5F5F5F5F5F5F5F5F5F5F5F5F5F5E2F5F5F5F5F5F5E2F5F5F5F5F5F5E2F5F5F5F5F5F5F5
310
F5F5F5F5F5F5F5F5F5E2F5F5F5F5F5F5F5F5F5F5F5F5F5F5F5F5F5F5F5F5F5F5F5F5F5F5F5F5F5F5F5F5F5F5F5F5F5F5F5F5F5F5F5F5F5F5F5F5F5F5F5F5F5F5F5F5F5F5F5F5F5E2E2F5E2E2F5E2F5F5F5F5F5F5F5F5F5F5F5F5F5F5F5F5F5F5F5F5F5F5F5F5F5F5F5F5F5F5F5F5F5F5F5F5F5F5F5F5F5F5F5F5F5F5F5F5F5
310
F5F5F5F5F5F5F5F5E2F5F5F5F5F5E2F5F5F5F5F5F5F5F5F5F5F5F5F5F5F5F5E2F5F5F5F5F5F5E2F5F5F5F5F5F5E2F5F5F5F5F5F5F5F5F5F5F5F5F5F5F5F5E2F5F5F5F5F5F5F5F5F5F5F5F5F5F5F5F5F5F5F5F5F5F5F5F5F5F5F5F5F5F5F5F5F5F5F5F5F5F5F5F5F5F5F5F5F5F5F5F5F5F5F5F5F5F5F5F5F5F5F5F5F5E2E2F5
310
E2E2F5E2F5F5F5F5F5F5F5F5F5F5F5F5F5F5F5F5F5F5F5F5F5F5F5F5F5F5F5F5F5F5F5F5F5F5F5F5F5F5F5F5F5F5F5F5F5F5F5F5F5F5F5F5F5F5F5F5F5E2F5F5F5F5F5E2F5F5F5F5F5F5F5F5F5F5F5F5F5F5F5F5E2F5F5F5F5F5F5E2F5F5F5F5F5F5E2F5F5F5F5F5F5F5F5F5F5F5F5F5F5F5F5E2F5F5F5F5F5F5F5F5F5F5F5
310
F5F5F5F5F5F5F5F5F5F5F5F5F5F5F5F5F5F5F5F5F5F5F5F5F5F5F5F5F5F5F5F5F5F5F5F5F5F5F5F5F5F5F5F5F5F5F5F5F5F5E2E2F5E2E2F5E2F5F5F5F5F5F5F5F5F5F5F5F5F5F5F5F5F5F5F5F5F5F5F5F5F5F5F5F5F5F5F5F5F5F5F5F5F5F5F5F5F5F5F5F5F5F5F5F5F5F5F5F5F5F5F5F5F5E2F5F5F5F5F5E2F5F5F5F5F5F5
310
F5F5F5F5F5F5F5F5F5F5E2F5F5F5F5F5F5E2F5F5F5F5F5F5E2F5F5F5F5F5F5F5F5F5F5F5F5F5F5F5F5E2F5F5F5F5F5F5F5F5F5F5F5F5F5F5F5F5F5F5F5F5F5F5F5F5F5F5F5F5F5F5F5F5F5F5F5F5F5F5F5F5F5F5F5F5F5F5F5F5F5F5F5F5F5F5F5F5F5F5F5F5F5E2E2F5E2E2F5E2F5F5F5F5F5F5F5F5F5F5F5F5F5F5F5F5F5
310
F5F5F5F5F5F5F5F5F5F5F5F5F5F5F5F5F5F5F5F5F5F5F5F5F5F5F5F5F5F5F5F5F5F5F5F5F5F5F5F5E2F5F5F5F5F5E2F5F5F5F5F5F5F5F5F5F5F5F5F5F5F5F5E2E2F5F5F5F5E2E2E2F5F5F5F5F5E2F5F5F5F5F5F5F5F5F5F5F5F5F5F5F5F5E2F5F5F5F5F5F5F5F5F5F5F5F5F5F5F5F5F5F5F5F5F5F5F5F5F5F5F5F5F5F5F5F5
310
F5F5F5F5F5F5F5F5F5F5F5F5F5F5F5F5F5F5F5F5F5F5F5F5F5F5F5F5F5E2E2F5E2E2F5E2F5F5F5F5F5F5F5F5F5F5F5F5F5F5F5F5F5F5F5F5F5F5F5F5F5F5F5F5F5F5F5F5F5F5F5F5F5F5F5F5F5F5F5F5F5F5F5F5F5F5F5F5F5F5F5F5F5E2F5F5F5F5F5E2F5F5F5F5F5F5F5F5F5F5F5F5F5F5F5F5E2E2E2E2E2E2E2E2E2E2E2
310
E2E2E2E2F5F5F5F5F5F5F5F5F5F5F5F5F5F5F5F5E2F5F5F5F5F5F5F5F5F5F5F5F5F5F5F5F5F5F5F5F5F5F5F5F5F5F5F5F5F5F5F5F5F5F5F5F5F5F5F5F5F5F5F5F5F5F5F5F5F5F5F5F5F5F5F5F5F5F5F5F5F5E2E2F5E2E2F5E2F5F5F5F5F5F5F5F5F5F5F5F5F5F5F5F5F5F5F5F5F5F5F5F5F5F5F5F5F5F5F5F5F5F5F5F5F5F5
310
F5F5F5F5F5F5F5F5F5F5F5F5F5F5F5F5F5F5F5E2F5F5F5F5F5F5F5F5F5F5F5F5F5F5F5F5F5F5F5F5F5F5F5E2E2F5F5F5F5F5F5F5F5F5F5E2E2F5F5F5F5F5F5F5F5F5F5F5F5F5F5F5F5F5F5F5F5F5F5F5F5F5F5F5F5F5F5F5F5F5F5F5F5F5F5F5F5F5F5F5F5F5F5F5F5F5F5F5F5F5F5F5F5F5F5F5F5F5F5F5F5F5F5F5F5F5F5
310
F5F5F5F5F5F5F5F5E2E2F5E2E2F5E2F5F5F5F5F5F5F5F5F5F5F5F5F5F5F5F5F5F5F5F5F5F5F5F5F5F5F5F5F5F5F5F5F5F5F5F5F5F5F5F5F5F5F5F5F5F5F5F5F5F5F5F5F5F5F5F5F5E2F5F5F5F5F5E2F5F5F5F5F5F5F5F5F5F5F5F5F5F5F5F5F5F5F5F5F5F5F5F5F5F5F5F5F5F5F5F5F5F5F5F5F5F5F5F5F5F5F5F5F5F5F5E2
310
F5F5F5F5F5F5F5F5F5F5F5F5F5F5F5F5F5F5F5F5F5F5F5F5F5F5F5F5F5F5F5F5F5F5F5F5F5F5F5F5F5F5F5F5F5F5F5F5F5F5F5F5F5F5F5F5F5F5F5F5F5E2E2F5E2E2F5E2F5F5F5F5F5F5F5F5F5F5F5F5F5F5F5F5F5F5F5F5F5F5F5F5F5F5F5F5F5F5F5F5F5F5F5F5F5F5F5F5F5F5F5F5F5F5F5F5F5F5F5F5F5F5F5F5F5E2F5
310
F5F5F5F5E2F5F5F5F5F5F5F5F5F5F5F5F5F5F5F5F5F5F5F5F5F5F5F5F5F5F5F5F5F5F5F5F5F5F5F5F5F5F5F5F5F5F5F5F5F5F5F5E2F5F5F5F5F5F5F5F5F5F5F5F5F5F5F5F5F5F5F5F5F5F5F5F5F5F5F5F5F5F5F5F5F5F5F5F5F5F5F5F5F5F5F5F5F5F5F5F5F5F5F5F5F5F5F5F5F5F5F5F5F5E2E2F5E2E2F5E2F5F5F5F5F5F5
310
F5F5F5F5F5F5F5F5F5F5F5F5F5F5F5F5F5F5F5F5F5F5F5F5F5F5F5F5F5F5F5F5F5F5F5F5F5F5F5F5F5F5F5F5F5F5F5F5F5F5F5E2F5F5F5F5F5E2F5F5F5F5F5F5F5F5F5F5F5F5F5F5F5F5F5F5F5F5F5F5F5F5F5F5F5F5F5F5F5F5F5F5F5F5F5F5F5F5F5F5F5F5F5F5F5E2F5F5F5F5F5F5F5F5F5F5F5F5F5F5F5F5F5F5F5F5F5
310
F5F5F5F5F5F5F5F5F5F5F5F5F5F5F5F5F5F5F5F5F5F5F5F5F5F5F5F5F5F5F5F5F5F5F5F5F5F5F5F5E2E2F5E2E2F5E2F5F5F5F5F5F5F5F5F5F5F5F5F5F5F5F5F5F5F5F5F5F5F5F5F5F5F5F5F5F5F5F5F5F5F5F5F5F5F5F5F5F5F5F5F5F5F5F5F5F5F5F5F5F5F5F5F5E2F5F5F5F5F5E2F5F5F5F5F5F5F5F5F5F5F5F5F5F5F5F5
310
F5F5F5F5F5F5F5F5F5F5F5F5F5F5F5F5F5F5F5F5F5F5F5F5F5F5F5F5F5F5F5E2F5F5F5F5F5F5F5F5F5F5F5F5F5F5F5F5F5F5F5F5F5F5F5F5F5F5F5F5F5F5F5F5F5F5F5F5F5F5F5F5F5F5F5F5F5F5F5F5F5F5F5F5F5F5F5F5F5F5F5F5F5E2E2F5E2E2F5E2F5F5F5F5F5F5F5F5F5F5F5F5F5F5F5F5F5F5F5F5F5F5F5F5F5F5F5
310
F5F5F5F5F5F5F5F5F5F5F5F5F5F5F5F5F5F5F5F5F5F5F5F5F5F5F5F5F5F5E2F5F5F5F5F5E2F5F5F5F5F5F5F5F5F5F5F5F5F5F5F5F5F5F5F5F5F5F5F5F5F5F5F5F5F5F5F5F5F5F5F5F5F5F5F5F5F5F5F5F5F5F5F5E2F5F5F5F5F5F5F5F5F5F5F5F5F5F5F5F5F5F5F5F5F5F5F5F5F5F5F5F5F5F5F5F5F5F5F5F5F5F5F5F5F5F5
310
F5F5F5F5F5F5F5F5F5F5F5F5F5F5F5F5F5F5F5E2E2F5E2E2F5E2F5F5F5F5F5F5F5F5F5F5F5F5F5F5F5F5F5F5F5F5F5F5F5F5F5F5F5F5F5F5F5F5F5F5F5F5F5F5F5F5F5F5F5F5F5F5F5F5F5F5F5F5F5F5F5F5F5E2F5F5F5F5F5E2F5F5F5F5F5F5F5F5F5F5F5F5F5F5F5F5F5F5F5F5F5F5F5F5F5F5F5F5F5F5F5F5F5F5F5F5F5
310
F5F5F5F5F5F5F5F5F5F5E2F5F5F5F5F5F5F5F5F5F5F5F5F5F5F5F5F5F5F5F5F5F5F5F5F5F5F5F5F5F5F5F5F5F5F5F5F5F5F5F5F5F5F5F5F5F5F5F5F5F5F5F5F5F5F5F5F5F5F5F5F5E2E2F5E2E2F5E2F5F5F5F5F5F5F5F5F5F5F5F5F5F5F5F5F5F5F5F5F5F5F5F5F5F5F5F5F5F5F5F5F5F5F5F5F5F5F5F5F5F5F5F5F5F5F5F5
310
F5F5F5F5F5F5F5F5F5E2F5F5F5F5F5E2F5F5F5F5F5F5F5F5F5F5F5F5F5F5F5F5F5F5F5F5F5F5F5F5F5F5F5F5F5F5F5F5F5F5F5F5F5F5F5F5F5F5F5F5F5F5F5E2F5F5F5F5F5F5F5F5F5F5F5F5F5F5F5F5F5F5F5F5F5F5F5F5F5F5F5F5F5F5F5F5F5F5F5F5F5F5F5F5F5F5F5F5F5F5F5F5F5F5F5F5F5F5F5F5F5F5F5F5F5E2E2
310
F5E2E2F5E2F5F5F5F5F5F5F5F5F5F5F5F5F5F5F5F5F5F5F5F5F5F5F5F5F5F5F5F5F5F5F5F5F5F5F5F5F5F5F5F5F5F5F5F5F5F5F5F5F5F5F5F5F5F5F5F5F5E2F5F5F5F5F5E2F5F5F5F5F5F5F5F5F5F5F5F5F5F5F5F5F5F5F5F5F5F5F5F5F5F5F5F5F5F5F5F5F5F5F5F5F5F5F5F5F5F5F5F5F5F5F5E2F5F5F5F5F5F5F5F5F5F5
310
F5F5F5F5F5F5F5F5F5F5F5F5F5F5F5F5F5F5F5F5F5F5F5F5F5F5F5F5F5F5F5F5F5F5F5F5F5F5F5F5F5F5F5F5F5F5F5F5F5F5F5E2E2F5E2E2F5E2F5F5F5F5F5F5F5F5F5F5F5F5F5F5F5F5F5F5F5F5F5F5F5F5F5F5F5F5F5F5F5F5F5F5F5F5F5F5F5F5F5F5F5F5F5F5F5F5F5F5F5F5F5F5F5F5F5E2F5F5F5F5F5F5F5F5F5F5F5
310
F5F5F5F5F5F5F5F5F5F5F5F5F5F5F5F5F5F5F5F5F5F5F5F5F5F5F5F5F5F5F5F5F5F5F5F5F5F5F5F5F5F5F5F5F5F5F5F5F5F5F5F5F5F5F5F5F5F5F5F5F5F5F5F5F5F5F5F5F5F5F5F5F5F5F5F5F5F5F5F5F5F5F5F5F5F5F5F5F5F5F5F5F5F5F5F5F5F5F5F5F5F5F5F5E2F5F5E2E2F5E2F5F5F5F5F5F5F5F5F5F5F5F5F5F5F5F5
310
F5F5F5F5F5F5F5F5F5F5F5F5F5F5F5F5F5F5F5F5F5F5F5F5F5F5F5F5F5F5F5F5F5F5F5F5F5F5F5F5F5E2F5F5F5F5F5E2F5F5F5F5F5F5F5F5F5F5F5F5F5F5F5F5F5F5F5F5F5F5F5F5F5F5F5F5F5F5F5F5F5F5F5F5F5F5F5F5F5F5F5F5F5F5F5E2F5F5F5F5F5F5F5F5F5F5F5F5F5F5F5F5F5F5F5F5F5F5F5F5F5F5F5F5F5F5F5
310
F5F5F5F5F5F5F5F5F5F5F5F5F5F5F5F5F5F5F5F5F5F5F5F5F5F5F5F5F5F5E2F5F5E2E2F5E2F5F5F5F5F5F5F5F5F5F5F5F5F5F5F5F5F5F5F5F5F5F5F5F5F5F5F5F5F5F5F5F5F5F5F5F5F5F5F5F5F5F5F5F5F5F5F5F5F5F5F5F5F5F5F5F5F5E2F5F5F5F5F5E2F5F5F5F5F5F5F5F5F5F5F5F5F5F5F5F5F5F5F5F5F5F5F5F5F5F5
310
F5F5F5F5F5F5F5F5F5F5F5F5F5F5F5F5F5F5F5F5F5E2F5F5F5F5F5F5F5F5F5F5F5F5F5F5F5F5F5F5F5F5F5F5F5F5F5F5F5F5F5F5F5F5F5F5F5F5F5F5F5F5F5F5F5F5F5F5F5F5F5F5F5F5F5F5F5F5F5F5F5F5F5E2F5F5E2E2F5E2F5F5F5F5F5F5F5F5F5F5F5F5F5F5F5F5F5F5F5F5F5F5F5F5F5F5F5F5F5F5F5F5F5F5F5F5F5
310
F5F5F5F5F5F5F5F5F5F5F5F5F5F5F5F5F5F5F5F5E2F5F5F5F5F5E2F5F5F5F5F5F5F5F5F5F5F5F5F5F5F5F5F5F5F5F5F5F5F5F5F5F5F5F5F5F5F5F5F5F5F5F5F5F5F5F5F5F5F5F5F5F5F5E2F5F5F5F5F5F5F5F5F5F5F5F5F5F5F5F5F5F5F5F5F5F5F5F5F5F5F5F5F5F5F5F5F5F5F5F5F5F5F5F5F5F5F5F5F5F5F5F5F5F5F5F5
310
F5F5F5F5F5F5F5F5F5E2F5F5E2E2F5E2F5F5F5F5F5F5F5F5F5F5F5F5F5F5F5F5F5F5F5F5F5F5F5F5F5F5F5F5F5F5F5F5F5F5F5F5F5F5F5F5F5F5F5F5F5F5F5F5F5F5F5F5F5F5F5F5F5E2F5F5F5F5F5E2F5F5F5F5F5F5F5F5F5F5F5F5F5F5F5F5F5F5F5F5F5F5F5F5F5F5F5F5F5F5F5F5F5F5F5F5F5F5F5F5F5F5F5F5F5F5F5
310
E2F5F5F5F5F5F5F5F5F5F5F5F5F5F5F5F5F5F5F5F5F5F5F5F5F5F5F5F5F5F5F5F5F5F5F5F5F5F5F5F5F5F5F5F5F5F5F5F5F5F5F5F5F5F5F5F5F5F5F5F5F5E2F5F5E2E2F5E2F5F5F5F5F5F5F5F5F5F5F5F5F5F5F5F5F5F5F5F5F5F5F5F5F5F5F5F5F5F5F5F5F5F5F5F5F5F5F5F5F5F5F5F5F5F5F5F5F5F5F5F5F5F5F5F5F5E2
310
F5F5F5F5F5E2F5F5F5F5F5F5F5F5F5F5F5F5F5F5F5F5F5F5F5F5F5F5F5F5F5F5F5F5F5F5F5F5F5F5F5F5F5F5F5F5F5F5F5F5F5F5F5E2F5F5F5F5F5F5F5F5F5F5F5F5F5F5F5F5F5F5F5F5F5F5F5F5F5F5F5F5F5F5F5F5F5F5F5F5F5F5F5F5F5F5F5F5F5F5F5F5F5F5F5F5F5F5F5F5F5F5F5F5F5E2F5F5E2E2F5E2F5F5F5F5F5
310
F5F5F5F5F5F5F5F5F5F5F5F5F5F5F5F5F5F5F5F5F5F5F5F5F5F5F5F5F5F5F5F5F5F5F5F5F5F5F5F5F5F5F5F5F5F5F5F5F5F5F5F5E2BEF5F5F5F5E2F5F5F5F5F5F5F5F5F5F5F5F5F5F5F5F5F5F5F5F5F5F5F5F5F5F5F5F5F5F5F5F5F5F5F5F5F5F5F5F5F5F5F5F5F5F5F5E2F5F5F5F5F5F5F5F5F5F5F5F5F5F5F5F5F5F5F5F5
310
F5F5F5F5F5F5F5F5F5F5F5F5F5F5F5F5F5F5F5F5F5F5F5F5F5F5F5F5F5F5F5F5F5F5F5F5F5F5F5F5F5E2F5F5E2E2F5E2F5F5F5F5F5F5F5F5F5F5F5F5F5F5F5F5F5F5F5F5F5F5F5F5F5F5F5F5F5F5F5F5F5F5F5F5F5F5F5F5F5F5F5F5F5F5F5F5F5F5F5F5F5F5F5E2E2E2E2F5F5F5F5E2E2E2E2F5E2E2E2E2E2E2E2E2F5E2E2
310
E2E2E2E2E2E2F5E2E2E2E2E2E2E2E2F5E2E2E2E2E2E2E2E2F5E2E2E2E2E2E2E2E2F5F5F5F5F5F5F5F5F5F5F5F5F5F5F5F5F5F5F5F5F5F5F5F5F5F5F5F5F5F5F5F5F5F5F5F5F5F5F5F5F5F5F5F5F5F5F5F5F5F5F5F5F5F5F5F5F5F5F5F5F5E2F5F5E2E2F5E2F5F5F5F5F5F5F5F5F5F5F5F5F5F5F5F5F5F5F5F5F5F5F5F5F5F5
310
F5F5F5F5F5F5F5F5F5F5F5F5F5F5F5F5F5F5F5F5F5F5F5F5F5F5F5F5F5F5BEE2F5F5F5F5F5F5F5F5F5F5F5F5F5F5F5F5F5F5F5F5F5F5F5F5F5F5F5F5F5F5F5F5F5F5F5F5F5F5F5F5F5F5F5F5F5F5F5F5F5F5F5F5F5F5F5F5F5F5F5F5F5F5F5F5F5F5F5F5F5F5F5F5F5F5F5F5F5F5F5F5F5F5F5F5F5F5F5F5F5F5F5F5F5F5F5
310
F5F5F5F5F5F5F5F5F5F5F5F5F5F5F5F5F5F5F5F5E2E2F5E2E2F5E2F5F5F5F5F5F5F5F5F5F5F5F5F5F5F5F5F5F5F5F5F5F5F5F5F5F5F5F5F5F5F5F5F5F5F5F5F5F5F5F5F5F5F5F5F5F5F5F5F5F5F5F5F5F5F5BEF5F5F5F5F5F5F5F5F5F5F5F5F5F5F5F5F5F5F5F5F5F5F5F5F5F5F5F5F5F5F5F5F5F5F5F5F5F5F5F5F5F5F5F5
310
F5F5F5F5F5F5F5F5F5F5F5F5F5F5F5F5F5F5F5F5F5F5F5F5F5F5F5F5F5F5F5F5F5F5F5F5F5F5F5F5F5F5F5F5F5F5F5F5F5F5F5F5F5F5F5F5F5F5F5F5F5F5F5F5F5F5F5F5F5F5F5F5F5E2E2F5E2E2F5E2F5F5F5F5F5F5F5F5F5F5F5F5F5F5F5F5F5F5F5F5F5F5F5F5F5F5F5F5F5F5F5F5F5F5F5F5F5F5F5F5F5F5F5F5F5F5F5
310
F5F5F5F5F5F5F5F5F5F5F5F5F5F5F5F5F5F5F5F5F5F5F5F5F5F5F5F5F5F5F5F5F5F5F5F5F5F5F5F5F5F5F5F5F5F5F5F5F5F5F5F5F5F5F5F5F5F5F5F5F5F5F5F5F5F5F5F5F5F5F5F5F5F5F5F5F5F5F5F5F5F5F5F5F5F5F5F5F5F5F5F5F5F5F5F5F5F5F5F5F5F5F5F5F5F5F5F5F5F5F5F5F5F5F5F5F5F5F5F5F5F5F5F5F5F5E2
310
E2F5E2E2F5E2F5F5F5F5F5F5F5F5F5F5F5F5F5F5F5F5F5F5F5F5F5F5F5F5F5F5F5F5F5F5F5F5F5F5F5F5F5F5F5F5F5F5F5F5F5F5F5F5F5F5F5F5F5F5F5F5F5F5F5F5F5F5F5F5F5F5F5F5F5F5F5F5F5F5F5F5F5F5F5F5F5F5F5F5F5F5F5F5F5F5F5F5F5F5F5F5F5F5F5F5F5F5F5F5F5F5F5F5F5F5F5F5F5F5F5F5F5F5F5F5F5
310
F5F5F5F5F5F5F5F5F5F5F5F5F5F5F5F5F5F5F5F5F5F5F5F5F5F5F5F5F5F5F5F5F5F5F5F5F5F5F5F5F5F5F5F5F5F5F5F5F5F5F5F5E2E2F5E2E2F5E2F5F5F5F5F5F5F5F5F5F5F5F5F5F5F5F5F5F5F5F5F5F5F5F5F5F5F5F5F5F5F5F5F5F5F5F5F5F5F5F5F5F5F5F5F5F5F5F5F5F5F5F5F5F5F5F5F5F5F5F5F5F5F5F5F5F5F5F5
310
F5F5F5F5F5F5F5F5F5F5F5F5F5F5F5F5F5F5F5F5F5F5F5F5F5F5F5F5F5F5F5F5F5F5F5F5F5F5F5F5F5F5F5F5F5F5F5F5F5F5F5F5F5F5F5F5F5F5F5F5F5F5F5F5F5F5F5F5F5F5F5F5F5F5F5F5F5F5F5F5F5F5F5F5F5F5F5F5F5F5F5F5F5F5F5F5F5F5F5F5F5F5F5F5F5E2E2F5E2E2F5E2F5F5F5F5F5F5F5F5F5F5F5F5F5F5F5
310
F5F5F5F5F5F5F5F5F5F5F5F5F5F5F5F5F5F5F5F5F5F5F5F5F5F5F5F5F5F5F5F5F5F5F5F5F5F5F5F5F5F5F5F5F5F5F5F5F5F5F5F5F5F5F5F5F5F5F5F5F5F5F5F5F5F5F5F5F5F5F5F5F5F5F5F5F5F5F5F5F5F5F5F5F5F5F5F5F5F5F5F5F5F5F5F5F5F5F5F5F5F5F5F5F5F5F5F5F5F5F5F5F5F5F5F5F5F5F5F5F5F5F5F5F5F5F5
310
F5F5F5F5F5F5F5F5F5F5F5F5F5F5F5F5F5F5F5F5F5F5F5F5F5F5F5F5F5F5F5E2E2F5E2E2F5E2F5F5F5F5F5F5F5F5F5F5F5F5F5F5F5F5F5F5F5F5F5F5F5F5F5F5F5F5F5F5F5F5F5F5F5F5F5F5F5F5F5F5F5F5F5F5F5F5F5F5F5F5F5F5F5F5F5F5F5F5F5F5F5E2F5F5F5F5F5F5F5F5F5F5F5F5F5F5F5F5F5F5F5F5F5F5F5F5F5
310
F5F5F5F5F5F5F5F5F5F5F5F5F5F5F5F5F5F5F5F5F5F5E2F5F5F5F5F5F5F5F5F5F5F5F5F5F5F5F5F5F5F5F5F5F5F5F5F5F5F5F5F5F5F5F5F5F5F5F5F5F5F5F5F5F5F5F5F5F5F5F5F5F5F5F5F5F5F5F5F5F5F5F5F5E2E2F5E2E2F5E2F5F5F5F5F5F5F5F5F5F5F5F5F5F5F5F5F5F5F5F5F5F5F5F5F5F5F5F5F5F5F5F5F5F5F5F5
310
F5F5F5F5F5F5F5F5F5F5F5F5F5F5F5F5F5F5F5F5F5F5F5F5F5F5BEE2F5F5F5F5F5F5F5F5F5F5F5F5F5F5F5F5F5F5F5F5F5F5F5F5F5F5F5F5F5F5F5F5F5F5F5F5F5F5F5F5F5F5F5F5F5F5BEE2F5F5F5F5F5F5F5F5F5F5F5F5F5F5F5F5F5F5F5F5F5F5F5F5F5F5F5F5F5F5F5F5F5F5F5F5F5F5F5F5F5F5F5F5F5F5F5F5F5F5F5
310
F5F5F5F5F5F5F5F5F5F5E2E2F5E2E2F5E2F5F5F5F5F5F5F5F5F5F5F5F5F5F5F5F5F5F5F5F5F5F5F5F5F5F5F5F5F5F5F5F5F5F5F5F5F5F5F5F5F5F5F5F5F5F5F5F5F5F5F5F5F5F5F5F5F5F5F5F5F5F5E2E2E2E2E2E2E2E2E2E2E2E2E2E2E2E2E2E2E2E2E2E2E2E2E2E2E2E2E2E2E2E2E2E2E2E2E2E2E2E2E2E2E2E2E2E2E2E2
310
E2E2E2F5F5F5F5F5F5F5F5F5F5F5F5F5F5F5F5F5F5F5F5F5F5F5F5F5F5F5F5F5F5F5F5F5F5F5F5F5F5F5F5F5F5F5F5F5F5F5F5F5F5F5F5F5F5F5F5F5F5F5F5E2E2F5E2E2F5E2F5F5F5F5F5F5F5F5F5F5F5F5F5F5F5F5F5F5F5F5F5F5F5F5F5F5F5F5F5F5F5F5F5F5F5F5F5F5F5F5F5F5F5F5F5F5F5F5F5F5F5F5F5F5F5F5F5
310
F5F5F5F5F5F5E2BEF5F5F5F5F5F5F5F5F5F5F5F5F5F5F5F5F5F5F5F5E2E2E2E2E2F5F5F5F5F5F5F5F5F5F5F5F5F5F5F5F5F5F5F5F5F5E2BEF5F5F5F5F5F5F5F5F5F5F5F5F5F5F5F5F5F5F5F5F5F5F5F5F5F5F5F5F5F5F5F5F5F5F5F5F5F5F5F5F5F5F5F5F5F5F5F5F5F5F5F5F5F5F5F5F5F5F5F5E2E2F5E2E2F5E2F5F5F5F5
310
F5F5F5F5F5F5F5F5F5F5F5F5F5F5F5F5F5F5F5F5F5F5F5F5F5F5F5F5F5F5F5F5F5F5F5F5F5F5F5F5F5F5F5F5F5F5F5F5F5F5F5F5F5F5F5F5F5F5F5E2F5F5F5F5F5F5F5F5F5F5F5F5F5F5F5F5F5F5F5F5F5E2E2E2E2E2F5F5F5F5F5F5F5F5F5F5F5F5F5F5F5F5F5F5F5F5F5E2F5F5F5F5F5F5F5F5F5F5F5F5F5F5F5F5F5F5F5
310
F5F5F5F5F5F5F5F5F5F5F5F5F5F5F5F5F5F5F5F5F5F5F5F5F5F5F5F5F5F5F5F5F5F5F5F5F5F5F5F5F5F5E2E2F5E2E2F5E2F5F5F5F5F5F5F5F5F5F5F5F5F5F5F5F5F5F5F5F5F5F5F5F5F5F5F5F5F5F5F5F5F5F5F5F5F5F5F5F5F5F5F5F5F5F5F5F5F5F5F5F5F5F5F5F5F5F5F5F5F5F5F5F5F5F5F5F5F5F5F5F5F5F5F5F5F5F5
310
F5F5F5F5F5F5F5E2E2E2E2E2F5F5F5F5F5F5F5F5F5F5F5F5F5F5F5F5F5F5F5F5F5F5F5F5F5F5F5F5F5F5F5F5F5F5F5F5F5F5F5F5F5F5F5F5F5F5F5F5F5F5F5F5F5F5F5F5F5F5F5F5F5F5F5F5F5F5F5F5F5F5F5F5F5F5F5F5F5F5F5F5F5F5F5E2E2F5E2E2F5E2F5F5F5F5F5F5F5F5F5F5F5F5F5F5F5F5F5F5F5F5F5F5F5F5F5
310
F5F5F5F5F5F5F5F5F5F5F5F5F5F5F5F5F5F5F5F5F5F5F5F5F5F5F5F5F5F5F5F5F5F5F5F5F5F5F5F5F5F5F5F5F5F5F5F5F5F5F5F5F5F5F5F5F5F5F5F5F5F5F5F5F5F5F5F5F5F5F5F5F5F5F5F5F5F5F5F5F5F5F5F5F5F5F5F5F5F5F5F5F5F5F5F5F5F5F5F5F5F5F5F5F5F5F5F5F5F5F5F5F5F5F5F5F5F5F5F5F5F5F5F5F5F5F5
310
F5F5F5F5F5F5F5F5F5F5F5F5F5F5F5F5F5F5F5F5F5E2E2F5E2E2F5E2F5F5F5F5F5F5F5F5F5F5F5F5F5F5F5F5F5F5F5F5F5F5F5F5F5F5F5F5F5F5F5F5F5F5F5F5F5F5F5F5F5F5F5F5F5F5F5F5F5F5F5F5F5F5F5F5F5F5F5F5F5F5F5F5F5F5F5F5F5F5F5F5F5F5F5F5F5F5F5F5F5F5F5F5F5F5F5F5F5F5F5F5F5F5F5F5F5F5F5
310
F5F5F5F5F5F5F5F5F5F5F5F5F5F5F5F5F5F5F5F5F5F5F5F5F5F5F5F5F5F5F5F5F5F5F5F5F5F5F5F5F5F5F5F5F5F5F5F5F5F5F5F5F5F5F5F5F5F5F5F5F5F5F5F5F5F5F5F5F5F5F5F5F5F5E2E2F5E2E2F5E2F5F5F5F5F5F5F5F5F5F5F5F5F5F5F5F5F5F5F5F5F5F5F5F5F5F5F5F5F5F5F5F5F5F5F5F5F5F5F5F5F5F5F5F5F5F5
310
F5F5F5F5F5F5F5F5F5F5F5F5F5F5F5F5F5F5F5F5F5F5F5F5F5F5F5F5F5F5F5F5F5F5F5F5F5F5F5F5F5F5F5F5F5F5F5F5F5F5F5F5F5F5F5F5F5F5F5F5F5F5F5F5F5F5F5F5F5F5F5F5F5F5F5F5F5F5F5F5F5F5F5F5F5F5F5F5F5F5F5F5F5F5F5F5F5F5F5F5F5F5F5F5F5F5F5F5F5F5F5F5F5F5F5F5F5F5F5F5F5F5F5F5F5F5F5
310
E2E2F5E2E2F5E2F5F5F5F5F5F5F5F5F5F5F5F5F5F5F5F5F5F5F5F5F5F5F5F5F5F5F5F5F5F5F5F5F5F5F5F5F5F5F5F5F5F5F5F5F5F5F5F5F5F5F5F5F5F5F5F5F5F5F5F5F5F5F5F5F5F5F5F5F5F5F5F5F5F5F5F5F5F5F5F5F5F5F5F5F5F5F5F5F5F5F5F5F5F5F5F5F5F5F5F5F5F5F5F5F5F5F5F5F5F5F5F5F5F5F5F5F5F5F5F5
310
F5F5F5F5F5F5F5F5F5F5F5F5F5F5F5F5F5F5F5F5F5F5F5F5F5F5F5F5F5F5F5F5F5F5F5F5F5F5F5F5F5F5F5F5F5F5F5F5F5F5F5F5F5E2E2F5E2E2F5E2F5F5F5F5F5F5F5F5F5F5F5F5F5F5F5F5F5F5F5F5F5F5F5F5F5F5F5F5F5F5F5F5F5F5F5F5F5F5F5F5F5F5F5F5F5F5F5F5F5F5F5F5F5F5F5F5F5F5F5F5F5F5F5F5F5F5F5
310
F5F5F5F5F5F5F5F5F5F5F5F5F5F5F5F5F5F5F5F5F5F5F5F5F5F5F5F5F5F5F5F5F5F5F5F5F5F5F5F5F5F5F5F5F5F5F5F5F5F5F5F5F5F5F5F5F5F5F5F5F5F5F5F5F5F5F5F5F5F5F5F5F5F5F5F5F5F5F5F5F5F5F5F5F5F5F5F5F5F5F5F5F5F5F5F5F5F5F5F5F5F5F5F5F5F5E2F5F5E2E2F5E2F5F5F5F5F5F5F5F5F5F5F5F5F5F5
310
F5F5F5F5F5F5F5F5F5F5F5F5F5F5F5F5F5F5F5F5F5F5F5F5F5F5F5F5F5F5F5F5F5F5F5F5F5F5F5F5F5F5F5F5F5F5F5F5F5F5F5F5F5F5F5F5F5F5F5F5F5F5F5F5F5F5F5F5F5F5F5F5F5F5F5F5F5F5F5F5F5F5F5F5F5F5F5F5F5F5F5F5F5F5F5F5F5F5F5F5F5F5F5F5F5F5F5F5F5F5F5F5F5F5F5F5F5F5F5F5F5F5F5F5F5F5F5
310
F5F5F5F5F5F5F5F5F5F5F5F5F5F5F5F5F5F5F5F5F5F5F5F5F5F5F5F5F5F5F5F5E2F5F5E2E2F5E2F5F5F5F5F5F5F5F5F5F5F5F5F5F5F5F5F5F5F5F5F5F5F5F5F5F5F5F5F5F5F5F5F5F5F5F5F5F5F5F5F5F5F5F5F5F5F5F5F5F5F5F5F5F5F5F5F5F5F5F5F5F5F5F5F5F5F5F5F5F5F5F5F5F5F5F5F5F5F5F5F5F5F5F5F5F5F5F5
310
F5F5F5F5F5F5F5F5F5F5F5F5F5F5F5F5F5F5F5F5F5F5F5F5F5F5F5F5F5F5F5F5F5F5F5F5F5F5F5F5F5F5F5F5F5F5F5F5F5F5F5F5F5F5F5F5F5F5F5F5F5F5F5F5F5F5F5F5F5F5F5F5F5F5F5F5F5F5F5F5F5F5F5F5F5E2F5F5E2E2F5E2F5F5F5F5F5F5F5F5F5F5F5F5F5F5F5F5F5F5F5F5F5F5F5F5F5F5F5F5F5F5F5F5F5F5F5
310
F5F5F5F5F5F5F5F5F5F5F5F5F5F5F5F5F5F5F5F5F5F5F5F5F5F5F5F5F5F5F5F5F5F5F5F5F5F5F5F5F5F5F5F5F5F5F5F5F5F5F5F5F5F5F5F5F5F5F5F5F5F5F5F5F5F5F5F5F5F5F5F5F5F5F5F5F5F5F5F5F5F5F5F5F5F5F5F5F5F5F5F5F5F5F5F5F5F5F5F5F5F5F5F5F5F5F5F5F5F5F5F5F5F5F5F5F5F5F5F5F5F5F5F5F5F5F5
310
F5F5F5F5F5F5F5F5F5F5F5E2F5F5E2E2F5E2F5F5F5F5F5F5F5F5F5F5F5F5F5F5F5F5F5F5F5F5F5F5F5F5F5F5F5F5F5F5F5F5F5F5F5F5F5F5F5F5F5F5F5F5F5F5F5F5F5F5F5F5F5F5F5F5F5F5F5F5F5F5F5F5F5F5F5F5F5F5F5F5F5F5F5F5F5F5F5F5F5F5F5F5F5F5F5F5F5F5F5F5F5F5F5F5F5F5F5F5F5F5F5F5F5F5F5F5F5
310
F5F5F5F5F5F5F5F5F5F5F5F5F5F5F5F5F5F5F5F5F5F5F5F5F5F5F5F5F5F5F5F5F5F5F5F5F5F5F5F5F5F5F5F5F5F5F5F5F5F5F5F5F5F5F5F5F5F5F5F5F5F5F5F5E2F5F5E2E2F5E2F5F5F5F5F5F5F5F5F5F5F5F5F5F5F5F5F5F5F5F5F5F5F5F5F5F5F5F5F5F5F5F5F5F5F5F5F5F5F5F5F5F5F5F5F5F5F5F5F5F5F5F5F5F5F5F5
310
F5F5F5F5F5F5F5F5F5F5F5F5F5F5F5F5F5F5F5F5F5F5F5F5F5F5F5F5F5F5F5F5F5F5F5F5F5F5F5F5F5F5F5F5F5F5F5F5F5F5F5F5F5F5F5F5F5F5F5F5F5F5F5F5F5F5F5F5F5F5F5F5F5F5F5F5F5F5F5F5F5F5F5F5F5F5F5F5F5F5F5F5F5F5F5F5F5F5F5F5F5F5F5F5F5F5F5F5F5F5F5F5F5F5F5F5F5E2F5F5E2E2F5E2F5F5F5
310
F5F5F5F5F5F5F5F5F5F5F5F5F5F5F5F5F5F5F5F5F5F5F5F5F5F5F5F5F5F5F5F5F5F5F5F5F5F5F5F5F5F5F5F5F5F5F5F5F5F5F5F5F5F5F5F5F5F5F5F5F5F5F5F5F5F5F5F5F5F5F5F5F5F5F5F5F5F5F5F5F5F5F5F5F5F5F5F5F5F5F5F5F5F5F5F5F5F5F5F5F5F5F5F5F5F5F5F5F5F5F5F5F5F5F5F5F5F5F5F5F5F5F5F5F5F5F5
310
F5F5F5F5F5F5F5F5F5F5F5F5F5F5F5F5F5F5F5F5F5F5F5F5F5F5F5F5F5F5F5F5F5F5F5F5F5F5F5F5F5F5F5E2F5F5E2E2F5E2F5F5F5F5F5F5F5F5F5F5F5F5F5F5F5F5F5F5F5F5F5F5F5F5F5F5F5F5F5F5F5F5F5F5F5F5F5F5F5F5F5F5F5F5F5F5F5F5F5F5F5F5F5F5F5F5F5F5F5F5F5F5F5F5F5F5F5F5F5F5F5F5F5F5F5F5F5
310
F5F5F5F5F5F5F5F5F5F5F5F5F5F5F5F5F5F5F5F5F5F5F5F5F5F5F5F5F5F5F5F5F5F5F5F5F5F5F5F5F5F5F5F5F5F5F5F5F5F5F5F5F5F5F5F5F5F5F5F5F5F5F5F5F5F5F5F5F5F5F5F5F5F5F5F5F5F5F5F5F5F5F5F5F5F5F5F5F5F5F5F5F5F5F5F5E2F5F5E2E2F5E2F5F5F5F5F5F5F5F5F5F5F5F5F5F5F5F5F5F5F5F5F5F5F5F5
310
F5F5F5F5F5F5F5F5F5F5F5F5F5F5F5F5F5F5F5F5F5F5F5F5F5F5F5F5F5F5F5F5F5F5F5F5F5F5F5F5F5F5F5F5F5F5F5F5F5F5F5F5F5F5F5F5F5F5F5F5F5F5F5F5F5F5F5F5F5F5F5F5F5F5F5F5F5F5F5F5F5F5F5F5F5F5F5F5F5F5F5F5F5F5F5F5F5F5F5F5F5F5F5F5F5F5F5F5F5F5F5F5F5F5F5F5F5F5F5F5F5F5F5F5F5F5F5
310
F5F5F5F5F5F5F5F5F5F5F5F5F5F5F5F5F5F5F5F5F5F5E2F5F5E2E2F5E2F5F5F5F5F5F5F5F5F5F5F5F5F5F5F5F5F5F5F5F5F5F5F5F5F5F5F5F5F5F5F5F5F5F5F5F5F5F5F5F5F5F5F5F5F5F5F5F5F5F5F5F5F5F5F5F5F5F5F5F5F5F5F5F5F5F5F5F5F5F5F5F5F5F5F5F5F5F5F5F5F5F5F5F5F5F5F5F5F5F5F5F5F5F5F5F5F5F5
310
F5F5F5F5F5F5F5F5F5F5F5F5F5F5F5F5F5F5F5F5F5F5F5F5F5F5F5F5F5F5F5F5F5F5F5F5F5F5F5F5F5F5F5F5F5F5F5F5F5F5F5F5F5F5F5F5F5F5F5F5F5F5F5F5F5F5F5F5F5F5F5F5F5F5F5E2E2F5E2E2F5E2F5F5F5F5F5F5F5F5F5F5F5F5F5F5F5F5F5F5F5F5F5F5F5F5F5F5F5F5F5F5F5F5F5F5F5F5F5F5F5F5F5F5F5F5F5
310
F5F5F5F5F5F5F5F5F5F5F5F5F5F5F5F5F5F5F5F5F5F5F5F5F5F5F5F5F5F5F5F5F5F5F5F5F5F5F5F5F5F5F5F5F5F5F5F5F5F5F5F5F5F5F5F5F5F5F5F5F5F5F5F5F5F5F5F5F5F5F5F5F5F5F5F5F5F5F5F5F5F5F5F5F5F5F5F5F5F5F5F5F5F5F5F5F5F5F5F5F5F5F5F5F5F5F5F5F5F5F5F5F5F5F5F5F5F5F5F5F5F5F5F5F5F5F5
310
F5E2E2F5E2E2F5E2F5F5F5F5F5F5F5F5F5F5F5F5F5F5F5F5F5F5F5F5F5F5F5F5F5F5F5F5F5F5F5F5F5F5F5F5F5F5F5F5F5F5F5F5F5F5F5F5F5F5F5F5F5F5F5F5F5F5F5F5F5F5F5F5F5F5F5F5F5F5F5F5F5F5F5F5F5F5F5F5F5F5F5F5F5F5F5F5F5F5F5F5F5F5F5F5F5F5F5F5F5F5F5F5F5F5F5F5F5F5F5F5F5F5F5F5F5F5F5
310
F5F5F5F5F5F5F5F5F5F5F5F5F5F5F5F5F5F5F5F5F5F5F5F5F5F5F5F5F5F5F5F5F5F5F5F5F5F5F5F5F5F5F5F5F5F5F5F5F5F5F5F5F5F5E2E2F5E2E2F5E2F5F5F5F5F5F5F5F5F5F5F5F5F5F5F5F5F5F5F5F5F5F5F5F5F5F5F5F5F5F5F5F5F5F5F5F5F5F5F5F5F5F5F5F5F5F5F5F5F5F5F5F5F5F5F5F5F5F5F5F5F5F5F5F5F5F5
310
F5F5F5F5F5F5F5F5F5F5F5F5F5F5F5F5F5F5F5F5F5F5F5F5F5F5F5F5F5F5F5F5F5F5F5F5F5F5F5F5F5F5F5F5F5F5F5F5F5F5F5F5F5F5F5F5F5F5F5F5F5F5F5F5F5F5F5F5F5F5F5F5F5F5F5F5F5F5F5F5F5F5F5F5F5F5F5F5F5F5F5F5F5F5F5F5F5F5F5F5F5F5F5F5F5F5F5E2E2F5E2E2F5E2F5F5F5F5F5F5F5F5F5F5F5F5F5
310
F5F5F5F5F5F5F5F5F5F5F5F5F5F5F5F5F5F5F5F5F5F5F5F5F5F5F5F5F5F5F5F5F5F5F5F5F5F5F5F5F5F5F5F5F5F5F5F5F5F5F5F5F5F5F5F5F5F5F5F5F5F5F5F5F5F5F5F5F5F5F5F5F5F5F5F5F5F5F5F5F5F5F5F5F5F5F5F5F5F5F5F5F5F5F5F5F5F5F5F5F5F5F5F5F5F5F5F5F5F5F5F5F5F5F5F5F5F5F5F5F5F5F5F5F5F5F5
310
F5F5F5F5F5F5F5F5F5F5F5F5F5F5F5F5F5F5F5F5F5F5F5F5F5F5F5F5F5F5F5F5F5E2E2F5E2E2F5E2F5F5F5F5F5F5F5F5F5F5F5F5F5F5F5F5F5F5F5F5F5F5F5F5F5F5F5F5F5F5F5F5F5F5F5F5F5F5F5F5F5F5F5F5F5F5F5F5F5F5F5F5F5F5F5F5F5F5F5F5F5F5F5F5F5F5F5F5F5F5F5F5F5F5F5F5F5F5F5F5F5F5F5F5F5F5F5
310
F5F5F5F5F5F5F5F5F5F5F5F5F5F5F5F5F5F5F5F5F5F5F5F5F5F5F5F5F5F5F5F5F5F5F5F5F5F5F5F5F5F5F5F5F5F5F5F5F5F5F5F5F5F5F5F5F5F5F5F5F5F5F5F5F5F5F5F5F5F5F5F5F5F5F5F5F5F5F5F5F5F5F5F5F5F5E2E2F5E2E2F5E2F5F5F5F5F5F5F5F5F5F5F5F5F5F5F5F5F5F5F5F5F5F5F5F5F5F5F5F5F5F5F5F5F5F5
310
F5F5F5F5F5F5F5F5F5F5F5F5F5F5F5F5F5F5F5F5F5F5F5F5F5F5F5F5F5F5F5F5F5F5F5F5F5F5F5F5F5F5F5F5F5F5F5F5F5F5F5F5F5F5F5F5F5F5F5F5F5F5F5F5F5F5F5F5F5F5F5F5F5F5F5F5F5F5F5F5F5F5F5F5F5F5F5F5F5F5F5F5F5F5F5F5F5F5F5F5F5F5F5F5F5F5F5F5F5F5F5F5F5F5F5F5F5F5F5F5F5F5F5F5F5F5F5
310
F5F5F5F5F5F5F5F5F5F5F5F5E2E2F5E2E2F5E2E2E2E2E2E2E2E2E2E2E2E2E2E2E2E2E2E2E2E2E2E2E2E2E2E2E2E2E2E2E2E2E2E2E2E2E2E2E2E2E2E2E2E2E2E2E2E2E2E2E2E2E2E2E2E2E2E2E2E2E2E2E2E2E2E2E2E2E2E2E2E2E2E2E2E2E2E2E2E2E2E2E2E2E2E2E2E2E2E2E2E2E2E2E2E2E2E2E2E2E2E2E2E2E2E2E2E2E2
310
E2E2E2E2E2E2E2E2E2E2E2E2E2E2E2E2E2E2E2E2E2E2E2E2E2E2E2E2E2E2E2E2E2E2E2E2E2E2E2E2E2E2E2E2E2E2E2E2E2E2E2E2E2E2E2E2E2E2E2E2E2E2E2E2E2E2E2F5E2E2F5F5F5F5F5F5F5F5F5F5F5F5F5F5F5F5F5F5F5F5F5F5F5F5F5F5F5F5F5F5F5F5F5F5F5F5F5F5F5F5F5F5F5F5F5F5F5F5F5F5F5F5F5F5F5F5F5
310
F5F5F5F5F5F5F5F5F5F5F5F5F5F5F5F5F5F5F5F5F5F5F5F5F5F5F5F5F5F5F5F5F5F5F5F5F5F5F5F5F5F5F5F5F5F5F5F5F5F5F5F5F5F5F5F5F5F5F5F5F5F5F5F5F5F5F5F5F5F5F5F5F5F5F5F5F5F5F5F5F5F5F5F5F5F5F5F5F5F5F5F5F5F5F5F5F5F5F5F5F5F5F5F5F5F5F5F5F5F5F5F5F5F5F5F5F5F5F5F5F5E2E2E2E2E2E2
310
E2E2E2E2E2E2E2E2E2E2E2E2E2E2E2E2E2E2E2E2E2E2E2E2E2E2E2E2E2E2E2E2E2E2E2E2E2E2E2E2E2E2E2E2E2E2E2E2E2E2E2E2E2E2E2E2E2E2E2E2E2E2E2E2E2E2E2E2E2E2E2E2E2E2E2E2E2E2E2E2E2E2E2E2E2E2E2E2E2E2E2E2E2E2E2E2E2E2E2E2E2E2E2E2E2E2E2E2E2E2E2E2E2E2E2E2E2E2E2E2E2E2E2E2E2E2E2
310
E2E2E2E2E2E2E2E2E2E2E2E2E2E2E2E2E2E2E2E2E2E2E2E2E2E2E2E2E2E2E2E2E2E2E2E2E2E2E2E2E2E2E2E2E2E2E2E2
  0
XRECORD
  5
47E3
102
{ACAD_REACTORS
330
47E2
102
}
330
47E2
100
AcDbXrecord
280
     1
102
MATERIAL
148
0.0
149
0.0
149
0.0
 93
        0
 94
      127
282
     0
 72
     1
 77
     1
171
     1
175
     1
179
     1
273
     0
  0
XRECORD
  5
47E1
102
{ACAD_REACTORS
330
47E0
102
}
330
47E0
100
AcDbXrecord
280
     1
102
MATERIAL
148
0.0
149
0.0
149
0.0
 93
        0
 94
      127
282
     0
 72
     1
 77
     1
171
     1
175
     1
179
     1
273
     0
  0
XRECORD
  5
47E5
102
{ACAD_REACTORS
330
47E4
102
}
330
47E4
100
AcDbXrecord
280
     1
102
MATERIAL
148
0.0
149
0.0
149
0.0
 93
        0
 94
      127
282
     0
 72
     1
 77
     1
171
     1
175
     1
179
     1
273
     0
  0
CELLSTYLEMAP
  5
47DF
102
{ACAD_REACTORS
330
3CCB
102
}
330
3CCB
100
AcDbCellStyleMap
 90
        3
300
CELLSTYLE
  1
TABLEFORMAT_BEGIN
 90
        5
170
     1
 91
        0
 92
    32768
 62
   257
 93
        1
300
CONTENTFORMAT
  1
CONTENTFORMAT_BEGIN
 90
        0
 91
        0
 92
      512
 93
        0
300

 40
0.0
140
1.0
 94
        5
 62
     0
340
11
144
0.25
309
CONTENTFORMAT_END
171
     0
 94
        6
 95
        1
302
GRIDFORMAT
  1
GRIDFORMAT_BEGIN
 90
        0
 91
        1
 62
     0
 92
       -2
340
0
 93
        0
 40
0.045
309
GRIDFORMAT_END
 95
        2
302
GRIDFORMAT
  1
GRIDFORMAT_BEGIN
 90
        0
 91
        1
 62
     0
 92
       -2
340
0
 93
        0
 40
0.045
309
GRIDFORMAT_END
 95
        4
302
GRIDFORMAT
  1
GRIDFORMAT_BEGIN
 90
        0
 91
        1
 62
     0
 92
       -2
340
0
 93
        0
 40
0.045
309
GRIDFORMAT_END
 95
        8
302
GRIDFORMAT
  1
GRIDFORMAT_BEGIN
 90
        0
 91
        1
 62
     0
 92
       -2
340
0
 93
        0
 40
0.045
309
GRIDFORMAT_END
 95
       16
302
GRIDFORMAT
  1
GRIDFORMAT_BEGIN
 90
        0
 91
        1
 62
     0
 92
       -2
340
0
 93
        0
 40
0.045
309
GRIDFORMAT_END
 95
       32
302
GRIDFORMAT
  1
GRIDFORMAT_BEGIN
 90
        0
 91
        1
 62
     0
 92
       -2
340
0
 93
        0
 40
0.045
309
GRIDFORMAT_END
309
TABLEFORMAT_END
  1
CELLSTYLE_BEGIN
 90
        1
 91
        1
300
_TITLE
309
CELLSTYLE_END
300
CELLSTYLE
  1
TABLEFORMAT_BEGIN
 90
        5
170
     1
 91
        0
 92
        0
 62
   257
 93
        1
300
CONTENTFORMAT
  1
CONTENTFORMAT_BEGIN
 90
        0
 91
        0
 92
      512
 93
        0
300

 40
0.0
140
1.0
 94
        5
 62
     0
340
11
144
0.18
309
CONTENTFORMAT_END
171
     0
 94
        6
 95
        1
302
GRIDFORMAT
  1
GRIDFORMAT_BEGIN
 90
        0
 91
        1
 62
     0
 92
       -2
340
0
 93
        0
 40
0.045
309
GRIDFORMAT_END
 95
        2
302
GRIDFORMAT
  1
GRIDFORMAT_BEGIN
 90
        0
 91
        1
 62
     0
 92
       -2
340
0
 93
        0
 40
0.045
309
GRIDFORMAT_END
 95
        4
302
GRIDFORMAT
  1
GRIDFORMAT_BEGIN
 90
        0
 91
        1
 62
     0
 92
       -2
340
0
 93
        0
 40
0.045
309
GRIDFORMAT_END
 95
        8
302
GRIDFORMAT
  1
GRIDFORMAT_BEGIN
 90
        0
 91
        1
 62
     0
 92
       -2
340
0
 93
        0
 40
0.045
309
GRIDFORMAT_END
 95
       16
302
GRIDFORMAT
  1
GRIDFORMAT_BEGIN
 90
        0
 91
        1
 62
     0
 92
       -2
340
0
 93
        0
 40
0.045
309
GRIDFORMAT_END
 95
       32
302
GRIDFORMAT
  1
GRIDFORMAT_BEGIN
 90
        0
 91
        1
 62
     0
 92
       -2
340
0
 93
        0
 40
0.045
309
GRIDFORMAT_END
309
TABLEFORMAT_END
  1
CELLSTYLE_BEGIN
 90
        2
 91
        1
300
_HEADER
309
CELLSTYLE_END
300
CELLSTYLE
  1
TABLEFORMAT_BEGIN
 90
        5
170
     1
 91
        0
 92
        0
 62
   257
 93
        1
300
CONTENTFORMAT
  1
CONTENTFORMAT_BEGIN
 90
        0
 91
        0
 92
      512
 93
        0
300

 40
0.0
140
1.0
 94
        2
 62
     0
340
11
144
0.18
309
CONTENTFORMAT_END
171
     0
 94
        6
 95
        1
302
GRIDFORMAT
  1
GRIDFORMAT_BEGIN
 90
        0
 91
        1
 62
     0
 92
       -2
340
0
 93
        0
 40
0.045
309
GRIDFORMAT_END
 95
        2
302
GRIDFORMAT
  1
GRIDFORMAT_BEGIN
 90
        0
 91
        1
 62
     0
 92
       -2
340
0
 93
        0
 40
0.045
309
GRIDFORMAT_END
 95
        4
302
GRIDFORMAT
  1
GRIDFORMAT_BEGIN
 90
        0
 91
        1
 62
     0
 92
       -2
340
0
 93
        0
 40
0.045
309
GRIDFORMAT_END
 95
        8
302
GRIDFORMAT
  1
GRIDFORMAT_BEGIN
 90
        0
 91
        1
 62
     0
 92
       -2
340
0
 93
        0
 40
0.045
309
GRIDFORMAT_END
 95
       16
302
GRIDFORMAT
  1
GRIDFORMAT_BEGIN
 90
        0
 91
        1
 62
     0
 92
       -2
340
0
 93
        0
 40
0.045
309
GRIDFORMAT_END
 95
       32
302
GRIDFORMAT
  1
GRIDFORMAT_BEGIN
 90
        0
 91
        1
 62
     0
 92
       -2
340
0
 93
        0
 40
0.045
309
GRIDFORMAT_END
309
TABLEFORMAT_END
  1
CELLSTYLE_BEGIN
 90
        3
 91
        2
300
_DATA
309
CELLSTYLE_END
  0
XRECORD
  5
47E6
102
{ACAD_REACTORS
330
3CCB
102
}
330
3CCB
100
AcDbXrecord
280
     1
102
ACAD_ROUNDTRIP_PRE2007_TABLESTYLE
 90
      512
 91
        0
  1

 92
      512
 93
        0
  2

 94
      512
 95
        0
  3

  0
XRECORD
  5
49B
102
{ACAD_REACTORS
330
49A
102
}
330
49A
100
AcDbXrecord
280
     1
102
RTVSPropertyOp0
 70
     1
102
RTVSPropertyOp1
 70
     1
102
RTVSPropertyOp2
 70
     1
102
RTVSPropertyOp3
 70
     1
102
RTVSPropertyOp4
 70
     1
102
RTVSPropertyOp5
 70
     1
102
RTVSPropertyOp6
 70
     1
102
RTVSPropertyOp7
 70
     1
102
RTVSPropertyOp8
 70
     1
102
RTVSPropertyOp9
 70
     1
102
RTVSPropertyOp10
 70
     1
102
RTVSPropertyOp11
 70
     1
102
RTVSPropertyOp12
 70
     1
102
RTVSPropertyOp13
 70
     1
102
RTVSPropertyOp14
 70
     1
102
RTVSPropertyOp15
 70
     1
102
RTVSPropertyOp16
 70
     1
102
RTVSPropertyOp17
 70
     1
102
RTVSPropertyOp18
 70
     1
102
RTVSPropertyOp19
 70
     1
102
RTVSPropertyOp20
 70
     1
102
RTVSPropertyOp21
 70
     1
102
RTVSPropertyOp22
 70
     1
102
RTVSPropertyOp23
 70
     1
102
RTVSPropertyOp24
 70
     1
102
RTVSPropertyOp25
 70
     1
102
RTVSPropertyOp26
 70
     1
102
RTVSPropertyOp27
 70
     1
  0
XRECORD
  5
A4A
102
{ACAD_REACTORS
330
A49
102
}
330
A49
100
AcDbXrecord
280
     1
102
RTVSPropertyOp0
 70
     1
102
RTVSPropertyOp1
 70
     1
102
RTVSPropertyOp2
 70
     1
102
RTVSPropertyOp3
 70
     1
102
RTVSPropertyOp4
 70
     1
102
RTVSPropertyOp5
 70
     1
102
RTVSPropertyOp6
 70
     1
102
RTVSPropertyOp7
 70
     1
102
RTVSPropertyOp8
 70
     1
102
RTVSPropertyOp9
 70
     1
102
RTVSPropertyOp10
 70
     1
102
RTVSPropertyOp11
 70
     1
102
RTVSPropertyOp12
 70
     1
102
RTVSPropertyOp13
 70
     1
102
RTVSPropertyOp14
 70
     1
102
RTVSPropertyOp15
 70
     1
102
RTVSPropertyOp16
 70
     1
102
RTVSPropertyOp17
 70
     1
102
RTVSPropertyOp18
 70
     1
102
RTVSPropertyOp19
 70
     1
102
RTVSPropertyOp20
 70
     1
102
RTVSPropertyOp21
 70
     1
102
RTVSPropertyOp22
 70
     1
102
RTVSPropertyOp23
 70
     1
102
RTVSPropertyOp24
 70
     1
102
RTVSPropertyOp25
 70
     1
102
RTVSPropertyOp26
 70
     1
102
RTVSPropertyOp27
 70
     1
  0
XRECORD
  5
4A1
102
{ACAD_REACTORS
330
4A0
102
}
330
4A0
100
AcDbXrecord
280
     1
102
RTVSPropertyOp0
 70
     1
102
RTVSPropertyOp1
 70
     1
102
RTVSPropertyOp2
 70
     1
102
RTVSPropertyOp3
 70
     1
102
RTVSPropertyOp4
 70
     1
102
RTVSPropertyOp5
 70
     1
102
RTVSPropertyOp6
 70
     1
102
RTVSPropertyOp7
 70
     1
102
RTVSPropertyOp8
 70
     1
102
RTVSPropertyOp9
 70
     1
102
RTVSPropertyOp10
 70
     1
102
RTVSPropertyOp11
 70
     1
102
RTVSPropertyOp12
 70
     1
102
RTVSPropertyOp13
 70
     1
102
RTVSPropertyOp14
 70
     1
102
RTVSPropertyOp15
 70
     1
102
RTVSPropertyOp16
 70
     1
102
RTVSPropertyOp17
 70
     1
102
RTVSPropertyOp18
 70
     1
102
RTVSPropertyOp19
 70
     1
102
RTVSPropertyOp20
 70
     1
102
RTVSPropertyOp21
 70
     1
102
RTVSPropertyOp22
 70
     1
102
RTVSPropertyOp23
 70
     1
102
RTVSPropertyOp24
 70
     1
102
RTVSPropertyOp25
 70
     1
102
RTVSPropertyOp26
 70
     1
102
RTVSPropertyOp27
 70
     1
  0
XRECORD
  5
4A9
102
{ACAD_REACTORS
330
4A8
102
}
330
4A8
100
AcDbXrecord
280
     1
102
RTVSPropertyOp0
 70
     1
102
RTVSPropertyOp1
 70
     1
102
RTVSPropertyOp2
 70
     1
102
RTVSPropertyOp3
 70
     1
102
RTVSPropertyOp4
 70
     1
102
RTVSPropertyOp5
 70
     1
102
RTVSPropertyOp6
 70
     1
102
RTVSPropertyOp7
 70
     1
102
RTVSPropertyOp8
 70
     1
102
RTVSPropertyOp9
 70
     1
102
RTVSPropertyOp10
 70
     1
102
RTVSPropertyOp11
 70
     1
102
RTVSPropertyOp12
 70
     1
102
RTVSPropertyOp13
 70
     1
102
RTVSPropertyOp14
 70
     1
102
RTVSPropertyOp15
 70
     1
102
RTVSPropertyOp16
 70
     1
102
RTVSPropertyOp17
 70
     1
102
RTVSPropertyOp18
 70
     1
102
RTVSPropertyOp19
 70
     1
102
RTVSPropertyOp20
 70
     1
102
RTVSPropertyOp21
 70
     1
102
RTVSPropertyOp22
 70
     1
102
RTVSPropertyOp23
 70
     1
102
RTVSPropertyOp24
 70
     1
102
RTVSPropertyOp25
 70
     1
102
RTVSPropertyOp26
 70
     1
102
RTVSPropertyOp27
 70
     1
  0
XRECORD
  5
4B1
102
{ACAD_REACTORS
330
4B0
102
}
330
4B0
100
AcDbXrecord
280
     1
102
RTVSPropertyOp0
 70
     1
102
RTVSPropertyOp1
 70
     1
102
RTVSPropertyOp2
 70
     1
102
RTVSPropertyOp3
 70
     1
102
RTVSPropertyOp4
 70
     1
102
RTVSPropertyOp5
 70
     1
102
RTVSPropertyOp6
 70
     1
102
RTVSPropertyOp7
 70
     1
102
RTVSPropertyOp8
 70
     1
102
RTVSPropertyOp9
 70
     1
102
RTVSPropertyOp10
 70
     1
102
RTVSPropertyOp11
 70
     1
102
RTVSPropertyOp12
 70
     1
102
RTVSPropertyOp13
 70
     1
102
RTVSPropertyOp14
 70
     1
102
RTVSPropertyOp15
 70
     1
102
RTVSPropertyOp16
 70
     1
102
RTVSPropertyOp17
 70
     1
102
RTVSPropertyOp18
 70
     1
102
RTVSPropertyOp19
 70
     1
102
RTVSPropertyOp20
 70
     1
102
RTVSPropertyOp21
 70
     1
102
RTVSPropertyOp22
 70
     1
102
RTVSPropertyOp23
 70
     1
102
RTVSPropertyOp24
 70
     1
102
RTVSPropertyOp25
 70
     1
102
RTVSPropertyOp26
 70
     1
102
RTVSPropertyOp27
 70
     1
  0
XRECORD
  5
4A7
102
{ACAD_REACTORS
330
4A6
102
}
330
4A6
100
AcDbXrecord
280
     1
102
RTVSPropertyOp0
 70
     1
102
RTVSPropertyOp1
 70
     1
102
RTVSPropertyOp2
 70
     1
102
RTVSPropertyOp3
 70
     1
102
RTVSPropertyOp4
 70
     1
102
RTVSPropertyOp5
 70
     1
102
RTVSPropertyOp6
 70
     1
102
RTVSPropertyOp7
 70
     1
102
RTVSPropertyOp8
 70
     1
102
RTVSPropertyOp9
 70
     1
102
RTVSPropertyOp10
 70
     1
102
RTVSPropertyOp11
 70
     1
102
RTVSPropertyOp12
 70
     1
102
RTVSPropertyOp13
 70
     1
102
RTVSPropertyOp14
 70
     1
102
RTVSPropertyOp15
 70
     1
102
RTVSPropertyOp16
 70
     1
102
RTVSPropertyOp17
 70
     1
102
RTVSPropertyOp18
 70
     1
102
RTVSPropertyOp19
 70
     1
102
RTVSPropertyOp20
 70
     1
102
RTVSPropertyOp21
 70
     1
102
RTVSPropertyOp22
 70
     1
102
RTVSPropertyOp23
 70
     1
102
RTVSPropertyOp24
 70
     1
102
RTVSPropertyOp25
 70
     1
102
RTVSPropertyOp26
 70
     1
102
RTVSPropertyOp27
 70
     1
  0
XRECORD
  5
4AF
102
{ACAD_REACTORS
330
4AE
102
}
330
4AE
100
AcDbXrecord
280
     1
102
RTVSPropertyOp0
 70
     1
102
RTVSPropertyOp1
 70
     1
102
RTVSPropertyOp2
 70
     1
102
RTVSPropertyOp3
 70
     1
102
RTVSPropertyOp4
 70
     1
102
RTVSPropertyOp5
 70
     1
102
RTVSPropertyOp6
 70
     1
102
RTVSPropertyOp7
 70
     1
102
RTVSPropertyOp8
 70
     1
102
RTVSPropertyOp9
 70
     1
102
RTVSPropertyOp10
 70
     1
102
RTVSPropertyOp11
 70
     1
102
RTVSPropertyOp12
 70
     1
102
RTVSPropertyOp13
 70
     1
102
RTVSPropertyOp14
 70
     1
102
RTVSPropertyOp15
 70
     1
102
RTVSPropertyOp16
 70
     1
102
RTVSPropertyOp17
 70
     1
102
RTVSPropertyOp18
 70
     1
102
RTVSPropertyOp19
 70
     1
102
RTVSPropertyOp20
 70
     1
102
RTVSPropertyOp21
 70
     1
102
RTVSPropertyOp22
 70
     1
102
RTVSPropertyOp23
 70
     1
102
RTVSPropertyOp24
 70
     1
102
RTVSPropertyOp25
 70
     1
102
RTVSPropertyOp26
 70
     1
102
RTVSPropertyOp27
 70
     1
  0
XRECORD
  5
493
102
{ACAD_REACTORS
330
492
102
}
330
492
100
AcDbXrecord
280
     1
102
RTVSPropertyOp0
 70
     1
102
RTVSPropertyOp1
 70
     1
102
RTVSPropertyOp2
 70
     1
102
RTVSPropertyOp3
 70
     1
102
RTVSPropertyOp4
 70
     1
102
RTVSPropertyOp5
 70
     1
102
RTVSPropertyOp6
 70
     1
102
RTVSPropertyOp7
 70
     1
102
RTVSPropertyOp8
 70
     1
102
RTVSPropertyOp9
 70
     1
102
RTVSPropertyOp10
 70
     1
102
RTVSPropertyOp11
 70
     1
102
RTVSPropertyOp12
 70
     1
102
RTVSPropertyOp13
 70
     1
102
RTVSPropertyOp14
 70
     1
102
RTVSPropertyOp15
 70
     1
102
RTVSPropertyOp16
 70
     1
102
RTVSPropertyOp17
 70
     1
102
RTVSPropertyOp18
 70
     1
102
RTVSPropertyOp19
 70
     1
102
RTVSPropertyOp20
 70
     1
102
RTVSPropertyOp21
 70
     1
102
RTVSPropertyOp22
 70
     1
102
RTVSPropertyOp23
 70
     1
102
RTVSPropertyOp24
 70
     1
102
RTVSPropertyOp25
 70
     1
102
RTVSPropertyOp26
 70
     1
102
RTVSPropertyOp27
 70
     1
  0
XRECORD
  5
495
102
{ACAD_REACTORS
330
494
102
}
330
494
100
AcDbXrecord
280
     1
102
RTVSPropertyOp0
 70
     1
102
RTVSPropertyOp1
 70
     1
102
RTVSPropertyOp2
 70
     1
102
RTVSPropertyOp3
 70
     1
102
RTVSPropertyOp4
 70
     1
102
RTVSPropertyOp5
 70
     1
102
RTVSPropertyOp6
 70
     1
102
RTVSPropertyOp7
 70
     1
102
RTVSPropertyOp8
 70
     1
102
RTVSPropertyOp9
 70
     1
102
RTVSPropertyOp10
 70
     1
102
RTVSPropertyOp11
 70
     1
102
RTVSPropertyOp12
 70
     1
102
RTVSPropertyOp13
 70
     1
102
RTVSPropertyOp14
 70
     1
102
RTVSPropertyOp15
 70
     1
102
RTVSPropertyOp16
 70
     1
102
RTVSPropertyOp17
 70
     1
102
RTVSPropertyOp18
 70
     1
102
RTVSPropertyOp19
 70
     1
102
RTVSPropertyOp20
 70
     1
102
RTVSPropertyOp21
 70
     1
102
RTVSPropertyOp22
 70
     1
102
RTVSPropertyOp23
 70
     1
102
RTVSPropertyOp24
 70
     1
102
RTVSPropertyOp25
 70
     1
102
RTVSPropertyOp26
 70
     1
102
RTVSPropertyOp27
 70
     1
  0
XRECORD
  5
497
102
{ACAD_REACTORS
330
496
102
}
330
496
100
AcDbXrecord
280
     1
102
RTVSPropertyOp0
 70
     1
102
RTVSPropertyOp1
 70
     1
102
RTVSPropertyOp2
 70
     1
102
RTVSPropertyOp3
 70
     1
102
RTVSPropertyOp4
 70
     1
102
RTVSPropertyOp5
 70
     1
102
RTVSPropertyOp6
 70
     1
102
RTVSPropertyOp7
 70
     1
102
RTVSPropertyOp8
 70
     1
102
RTVSPropertyOp9
 70
     1
102
RTVSPropertyOp10
 70
     1
102
RTVSPropertyOp11
 70
     1
102
RTVSPropertyOp12
 70
     1
102
RTVSPropertyOp13
 70
     1
102
RTVSPropertyOp14
 70
     1
102
RTVSPropertyOp15
 70
     1
102
RTVSPropertyOp16
 70
     1
102
RTVSPropertyOp17
 70
     1
102
RTVSPropertyOp18
 70
     1
102
RTVSPropertyOp19
 70
     1
102
RTVSPropertyOp20
 70
     1
102
RTVSPropertyOp21
 70
     1
102
RTVSPropertyOp22
 70
     1
102
RTVSPropertyOp23
 70
     1
102
RTVSPropertyOp24
 70
     1
102
RTVSPropertyOp25
 70
     1
102
RTVSPropertyOp26
 70
     1
102
RTVSPropertyOp27
 70
     1
  0
XRECORD
  5
499
102
{ACAD_REACTORS
330
498
102
}
330
498
100
AcDbXrecord
280
     1
102
RTVSPropertyOp0
 70
     1
102
RTVSPropertyOp1
 70
     1
102
RTVSPropertyOp2
 70
     1
102
RTVSPropertyOp3
 70
     1
102
RTVSPropertyOp4
 70
     1
102
RTVSPropertyOp5
 70
     1
102
RTVSPropertyOp6
 70
     1
102
RTVSPropertyOp7
 70
     1
102
RTVSPropertyOp8
 70
     1
102
RTVSPropertyOp9
 70
     1
102
RTVSPropertyOp10
 70
     1
102
RTVSPropertyOp11
 70
     1
102
RTVSPropertyOp12
 70
     1
102
RTVSPropertyOp13
 70
     1
102
RTVSPropertyOp14
 70
     1
102
RTVSPropertyOp15
 70
     1
102
RTVSPropertyOp16
 70
     1
102
RTVSPropertyOp17
 70
     1
102
RTVSPropertyOp18
 70
     1
102
RTVSPropertyOp19
 70
     1
102
RTVSPropertyOp20
 70
     1
102
RTVSPropertyOp21
 70
     1
102
RTVSPropertyOp22
 70
     1
102
RTVSPropertyOp23
 70
     1
102
RTVSPropertyOp24
 70
     1
102
RTVSPropertyOp25
 70
     1
102
RTVSPropertyOp26
 70
     1
102
RTVSPropertyOp27
 70
     1
  0
XRECORD
  5
4AD
102
{ACAD_REACTORS
330
4AC
102
}
330
4AC
100
AcDbXrecord
280
     1
102
RTVSPropertyOp0
 70
     1
102
RTVSPropertyOp1
 70
     1
102
RTVSPropertyOp2
 70
     1
102
RTVSPropertyOp3
 70
     1
102
RTVSPropertyOp4
 70
     1
102
RTVSPropertyOp5
 70
     1
102
RTVSPropertyOp6
 70
     1
102
RTVSPropertyOp7
 70
     1
102
RTVSPropertyOp8
 70
     1
102
RTVSPropertyOp9
 70
     1
102
RTVSPropertyOp10
 70
     1
102
RTVSPropertyOp11
 70
     1
102
RTVSPropertyOp12
 70
     1
102
RTVSPropertyOp13
 70
     1
102
RTVSPropertyOp14
 70
     1
102
RTVSPropertyOp15
 70
     1
102
RTVSPropertyOp16
 70
     1
102
RTVSPropertyOp17
 70
     1
102
RTVSPropertyOp18
 70
     1
102
RTVSPropertyOp19
 70
     1
102
RTVSPropertyOp20
 70
     1
102
RTVSPropertyOp21
 70
     1
102
RTVSPropertyOp22
 70
     1
102
RTVSPropertyOp23
 70
     1
102
RTVSPropertyOp24
 70
     1
102
RTVSPropertyOp25
 70
     1
102
RTVSPropertyOp26
 70
     1
102
RTVSPropertyOp27
 70
     1
  0
XRECORD
  5
A4E
102
{ACAD_REACTORS
330
A4D
102
}
330
A4D
100
AcDbXrecord
280
     1
102
RTVSPropertyOp0
 70
     1
102
RTVSPropertyOp1
 70
     1
102
RTVSPropertyOp2
 70
     1
102
RTVSPropertyOp3
 70
     1
102
RTVSPropertyOp4
 70
     1
102
RTVSPropertyOp5
 70
     1
102
RTVSPropertyOp6
 70
     1
102
RTVSPropertyOp7
 70
     1
102
RTVSPropertyOp8
 70
     1
102
RTVSPropertyOp9
 70
     1
102
RTVSPropertyOp10
 70
     1
102
RTVSPropertyOp11
 70
     1
102
RTVSPropertyOp12
 70
     1
102
RTVSPropertyOp13
 70
     1
102
RTVSPropertyOp14
 70
     1
102
RTVSPropertyOp15
 70
     1
102
RTVSPropertyOp16
 70
     1
102
RTVSPropertyOp17
 70
     1
102
RTVSPropertyOp18
 70
     1
102
RTVSPropertyOp19
 70
     1
102
RTVSPropertyOp20
 70
     1
102
RTVSPropertyOp21
 70
     1
102
RTVSPropertyOp22
 70
     1
102
RTVSPropertyOp23
 70
     1
102
RTVSPropertyOp24
 70
     1
102
RTVSPropertyOp25
 70
     1
102
RTVSPropertyOp26
 70
     1
102
RTVSPropertyOp27
 70
     1
  0
XRECORD
  5
4AB
102
{ACAD_REACTORS
330
4AA
102
}
330
4AA
100
AcDbXrecord
280
     1
102
RTVSPropertyOp0
 70
     1
102
RTVSPropertyOp1
 70
     1
102
RTVSPropertyOp2
 70
     1
102
RTVSPropertyOp3
 70
     1
102
RTVSPropertyOp4
 70
     1
102
RTVSPropertyOp5
 70
     1
102
RTVSPropertyOp6
 70
     1
102
RTVSPropertyOp7
 70
     1
102
RTVSPropertyOp8
 70
     1
102
RTVSPropertyOp9
 70
     1
102
RTVSPropertyOp10
 70
     1
102
RTVSPropertyOp11
 70
     1
102
RTVSPropertyOp12
 70
     1
102
RTVSPropertyOp13
 70
     1
102
RTVSPropertyOp14
 70
     1
102
RTVSPropertyOp15
 70
     1
102
RTVSPropertyOp16
 70
     1
102
RTVSPropertyOp17
 70
     1
102
RTVSPropertyOp18
 70
     1
102
RTVSPropertyOp19
 70
     1
102
RTVSPropertyOp20
 70
     1
102
RTVSPropertyOp21
 70
     1
102
RTVSPropertyOp22
 70
     1
102
RTVSPropertyOp23
 70
     1
102
RTVSPropertyOp24
 70
     1
102
RTVSPropertyOp25
 70
     1
102
RTVSPropertyOp26
 70
     1
102
RTVSPropertyOp27
 70
     1
  0
ENDSEC
  0
EOF
