  0
SECTION
  2
HEADER
  9
$ACADVER
  1
AC1018
  9
$ACADMAINTVER
 70
   104
  9
$DWGCODEPAGE
  3
ANSI_1250
  9
$LASTSAVEDBY
  1
bonzo
  9
$INSBASE
 10
0.0
 20
0.0
 30
0.0
  9
$EXTMIN
 10
1.495254873690926
 20
1.572999731023479
 30
0.0
  9
$EXTMAX
 10
6.696374271305103
 20
10.10982925853026
 30
0.0
  9
$LIMMIN
 10
0.0
 20
0.0
  9
$LIMMAX
 10
12.0
 20
9.0
  9
$ORTHOMODE
 70
     1
  9
$REGENMODE
 70
     1
  9
$FILLMODE
 70
     1
  9
$QTEXTMODE
 70
     0
  9
$MIRRTEXT
 70
     1
  9
$LTSCALE
 40
1.0
  9
$ATTMODE
 70
     1
  9
$TEXTSIZE
 40
0.2
  9
$TRACEWID
 40
0.05
  9
$TEXTSTYLE
  7
Standard
  9
$CLAYER
  8
0
  9
$CELTYPE
  6
ByLayer
  9
$CECOLOR
 62
   256
  9
$CELTSCALE
 40
1.0
  9
$DISPSILH
 70
     0
  9
$DIMSCALE
 40
0.02
  9
$DIMASZ
 40
3.0
  9
$DIMEXO
 40
20.0
  9
$DIMDLI
 40
0.0
  9
$DIMRND
 40
0.1
  9
$DIMDLE
 40
0.0
  9
$DIMEXE
 40
5.0
  9
$DIMTP
 40
0.0
  9
$DIMTM
 40
0.0
  9
$DIMTXT
 40
9.0
  9
$DIMCEN
 40
12.0
  9
$DIMTSZ
 40
0.0
  9
$DIMTOL
 70
     0
  9
$DIMLIM
 70
     0
  9
$DIMTIH
 70
     0
  9
$DIMTOH
 70
     0
  9
$DIMSE1
 70
     1
  9
$DIMSE2
 70
     1
  9
$DIMTAD
 70
     1
  9
$DIMZIN
 70
     1
  9
$DIMBLK
  1

  9
$DIMASO
 70
     1
  9
$DIMSHO
 70
     1
  9
$DIMPOST
  1

  9
$DIMAPOST
  1

  9
$DIMALT
 70
     0
  9
$DIMALTD
 70
     4
  9
$DIMALTF
 40
1.0
  9
$DIMLFAC
 40
1.0
  9
$DIMTOFL
 70
     1
  9
$DIMTVP
 40
0.0
  9
$DIMTIX
 70
     1
  9
$DIMSOXD
 70
     0
  9
$DIMSAH
 70
     1
  9
$DIMBLK1
  1
MAR-STRZ
  9
$DIMBLK2
  1
MAR-STRZ
  9
$DIMSTYLE
  2
AR SKALA 1-50
  9
$DIMCLRD
 70
   256
  9
$DIMCLRE
 70
   256
  9
$DIMCLRT
 70
   256
  9
$DIMTFAC
 40
0.01
  9
$DIMGAP
 40
6.0
  9
$DIMJUST
 70
     0
  9
$DIMSD1
 70
     0
  9
$DIMSD2
 70
     0
  9
$DIMTOLJ
 70
     1
  9
$DIMTZIN
 70
     0
  9
$DIMALTZ
 70
     0
  9
$DIMALTTZ
 70
     0
  9
$DIMUPT
 70
     0
  9
$DIMDEC
 70
     2
  9
$DIMTDEC
 70
     2
  9
$DIMALTU
 70
     2
  9
$DIMALTTD
 70
     4
  9
$DIMTXSTY
  7
AR 01 SWIS
  9
$DIMAUNIT
 70
     0
  9
$DIMADEC
 70
     1
  9
$DIMALTRND
 40
0.0
  9
$DIMAZIN
 70
     0
  9
$DIMDSEP
 70
    46
  9
$DIMATFIT
 70
     3
  9
$DIMFRAC
 70
     0
  9
$DIMLDRBLK
  1
MAR-STRZ
  9
$DIMLUNIT
 70
     2
  9
$DIMLWD
 70
    -2
  9
$DIMLWE
 70
    -2
  9
$DIMTMOVE
 70
     2
  9
$LUNITS
 70
     2
  9
$LUPREC
 70
     4
  9
$SKETCHINC
 40
0.1
  9
$FILLETRAD
 40
0.5
  9
$AUNITS
 70
     0
  9
$AUPREC
 70
     0
  9
$MENU
  1
.
  9
$ELEVATION
 40
0.0
  9
$PELEVATION
 40
0.0
  9
$THICKNESS
 40
0.0
  9
$LIMCHECK
 70
     0
  9
$CHAMFERA
 40
0.5
  9
$CHAMFERB
 40
0.5
  9
$CHAMFERC
 40
1.0
  9
$CHAMFERD
 40
0.0
  9
$SKPOLY
 70
     0
  9
$TDCREATE
 40
2455956.499359827
  9
$TDUCREATE
 40
2455956.416026493
  9
$TDUPDATE
 40
2459311.321458507
  9
$TDUUPDATE
 40
2459311.238125174
  9
$TDINDWG
 40
0.0956541319
  9
$TDUSRTIMER
 40
0.0956541319
  9
$USRTIMER
 70
     1
  9
$ANGBASE
 50
0.0
  9
$ANGDIR
 70
     0
  9
$PDMODE
 70
     0
  9
$PDSIZE
 40
0.0
  9
$PLINEWID
 40
0.0
  9
$SPLFRAME
 70
     0
  9
$SPLINETYPE
 70
     6
  9
$SPLINESEGS
 70
     8
  9
$HANDSEED
  5
1385
  9
$SURFTAB1
 70
     6
  9
$SURFTAB2
 70
     6
  9
$SURFTYPE
 70
     6
  9
$SURFU
 70
     6
  9
$SURFV
 70
     6
  9
$UCSBASE
  2

  9
$UCSNAME
  2

  9
$UCSORG
 10
0.0
 20
0.0
 30
0.0
  9
$UCSXDIR
 10
1.0
 20
0.0
 30
0.0
  9
$UCSYDIR
 10
0.0
 20
1.0
 30
0.0
  9
$UCSORTHOREF
  2

  9
$UCSORTHOVIEW
 70
     0
  9
$UCSORGTOP
 10
0.0
 20
0.0
 30
0.0
  9
$UCSORGBOTTOM
 10
0.0
 20
0.0
 30
0.0
  9
$UCSORGLEFT
 10
0.0
 20
0.0
 30
0.0
  9
$UCSORGRIGHT
 10
0.0
 20
0.0
 30
0.0
  9
$UCSORGFRONT
 10
0.0
 20
0.0
 30
0.0
  9
$UCSORGBACK
 10
0.0
 20
0.0
 30
0.0
  9
$PUCSBASE
  2

  9
$PUCSNAME
  2

  9
$PUCSORG
 10
0.0
 20
0.0
 30
0.0
  9
$PUCSXDIR
 10
1.0
 20
0.0
 30
0.0
  9
$PUCSYDIR
 10
0.0
 20
1.0
 30
0.0
  9
$PUCSORTHOREF
  2

  9
$PUCSORTHOVIEW
 70
     0
  9
$PUCSORGTOP
 10
0.0
 20
0.0
 30
0.0
  9
$PUCSORGBOTTOM
 10
0.0
 20
0.0
 30
0.0
  9
$PUCSORGLEFT
 10
0.0
 20
0.0
 30
0.0
  9
$PUCSORGRIGHT
 10
0.0
 20
0.0
 30
0.0
  9
$PUCSORGFRONT
 10
0.0
 20
0.0
 30
0.0
  9
$PUCSORGBACK
 10
0.0
 20
0.0
 30
0.0
  9
$USERI1
 70
     0
  9
$USERI2
 70
     0
  9
$USERI3
 70
     0
  9
$USERI4
 70
     0
  9
$USERI5
 70
     0
  9
$USERR1
 40
0.0
  9
$USERR2
 40
0.0
  9
$USERR3
 40
0.0
  9
$USERR4
 40
0.0
  9
$USERR5
 40
0.0
  9
$WORLDVIEW
 70
     1
  9
$SHADEDGE
 70
     3
  9
$SHADEDIF
 70
    70
  9
$TILEMODE
 70
     1
  9
$MAXACTVP
 70
    64
  9
$PINSBASE
 10
0.0
 20
0.0
 30
0.0
  9
$PLIMCHECK
 70
     0
  9
$PEXTMIN
 10
0.0
 20
0.0
 30
0.0
  9
$PEXTMAX
 10
0.0
 20
0.0
 30
0.0
  9
$PLIMMIN
 10
0.0
 20
0.0
  9
$PLIMMAX
 10
12.0
 20
9.0
  9
$UNITMODE
 70
     0
  9
$VISRETAIN
 70
     1
  9
$PLINEGEN
 70
     0
  9
$PSLTSCALE
 70
     1
  9
$TREEDEPTH
 70
  3020
  9
$CMLSTYLE
  2
Standard
  9
$CMLJUST
 70
     0
  9
$CMLSCALE
 40
1.0
  9
$PROXYGRAPHICS
 70
     1
  9
$MEASUREMENT
 70
     0
  9
$CELWEIGHT
370
    -1
  9
$ENDCAPS
280
     0
  9
$JOINSTYLE
280
     0
  9
$LWDISPLAY
290
     0
  9
$INSUNITS
 70
     1
  9
$HYPERLINKBASE
  1

  9
$STYLESHEET
  1

  9
$XEDIT
290
     1
  9
$CEPSNTYPE
380
     0
  9
$PSTYLEMODE
290
     1
  9
$FINGERPRINTGUID
  2
{1B330B5B-CE04-4EC8-B886-8C8BFC3A02BF}
  9
$VERSIONGUID
  2
{D05E5EC6-E02B-476E-A1B4-BE7A5120A153}
  9
$EXTNAMES
290
     1
  9
$PSVPSCALE
 40
0.0
  9
$OLESTARTUP
290
     0
  9
$SORTENTS
280
   127
  9
$INDEXCTL
280
     0
  9
$HIDETEXT
280
     1
  9
$XCLIPFRAME
290
     0
  9
$HALOGAP
280
     0
  9
$OBSCOLOR
 70
   257
  9
$OBSLTYPE
280
     0
  9
$INTERSECTIONDISPLAY
280
     0
  9
$INTERSECTIONCOLOR
 70
   257
  9
$DIMASSOC
280
     2
  9
$PROJECTNAME
  1

  0
ENDSEC
  0
SECTION
  2
CLASSES
  0
CLASS
  1
ACDBDICTIONARYWDFLT
  2
AcDbDictionaryWithDefault
  3
ObjectDBX Classes
 90
        0
 91
        1
280
     0
281
     0
  0
CLASS
  1
VISUALSTYLE
  2
AcDbVisualStyle
  3
ObjectDBX Classes
 90
     4095
 91
       16
280
     0
281
     0
  0
CLASS
  1
MATERIAL
  2
AcDbMaterial
  3
ObjectDBX Classes
 90
     1153
 91
        3
280
     0
281
     0
  0
CLASS
  1
DICTIONARYVAR
  2
AcDbDictionaryVar
  3
ObjectDBX Classes
 90
        0
 91
        9
280
     0
281
     0
  0
CLASS
  1
TABLESTYLE
  2
AcDbTableStyle
  3
ObjectDBX Classes
 90
     4095
 91
        1
280
     0
281
     0
  0
CLASS
  1
SORTENTSTABLE
  2
AcDbSortentsTable
  3
ObjectDBX Classes
 90
        0
 91
        4
280
     0
281
     0
  0
CLASS
  1
DIMASSOC
  2
AcDbDimAssoc
  3
"AcDbDimAssoc|Product Desc:     AcDim ARX App For Dimension|Company:          Autodesk, Inc.|WEB Address:      www.autodesk.com"
 90
        0
 91
        2
280
     0
281
     0
  0
CLASS
  1
SCALE
  2
AcDbScale
  3
ObjectDBX Classes
 90
     1153
 91
       33
280
     0
281
     0
  0
CLASS
  1
MLEADERSTYLE
  2
AcDbMLeaderStyle
  3
ACDB_MLEADERSTYLE_CLASS
 90
     4095
 91
        1
280
     0
281
     0
  0
CLASS
  1
CELLSTYLEMAP
  2
AcDbCellStyleMap
  3
ObjectDBX Classes
 90
     1152
 91
        4
280
     0
281
     0
  0
ENDSEC
  0
SECTION
  2
TABLES
  0
TABLE
  2
VPORT
  5
8
102
{ACAD_XDICTIONARY
360
84C
102
}
330
0
100
AcDbSymbolTable
 70
     1
  0
VPORT
  5
29
330
8
100
AcDbSymbolTableRecord
100
AcDbViewportTableRecord
  2
*Active
 70
     0
 10
0.0
 20
0.0
 11
1.0
 21
1.0
 12
4.57500026832178
 22
6.052940350781602
 13
0.0
 23
0.0
 14
0.5
 24
0.5
 15
0.5
 25
0.5
 16
0.0
 26
0.0
 36
1.0
 17
0.0
 27
0.0
 37
-1000.0
 40
8.731707861333777
 41
2.060556464811783
 42
50.0
 43
4.148984367261674
 44
9.217858496371269
 50
0.0
 51
0.0
 71
     0
 72
   100
 73
     1
 74
     3
 75
     0
 76
     0
 77
     0
 78
     0
281
     0
 65
     1
110
0.0
120
0.0
130
0.0
111
1.0
121
0.0
131
0.0
112
0.0
122
1.0
132
0.0
 79
     0
146
0.0
  0
ENDTAB
  0
TABLE
  2
LTYPE
  5
5
330
0
100
AcDbSymbolTable
 70
     2
  0
LTYPE
  5
14
330
5
100
AcDbSymbolTableRecord
100
AcDbLinetypeTableRecord
  2
ByBlock
 70
     0
  3

 72
    65
 73
     0
 40
0.0
  0
LTYPE
  5
15
330
5
100
AcDbSymbolTableRecord
100
AcDbLinetypeTableRecord
  2
ByLayer
 70
     0
  3

 72
    65
 73
     0
 40
0.0
  0
LTYPE
  5
16
330
5
100
AcDbSymbolTableRecord
100
AcDbLinetypeTableRecord
  2
Continuous
 70
     0
  3
Solid line
 72
    65
 73
     0
 40
0.0
  0
LTYPE
  5
886
330
5
100
AcDbSymbolTableRecord
100
AcDbLinetypeTableRecord
  2
DASHED
 70
     0
  3
Dashed __ __ __ __ __ __ __ __ __ __ __ __ __ _
 72
    65
 73
     2
 40
0.75
 49
0.5
 74
     0
 49
-0.25
 74
     0
  0
ENDTAB
  0
TABLE
  2
LAYER
  5
2
102
{ACAD_XDICTIONARY
360
7D1
102
}
330
0
100
AcDbSymbolTable
 70
     4
  0
LAYER
  5
10
102
{ACAD_XDICTIONARY
360
B4C
102
}
330
2
100
AcDbSymbolTableRecord
100
AcDbLayerTableRecord
  2
0
 70
     0
 62
     7
  6
Continuous
370
    25
390
F
  0
LAYER
  5
87B
102
{ACAD_XDICTIONARY
360
B4E
102
}
330
2
100
AcDbSymbolTableRecord
100
AcDbLayerTableRecord
  2
STREFA BEZPIECZEŃSTWA
 70
     0
 62
     7
  6
DASHED
370
    25
390
F
1001
AcAecLayerStandard
1000

1000

  0
LAYER
  5
87D
102
{ACAD_XDICTIONARY
360
B50
102
}
330
2
100
AcDbSymbolTableRecord
100
AcDbLayerTableRecord
  2
WYMIAR
 70
     0
 62
     7
  6
Continuous
370
    25
390
F
1001
AcAecLayerStandard
1000

1000

  0
LAYER
  5
8CC
330
2
100
AcDbSymbolTableRecord
100
AcDbLayerTableRecord
  2
Defpoints
 70
     0
 62
     7
  6
Continuous
290
     0
370
     5
390
F
1001
RAK
1000
{ACET-LAYISO
1070
     0
1070
     7
1000
Continuous
1071
        5
1071
        0
1005
F
1000
ACET-LAYISO}
  0
ENDTAB
  0
TABLE
  2
STYLE
  5
3
330
0
100
AcDbSymbolTable
 70
     2
  0
STYLE
  5
11
330
3
100
AcDbSymbolTableRecord
100
AcDbTextStyleTableRecord
  2
Standard
 70
     0
 40
0.0
 41
1.0
 50
0.0
 71
     0
 42
0.2
  3
txt
  4

  0
STYLE
  5
8CE
330
3
100
AcDbSymbolTableRecord
100
AcDbTextStyleTableRecord
  2
AR 01 SWIS
 70
     0
 40
0.0
 41
1.0
 50
0.0
 71
     0
 42
55.0
  3
swissc.ttf
  4

1001
ACAD
1000
Swis721 Cn BT
1071
       34
  0
ENDTAB
  0
TABLE
  2
VIEW
  5
6
330
0
100
AcDbSymbolTable
 70
     1
  0
ENDTAB
  0
TABLE
  2
UCS
  5
7
330
0
100
AcDbSymbolTable
 70
     0
  0
ENDTAB
  0
TABLE
  2
APPID
  5
9
330
0
100
AcDbSymbolTable
 70
     9
  0
APPID
  5
12
330
9
100
AcDbSymbolTableRecord
100
AcDbRegAppTableRecord
  2
ACAD
 70
     0
  0
APPID
  5
7CB
330
9
100
AcDbSymbolTableRecord
100
AcDbRegAppTableRecord
  2
ACAD_PSEXT
 70
     0
  0
APPID
  5
875
330
9
100
AcDbSymbolTableRecord
100
AcDbRegAppTableRecord
  2
ACAD_EXEMPT_FROM_CAD_STANDARDS
 70
     0
  0
APPID
  5
87C
330
9
100
AcDbSymbolTableRecord
100
AcDbRegAppTableRecord
  2
AcAecLayerStandard
 70
     0
  0
APPID
  5
8D4
330
9
100
AcDbSymbolTableRecord
100
AcDbRegAppTableRecord
  2
RAK
 70
     0
  0
APPID
  5
8D5
330
9
100
AcDbSymbolTableRecord
100
AcDbRegAppTableRecord
  2
ACAD_DSTYLE_DIMJOGGED_JOGANGLE_SYMBOL
 70
     0
  0
APPID
  5
8D6
330
9
100
AcDbSymbolTableRecord
100
AcDbRegAppTableRecord
  2
ACAD_DSTYLE_DIMJAG
 70
     0
  0
APPID
  5
8D7
330
9
100
AcDbSymbolTableRecord
100
AcDbRegAppTableRecord
  2
ACAD_DSTYLE_DIMTALN
 70
     0
  0
APPID
  5
B46
330
9
100
AcDbSymbolTableRecord
100
AcDbRegAppTableRecord
  2
ACAD_MLEADERVER
 70
     0
  0
ENDTAB
  0
TABLE
  2
DIMSTYLE
  5
A
330
0
100
AcDbSymbolTable
 70
     1
100
AcDbDimStyleTable
 71
     1
340
8CF
  0
DIMSTYLE
105
8CF
102
{ACAD_REACTORS
330
10FD
330
1118
102
}
330
A
100
AcDbSymbolTableRecord
100
AcDbDimStyleTableRecord
  2
AR SKALA 1-50
 70
     0
 40
0.02
 41
3.0
 42
20.0
 43
0.0
 44
5.0
 45
0.1
 73
     0
 74
     0
 75
     1
 76
     1
 77
     1
 78
     1
140
9.0
141
12.0
143
1.0
146
0.01
147
6.0
171
     4
172
     1
173
     1
174
     1
176
   256
177
   256
178
   256
179
     1
271
     2
272
     2
274
     4
279
     2
340
8CE
341
8BC
343
8BC
344
8BC
  0
ENDTAB
  0
TABLE
  2
BLOCK_RECORD
  5
1
330
0
100
AcDbSymbolTable
 70
     7
  0
BLOCK_RECORD
  5
1F
102
{ACAD_XDICTIONARY
360
5F8
102
}
330
1
100
AcDbSymbolTableRecord
100
AcDbBlockTableRecord
  2
*Model_Space
340
22
  0
BLOCK_RECORD
  5
1378
330
1
100
AcDbSymbolTableRecord
100
AcDbBlockTableRecord
  2
*Paper_Space
340
1379
  0
BLOCK_RECORD
  5
8BC
330
1
100
AcDbSymbolTableRecord
100
AcDbBlockTableRecord
  2
MAR-STRZ
340
0
310
2800000020000000200000000100080000000000000400000000000000000000000000000000000000000000000080000080000000808000800000008000800080800000C0C0C000C0DCC000F0CAA6000020400000206000002080000020A0000020C0000020E00000400000004020000040400000406000004080000040A0
310
000040C0000040E00000600000006020000060400000606000006080000060A0000060C0000060E00000800000008020000080400000806000008080000080A0000080C0000080E00000A0000000A0200000A0400000A0600000A0800000A0A00000A0C00000A0E00000C0000000C0200000C0400000C0600000C0800000C0
310
A00000C0C00000C0E00000E0000000E0200000E0400000E0600000E0800000E0A00000E0C00000E0E00040000000400020004000400040006000400080004000A0004000C0004000E00040200000402020004020400040206000402080004020A0004020C0004020E000404000004040200040404000404060004040800040
310
40A0004040C0004040E00040600000406020004060400040606000406080004060A0004060C0004060E00040800000408020004080400040806000408080004080A0004080C0004080E00040A0000040A0200040A0400040A0600040A0800040A0A00040A0C00040A0E00040C0000040C0200040C0400040C0600040C08000
310
40C0A00040C0C00040C0E00040E0000040E0200040E0400040E0600040E0800040E0A00040E0C00040E0E00080000000800020008000400080006000800080008000A0008000C0008000E00080200000802020008020400080206000802080008020A0008020C0008020E00080400000804020008040400080406000804080
310
008040A0008040C0008040E00080600000806020008060400080606000806080008060A0008060C0008060E00080800000808020008080400080806000808080008080A0008080C0008080E00080A0000080A0200080A0400080A0600080A0800080A0A00080A0C00080A0E00080C0000080C0200080C0400080C0600080C0
310
800080C0A00080C0C00080C0E00080E0000080E0200080E0400080E0600080E0800080E0A00080E0C00080E0E000C0000000C0002000C0004000C0006000C0008000C000A000C000C000C000E000C0200000C0202000C0204000C0206000C0208000C020A000C020C000C020E000C0400000C0402000C0404000C0406000C0
310
408000C040A000C040C000C040E000C0600000C0602000C0604000C0606000C0608000C060A000C060C000C060E000C0800000C0802000C0804000C0806000C0808000C080A000C080C000C080E000C0A00000C0A02000C0A04000C0A06000C0A08000C0A0A000C0A0C000C0A0E000C0C00000C0C02000C0C04000C0C06000
310
C0C08000C0C0A000F0FBFF00A4A0A000808080000000FF0000FF000000FFFF00FF000000FF00FF00FFFF0000FFFFFF00000000000000000000000000000000000000000000000000000000000000000000000000000000000000000000000000FF000000000000000000000000000000000000000000000000000000000000
310
00FF00000000000000000000000000000000000000000000000000000000000000FF00000000000000000000000000000000000000000000000000000000000000FF00000000000000000000000000000000000000000000000000000000000000FF000000000000000000000000000000000000000000F900000000000000
310
0000FF00000000000000000000000000000000000000000000F90000000000000000FF0000000000000000000000000000000000000000000000F900000000000000FF000000000000000000000000000000000000000000000000F9000000000000FF00000000000000000000000000000000000000000000000000F90000
310
000000FF0000000000000000000000000000000000000000000000000000F900000000FF000000000000000000000000000000000000000000000000000000F9000000FF00000000000000000000000000000000000000000000000000000000F90000FF000000000000000000000000000000000000000000000000000000
310
0000F900FF000000000000000000000000000000000000000000000000000000000000F9FF00000000000000000000000000000000000000000000FFFFFFFFFFFFFFFFFFFFFFFFFFFFFFFFFFFF0000000000000000000000000000000000000000000000FFF900000000000000000000000000000000000000000000000000
310
0000000000FF00F90000000000000000000000000000000000000000000000000000000000FF0000F900000000000000000000000000000000000000000000000000000000FF000000F9000000000000000000000000000000000000000000000000000000FF00000000F90000000000000000000000000000000000000000
310
000000000000FF0000000000F900000000000000000000000000000000000000000000000000FF000000000000F9000000000000000000000000000000000000000000000000FF00000000000000F90000000000000000000000000000000000000000000000FF0000000000000000F9000000000000000000000000000000
310
00000000000000FF00000000000000000000000000000000000000000000000000000000000000FF00000000000000000000000000000000000000000000000000000000000000FF00000000000000000000000000000000000000000000000000000000000000FF0000000000000000000000000000000000000000000000
310
0000000000000000FF0000000000000000000000000000000000000000000000000000000000000000000000000000000000000000000000
102
{BLKREFS
331
1112
331
1113
331
1125
331
1126
102
}
  0
BLOCK_RECORD
  5
B63
102
{ACAD_XDICTIONARY
360
CBA
102
}
330
1
100
AcDbSymbolTableRecord
100
AcDbBlockTableRecord
  2
A$C445009A0
340
0
1001
ACAD
1000
DesignCenter Data
1002
{
1070
     1
1070
     1
1002
}
  0
BLOCK_RECORD
  5
10FE
330
1
100
AcDbSymbolTableRecord
100
AcDbBlockTableRecord
  2
*D2
340
0
  0
BLOCK_RECORD
  5
1119
330
1
100
AcDbSymbolTableRecord
100
AcDbBlockTableRecord
  2
*D3
340
0
  0
BLOCK_RECORD
  5
115A
102
{ACAD_XDICTIONARY
360
1165
102
}
330
1
100
AcDbSymbolTableRecord
100
AcDbBlockTableRecord
  2
A$C7305598A
340
0
1001
ACAD
1000
DesignCenter Data
1002
{
1070
     1
1070
     1
1002
}
  0
BLOCK_RECORD
  5
11A6
102
{ACAD_XDICTIONARY
360
11B0
102
}
330
1
100
AcDbSymbolTableRecord
100
AcDbBlockTableRecord
  2
A$C43E158E6
340
0
1001
ACAD
1000
DesignCenter Data
1002
{
1070
     1
1070
     1
1002
}
  0
ENDTAB
  0
ENDSEC
  0
SECTION
  2
BLOCKS
  0
BLOCK
  5
20
330
1F
100
AcDbEntity
  8
0
100
AcDbBlockBegin
  2
*Model_Space
 70
     0
 10
0.0
 20
0.0
 30
0.0
  3
*Model_Space
  1

  0
ENDBLK
  5
21
330
1F
100
AcDbEntity
  8
0
100
AcDbBlockEnd
  0
BLOCK
  5
137A
330
1378
100
AcDbEntity
 67
     1
  8
0
100
AcDbBlockBegin
  2
*Paper_Space
 70
     0
 10
0.0
 20
0.0
 30
0.0
  3
*Paper_Space
  1

  0
ENDBLK
  5
137B
330
1378
100
AcDbEntity
 67
     1
  8
0
100
AcDbBlockEnd
  0
BLOCK
  5
8BD
330
8BC
100
AcDbEntity
  8
0
100
AcDbBlockBegin
  2
MAR-STRZ
 70
     0
 10
0.0
 20
0.0
 30
0.0
  3
MAR-STRZ
  1

  0
LINE
  5
8BE
330
8BC
100
AcDbEntity
  8
0
100
AcDbLine
 10
0.0
 20
2.299999999999272
 30
0.0
 11
0.0
 21
-2.299999999999272
 31
0.0
  0
LINE
  5
8BF
330
8BC
100
AcDbEntity
  8
0
 62
    10
100
AcDbLine
 10
1.5
 20
1.5
 30
0.0
 11
-1.5
 21
-1.5
 31
0.0
  0
LINE
  5
8C0
330
8BC
100
AcDbEntity
  8
0
100
AcDbLine
 10
1.399999999999636
 20
0.0
 30
0.0
 11
-1.399999999999636
 21
0.0
 31
0.0
  0
ENDBLK
  5
8C1
330
8BC
100
AcDbEntity
  8
0
100
AcDbBlockEnd
  0
BLOCK
  5
CBC
330
B63
100
AcDbEntity
  8
0
100
AcDbBlockBegin
  2
A$C445009A0
 70
     0
 10
0.0
 20
0.0
 30
0.0
  3
A$C445009A0
  1

  0
LINE
  5
B64
330
B63
100
AcDbEntity
  8
0
100
AcDbLine
 10
0.6008327546430579
 20
0.0012842682727028
 30
0.0
 11
0.6015023151376902
 21
-0.0000000029747573
 31
0.0
  0
LINE
  5
B65
330
B63
100
AcDbEntity
  8
0
100
AcDbLine
 10
0.6399373764212655
 20
-0.0000000029747573
 30
0.0
 11
0.6406069369158942
 21
0.0012842682727028
 31
0.0
  0
LINE
  5
B66
330
B63
100
AcDbEntity
  8
0
100
AcDbLine
 10
0.6193159108380684
 20
0.0012842682727063
 30
0.0
 11
0.619315910838072
 21
1.141284268272706
 31
0.0
  0
LINE
  5
B67
330
B63
100
AcDbEntity
  8
0
100
AcDbLine
 10
0.5981027074024752
 20
0.0012842682727063
 30
0.0
 11
0.5981027074024752
 21
1.141284268272706
 31
0.0
  0
LINE
  5
B68
330
B63
100
AcDbEntity
  8
0
100
AcDbLine
 10
0.5580958388324718
 20
0.0708847184728159
 30
0.0
 11
0.5617560928703185
 21
0.0702032349985951
 31
0.0
  0
LINE
  5
B69
330
B63
100
AcDbEntity
  8
0
100
AcDbLine
 10
0.5617560928703185
 20
0.0702032349985951
 30
0.0
 11
0.5651669066443361
 21
0.0682052265485043
 31
0.0
  0
LINE
  5
B6A
330
B63
100
AcDbEntity
  8
0
100
AcDbLine
 10
0.5651669066443361
 20
0.0682052265485043
 30
0.0
 11
0.5680958388324698
 21
0.0650268540965451
 31
0.0
  0
LINE
  5
B6B
330
B63
100
AcDbEntity
  8
0
100
AcDbLine
 10
0.5680958388324698
 20
0.0650268540965451
 30
0.0
 11
0.5703432875463897
 21
0.0608847184728143
 31
0.0
  0
LINE
  5
B6C
330
B63
100
AcDbEntity
  8
0
100
AcDbLine
 10
0.5703432875463897
 20
0.0608847184728143
 30
0.0
 11
0.5717560928703165
 21
0.0560610993748663
 31
0.0
  0
LINE
  5
B6D
330
B63
100
AcDbEntity
  8
0
100
AcDbLine
 10
0.5717560928703165
 20
0.0560610993748663
 30
0.0
 11
0.5722379744562041
 21
0.0508847184728163
 31
0.0
  0
LINE
  5
B6E
330
B63
100
AcDbEntity
  8
0
100
AcDbLine
 10
0.5722379744562041
 20
0.0508847184728163
 30
0.0
 11
0.5717560928703165
 21
0.0457083375707663
 31
0.0
  0
LINE
  5
B6F
330
B63
100
AcDbEntity
  8
0
100
AcDbLine
 10
0.5717560928703165
 20
0.0457083375707663
 30
0.0
 11
0.5703432875463897
 21
0.0408847184728147
 31
0.0
  0
LINE
  5
B70
330
B63
100
AcDbEntity
  8
0
100
AcDbLine
 10
0.5703432875463897
 20
0.0408847184728147
 30
0.0
 11
0.5680958388324698
 21
0.036742582849084
 31
0.0
  0
LINE
  5
B71
330
B63
100
AcDbEntity
  8
0
100
AcDbLine
 10
0.5680958388324698
 20
0.036742582849084
 30
0.0
 11
0.5651669066443361
 21
0.0335642103971248
 31
0.0
  0
LINE
  5
B72
330
B63
100
AcDbEntity
  8
0
100
AcDbLine
 10
0.5651669066443361
 20
0.0335642103971248
 30
0.0
 11
0.5617560928703185
 21
0.031566201947034
 31
0.0
  0
LINE
  5
B73
330
B63
100
AcDbEntity
  8
0
100
AcDbLine
 10
0.5617560928703185
 20
0.031566201947034
 30
0.0
 11
0.5580958388324718
 21
0.0308847184728132
 31
0.0
  0
LINE
  5
B74
330
B63
100
AcDbEntity
  8
0
100
AcDbLine
 10
0.029888883715973
 20
0.0728405132250361
 30
0.0
 11
0.0335491377538162
 21
0.0721590297508152
 31
0.0
  0
LINE
  5
B75
330
B63
100
AcDbEntity
  8
0
100
AcDbLine
 10
0.0398888837159746
 20
0.0669826488487653
 30
0.0
 11
0.0421363324298909
 21
0.0628405132250345
 31
0.0
  0
LINE
  5
B76
330
B63
100
AcDbEntity
  8
0
100
AcDbLine
 10
0.0335491377538162
 20
0.0335219966992542
 30
0.0
 11
0.029888883715973
 21
0.0328405132250334
 31
0.0
  0
LINE
  5
B77
330
B63
100
AcDbEntity
  8
0
100
AcDbLine
 10
0.0335491377538162
 20
0.0721590297508152
 30
0.0
 11
0.0369599515278374
 21
0.0701610213007244
 31
0.0
  0
LINE
  5
B78
330
B63
100
AcDbEntity
  8
0
100
AcDbLine
 10
0.0369599515278374
 20
0.0701610213007244
 30
0.0
 11
0.0398888837159746
 21
0.0669826488487653
 31
0.0
  0
LINE
  5
B79
330
B63
100
AcDbEntity
  8
0
100
AcDbLine
 10
0.0421363324298909
 20
0.0628405132250345
 30
0.0
 11
0.0435491377538178
 21
0.0580168941270865
 31
0.0
  0
LINE
  5
B7A
330
B63
100
AcDbEntity
  8
0
100
AcDbLine
 10
0.0435491377538178
 20
0.0580168941270865
 30
0.0
 11
0.0440310193397053
 21
0.0528405132250365
 31
0.0
  0
LINE
  5
B7B
330
B63
100
AcDbEntity
  8
0
100
AcDbLine
 10
0.0440310193397053
 20
0.0528405132250365
 30
0.0
 11
0.0435491377538178
 21
0.0476641323229865
 31
0.0
  0
LINE
  5
B7C
330
B63
100
AcDbEntity
  8
0
100
AcDbLine
 10
0.0435491377538178
 20
0.0476641323229865
 30
0.0
 11
0.0421363324298909
 21
0.0428405132250349
 31
0.0
  0
LINE
  5
B7D
330
B63
100
AcDbEntity
  8
0
100
AcDbLine
 10
0.0421363324298909
 20
0.0428405132250349
 30
0.0
 11
0.0398888837159746
 21
0.0386983776013041
 31
0.0
  0
LINE
  5
B7E
330
B63
100
AcDbEntity
  8
0
100
AcDbLine
 10
0.0398888837159746
 20
0.0386983776013041
 30
0.0
 11
0.0369599515278374
 21
0.035520005149345
 31
0.0
  0
LINE
  5
B7F
330
B63
100
AcDbEntity
  8
0
100
AcDbLine
 10
0.0369599515278374
 20
0.035520005149345
 30
0.0
 11
0.0335491377538162
 21
0.0335219966992542
 31
0.0
  0
LINE
  5
B80
330
B63
100
AcDbEntity
  8
0
100
AcDbLine
 10
0.0298888837159694
 20
1.096840513225033
 30
0.0
 11
0.0335491377538162
 21
1.096159029750816
 31
0.0
  0
LINE
  5
B81
330
B63
100
AcDbEntity
  8
0
100
AcDbLine
 10
0.0335491377538162
 20
1.096159029750816
 30
0.0
 11
0.0369599515278374
 21
1.094161021300721
 31
0.0
  0
LINE
  5
B82
330
B63
100
AcDbEntity
  8
0
100
AcDbLine
 10
0.0369599515278374
 20
1.094161021300721
 30
0.0
 11
0.0398888837159746
 21
1.090982648848766
 31
0.0
  0
LINE
  5
B83
330
B63
100
AcDbEntity
  8
0
100
AcDbLine
 10
0.0398888837159746
 20
1.090982648848766
 30
0.0
 11
0.0421363324298874
 21
1.086840513225035
 31
0.0
  0
LINE
  5
B84
330
B63
100
AcDbEntity
  8
0
100
AcDbLine
 10
0.0421363324298874
 20
1.086840513225035
 30
0.0
 11
0.0435491377538142
 21
1.082016894127083
 31
0.0
  0
LINE
  5
B85
330
B63
100
AcDbEntity
  8
0
100
AcDbLine
 10
0.0435491377538142
 20
1.082016894127083
 30
0.0
 11
0.0440310193397053
 21
1.076840513225033
 31
0.0
  0
LINE
  5
B86
330
B63
100
AcDbEntity
  8
0
100
AcDbLine
 10
0.0440310193397053
 20
1.076840513225033
 30
0.0
 11
0.0435491377538142
 21
1.071664132322983
 31
0.0
  0
LINE
  5
B87
330
B63
100
AcDbEntity
  8
0
100
AcDbLine
 10
0.0435491377538142
 20
1.071664132322983
 30
0.0
 11
0.0421363324298874
 21
1.066840513225035
 31
0.0
  0
LINE
  5
B88
330
B63
100
AcDbEntity
  8
0
100
AcDbLine
 10
0.0421363324298874
 20
1.066840513225035
 30
0.0
 11
0.0398888837159746
 21
1.062698377601301
 31
0.0
  0
LINE
  5
B89
330
B63
100
AcDbEntity
  8
0
100
AcDbLine
 10
0.0398888837159746
 20
1.062698377601301
 30
0.0
 11
0.0369599515278374
 21
1.059520005149345
 31
0.0
  0
LINE
  5
B8A
330
B63
100
AcDbEntity
  8
0
100
AcDbLine
 10
0.0369599515278374
 20
1.059520005149345
 30
0.0
 11
0.0335491377538162
 21
1.057521996699251
 31
0.0
  0
LINE
  5
B8B
330
B63
100
AcDbEntity
  8
0
100
AcDbLine
 10
0.0335491377538162
 20
1.057521996699251
 30
0.0
 11
0.0298888837159694
 21
1.056840513225034
 31
0.0
  0
LINE
  5
B8C
330
B63
100
AcDbEntity
  8
0
100
AcDbLine
 10
0.5580958388324718
 20
1.108884718472816
 30
0.0
 11
0.5617560928703185
 21
1.108203234998595
 31
0.0
  0
LINE
  5
B8D
330
B63
100
AcDbEntity
  8
0
100
AcDbLine
 10
0.5617560928703185
 20
1.108203234998595
 30
0.0
 11
0.5651669066443361
 21
1.106205226548504
 31
0.0
  0
LINE
  5
B8E
330
B63
100
AcDbEntity
  8
0
100
AcDbLine
 10
0.5651669066443361
 20
1.106205226548504
 30
0.0
 11
0.5680958388324698
 21
1.103026854096545
 31
0.0
  0
LINE
  5
B8F
330
B63
100
AcDbEntity
  8
0
100
AcDbLine
 10
0.5680958388324698
 20
1.103026854096545
 30
0.0
 11
0.5703432875463861
 21
1.098884718472814
 31
0.0
  0
LINE
  5
B90
330
B63
100
AcDbEntity
  8
0
100
AcDbLine
 10
0.5703432875463861
 20
1.098884718472814
 30
0.0
 11
0.5717560928703165
 21
1.094061099374866
 31
0.0
  0
LINE
  5
B91
330
B63
100
AcDbEntity
  8
0
100
AcDbLine
 10
0.5717560928703165
 20
1.094061099374866
 30
0.0
 11
0.5722379744562041
 21
1.088884718472816
 31
0.0
  0
LINE
  5
B92
330
B63
100
AcDbEntity
  8
0
100
AcDbLine
 10
0.5722379744562041
 20
1.088884718472816
 30
0.0
 11
0.5717560928703165
 21
1.083708337570766
 31
0.0
  0
LINE
  5
B93
330
B63
100
AcDbEntity
  8
0
100
AcDbLine
 10
0.5717560928703165
 20
1.083708337570766
 30
0.0
 11
0.5703432875463861
 21
1.078884718472814
 31
0.0
  0
LINE
  5
B94
330
B63
100
AcDbEntity
  8
0
100
AcDbLine
 10
0.5703432875463861
 20
1.078884718472814
 30
0.0
 11
0.5680958388324698
 21
1.074742582849084
 31
0.0
  0
LINE
  5
B95
330
B63
100
AcDbEntity
  8
0
100
AcDbLine
 10
0.5680958388324698
 20
1.074742582849084
 30
0.0
 11
0.5651669066443361
 21
1.071564210397125
 31
0.0
  0
LINE
  5
B96
330
B63
100
AcDbEntity
  8
0
100
AcDbLine
 10
0.5651669066443361
 20
1.071564210397125
 30
0.0
 11
0.5617560928703185
 21
1.069566201947034
 31
0.0
  0
LINE
  5
B97
330
B63
100
AcDbEntity
  8
0
100
AcDbLine
 10
0.5617560928703185
 20
1.069566201947034
 30
0.0
 11
0.5580958388324718
 21
1.068884718472816
 31
0.0
  0
LINE
  5
B98
330
B63
100
AcDbEntity
  8
0
100
AcDbLine
 10
0.5510247710206074
 20
1.108884718472816
 30
0.0
 11
0.5546850250584541
 21
1.108203234998595
 31
0.0
  0
LINE
  5
B99
330
B63
100
AcDbEntity
  8
0
100
AcDbLine
 10
0.5546850250584541
 20
1.108203234998595
 30
0.0
 11
0.5580958388324718
 21
1.106205226548504
 31
0.0
  0
LINE
  5
B9A
330
B63
100
AcDbEntity
  8
0
100
AcDbLine
 10
0.5580958388324718
 20
1.106205226548504
 30
0.0
 11
0.5610247710206054
 21
1.103026854096545
 31
0.0
  0
LINE
  5
B9B
330
B63
100
AcDbEntity
  8
0
100
AcDbLine
 10
0.5610247710206054
 20
1.103026854096545
 30
0.0
 11
0.5632722197345217
 21
1.098884718472814
 31
0.0
  0
LINE
  5
B9C
330
B63
100
AcDbEntity
  8
0
100
AcDbLine
 10
0.5632722197345217
 20
1.098884718472814
 30
0.0
 11
0.5646850250584521
 21
1.094061099374866
 31
0.0
  0
LINE
  5
B9D
330
B63
100
AcDbEntity
  8
0
100
AcDbLine
 10
0.5646850250584521
 20
1.094061099374866
 30
0.0
 11
0.5651669066443397
 21
1.088884718472816
 31
0.0
  0
LINE
  5
B9E
330
B63
100
AcDbEntity
  8
0
100
AcDbLine
 10
0.5651669066443397
 20
1.088884718472816
 30
0.0
 11
0.5646850250584521
 21
1.083708337570766
 31
0.0
  0
LINE
  5
B9F
330
B63
100
AcDbEntity
  8
0
100
AcDbLine
 10
0.5646850250584521
 20
1.083708337570766
 30
0.0
 11
0.5632722197345217
 21
1.078884718472814
 31
0.0
  0
LINE
  5
BA0
330
B63
100
AcDbEntity
  8
0
100
AcDbLine
 10
0.5632722197345217
 20
1.078884718472814
 30
0.0
 11
0.5610247710206054
 21
1.074742582849084
 31
0.0
  0
LINE
  5
BA1
330
B63
100
AcDbEntity
  8
0
100
AcDbLine
 10
0.5610247710206054
 20
1.074742582849084
 30
0.0
 11
0.5580958388324718
 21
1.071564210397125
 31
0.0
  0
LINE
  5
BA2
330
B63
100
AcDbEntity
  8
0
100
AcDbLine
 10
0.5580958388324718
 20
1.071564210397125
 30
0.0
 11
0.5546850250584541
 21
1.069566201947034
 31
0.0
  0
LINE
  5
BA3
330
B63
100
AcDbEntity
  8
0
100
AcDbLine
 10
0.5546850250584541
 20
1.069566201947034
 30
0.0
 11
0.5510247710206074
 21
1.068884718472816
 31
0.0
  0
LINE
  5
BA4
330
B63
100
AcDbEntity
  8
0
100
AcDbLine
 10
0.5510247710206074
 20
1.068884718472816
 30
0.0
 11
0.5473645169827606
 21
1.069566201947034
 31
0.0
  0
LINE
  5
BA5
330
B63
100
AcDbEntity
  8
0
100
AcDbLine
 10
0.5473645169827606
 20
1.069566201947034
 30
0.0
 11
0.543953703208743
 21
1.071564210397125
 31
0.0
  0
LINE
  5
BA6
330
B63
100
AcDbEntity
  8
0
100
AcDbLine
 10
0.543953703208743
 20
1.071564210397125
 30
0.0
 11
0.5410247710206093
 21
1.074742582849084
 31
0.0
  0
LINE
  5
BA7
330
B63
100
AcDbEntity
  8
0
100
AcDbLine
 10
0.5410247710206093
 20
1.074742582849084
 30
0.0
 11
0.538777322306693
 21
1.078884718472814
 31
0.0
  0
LINE
  5
BA8
330
B63
100
AcDbEntity
  8
0
100
AcDbLine
 10
0.538777322306693
 20
1.078884718472814
 30
0.0
 11
0.5373645169827626
 21
1.083708337570766
 31
0.0
  0
LINE
  5
BA9
330
B63
100
AcDbEntity
  8
0
100
AcDbLine
 10
0.5373645169827626
 20
1.083708337570766
 30
0.0
 11
0.536882635396875
 21
1.088884718472816
 31
0.0
  0
LINE
  5
BAA
330
B63
100
AcDbEntity
  8
0
100
AcDbLine
 10
0.536882635396875
 20
1.088884718472816
 30
0.0
 11
0.5373645169827626
 21
1.094061099374866
 31
0.0
  0
LINE
  5
BAB
330
B63
100
AcDbEntity
  8
0
100
AcDbLine
 10
0.5373645169827626
 20
1.094061099374866
 30
0.0
 11
0.538777322306693
 21
1.098884718472814
 31
0.0
  0
LINE
  5
BAC
330
B63
100
AcDbEntity
  8
0
100
AcDbLine
 10
0.538777322306693
 20
1.098884718472814
 30
0.0
 11
0.5410247710206058
 21
1.103026854096545
 31
0.0
  0
LINE
  5
BAD
330
B63
100
AcDbEntity
  8
0
100
AcDbLine
 10
0.5410247710206058
 20
1.103026854096545
 30
0.0
 11
0.543953703208743
 21
1.106205226548504
 31
0.0
  0
LINE
  5
BAE
330
B63
100
AcDbEntity
  8
0
100
AcDbLine
 10
0.543953703208743
 20
1.106205226548504
 30
0.0
 11
0.5473645169827606
 21
1.108203234998595
 31
0.0
  0
LINE
  5
BAF
330
B63
100
AcDbEntity
  8
0
100
AcDbLine
 10
0.5473645169827606
 20
1.108203234998595
 30
0.0
 11
0.5510247710206074
 21
1.108884718472816
 31
0.0
  0
LINE
  5
BB0
330
B63
100
AcDbEntity
  8
0
100
AcDbLine
 10
0.5580958388324718
 20
1.108884718472816
 30
0.0
 11
0.5510247710206074
 21
1.108884718472816
 31
0.0
  0
LINE
  5
BB1
330
B63
100
AcDbEntity
  8
0
100
AcDbLine
 10
0.5580958388324718
 20
1.068884718472816
 30
0.0
 11
0.5510247710206074
 21
1.068884718472816
 31
0.0
  0
LINE
  5
BB2
330
B63
100
AcDbEntity
  8
0
100
AcDbLine
 10
0.5510247710206074
 20
0.0708847184728159
 30
0.0
 11
0.5546850250584541
 21
0.0702032349985951
 31
0.0
  0
LINE
  5
BB3
330
B63
100
AcDbEntity
  8
0
100
AcDbLine
 10
0.5546850250584541
 20
0.0702032349985951
 30
0.0
 11
0.5580958388324718
 21
0.0682052265485043
 31
0.0
  0
LINE
  5
BB4
330
B63
100
AcDbEntity
  8
0
100
AcDbLine
 10
0.5580958388324718
 20
0.0682052265485043
 30
0.0
 11
0.5610247710206054
 21
0.0650268540965451
 31
0.0
  0
LINE
  5
BB5
330
B63
100
AcDbEntity
  8
0
100
AcDbLine
 10
0.5610247710206054
 20
0.0650268540965451
 30
0.0
 11
0.5632722197345217
 21
0.0608847184728143
 31
0.0
  0
LINE
  5
BB6
330
B63
100
AcDbEntity
  8
0
100
AcDbLine
 10
0.5632722197345217
 20
0.0608847184728143
 30
0.0
 11
0.5646850250584521
 21
0.0560610993748663
 31
0.0
  0
LINE
  5
BB7
330
B63
100
AcDbEntity
  8
0
100
AcDbLine
 10
0.5646850250584521
 20
0.0560610993748663
 30
0.0
 11
0.5651669066443397
 21
0.0508847184728163
 31
0.0
  0
LINE
  5
BB8
330
B63
100
AcDbEntity
  8
0
100
AcDbLine
 10
0.5651669066443397
 20
0.0508847184728163
 30
0.0
 11
0.5646850250584521
 21
0.0457083375707663
 31
0.0
  0
LINE
  5
BB9
330
B63
100
AcDbEntity
  8
0
100
AcDbLine
 10
0.5646850250584521
 20
0.0457083375707663
 30
0.0
 11
0.5632722197345217
 21
0.0408847184728147
 31
0.0
  0
LINE
  5
BBA
330
B63
100
AcDbEntity
  8
0
100
AcDbLine
 10
0.5632722197345217
 20
0.0408847184728147
 30
0.0
 11
0.5610247710206054
 21
0.036742582849084
 31
0.0
  0
LINE
  5
BBB
330
B63
100
AcDbEntity
  8
0
100
AcDbLine
 10
0.5610247710206054
 20
0.036742582849084
 30
0.0
 11
0.5580958388324718
 21
0.0335642103971248
 31
0.0
  0
LINE
  5
BBC
330
B63
100
AcDbEntity
  8
0
100
AcDbLine
 10
0.5580958388324718
 20
0.0335642103971248
 30
0.0
 11
0.5546850250584541
 21
0.031566201947034
 31
0.0
  0
LINE
  5
BBD
330
B63
100
AcDbEntity
  8
0
100
AcDbLine
 10
0.5546850250584541
 20
0.031566201947034
 30
0.0
 11
0.5510247710206074
 21
0.0308847184728132
 31
0.0
  0
LINE
  5
BBE
330
B63
100
AcDbEntity
  8
0
100
AcDbLine
 10
0.5510247710206074
 20
0.0308847184728132
 30
0.0
 11
0.5473645169827642
 21
0.031566201947034
 31
0.0
  0
LINE
  5
BBF
330
B63
100
AcDbEntity
  8
0
100
AcDbLine
 10
0.5473645169827642
 20
0.031566201947034
 30
0.0
 11
0.543953703208743
 21
0.0335642103971248
 31
0.0
  0
LINE
  5
BC0
330
B63
100
AcDbEntity
  8
0
100
AcDbLine
 10
0.543953703208743
 20
0.0335642103971248
 30
0.0
 11
0.5410247710206093
 21
0.036742582849084
 31
0.0
  0
LINE
  5
BC1
330
B63
100
AcDbEntity
  8
0
100
AcDbLine
 10
0.5410247710206093
 20
0.036742582849084
 30
0.0
 11
0.538777322306693
 21
0.0408847184728147
 31
0.0
  0
LINE
  5
BC2
330
B63
100
AcDbEntity
  8
0
100
AcDbLine
 10
0.538777322306693
 20
0.0408847184728147
 30
0.0
 11
0.5373645169827626
 21
0.0457083375707663
 31
0.0
  0
LINE
  5
BC3
330
B63
100
AcDbEntity
  8
0
100
AcDbLine
 10
0.5373645169827626
 20
0.0457083375707663
 30
0.0
 11
0.536882635396875
 21
0.0508847184728163
 31
0.0
  0
LINE
  5
BC4
330
B63
100
AcDbEntity
  8
0
100
AcDbLine
 10
0.536882635396875
 20
0.0508847184728163
 30
0.0
 11
0.5373645169827626
 21
0.0560610993748663
 31
0.0
  0
LINE
  5
BC5
330
B63
100
AcDbEntity
  8
0
100
AcDbLine
 10
0.5373645169827626
 20
0.0560610993748663
 30
0.0
 11
0.538777322306693
 21
0.0608847184728143
 31
0.0
  0
LINE
  5
BC6
330
B63
100
AcDbEntity
  8
0
100
AcDbLine
 10
0.538777322306693
 20
0.0608847184728143
 30
0.0
 11
0.5410247710206093
 21
0.0650268540965451
 31
0.0
  0
LINE
  5
BC7
330
B63
100
AcDbEntity
  8
0
100
AcDbLine
 10
0.5410247710206093
 20
0.0650268540965451
 30
0.0
 11
0.543953703208743
 21
0.0682052265485043
 31
0.0
  0
LINE
  5
BC8
330
B63
100
AcDbEntity
  8
0
100
AcDbLine
 10
0.543953703208743
 20
0.0682052265485043
 30
0.0
 11
0.5473645169827642
 21
0.0702032349985951
 31
0.0
  0
LINE
  5
BC9
330
B63
100
AcDbEntity
  8
0
100
AcDbLine
 10
0.5473645169827642
 20
0.0702032349985951
 30
0.0
 11
0.5510247710206074
 21
0.0708847184728159
 31
0.0
  0
LINE
  5
BCA
330
B63
100
AcDbEntity
  8
0
100
AcDbLine
 10
0.5580958388324718
 20
0.0708847184728159
 30
0.0
 11
0.5510247710206074
 21
0.0708847184728159
 31
0.0
  0
LINE
  5
BCB
330
B63
100
AcDbEntity
  8
0
100
AcDbLine
 10
0.5580958388324718
 20
0.0308847184728132
 30
0.0
 11
0.5510247710206074
 21
0.0308847184728132
 31
0.0
  0
LINE
  5
BCC
330
B63
100
AcDbEntity
  8
0
100
AcDbLine
 10
0.0228178159041086
 20
0.0728405132250361
 30
0.0
 11
0.0264780699419518
 21
0.0721590297508152
 31
0.0
  0
LINE
  5
BCD
330
B63
100
AcDbEntity
  8
0
100
AcDbLine
 10
0.0264780699419518
 20
0.0721590297508152
 30
0.0
 11
0.029888883715973
 21
0.0701610213007244
 31
0.0
  0
LINE
  5
BCE
330
B63
100
AcDbEntity
  8
0
100
AcDbLine
 10
0.029888883715973
 20
0.0701610213007244
 30
0.0
 11
0.0328178159041102
 21
0.0669826488487653
 31
0.0
  0
LINE
  5
BCF
330
B63
100
AcDbEntity
  8
0
100
AcDbLine
 10
0.0328178159041102
 20
0.0669826488487653
 30
0.0
 11
0.0350652646180265
 21
0.0628405132250345
 31
0.0
  0
LINE
  5
BD0
330
B63
100
AcDbEntity
  8
0
100
AcDbLine
 10
0.0350652646180265
 20
0.0628405132250345
 30
0.0
 11
0.0364780699419534
 21
0.0580168941270865
 31
0.0
  0
LINE
  5
BD1
330
B63
100
AcDbEntity
  8
0
100
AcDbLine
 10
0.0364780699419534
 20
0.0580168941270865
 30
0.0
 11
0.0369599515278409
 21
0.0528405132250365
 31
0.0
  0
LINE
  5
BD2
330
B63
100
AcDbEntity
  8
0
100
AcDbLine
 10
0.0369599515278409
 20
0.0528405132250365
 30
0.0
 11
0.0364780699419534
 21
0.0476641323229865
 31
0.0
  0
LINE
  5
BD3
330
B63
100
AcDbEntity
  8
0
100
AcDbLine
 10
0.0364780699419534
 20
0.0476641323229865
 30
0.0
 11
0.0350652646180265
 21
0.0428405132250349
 31
0.0
  0
LINE
  5
BD4
330
B63
100
AcDbEntity
  8
0
100
AcDbLine
 10
0.0350652646180265
 20
0.0428405132250349
 30
0.0
 11
0.0328178159041102
 21
0.0386983776013041
 31
0.0
  0
LINE
  5
BD5
330
B63
100
AcDbEntity
  8
0
100
AcDbLine
 10
0.0328178159041102
 20
0.0386983776013041
 30
0.0
 11
0.029888883715973
 21
0.035520005149345
 31
0.0
  0
LINE
  5
BD6
330
B63
100
AcDbEntity
  8
0
100
AcDbLine
 10
0.029888883715973
 20
0.035520005149345
 30
0.0
 11
0.0264780699419518
 21
0.0335219966992542
 31
0.0
  0
LINE
  5
BD7
330
B63
100
AcDbEntity
  8
0
100
AcDbLine
 10
0.0264780699419518
 20
0.0335219966992542
 30
0.0
 11
0.0228178159041086
 21
0.0328405132250334
 31
0.0
  0
LINE
  5
BD8
330
B63
100
AcDbEntity
  8
0
100
AcDbLine
 10
0.0228178159041086
 20
0.0328405132250334
 30
0.0
 11
0.0191575618662654
 21
0.0335219966992542
 31
0.0
  0
LINE
  5
BD9
330
B63
100
AcDbEntity
  8
0
100
AcDbLine
 10
0.0191575618662654
 20
0.0335219966992542
 30
0.0
 11
0.0157467480922478
 21
0.035520005149345
 31
0.0
  0
LINE
  5
BDA
330
B63
100
AcDbEntity
  8
0
100
AcDbLine
 10
0.0157467480922478
 20
0.035520005149345
 30
0.0
 11
0.0128178159041106
 21
0.0386983776013041
 31
0.0
  0
LINE
  5
BDB
330
B63
100
AcDbEntity
  8
0
100
AcDbLine
 10
0.0128178159041106
 20
0.0386983776013041
 30
0.0
 11
0.0105703671901907
 21
0.0428405132250349
 31
0.0
  0
LINE
  5
BDC
330
B63
100
AcDbEntity
  8
0
100
AcDbLine
 10
0.0105703671901907
 20
0.0428405132250349
 30
0.0
 11
0.0091575618662603
 21
0.0476641323229865
 31
0.0
  0
LINE
  5
BDD
330
B63
100
AcDbEntity
  8
0
100
AcDbLine
 10
0.0091575618662603
 20
0.0476641323229865
 30
0.0
 11
0.0086756802803762
 21
0.0528405132250365
 31
0.0
  0
LINE
  5
BDE
330
B63
100
AcDbEntity
  8
0
100
AcDbLine
 10
0.0086756802803762
 20
0.0528405132250365
 30
0.0
 11
0.0091575618662603
 21
0.0580168941270865
 31
0.0
  0
LINE
  5
BDF
330
B63
100
AcDbEntity
  8
0
100
AcDbLine
 10
0.0091575618662603
 20
0.0580168941270865
 30
0.0
 11
0.0105703671901907
 21
0.0628405132250345
 31
0.0
  0
LINE
  5
BE0
330
B63
100
AcDbEntity
  8
0
100
AcDbLine
 10
0.0105703671901907
 20
0.0628405132250345
 30
0.0
 11
0.012817815904107
 21
0.0669826488487653
 31
0.0
  0
LINE
  5
BE1
330
B63
100
AcDbEntity
  8
0
100
AcDbLine
 10
0.012817815904107
 20
0.0669826488487653
 30
0.0
 11
0.0157467480922478
 21
0.0701610213007244
 31
0.0
  0
LINE
  5
BE2
330
B63
100
AcDbEntity
  8
0
100
AcDbLine
 10
0.0157467480922478
 20
0.0701610213007244
 30
0.0
 11
0.0191575618662654
 21
0.0721590297508152
 31
0.0
  0
LINE
  5
BE3
330
B63
100
AcDbEntity
  8
0
100
AcDbLine
 10
0.0191575618662654
 20
0.0721590297508152
 30
0.0
 11
0.0228178159041086
 21
0.0728405132250361
 31
0.0
  0
LINE
  5
BE4
330
B63
100
AcDbEntity
  8
0
100
AcDbLine
 10
0.029888883715973
 20
0.0728405132250361
 30
0.0
 11
0.0228178159041086
 21
0.0728405132250361
 31
0.0
  0
LINE
  5
BE5
330
B63
100
AcDbEntity
  8
0
100
AcDbLine
 10
0.029888883715973
 20
0.0328405132250334
 30
0.0
 11
0.0228178159041086
 21
0.0328405132250334
 31
0.0
  0
LINE
  5
BE6
330
B63
100
AcDbEntity
  8
0
100
AcDbLine
 10
0.0228178159041086
 20
1.096840513225033
 30
0.0
 11
0.0264780699419518
 21
1.096159029750816
 31
0.0
  0
LINE
  5
BE7
330
B63
100
AcDbEntity
  8
0
100
AcDbLine
 10
0.0264780699419518
 20
1.096159029750816
 30
0.0
 11
0.029888883715973
 21
1.094161021300721
 31
0.0
  0
LINE
  5
BE8
330
B63
100
AcDbEntity
  8
0
100
AcDbLine
 10
0.029888883715973
 20
1.094161021300721
 30
0.0
 11
0.0328178159041102
 21
1.090982648848766
 31
0.0
  0
LINE
  5
BE9
330
B63
100
AcDbEntity
  8
0
100
AcDbLine
 10
0.0328178159041102
 20
1.090982648848766
 30
0.0
 11
0.035065264618023
 21
1.086840513225035
 31
0.0
  0
LINE
  5
BEA
330
B63
100
AcDbEntity
  8
0
100
AcDbLine
 10
0.035065264618023
 20
1.086840513225035
 30
0.0
 11
0.0364780699419498
 21
1.082016894127083
 31
0.0
  0
LINE
  5
BEB
330
B63
100
AcDbEntity
  8
0
100
AcDbLine
 10
0.0364780699419498
 20
1.082016894127083
 30
0.0
 11
0.0369599515278409
 21
1.076840513225033
 31
0.0
  0
LINE
  5
BEC
330
B63
100
AcDbEntity
  8
0
100
AcDbLine
 10
0.0369599515278409
 20
1.076840513225033
 30
0.0
 11
0.0364780699419498
 21
1.071664132322983
 31
0.0
  0
LINE
  5
BED
330
B63
100
AcDbEntity
  8
0
100
AcDbLine
 10
0.0364780699419498
 20
1.071664132322983
 30
0.0
 11
0.035065264618023
 21
1.066840513225035
 31
0.0
  0
LINE
  5
BEE
330
B63
100
AcDbEntity
  8
0
100
AcDbLine
 10
0.035065264618023
 20
1.066840513225035
 30
0.0
 11
0.0328178159041102
 21
1.062698377601301
 31
0.0
  0
LINE
  5
BEF
330
B63
100
AcDbEntity
  8
0
100
AcDbLine
 10
0.0328178159041102
 20
1.062698377601301
 30
0.0
 11
0.029888883715973
 21
1.059520005149345
 31
0.0
  0
LINE
  5
BF0
330
B63
100
AcDbEntity
  8
0
100
AcDbLine
 10
0.029888883715973
 20
1.059520005149345
 30
0.0
 11
0.0264780699419518
 21
1.057521996699251
 31
0.0
  0
LINE
  5
BF1
330
B63
100
AcDbEntity
  8
0
100
AcDbLine
 10
0.0264780699419518
 20
1.057521996699251
 30
0.0
 11
0.0228178159041086
 21
1.056840513225034
 31
0.0
  0
LINE
  5
BF2
330
B63
100
AcDbEntity
  8
0
100
AcDbLine
 10
0.0228178159041086
 20
1.056840513225034
 30
0.0
 11
0.0191575618662618
 21
1.057521996699251
 31
0.0
  0
LINE
  5
BF3
330
B63
100
AcDbEntity
  8
0
100
AcDbLine
 10
0.0191575618662618
 20
1.057521996699251
 30
0.0
 11
0.0157467480922407
 21
1.059520005149345
 31
0.0
  0
LINE
  5
BF4
330
B63
100
AcDbEntity
  8
0
100
AcDbLine
 10
0.0157467480922407
 20
1.059520005149345
 30
0.0
 11
0.012817815904107
 21
1.062698377601301
 31
0.0
  0
LINE
  5
BF5
330
B63
100
AcDbEntity
  8
0
100
AcDbLine
 10
0.012817815904107
 20
1.062698377601301
 30
0.0
 11
0.0105703671901871
 21
1.066840513225032
 31
0.0
  0
LINE
  5
BF6
330
B63
100
AcDbEntity
  8
0
100
AcDbLine
 10
0.0105703671901871
 20
1.066840513225032
 30
0.0
 11
0.0091575618662603
 21
1.071664132322983
 31
0.0
  0
LINE
  5
BF7
330
B63
100
AcDbEntity
  8
0
100
AcDbLine
 10
0.0091575618662603
 20
1.071664132322983
 30
0.0
 11
0.0086756802803762
 21
1.076840513225033
 31
0.0
  0
LINE
  5
BF8
330
B63
100
AcDbEntity
  8
0
100
AcDbLine
 10
0.0086756802803762
 20
1.076840513225033
 30
0.0
 11
0.0091575618662603
 21
1.082016894127083
 31
0.0
  0
LINE
  5
BF9
330
B63
100
AcDbEntity
  8
0
100
AcDbLine
 10
0.0091575618662603
 20
1.082016894127083
 30
0.0
 11
0.0105703671901871
 21
1.086840513225035
 31
0.0
  0
LINE
  5
BFA
330
B63
100
AcDbEntity
  8
0
100
AcDbLine
 10
0.0105703671901871
 20
1.086840513225035
 30
0.0
 11
0.012817815904107
 21
1.090982648848766
 31
0.0
  0
LINE
  5
BFB
330
B63
100
AcDbEntity
  8
0
100
AcDbLine
 10
0.012817815904107
 20
1.090982648848766
 30
0.0
 11
0.0157467480922442
 21
1.094161021300721
 31
0.0
  0
LINE
  5
BFC
330
B63
100
AcDbEntity
  8
0
100
AcDbLine
 10
0.0157467480922442
 20
1.094161021300721
 30
0.0
 11
0.0191575618662618
 21
1.096159029750816
 31
0.0
  0
LINE
  5
BFD
330
B63
100
AcDbEntity
  8
0
100
AcDbLine
 10
0.0191575618662618
 20
1.096159029750816
 30
0.0
 11
0.0228178159041086
 21
1.096840513225033
 31
0.0
  0
LINE
  5
BFE
330
B63
100
AcDbEntity
  8
0
100
AcDbLine
 10
0.0298888837159694
 20
1.096840513225033
 30
0.0
 11
0.0228178159041086
 21
1.096840513225033
 31
0.0
  0
LINE
  5
BFF
330
B63
100
AcDbEntity
  8
0
100
AcDbLine
 10
0.0298888837159694
 20
1.056840513225034
 30
0.0
 11
0.0228178159041086
 21
1.056840513225034
 31
0.0
  0
LINE
  5
C00
330
B63
100
AcDbEntity
  8
0
100
AcDbLine
 10
0.6581305747246873
 20
0.0708847184728123
 30
0.0
 11
0.6545793962571694
 21
0.0702032349985951
 31
0.0
  0
LINE
  5
C01
330
B63
100
AcDbEntity
  8
0
100
AcDbLine
 10
0.6545793962571694
 20
0.0702032349985951
 30
0.0
 11
0.6512702247336151
 21
0.0682052265485007
 31
0.0
  0
LINE
  5
C02
330
B63
100
AcDbEntity
  8
0
100
AcDbLine
 10
0.6512702247336151
 20
0.0682052265485007
 30
0.0
 11
0.6484285747246901
 21
0.0650268540965451
 31
0.0
  0
LINE
  5
C03
330
B63
100
AcDbEntity
  8
0
100
AcDbLine
 10
0.6484285747246901
 20
0.0650268540965451
 30
0.0
 11
0.6462480999824436
 21
0.0608847184728143
 31
0.0
  0
LINE
  5
C04
330
B63
100
AcDbEntity
  8
0
100
AcDbLine
 10
0.6462480999824436
 20
0.0608847184728143
 30
0.0
 11
0.6448773962571686
 21
0.0560610993748627
 31
0.0
  0
LINE
  5
C05
330
B63
100
AcDbEntity
  8
0
100
AcDbLine
 10
0.6448773962571686
 20
0.0560610993748627
 30
0.0
 11
0.6444098747425429
 21
0.0508847184728127
 31
0.0
  0
LINE
  5
C06
330
B63
100
AcDbEntity
  8
0
100
AcDbLine
 10
0.6444098747425429
 20
0.0508847184728127
 30
0.0
 11
0.6448773962571686
 21
0.0457083375707628
 31
0.0
  0
LINE
  5
C07
330
B63
100
AcDbEntity
  8
0
100
AcDbLine
 10
0.6448773962571686
 20
0.0457083375707628
 30
0.0
 11
0.6462480999824436
 21
0.0408847184728147
 31
0.0
  0
LINE
  5
C08
330
B63
100
AcDbEntity
  8
0
100
AcDbLine
 10
0.6462480999824436
 20
0.0408847184728147
 30
0.0
 11
0.6484285747246901
 21
0.0367425828490804
 31
0.0
  0
LINE
  5
C09
330
B63
100
AcDbEntity
  8
0
100
AcDbLine
 10
0.6484285747246901
 20
0.0367425828490804
 30
0.0
 11
0.6512702247336151
 21
0.0335642103971248
 31
0.0
  0
LINE
  5
C0A
330
B63
100
AcDbEntity
  8
0
100
AcDbLine
 10
0.6512702247336151
 20
0.0335642103971248
 30
0.0
 11
0.6545793962571694
 21
0.0315662019470304
 31
0.0
  0
LINE
  5
C0B
330
B63
100
AcDbEntity
  8
0
100
AcDbLine
 10
0.6545793962571694
 20
0.0315662019470304
 30
0.0
 11
0.6581305747246873
 21
0.0308847184728132
 31
0.0
  0
LINE
  5
C0C
330
B63
100
AcDbEntity
  8
0
100
AcDbLine
 10
1.170596962578713
 20
0.0728405132250325
 30
0.0
 11
1.167045784111195
 21
0.0721590297508152
 31
0.0
  0
LINE
  5
C0D
330
B63
100
AcDbEntity
  8
0
100
AcDbLine
 10
1.160894962578712
 20
0.0669826488487653
 30
0.0
 11
1.158714487836473
 21
0.0628405132250345
 31
0.0
  0
LINE
  5
C0E
330
B63
100
AcDbEntity
  8
0
100
AcDbLine
 10
1.167045784111195
 20
0.0335219966992506
 30
0.0
 11
1.170596962578713
 21
0.0328405132250334
 31
0.0
  0
LINE
  5
C0F
330
B63
100
AcDbEntity
  8
0
100
AcDbLine
 10
1.167045784111195
 20
0.0721590297508152
 30
0.0
 11
1.163736612587641
 21
0.0701610213007209
 31
0.0
  0
LINE
  5
C10
330
B63
100
AcDbEntity
  8
0
100
AcDbLine
 10
1.163736612587641
 20
0.0701610213007209
 30
0.0
 11
1.160894962578712
 21
0.0669826488487653
 31
0.0
  0
LINE
  5
C11
330
B63
100
AcDbEntity
  8
0
100
AcDbLine
 10
1.158714487836473
 20
0.0628405132250345
 30
0.0
 11
1.157343784111198
 21
0.0580168941270829
 31
0.0
  0
LINE
  5
C12
330
B63
100
AcDbEntity
  8
0
100
AcDbLine
 10
1.157343784111198
 20
0.0580168941270829
 30
0.0
 11
1.156876262596568
 21
0.0528405132250329
 31
0.0
  0
LINE
  5
C13
330
B63
100
AcDbEntity
  8
0
100
AcDbLine
 10
1.156876262596568
 20
0.0528405132250329
 30
0.0
 11
1.157343784111198
 21
0.047664132322983
 31
0.0
  0
LINE
  5
C14
330
B63
100
AcDbEntity
  8
0
100
AcDbLine
 10
1.157343784111198
 20
0.047664132322983
 30
0.0
 11
1.158714487836473
 21
0.0428405132250349
 31
0.0
  0
LINE
  5
C15
330
B63
100
AcDbEntity
  8
0
100
AcDbLine
 10
1.158714487836473
 20
0.0428405132250349
 30
0.0
 11
1.160894962578712
 21
0.0386983776013006
 31
0.0
  0
LINE
  5
C16
330
B63
100
AcDbEntity
  8
0
100
AcDbLine
 10
1.160894962578712
 20
0.0386983776013006
 30
0.0
 11
1.163736612587641
 21
0.035520005149345
 31
0.0
  0
LINE
  5
C17
330
B63
100
AcDbEntity
  8
0
100
AcDbLine
 10
1.163736612587641
 20
0.035520005149345
 30
0.0
 11
1.167045784111195
 21
0.0335219966992506
 31
0.0
  0
LINE
  5
C18
330
B63
100
AcDbEntity
  8
0
100
AcDbLine
 10
1.170596962578716
 20
1.096840513225033
 30
0.0
 11
1.167045784111202
 21
1.096159029750812
 31
0.0
  0
LINE
  5
C19
330
B63
100
AcDbEntity
  8
0
100
AcDbLine
 10
1.167045784111202
 20
1.096159029750812
 30
0.0
 11
1.163736612587644
 21
1.094161021300721
 31
0.0
  0
LINE
  5
C1A
330
B63
100
AcDbEntity
  8
0
100
AcDbLine
 10
1.163736612587644
 20
1.094161021300721
 30
0.0
 11
1.160894962578716
 21
1.090982648848762
 31
0.0
  0
LINE
  5
C1B
330
B63
100
AcDbEntity
  8
0
100
AcDbLine
 10
1.160894962578716
 20
1.090982648848762
 30
0.0
 11
1.158714487836476
 21
1.086840513225035
 31
0.0
  0
LINE
  5
C1C
330
B63
100
AcDbEntity
  8
0
100
AcDbLine
 10
1.158714487836476
 20
1.086840513225035
 30
0.0
 11
1.157343784111198
 21
1.082016894127083
 31
0.0
  0
LINE
  5
C1D
330
B63
100
AcDbEntity
  8
0
100
AcDbLine
 10
1.157343784111198
 20
1.082016894127083
 30
0.0
 11
1.156876262596568
 21
1.076840513225033
 31
0.0
  0
LINE
  5
C1E
330
B63
100
AcDbEntity
  8
0
100
AcDbLine
 10
1.156876262596568
 20
1.076840513225033
 30
0.0
 11
1.157343784111198
 21
1.071664132322983
 31
0.0
  0
LINE
  5
C1F
330
B63
100
AcDbEntity
  8
0
100
AcDbLine
 10
1.157343784111198
 20
1.071664132322983
 30
0.0
 11
1.158714487836476
 21
1.066840513225032
 31
0.0
  0
LINE
  5
C20
330
B63
100
AcDbEntity
  8
0
100
AcDbLine
 10
1.158714487836476
 20
1.066840513225032
 30
0.0
 11
1.160894962578716
 21
1.062698377601301
 31
0.0
  0
LINE
  5
C21
330
B63
100
AcDbEntity
  8
0
100
AcDbLine
 10
1.160894962578716
 20
1.062698377601301
 30
0.0
 11
1.163736612587644
 21
1.059520005149342
 31
0.0
  0
LINE
  5
C22
330
B63
100
AcDbEntity
  8
0
100
AcDbLine
 10
1.163736612587644
 20
1.059520005149342
 30
0.0
 11
1.167045784111202
 21
1.057521996699251
 31
0.0
  0
LINE
  5
C23
330
B63
100
AcDbEntity
  8
0
100
AcDbLine
 10
1.167045784111202
 20
1.057521996699251
 30
0.0
 11
1.170596962578716
 21
1.056840513225034
 31
0.0
  0
LINE
  5
C24
330
B63
100
AcDbEntity
  8
0
100
AcDbLine
 10
0.6581305747246873
 20
1.108884718472812
 30
0.0
 11
0.6545793962571694
 21
1.108203234998595
 31
0.0
  0
LINE
  5
C25
330
B63
100
AcDbEntity
  8
0
100
AcDbLine
 10
0.6545793962571694
 20
1.108203234998595
 30
0.0
 11
0.6512702247336187
 21
1.106205226548504
 31
0.0
  0
LINE
  5
C26
330
B63
100
AcDbEntity
  8
0
100
AcDbLine
 10
0.6512702247336187
 20
1.106205226548504
 30
0.0
 11
0.6484285747246901
 21
1.103026854096545
 31
0.0
  0
LINE
  5
C27
330
B63
100
AcDbEntity
  8
0
100
AcDbLine
 10
0.6484285747246901
 20
1.103026854096545
 30
0.0
 11
0.6462480999824472
 21
1.098884718472814
 31
0.0
  0
LINE
  5
C28
330
B63
100
AcDbEntity
  8
0
100
AcDbLine
 10
0.6462480999824472
 20
1.098884718472814
 30
0.0
 11
0.6448773962571721
 21
1.094061099374862
 31
0.0
  0
LINE
  5
C29
330
B63
100
AcDbEntity
  8
0
100
AcDbLine
 10
0.6448773962571721
 20
1.094061099374862
 30
0.0
 11
0.6444098747425429
 21
1.088884718472812
 31
0.0
  0
LINE
  5
C2A
330
B63
100
AcDbEntity
  8
0
100
AcDbLine
 10
0.6444098747425429
 20
1.088884718472812
 30
0.0
 11
0.6448773962571721
 21
1.083708337570763
 31
0.0
  0
LINE
  5
C2B
330
B63
100
AcDbEntity
  8
0
100
AcDbLine
 10
0.6448773962571721
 20
1.083708337570763
 30
0.0
 11
0.6462480999824472
 21
1.078884718472814
 31
0.0
  0
LINE
  5
C2C
330
B63
100
AcDbEntity
  8
0
100
AcDbLine
 10
0.6462480999824472
 20
1.078884718472814
 30
0.0
 11
0.6484285747246901
 21
1.074742582849084
 31
0.0
  0
LINE
  5
C2D
330
B63
100
AcDbEntity
  8
0
100
AcDbLine
 10
0.6484285747246901
 20
1.074742582849084
 30
0.0
 11
0.6512702247336187
 21
1.071564210397125
 31
0.0
  0
LINE
  5
C2E
330
B63
100
AcDbEntity
  8
0
100
AcDbLine
 10
0.6512702247336187
 20
1.071564210397125
 30
0.0
 11
0.6545793962571694
 21
1.069566201947034
 31
0.0
  0
LINE
  5
C2F
330
B63
100
AcDbEntity
  8
0
100
AcDbLine
 10
0.6545793962571694
 20
1.069566201947034
 30
0.0
 11
0.6581305747246873
 21
1.068884718472813
 31
0.0
  0
LINE
  5
C30
330
B63
100
AcDbEntity
  8
0
100
AcDbLine
 10
0.6649909247157595
 20
1.108884718472812
 30
0.0
 11
0.6614397462482416
 21
1.108203234998595
 31
0.0
  0
LINE
  5
C31
330
B63
100
AcDbEntity
  8
0
100
AcDbLine
 10
0.6614397462482416
 20
1.108203234998595
 30
0.0
 11
0.6581305747246909
 21
1.106205226548504
 31
0.0
  0
LINE
  5
C32
330
B63
100
AcDbEntity
  8
0
100
AcDbLine
 10
0.6581305747246909
 20
1.106205226548504
 30
0.0
 11
0.6552889247157588
 21
1.103026854096545
 31
0.0
  0
LINE
  5
C33
330
B63
100
AcDbEntity
  8
0
100
AcDbLine
 10
0.6552889247157588
 20
1.103026854096545
 30
0.0
 11
0.6531084499735158
 21
1.098884718472814
 31
0.0
  0
LINE
  5
C34
330
B63
100
AcDbEntity
  8
0
100
AcDbLine
 10
0.6531084499735158
 20
1.098884718472814
 30
0.0
 11
0.6517377462482408
 21
1.094061099374862
 31
0.0
  0
LINE
  5
C35
330
B63
100
AcDbEntity
  8
0
100
AcDbLine
 10
0.6517377462482408
 20
1.094061099374862
 30
0.0
 11
0.6512702247336151
 21
1.088884718472812
 31
0.0
  0
LINE
  5
C36
330
B63
100
AcDbEntity
  8
0
100
AcDbLine
 10
0.6512702247336151
 20
1.088884718472812
 30
0.0
 11
0.6517377462482408
 21
1.083708337570763
 31
0.0
  0
LINE
  5
C37
330
B63
100
AcDbEntity
  8
0
100
AcDbLine
 10
0.6517377462482408
 20
1.083708337570763
 30
0.0
 11
0.6531084499735158
 21
1.078884718472814
 31
0.0
  0
LINE
  5
C38
330
B63
100
AcDbEntity
  8
0
100
AcDbLine
 10
0.6531084499735158
 20
1.078884718472814
 30
0.0
 11
0.6552889247157588
 21
1.074742582849084
 31
0.0
  0
LINE
  5
C39
330
B63
100
AcDbEntity
  8
0
100
AcDbLine
 10
0.6552889247157588
 20
1.074742582849084
 30
0.0
 11
0.6581305747246909
 21
1.071564210397125
 31
0.0
  0
LINE
  5
C3A
330
B63
100
AcDbEntity
  8
0
100
AcDbLine
 10
0.6581305747246909
 20
1.071564210397125
 30
0.0
 11
0.6614397462482416
 21
1.069566201947034
 31
0.0
  0
LINE
  5
C3B
330
B63
100
AcDbEntity
  8
0
100
AcDbLine
 10
0.6614397462482416
 20
1.069566201947034
 30
0.0
 11
0.6649909247157595
 21
1.068884718472813
 31
0.0
  0
LINE
  5
C3C
330
B63
100
AcDbEntity
  8
0
100
AcDbLine
 10
0.6649909247157595
 20
1.068884718472813
 30
0.0
 11
0.6685421031832775
 21
1.069566201947034
 31
0.0
  0
LINE
  5
C3D
330
B63
100
AcDbEntity
  8
0
100
AcDbLine
 10
0.6685421031832775
 20
1.069566201947034
 30
0.0
 11
0.6718512747068282
 21
1.071564210397125
 31
0.0
  0
LINE
  5
C3E
330
B63
100
AcDbEntity
  8
0
100
AcDbLine
 10
0.6718512747068282
 20
1.071564210397125
 30
0.0
 11
0.6746929247157567
 21
1.074742582849084
 31
0.0
  0
LINE
  5
C3F
330
B63
100
AcDbEntity
  8
0
100
AcDbLine
 10
0.6746929247157567
 20
1.074742582849084
 30
0.0
 11
0.6768733994579997
 21
1.078884718472814
 31
0.0
  0
LINE
  5
C40
330
B63
100
AcDbEntity
  8
0
100
AcDbLine
 10
0.6768733994579997
 20
1.078884718472814
 30
0.0
 11
0.6782441031832783
 21
1.083708337570763
 31
0.0
  0
LINE
  5
C41
330
B63
100
AcDbEntity
  8
0
100
AcDbLine
 10
0.6782441031832783
 20
1.083708337570763
 30
0.0
 11
0.678711624697904
 21
1.088884718472812
 31
0.0
  0
LINE
  5
C42
330
B63
100
AcDbEntity
  8
0
100
AcDbLine
 10
0.678711624697904
 20
1.088884718472812
 30
0.0
 11
0.6782441031832783
 21
1.094061099374862
 31
0.0
  0
LINE
  5
C43
330
B63
100
AcDbEntity
  8
0
100
AcDbLine
 10
0.6782441031832783
 20
1.094061099374862
 30
0.0
 11
0.6768733994579997
 21
1.098884718472814
 31
0.0
  0
LINE
  5
C44
330
B63
100
AcDbEntity
  8
0
100
AcDbLine
 10
0.6768733994579997
 20
1.098884718472814
 30
0.0
 11
0.6746929247157603
 21
1.103026854096545
 31
0.0
  0
LINE
  5
C45
330
B63
100
AcDbEntity
  8
0
100
AcDbLine
 10
0.6746929247157603
 20
1.103026854096545
 30
0.0
 11
0.6718512747068282
 21
1.106205226548504
 31
0.0
  0
LINE
  5
C46
330
B63
100
AcDbEntity
  8
0
100
AcDbLine
 10
0.6718512747068282
 20
1.106205226548504
 30
0.0
 11
0.6685421031832775
 21
1.108203234998595
 31
0.0
  0
LINE
  5
C47
330
B63
100
AcDbEntity
  8
0
100
AcDbLine
 10
0.6685421031832775
 20
1.108203234998595
 30
0.0
 11
0.6649909247157595
 21
1.108884718472812
 31
0.0
  0
LINE
  5
C48
330
B63
100
AcDbEntity
  8
0
100
AcDbLine
 10
0.6581305747246873
 20
1.108884718472812
 30
0.0
 11
0.6649909247157595
 21
1.108884718472812
 31
0.0
  0
LINE
  5
C49
330
B63
100
AcDbEntity
  8
0
100
AcDbLine
 10
0.6581305747246873
 20
1.068884718472813
 30
0.0
 11
0.6649909247157595
 21
1.068884718472813
 31
0.0
  0
LINE
  5
C4A
330
B63
100
AcDbEntity
  8
0
100
AcDbLine
 10
0.6649909247157595
 20
0.0708847184728123
 30
0.0
 11
0.6614397462482416
 21
0.0702032349985951
 31
0.0
  0
LINE
  5
C4B
330
B63
100
AcDbEntity
  8
0
100
AcDbLine
 10
0.6614397462482416
 20
0.0702032349985951
 30
0.0
 11
0.6581305747246873
 21
0.0682052265485007
 31
0.0
  0
LINE
  5
C4C
330
B63
100
AcDbEntity
  8
0
100
AcDbLine
 10
0.6581305747246873
 20
0.0682052265485007
 30
0.0
 11
0.6552889247157588
 21
0.0650268540965451
 31
0.0
  0
LINE
  5
C4D
330
B63
100
AcDbEntity
  8
0
100
AcDbLine
 10
0.6552889247157588
 20
0.0650268540965451
 30
0.0
 11
0.6531084499735158
 21
0.0608847184728143
 31
0.0
  0
LINE
  5
C4E
330
B63
100
AcDbEntity
  8
0
100
AcDbLine
 10
0.6531084499735158
 20
0.0608847184728143
 30
0.0
 11
0.6517377462482408
 21
0.0560610993748627
 31
0.0
  0
LINE
  5
C4F
330
B63
100
AcDbEntity
  8
0
100
AcDbLine
 10
0.6517377462482408
 20
0.0560610993748627
 30
0.0
 11
0.6512702247336151
 21
0.0508847184728127
 31
0.0
  0
LINE
  5
C50
330
B63
100
AcDbEntity
  8
0
100
AcDbLine
 10
0.6512702247336151
 20
0.0508847184728127
 30
0.0
 11
0.6517377462482408
 21
0.0457083375707628
 31
0.0
  0
LINE
  5
C51
330
B63
100
AcDbEntity
  8
0
100
AcDbLine
 10
0.6517377462482408
 20
0.0457083375707628
 30
0.0
 11
0.6531084499735158
 21
0.0408847184728147
 31
0.0
  0
LINE
  5
C52
330
B63
100
AcDbEntity
  8
0
100
AcDbLine
 10
0.6531084499735158
 20
0.0408847184728147
 30
0.0
 11
0.6552889247157588
 21
0.0367425828490804
 31
0.0
  0
LINE
  5
C53
330
B63
100
AcDbEntity
  8
0
100
AcDbLine
 10
0.6552889247157588
 20
0.0367425828490804
 30
0.0
 11
0.6581305747246873
 21
0.0335642103971248
 31
0.0
  0
LINE
  5
C54
330
B63
100
AcDbEntity
  8
0
100
AcDbLine
 10
0.6581305747246873
 20
0.0335642103971248
 30
0.0
 11
0.6614397462482416
 21
0.0315662019470304
 31
0.0
  0
LINE
  5
C55
330
B63
100
AcDbEntity
  8
0
100
AcDbLine
 10
0.6614397462482416
 20
0.0315662019470304
 30
0.0
 11
0.6649909247157595
 21
0.0308847184728132
 31
0.0
  0
LINE
  5
C56
330
B63
100
AcDbEntity
  8
0
100
AcDbLine
 10
0.6649909247157595
 20
0.0308847184728132
 30
0.0
 11
0.6685421031832739
 21
0.0315662019470304
 31
0.0
  0
LINE
  5
C57
330
B63
100
AcDbEntity
  8
0
100
AcDbLine
 10
0.6685421031832739
 20
0.0315662019470304
 30
0.0
 11
0.6718512747068246
 21
0.0335642103971248
 31
0.0
  0
LINE
  5
C58
330
B63
100
AcDbEntity
  8
0
100
AcDbLine
 10
0.6718512747068246
 20
0.0335642103971248
 30
0.0
 11
0.6746929247157567
 21
0.0367425828490804
 31
0.0
  0
LINE
  5
C59
330
B63
100
AcDbEntity
  8
0
100
AcDbLine
 10
0.6746929247157567
 20
0.0367425828490804
 30
0.0
 11
0.6768733994579997
 21
0.0408847184728112
 31
0.0
  0
LINE
  5
C5A
330
B63
100
AcDbEntity
  8
0
100
AcDbLine
 10
0.6768733994579997
 20
0.0408847184728112
 30
0.0
 11
0.6782441031832747
 21
0.0457083375707628
 31
0.0
  0
LINE
  5
C5B
330
B63
100
AcDbEntity
  8
0
100
AcDbLine
 10
0.6782441031832747
 20
0.0457083375707628
 30
0.0
 11
0.678711624697904
 21
0.0508847184728127
 31
0.0
  0
LINE
  5
C5C
330
B63
100
AcDbEntity
  8
0
100
AcDbLine
 10
0.678711624697904
 20
0.0508847184728127
 30
0.0
 11
0.6782441031832747
 21
0.0560610993748627
 31
0.0
  0
LINE
  5
C5D
330
B63
100
AcDbEntity
  8
0
100
AcDbLine
 10
0.6782441031832747
 20
0.0560610993748627
 30
0.0
 11
0.6768733994579997
 21
0.0608847184728143
 31
0.0
  0
LINE
  5
C5E
330
B63
100
AcDbEntity
  8
0
100
AcDbLine
 10
0.6768733994579997
 20
0.0608847184728143
 30
0.0
 11
0.6746929247157567
 21
0.0650268540965451
 31
0.0
  0
LINE
  5
C5F
330
B63
100
AcDbEntity
  8
0
100
AcDbLine
 10
0.6746929247157567
 20
0.0650268540965451
 30
0.0
 11
0.6718512747068246
 21
0.0682052265485007
 31
0.0
  0
LINE
  5
C60
330
B63
100
AcDbEntity
  8
0
100
AcDbLine
 10
0.6718512747068246
 20
0.0682052265485007
 30
0.0
 11
0.6685421031832739
 21
0.0702032349985951
 31
0.0
  0
LINE
  5
C61
330
B63
100
AcDbEntity
  8
0
100
AcDbLine
 10
0.6685421031832739
 20
0.0702032349985951
 30
0.0
 11
0.6649909247157595
 21
0.0708847184728123
 31
0.0
  0
LINE
  5
C62
330
B63
100
AcDbEntity
  8
0
100
AcDbLine
 10
0.6581305747246873
 20
0.0708847184728123
 30
0.0
 11
0.6649909247157595
 21
0.0708847184728123
 31
0.0
  0
LINE
  5
C63
330
B63
100
AcDbEntity
  8
0
100
AcDbLine
 10
0.6581305747246873
 20
0.0308847184728132
 30
0.0
 11
0.6649909247157595
 21
0.0308847184728132
 31
0.0
  0
LINE
  5
C64
330
B63
100
AcDbEntity
  8
0
100
AcDbLine
 10
1.177457312569785
 20
0.0728405132250325
 30
0.0
 11
1.173906134102267
 21
0.0721590297508152
 31
0.0
  0
LINE
  5
C65
330
B63
100
AcDbEntity
  8
0
100
AcDbLine
 10
1.173906134102267
 20
0.0721590297508152
 30
0.0
 11
1.170596962578713
 21
0.0701610213007209
 31
0.0
  0
LINE
  5
C66
330
B63
100
AcDbEntity
  8
0
100
AcDbLine
 10
1.170596962578713
 20
0.0701610213007209
 30
0.0
 11
1.167755312569784
 21
0.0669826488487653
 31
0.0
  0
LINE
  5
C67
330
B63
100
AcDbEntity
  8
0
100
AcDbLine
 10
1.167755312569784
 20
0.0669826488487653
 30
0.0
 11
1.165574837827541
 21
0.0628405132250345
 31
0.0
  0
LINE
  5
C68
330
B63
100
AcDbEntity
  8
0
100
AcDbLine
 10
1.165574837827541
 20
0.0628405132250345
 30
0.0
 11
1.16420413410227
 21
0.0580168941270829
 31
0.0
  0
LINE
  5
C69
330
B63
100
AcDbEntity
  8
0
100
AcDbLine
 10
1.16420413410227
 20
0.0580168941270829
 30
0.0
 11
1.163736612587641
 21
0.0528405132250329
 31
0.0
  0
LINE
  5
C6A
330
B63
100
AcDbEntity
  8
0
100
AcDbLine
 10
1.163736612587641
 20
0.0528405132250329
 30
0.0
 11
1.16420413410227
 21
0.047664132322983
 31
0.0
  0
LINE
  5
C6B
330
B63
100
AcDbEntity
  8
0
100
AcDbLine
 10
1.16420413410227
 20
0.047664132322983
 30
0.0
 11
1.165574837827541
 21
0.0428405132250349
 31
0.0
  0
LINE
  5
C6C
330
B63
100
AcDbEntity
  8
0
100
AcDbLine
 10
1.165574837827541
 20
0.0428405132250349
 30
0.0
 11
1.167755312569784
 21
0.0386983776013006
 31
0.0
  0
LINE
  5
C6D
330
B63
100
AcDbEntity
  8
0
100
AcDbLine
 10
1.167755312569784
 20
0.0386983776013006
 30
0.0
 11
1.170596962578713
 21
0.035520005149345
 31
0.0
  0
LINE
  5
C6E
330
B63
100
AcDbEntity
  8
0
100
AcDbLine
 10
1.170596962578713
 20
0.035520005149345
 30
0.0
 11
1.173906134102267
 21
0.0335219966992506
 31
0.0
  0
LINE
  5
C6F
330
B63
100
AcDbEntity
  8
0
100
AcDbLine
 10
1.173906134102267
 20
0.0335219966992506
 30
0.0
 11
1.177457312569785
 21
0.0328405132250334
 31
0.0
  0
LINE
  5
C70
330
B63
100
AcDbEntity
  8
0
100
AcDbLine
 10
1.177457312569785
 20
0.0328405132250334
 30
0.0
 11
1.181008491037303
 21
0.0335219966992506
 31
0.0
  0
LINE
  5
C71
330
B63
100
AcDbEntity
  8
0
100
AcDbLine
 10
1.181008491037303
 20
0.0335219966992506
 30
0.0
 11
1.184317662560854
 21
0.035520005149345
 31
0.0
  0
LINE
  5
C72
330
B63
100
AcDbEntity
  8
0
100
AcDbLine
 10
1.184317662560854
 20
0.035520005149345
 30
0.0
 11
1.187159312569782
 21
0.0386983776013006
 31
0.0
  0
LINE
  5
C73
330
B63
100
AcDbEntity
  8
0
100
AcDbLine
 10
1.187159312569782
 20
0.0386983776013006
 30
0.0
 11
1.189339787312029
 21
0.0428405132250314
 31
0.0
  0
LINE
  5
C74
330
B63
100
AcDbEntity
  8
0
100
AcDbLine
 10
1.189339787312029
 20
0.0428405132250314
 30
0.0
 11
1.190710491037307
 21
0.047664132322983
 31
0.0
  0
LINE
  5
C75
330
B63
100
AcDbEntity
  8
0
100
AcDbLine
 10
1.190710491037307
 20
0.047664132322983
 30
0.0
 11
1.19117801255193
 21
0.0528405132250329
 31
0.0
  0
LINE
  5
C76
330
B63
100
AcDbEntity
  8
0
100
AcDbLine
 10
1.19117801255193
 20
0.0528405132250329
 30
0.0
 11
1.190710491037307
 21
0.0580168941270829
 31
0.0
  0
LINE
  5
C77
330
B63
100
AcDbEntity
  8
0
100
AcDbLine
 10
1.190710491037307
 20
0.0580168941270829
 30
0.0
 11
1.189339787312029
 21
0.0628405132250309
 31
0.0
  0
LINE
  5
C78
330
B63
100
AcDbEntity
  8
0
100
AcDbLine
 10
1.189339787312029
 20
0.0628405132250309
 30
0.0
 11
1.187159312569789
 21
0.0669826488487653
 31
0.0
  0
LINE
  5
C79
330
B63
100
AcDbEntity
  8
0
100
AcDbLine
 10
1.187159312569789
 20
0.0669826488487653
 30
0.0
 11
1.184317662560854
 21
0.0701610213007209
 31
0.0
  0
LINE
  5
C7A
330
B63
100
AcDbEntity
  8
0
100
AcDbLine
 10
1.184317662560854
 20
0.0701610213007209
 30
0.0
 11
1.181008491037303
 21
0.0721590297508152
 31
0.0
  0
LINE
  5
C7B
330
B63
100
AcDbEntity
  8
0
100
AcDbLine
 10
1.181008491037303
 20
0.0721590297508152
 30
0.0
 11
1.177457312569785
 21
0.0728405132250325
 31
0.0
  0
LINE
  5
C7C
330
B63
100
AcDbEntity
  8
0
100
AcDbLine
 10
1.170596962578713
 20
0.0728405132250325
 30
0.0
 11
1.177457312569785
 21
0.0728405132250325
 31
0.0
  0
LINE
  5
C7D
330
B63
100
AcDbEntity
  8
0
100
AcDbLine
 10
1.170596962578713
 20
0.0328405132250334
 30
0.0
 11
1.177457312569785
 21
0.0328405132250334
 31
0.0
  0
LINE
  5
C7E
330
B63
100
AcDbEntity
  8
0
100
AcDbLine
 10
1.177457312569785
 20
1.096840513225033
 30
0.0
 11
1.173906134102271
 21
1.096159029750812
 31
0.0
  0
LINE
  5
C7F
330
B63
100
AcDbEntity
  8
0
100
AcDbLine
 10
1.173906134102271
 20
1.096159029750812
 30
0.0
 11
1.170596962578716
 21
1.094161021300721
 31
0.0
  0
LINE
  5
C80
330
B63
100
AcDbEntity
  8
0
100
AcDbLine
 10
1.170596962578716
 20
1.094161021300721
 30
0.0
 11
1.167755312569788
 21
1.090982648848762
 31
0.0
  0
LINE
  5
C81
330
B63
100
AcDbEntity
  8
0
100
AcDbLine
 10
1.167755312569788
 20
1.090982648848762
 30
0.0
 11
1.165574837827545
 21
1.086840513225035
 31
0.0
  0
LINE
  5
C82
330
B63
100
AcDbEntity
  8
0
100
AcDbLine
 10
1.165574837827545
 20
1.086840513225035
 30
0.0
 11
1.16420413410227
 21
1.082016894127083
 31
0.0
  0
LINE
  5
C83
330
B63
100
AcDbEntity
  8
0
100
AcDbLine
 10
1.16420413410227
 20
1.082016894127083
 30
0.0
 11
1.163736612587641
 21
1.076840513225033
 31
0.0
  0
LINE
  5
C84
330
B63
100
AcDbEntity
  8
0
100
AcDbLine
 10
1.163736612587641
 20
1.076840513225033
 30
0.0
 11
1.16420413410227
 21
1.071664132322983
 31
0.0
  0
LINE
  5
C85
330
B63
100
AcDbEntity
  8
0
100
AcDbLine
 10
1.16420413410227
 20
1.071664132322983
 30
0.0
 11
1.165574837827545
 21
1.066840513225032
 31
0.0
  0
LINE
  5
C86
330
B63
100
AcDbEntity
  8
0
100
AcDbLine
 10
1.165574837827545
 20
1.066840513225032
 30
0.0
 11
1.167755312569788
 21
1.062698377601301
 31
0.0
  0
LINE
  5
C87
330
B63
100
AcDbEntity
  8
0
100
AcDbLine
 10
1.167755312569788
 20
1.062698377601301
 30
0.0
 11
1.170596962578716
 21
1.059520005149342
 31
0.0
  0
LINE
  5
C88
330
B63
100
AcDbEntity
  8
0
100
AcDbLine
 10
1.170596962578716
 20
1.059520005149342
 30
0.0
 11
1.173906134102271
 21
1.057521996699251
 31
0.0
  0
LINE
  5
C89
330
B63
100
AcDbEntity
  8
0
100
AcDbLine
 10
1.173906134102271
 20
1.057521996699251
 30
0.0
 11
1.177457312569785
 21
1.056840513225034
 31
0.0
  0
LINE
  5
C8A
330
B63
100
AcDbEntity
  8
0
100
AcDbLine
 10
1.177457312569785
 20
1.056840513225034
 30
0.0
 11
1.181008491037303
 21
1.057521996699251
 31
0.0
  0
LINE
  5
C8B
330
B63
100
AcDbEntity
  8
0
100
AcDbLine
 10
1.181008491037303
 20
1.057521996699251
 30
0.0
 11
1.184317662560857
 21
1.059520005149342
 31
0.0
  0
LINE
  5
C8C
330
B63
100
AcDbEntity
  8
0
100
AcDbLine
 10
1.184317662560857
 20
1.059520005149342
 30
0.0
 11
1.187159312569786
 21
1.062698377601301
 31
0.0
  0
LINE
  5
C8D
330
B63
100
AcDbEntity
  8
0
100
AcDbLine
 10
1.187159312569786
 20
1.062698377601301
 30
0.0
 11
1.189339787312029
 21
1.066840513225032
 31
0.0
  0
LINE
  5
C8E
330
B63
100
AcDbEntity
  8
0
100
AcDbLine
 10
1.189339787312029
 20
1.066840513225032
 30
0.0
 11
1.190710491037307
 21
1.071664132322983
 31
0.0
  0
LINE
  5
C8F
330
B63
100
AcDbEntity
  8
0
100
AcDbLine
 10
1.190710491037307
 20
1.071664132322983
 30
0.0
 11
1.191178012551933
 21
1.076840513225033
 31
0.0
  0
LINE
  5
C90
330
B63
100
AcDbEntity
  8
0
100
AcDbLine
 10
1.191178012551933
 20
1.076840513225033
 30
0.0
 11
1.190710491037307
 21
1.082016894127083
 31
0.0
  0
LINE
  5
C91
330
B63
100
AcDbEntity
  8
0
100
AcDbLine
 10
1.190710491037307
 20
1.082016894127083
 30
0.0
 11
1.189339787312029
 21
1.086840513225031
 31
0.0
  0
LINE
  5
C92
330
B63
100
AcDbEntity
  8
0
100
AcDbLine
 10
1.189339787312029
 20
1.086840513225031
 30
0.0
 11
1.187159312569789
 21
1.090982648848762
 31
0.0
  0
LINE
  5
C93
330
B63
100
AcDbEntity
  8
0
100
AcDbLine
 10
1.187159312569789
 20
1.090982648848762
 30
0.0
 11
1.184317662560857
 21
1.094161021300721
 31
0.0
  0
LINE
  5
C94
330
B63
100
AcDbEntity
  8
0
100
AcDbLine
 10
1.184317662560857
 20
1.094161021300721
 30
0.0
 11
1.181008491037303
 21
1.096159029750812
 31
0.0
  0
LINE
  5
C95
330
B63
100
AcDbEntity
  8
0
100
AcDbLine
 10
1.181008491037303
 20
1.096159029750812
 30
0.0
 11
1.177457312569785
 21
1.096840513225033
 31
0.0
  0
LINE
  5
C96
330
B63
100
AcDbEntity
  8
0
100
AcDbLine
 10
1.170596962578716
 20
1.096840513225033
 30
0.0
 11
1.177457312569785
 21
1.096840513225033
 31
0.0
  0
LINE
  5
C97
330
B63
100
AcDbEntity
  8
0
100
AcDbLine
 10
1.170596962578716
 20
1.056840513225034
 30
0.0
 11
1.177457312569785
 21
1.056840513225034
 31
0.0
  0
LINE
  5
C98
330
B63
100
AcDbEntity
  8
0
100
AcDbLine
 10
0.619315910838072
 20
1.141284268272706
 30
0.0
 11
0.602136068942528
 21
1.141284268272706
 31
0.0
  0
LINE
  5
C99
330
B63
100
AcDbEntity
  8
0
100
AcDbLine
 10
-0.000000027930259
 20
1.141284268272706
 30
0.0
 11
-0.000000027930259
 21
0.9795658920594272
 31
0.0
  0
LINE
  5
C9A
330
B63
100
AcDbEntity
  8
0
100
AcDbLine
 10
0.6193159108380684
 20
0.0012842682727063
 30
0.0
 11
0.6008327546430579
 21
0.0012842682727028
 31
0.0
  0
LINE
  5
C9B
330
B63
100
AcDbEntity
  8
0
100
AcDbLine
 10
0.6406069369158942
 20
0.0012842682727028
 30
0.0
 11
0.6193159108380684
 21
0.0012842682727063
 31
0.0
  0
LINE
  5
C9C
330
B63
100
AcDbEntity
  8
0
100
AcDbLine
 10
1.199595184657887
 20
1.141284268272706
 30
0.0
 11
1.199595184657887
 21
0.6119043039360515
 31
0.0
  0
LINE
  5
C9D
330
B63
100
AcDbEntity
  8
0
100
AcDbLine
 10
0.0238678673169162
 20
0.0012842682727063
 30
0.0
 11
0.5935421533105405
 21
0.0012842682727063
 31
0.0
  0
LINE
  5
C9E
330
B63
100
AcDbEntity
  8
0
100
AcDbLine
 10
0.5935421533105405
 20
0.0012842682727063
 30
0.0
 11
0.5981027074024752
 21
0.0012842682727063
 31
0.0
  0
LINE
  5
C9F
330
B63
100
AcDbEntity
  8
0
100
AcDbLine
 10
-0.000000027930259
 20
0.9795658920594272
 30
0.0
 11
-0.000000027930259
 21
0.9424760407529406
 31
0.0
  0
LINE
  5
CA0
330
B63
100
AcDbEntity
  8
0
100
AcDbLine
 10
0.5981027074024752
 20
1.141284268272706
 30
0.0
 11
0.593542153310537
 21
1.141284268272706
 31
0.0
  0
LINE
  5
CA1
330
B63
100
AcDbEntity
  8
0
100
AcDbLine
 10
0.593542153310537
 20
1.141284268272706
 30
0.0
 11
0.0238678673169233
 21
1.141284268272706
 31
0.0
  0
LINE
  5
CA2
330
B63
100
AcDbEntity
  8
0
100
AcDbLine
 10
0.6510560611211354
 20
1.141284268272706
 30
0.0
 11
1.176438552689067
 21
1.141284268272706
 31
0.0
  0
LINE
  5
CA3
330
B63
100
AcDbEntity
  8
0
100
AcDbLine
 10
0.6478975382484187
 20
0.0012842682727028
 30
0.0
 11
0.6406069369158942
 21
0.0012842682727028
 31
0.0
  0
LINE
  5
CA4
330
B63
100
AcDbEntity
  8
0
100
AcDbLine
 10
1.199595184657887
 20
0.6119043039360515
 30
0.0
 11
1.199595184657887
 21
0.5919043039360519
 31
0.0
  0
LINE
  5
CA5
330
B63
100
AcDbEntity
  8
0
100
AcDbLine
 10
1.199595184657887
 20
0.5919043039360519
 30
0.0
 11
1.199595184657891
 21
0.0012842682727063
 31
0.0
  0
LINE
  5
CA6
330
B63
100
AcDbEntity
  8
0
100
AcDbLine
 10
0.619315910838072
 20
1.141284268272706
 30
0.0
 11
0.6393036226164242
 21
1.141284268272706
 31
0.0
  0
LINE
  5
CA7
330
B63
100
AcDbEntity
  8
0
100
AcDbLine
 10
0.6510560611211318
 20
0.0012842682727028
 30
0.0
 11
0.6478975382484187
 21
0.0012842682727028
 31
0.0
  0
LINE
  5
CA8
330
B63
100
AcDbEntity
  8
0
100
AcDbLine
 10
0.6393036226164242
 20
1.141284268272706
 30
0.0
 11
0.6478975382484152
 21
1.141284268272706
 31
0.0
  0
LINE
  5
CA9
330
B63
100
AcDbEntity
  8
0
100
AcDbLine
 10
0.6478975382484152
 20
1.141284268272706
 30
0.0
 11
0.6510560611211354
 21
1.141284268272706
 31
0.0
  0
LINE
  5
CAA
330
B63
100
AcDbEntity
  8
0
100
AcDbLine
 10
-0.000000027930259
 20
0.9424760407529406
 30
0.0
 11
-0.000000027930259
 21
0.9127326949117255
 31
0.0
  0
LINE
  5
CAB
330
B63
100
AcDbEntity
  8
0
100
AcDbLine
 10
1.176438552689077
 20
0.0012842682727063
 30
0.0
 11
0.6510560611211318
 21
0.0012842682727028
 31
0.0
  0
LINE
  5
CAC
330
B63
100
AcDbEntity
  8
0
100
AcDbLine
 10
-0.000000027930259
 20
0.9127326949117255
 30
0.0
 11
-0.000000027930259
 21
0.877604367832327
 31
0.0
  0
LINE
  5
CAD
330
B63
100
AcDbEntity
  8
0
100
AcDbLine
 10
-0.000000027930259
 20
0.877604367832327
 30
0.0
 11
-0.000000027930259
 21
0.8756428436052177
 31
0.0
  0
LINE
  5
CAE
330
B63
100
AcDbEntity
  8
0
100
AcDbLine
 10
-0.000000027930259
 20
0.8756428436052177
 30
0.0
 11
-0.0000000279302625
 21
0.2795658920594279
 31
0.0
  0
LINE
  5
CAF
330
B63
100
AcDbEntity
  8
0
100
AcDbLine
 10
-0.0000000279302625
 20
0.1756428436052184
 30
0.0
 11
-0.0000000279302625
 21
0.0012842682727063
 31
0.0
  0
LINE
  5
CB0
330
B63
100
AcDbEntity
  8
0
100
AcDbLine
 10
-0.0000000279302625
 20
0.0012842682727063
 30
0.0
 11
0.0238678673169162
 21
0.0012842682727063
 31
0.0
  0
LINE
  5
CB1
330
B63
100
AcDbEntity
  8
0
100
AcDbLine
 10
-0.000000027930259
 20
1.141284268272706
 30
0.0
 11
0.0238678673169233
 21
1.141284268272706
 31
0.0
  0
LINE
  5
CB2
330
B63
100
AcDbEntity
  8
0
100
AcDbLine
 10
0.602136068942528
 20
1.141284268272706
 30
0.0
 11
0.5981027074024752
 21
1.141284268272706
 31
0.0
  0
LINE
  5
CB3
330
B63
100
AcDbEntity
  8
0
100
AcDbLine
 10
1.199595184657887
 20
1.141284268272706
 30
0.0
 11
1.176438552689067
 21
1.141284268272706
 31
0.0
  0
LINE
  5
CB4
330
B63
100
AcDbEntity
  8
0
100
AcDbLine
 10
1.199595184657891
 20
0.0012842682727063
 30
0.0
 11
1.176438552689077
 21
0.0012842682727063
 31
0.0
  0
LINE
  5
CB5
330
B63
100
AcDbEntity
  8
0
100
AcDbLine
 10
0.6008327546430579
 20
0.0012842682727028
 30
0.0
 11
0.5981027074024752
 21
0.0012842682727063
 31
0.0
  0
LINE
  5
CB6
330
B63
100
AcDbEntity
  8
0
100
AcDbLine
 10
-0.0000000279302554
 20
0.177461984419641
 30
0.0
 11
-0.0000000279302554
 21
0.2145518357261276
 31
0.0
  0
LINE
  5
CB7
330
B63
100
AcDbEntity
  8
0
100
AcDbLine
 10
-0.0000000279302554
 20
0.2145518357261276
 30
0.0
 11
-0.0000000279302554
 21
0.2442951815673426
 31
0.0
  0
LINE
  5
CB8
330
B63
100
AcDbEntity
  8
0
100
AcDbLine
 10
-0.0000000279302554
 20
0.2442951815673426
 30
0.0
 11
-0.0000000279302554
 21
0.2794235086467411
 31
0.0
  0
LINE
  5
CB9
330
B63
100
AcDbEntity
  8
0
100
AcDbLine
 10
-0.0000000279302554
 20
0.2794235086467411
 30
0.0
 11
-0.0000000279302554
 21
0.2813850328738505
 31
0.0
  0
ENDBLK
  5
CBD
330
B63
100
AcDbEntity
  8
0
100
AcDbBlockEnd
  0
BLOCK
  5
10FF
330
10FE
100
AcDbEntity
  8
0
100
AcDbBlockBegin
  2
*D2
 70
     1
 10
0.0
 20
0.0
 30
0.0
  3
*D2
  1

  0
LINE
  5
1111
330
10FE
100
AcDbEntity
  8
WYMIAR
370
    -2
100
AcDbLine
 10
1.849956172392226
 20
8.948919463696551
 30
0.0
 11
1.849956172392225
 21
2.199037534596854
 31
0.0
  0
INSERT
  5
1112
330
10FE
100
AcDbEntity
  8
WYMIAR
370
    -2
100
AcDbBlockReference
  2
MAR-STRZ
 10
1.849956172392226
 20
9.008919463696551
 30
0.0
 41
0.06
 42
0.06
 43
0.06
 50
90.0
  0
INSERT
  5
1113
330
10FE
100
AcDbEntity
  8
WYMIAR
370
    -2
100
AcDbBlockReference
  2
MAR-STRZ
 10
1.849956172392225
 20
2.139037534596853
 30
0.0
 41
0.06
 42
0.06
 43
0.06
 50
270.0
  0
MTEXT
  5
1114
330
10FE
100
AcDbEntity
  8
WYMIAR
100
AcDbMText
 10
1.637560068496121
 20
5.573978499146702
 30
0.0
 40
0.18
 41
0.0
 71
     5
 72
     1
  1
\A1;6.90
  7
AR 01 SWIS
 11
0.0000000000000001
 21
1.0
 31
0.0
 73
     1
 44
1.0
  0
POINT
  5
1115
330
10FE
100
AcDbEntity
  8
Defpoints
 62
     0
100
AcDbPoint
 10
2.606374271305101
 20
9.008919463696551
 30
0.0
  0
POINT
  5
1116
330
10FE
100
AcDbEntity
  8
Defpoints
 62
     0
100
AcDbPoint
 10
2.606374271305103
 20
2.139037534596853
 30
0.0
  0
POINT
  5
1117
330
10FE
100
AcDbEntity
  8
Defpoints
 62
     0
100
AcDbPoint
 10
1.849956172392225
 20
2.139037534596853
 30
0.0
  0
ENDBLK
  5
1100
330
10FE
100
AcDbEntity
  8
0
100
AcDbBlockEnd
  0
BLOCK
  5
111A
330
1119
100
AcDbEntity
  8
0
100
AcDbBlockBegin
  2
*D3
 70
     1
 10
0.0
 20
0.0
 30
0.0
  3
*D3
  1

  0
LINE
  5
1124
330
1119
100
AcDbEntity
  8
WYMIAR
370
    -2
100
AcDbLine
 10
2.666374271305101
 20
9.755244842945852
 30
0.0
 11
6.546374271305103
 21
9.755244842945852
 31
0.0
  0
INSERT
  5
1125
330
1119
100
AcDbEntity
  8
WYMIAR
370
    -2
100
AcDbBlockReference
  2
MAR-STRZ
 10
2.606374271305101
 20
9.755244842945852
 30
0.0
 41
0.06
 42
0.06
 43
0.06
 50
180.0
  0
INSERT
  5
1126
330
1119
100
AcDbEntity
  8
WYMIAR
370
    -2
100
AcDbBlockReference
  2
MAR-STRZ
 10
6.606374271305103
 20
9.755244842945852
 30
0.0
 41
0.06
 42
0.06
 43
0.06
  0
MTEXT
  5
1127
330
1119
100
AcDbEntity
  8
WYMIAR
100
AcDbMText
 10
4.606374271305102
 20
9.967524063725074
 30
0.0
 40
0.18
 41
0.0
 71
     5
 72
     1
  1
\A1;4.00
  7
AR 01 SWIS
 73
     1
 44
1.0
  0
POINT
  5
1128
330
1119
100
AcDbEntity
  8
Defpoints
 62
     0
100
AcDbPoint
 10
2.606374271305101
 20
9.008919463696551
 30
0.0
  0
POINT
  5
1129
330
1119
100
AcDbEntity
  8
Defpoints
 62
     0
100
AcDbPoint
 10
6.606374271305103
 20
9.008919463696551
 30
0.0
  0
POINT
  5
112A
330
1119
100
AcDbEntity
  8
Defpoints
 62
     0
100
AcDbPoint
 10
6.606374271305103
 20
9.755244842945852
 30
0.0
  0
ENDBLK
  5
111B
330
1119
100
AcDbEntity
  8
0
100
AcDbBlockEnd
  0
BLOCK
  5
1167
330
115A
100
AcDbEntity
  8
0
100
AcDbBlockBegin
  2
A$C7305598A
 70
     0
 10
0.0
 20
0.0
 30
0.0
  3
A$C7305598A
  1

  0
LINE
  5
115B
330
115A
100
AcDbEntity
  8
0
100
AcDbLine
 10
0.6444246643894811
 20
0.1999999997088952
 30
0.0
 11
0.0747503783958674
 21
0.1999999997088952
 31
0.0
  0
LINE
  5
115C
330
115A
100
AcDbEntity
  8
0
100
AcDbLine
 10
0.7019385722000795
 20
0.1999999997088952
 30
0.0
 11
1.227321063768011
 21
0.1999999997088952
 31
0.0
  0
LINE
  5
115D
330
115A
100
AcDbEntity
  8
0
100
AcDbLine
 10
0.0508824831486852
 20
0.1999999997088952
 30
0.0
 11
0.0747503783958674
 21
0.1999999997088952
 31
0.0
  0
LINE
  5
115E
330
115A
100
AcDbEntity
  8
0
100
AcDbLine
 10
1.250477695736831
 20
0.1999999997088952
 30
0.0
 11
1.227321063768011
 21
0.1999999997088952
 31
0.0
  0
LINE
  5
115F
330
115A
100
AcDbEntity
  8
0
100
AcDbLine
 10
0.6701984219170161
 20
0.0999999997088956
 30
0.0
 11
1.250477695736832
 21
0.0999999997088868
 31
0.0
  0
ARC
  5
1160
330
115A
100
AcDbEntity
  8
0
100
AcDbCircle
 10
1.25135253165827
 20
0.149999999708891
 30
0.0
 40
0.0500076527932462
100
AcDbArc
 50
268.9976141588701
 51
91.00238584113085
  0
ARC
  5
1161
330
115A
100
AcDbEntity
  8
0
100
AcDbCircle
 10
1.251352531658301
 20
0.0499999997088816
 30
0.0
 40
0.0500076527932462
100
AcDbArc
 50
268.9976141588701
 51
91.00238584113091
  0
LINE
  5
1162
330
115A
100
AcDbEntity
  8
0
100
AcDbLine
 10
0.6311617569685329
 20
0.099999999708877
 30
0.0
 11
0.0508824831487163
 21
0.0999999997088859
 31
0.0
  0
ARC
  5
1163
330
115A
100
AcDbEntity
  8
0
100
AcDbCircle
 10
0.0500076472272788
 20
0.0499999997088816
 30
0.0
 40
0.0500076527932462
100
AcDbArc
 50
88.99761415887006
 51
271.0023858411308
  0
ARC
  5
1164
330
115A
100
AcDbEntity
  8
0
100
AcDbCircle
 10
0.0500076472272477
 20
0.149999999708891
 30
0.0
 40
0.0500076527932462
100
AcDbArc
 50
88.99761415887006
 51
271.0023858411308
  0
ENDBLK
  5
1168
330
115A
100
AcDbEntity
  8
0
100
AcDbBlockEnd
  0
BLOCK
  5
11B2
330
11A6
100
AcDbEntity
  8
0
100
AcDbBlockBegin
  2
A$C43E158E6
 70
     0
 10
0.0
 20
0.0
 30
0.0
  3
A$C43E158E6
  1

  0
LINE
  5
11A7
330
11A6
100
AcDbEntity
  8
0
100
AcDbLine
 10
0.6444246643894811
 20
0.0999999917373078
 30
0.0
 11
0.0747503783958674
 21
0.0999999917373078
 31
0.0
  0
LINE
  5
11A8
330
11A6
100
AcDbEntity
  8
0
100
AcDbLine
 10
0.7019385722000795
 20
0.0999999917373078
 30
0.0
 11
1.227321063768011
 21
0.0999999917373078
 31
0.0
  0
LINE
  5
11A9
330
11A6
100
AcDbEntity
  8
0
100
AcDbLine
 10
0.6701984219170161
 20
0.0999999917373078
 30
0.0
 11
0.6901861336953683
 21
0.0999999917373078
 31
0.0
  0
LINE
  5
11AA
330
11A6
100
AcDbEntity
  8
0
100
AcDbLine
 10
0.6901861336953683
 20
0.0999999917373078
 30
0.0
 11
0.6987800493273593
 21
0.0999999917373078
 31
0.0
  0
LINE
  5
11AB
330
11A6
100
AcDbEntity
  8
0
100
AcDbLine
 10
0.6987800493273593
 20
0.0999999917373078
 30
0.0
 11
0.7019385722000795
 21
0.0999999917373078
 31
0.0
  0
LINE
  5
11AC
330
11A6
100
AcDbEntity
  8
0
100
AcDbLine
 10
0.0508824831486852
 20
0.0999999917373078
 30
0.0
 11
0.0747503783958674
 21
0.0999999917373078
 31
0.0
  0
LINE
  5
11AD
330
11A6
100
AcDbEntity
  8
0
100
AcDbLine
 10
1.250477695736831
 20
0.0999999917373078
 30
0.0
 11
1.227321063768011
 21
0.0999999917373078
 31
0.0
  0
ARC
  5
11AE
330
11A6
100
AcDbEntity
  8
0
100
AcDbCircle
 10
1.25135253165827
 20
0.0499999917373035
 30
0.0
 40
0.0500076527932462
100
AcDbArc
 50
268.9976141588701
 51
91.00238584113085
  0
ARC
  5
11AF
330
11A6
100
AcDbEntity
  8
0
100
AcDbCircle
 10
0.0500076472272477
 20
0.0499999917373035
 30
0.0
 40
0.0500076527932462
100
AcDbArc
 50
88.99761415887006
 51
271.0023858411308
  0
ENDBLK
  5
11B3
330
11A6
100
AcDbEntity
  8
0
100
AcDbBlockEnd
  0
ENDSEC
  0
SECTION
  2
ENTITIES
  0
LINE
  5
37C
330
1F
100
AcDbEntity
  8
0
100
AcDbLine
 10
4.314946930689733
 20
7.508919463696549
 30
0.0
 11
4.322467636254012
 21
7.50891946369655
 31
0.0
  0
LINE
  5
558
330
1F
100
AcDbEntity
  8
0
100
AcDbLine
 10
4.311362840637972
 20
4.154592938356684
 30
0.0
 11
4.310579134642617
 21
4.160286611298903
 31
0.0
  0
LINE
  5
559
330
1F
100
AcDbEntity
  8
0
100
AcDbLine
 10
4.313660550355579
 20
4.149287279816231
 30
0.0
 11
4.311362840637972
 21
4.154592938356684
 31
0.0
  0
LINE
  5
55A
330
1F
100
AcDbEntity
  8
0
100
AcDbLine
 10
4.317315678675329
 20
4.144731207539075
 30
0.0
 11
4.313660550355579
 21
4.149287279816231
 31
0.0
  0
LINE
  5
55B
330
1F
100
AcDbEntity
  8
0
100
AcDbLine
 10
4.322079134642617
 20
4.141235210321628
 30
0.0
 11
4.317315678675329
 21
4.144731207539075
 31
0.0
  0
LINE
  5
55C
330
1F
100
AcDbEntity
  8
0
100
AcDbLine
 10
4.32762629660526
 20
4.139037534596852
 30
0.0
 11
4.322079134642617
 21
4.141235210321628
 31
0.0
  0
LINE
  5
55D
330
1F
100
AcDbEntity
  8
0
100
AcDbLine
 10
4.333579134642618
 20
4.138287948333566
 30
0.0
 11
4.32762629660526
 21
4.139037534596852
 31
0.0
  0
LINE
  5
55E
330
1F
100
AcDbEntity
  8
0
100
AcDbLine
 10
4.339531972679975
 20
4.139037534596852
 30
0.0
 11
4.333579134642618
 21
4.138287948333566
 31
0.0
  0
LINE
  5
55F
330
1F
100
AcDbEntity
  8
0
100
AcDbLine
 10
4.345079134642618
 20
4.141235210321628
 30
0.0
 11
4.339531972679975
 21
4.139037534596852
 31
0.0
  0
LINE
  5
560
330
1F
100
AcDbEntity
  8
0
100
AcDbLine
 10
4.349842590609909
 20
4.144731207539075
 30
0.0
 11
4.345079134642618
 21
4.141235210321628
 31
0.0
  0
LINE
  5
561
330
1F
100
AcDbEntity
  8
0
100
AcDbLine
 10
4.353497718929663
 20
4.149287279816231
 30
0.0
 11
4.349842590609909
 21
4.144731207539075
 31
0.0
  0
LINE
  5
562
330
1F
100
AcDbEntity
  8
0
100
AcDbLine
 10
4.355795428647269
 20
4.154592938356684
 30
0.0
 11
4.353497718929663
 21
4.149287279816231
 31
0.0
  0
LINE
  5
563
330
1F
100
AcDbEntity
  8
0
100
AcDbLine
 10
4.356579134642618
 20
4.160286611298903
 30
0.0
 11
4.355795428647269
 21
4.154592938356684
 31
0.0
  0
LINE
  5
564
330
1F
100
AcDbEntity
  8
0
100
AcDbLine
 10
4.830588221160495
 20
4.179028308663103
 30
0.0
 11
4.356579134642618
 21
4.179330676488549
 31
0.0
  0
LINE
  5
565
330
1F
100
AcDbEntity
  8
0
100
AcDbLine
 10
4.311362840637972
 20
4.459535639148642
 30
0.0
 11
4.310579134642617
 21
4.460126985232046
 31
0.0
  0
LINE
  5
566
330
1F
100
AcDbEntity
  8
0
100
AcDbLine
 10
4.313660550355579
 20
4.458984592323575
 30
0.0
 11
4.311362840637972
 21
4.459535639148642
 31
0.0
  0
LINE
  5
567
330
1F
100
AcDbEntity
  8
0
100
AcDbLine
 10
4.31691895608453
 20
4.458562757581047
 30
0.0
 11
4.313660550355579
 21
4.458984592323575
 31
0.0
  0
LINE
  5
568
330
1F
100
AcDbEntity
  8
0
100
AcDbLine
 10
4.353497718929663
 20
4.458984592323575
 30
0.0
 11
4.350239313200711
 21
4.458562757581047
 31
0.0
  0
LINE
  5
569
330
1F
100
AcDbEntity
  8
0
100
AcDbLine
 10
4.355795428647269
 20
4.459535639148642
 30
0.0
 11
4.353497718929663
 21
4.458984592323575
 31
0.0
  0
LINE
  5
56A
330
1F
100
AcDbEntity
  8
0
100
AcDbLine
 10
4.356579134642618
 20
4.460126985232046
 30
0.0
 11
4.355795428647269
 21
4.459535639148642
 31
0.0
  0
LINE
  5
56B
330
1F
100
AcDbEntity
  8
0
100
AcDbLine
 10
4.830588221160493
 20
4.462073501908571
 30
0.0
 11
4.356579134642618
 21
4.462104905895269
 31
0.0
  0
LINE
  5
56C
330
1F
100
AcDbEntity
  8
0
100
AcDbLine
 10
4.311362840637972
 20
5.618951213040508
 30
0.0
 11
4.310579134642621
 21
5.620946783078722
 31
0.0
  0
LINE
  5
56D
330
1F
100
AcDbEntity
  8
0
100
AcDbLine
 10
4.313660550355579
 20
6.017526233965707
 30
0.0
 11
4.311362840637972
 21
6.019385809203649
 31
0.0
  0
LINE
  5
56E
330
1F
100
AcDbEntity
  8
0
100
AcDbLine
 10
4.31691895608453
 20
6.016102700781187
 30
0.0
 11
4.313660550355579
 21
6.017526233965707
 31
0.0
  0
LINE
  5
56F
330
1F
100
AcDbEntity
  8
0
100
AcDbLine
 10
4.353497718929663
 20
6.017526233965707
 30
0.0
 11
4.350239313200712
 21
6.016102700781187
 31
0.0
  0
LINE
  5
570
330
1F
100
AcDbEntity
  8
0
100
AcDbLine
 10
4.35579542864727
 20
6.019385809203649
 30
0.0
 11
4.353497718929663
 21
6.017526233965707
 31
0.0
  0
LINE
  5
571
330
1F
100
AcDbEntity
  8
0
100
AcDbLine
 10
4.356579134642618
 20
6.021381379241863
 30
0.0
 11
4.35579542864727
 21
6.019385809203649
 31
0.0
  0
LINE
  5
572
330
1F
100
AcDbEntity
  8
0
100
AcDbLine
 10
4.83057913464262
 20
6.027950141036163
 30
0.0
 11
4.356579134642618
 21
6.028056115617475
 31
0.0
  0
LINE
  5
573
330
1F
100
AcDbEntity
  8
0
100
AcDbLine
 10
4.310579134642621
 20
6.021381379241863
 30
0.0
 11
4.310579134642621
 21
6.077775359883008
 31
0.0
  0
LINE
  5
574
330
1F
100
AcDbEntity
  8
0
100
AcDbLine
 10
4.347181352386953
 20
6.015960594284569
 30
0.0
 11
4.345314865670326
 21
6.012624790044986
 31
0.0
  0
LINE
  5
575
330
1F
100
AcDbEntity
  8
0
100
AcDbLine
 10
4.319088876049567
 20
6.019274807851171
 30
0.0
 11
4.319037398842207
 21
6.023096942423014
 31
0.0
  0
LINE
  5
576
330
1F
100
AcDbEntity
  8
0
100
AcDbLine
 10
4.320127840433765
 20
6.015596232638331
 30
0.0
 11
4.319088876049567
 21
6.019274807851171
 31
0.0
  0
LINE
  5
577
330
1F
100
AcDbEntity
  8
0
100
AcDbLine
 10
4.342648608278373
 20
6.009885732888227
 30
0.0
 11
4.339364281246156
 21
6.00793008503301
 31
0.0
  0
LINE
  5
578
330
1F
100
AcDbEntity
  8
0
100
AcDbLine
 10
4.345314865670326
 20
6.012624790044986
 30
0.0
 11
4.342648608278373
 21
6.009885732888227
 31
0.0
  0
LINE
  5
579
330
1F
100
AcDbEntity
  8
0
100
AcDbLine
 10
4.324822545445741
 20
6.009645648214161
 30
0.0
 11
4.322083488288981
 21
6.012311905606114
 31
0.0
  0
LINE
  5
57A
330
1F
100
AcDbEntity
  8
0
100
AcDbLine
 10
4.32815834968532
 20
6.007779161497529
 30
0.0
 11
4.324822545445741
 21
6.009645648214161
 31
0.0
  0
LINE
  5
57B
330
1F
100
AcDbEntity
  8
0
100
AcDbLine
 10
4.33186357146147
 20
6.006839643441454
 30
0.0
 11
4.32815834968532
 21
6.007779161497529
 31
0.0
  0
LINE
  5
57C
330
1F
100
AcDbEntity
  8
0
100
AcDbLine
 10
4.335685706033313
 20
6.006891120648813
 30
0.0
 11
4.33186357146147
 21
6.006839643441454
 31
0.0
  0
LINE
  5
57D
330
1F
100
AcDbEntity
  8
0
100
AcDbLine
 10
4.339364281246156
 20
6.00793008503301
 30
0.0
 11
4.335685706033313
 21
6.006891120648813
 31
0.0
  0
LINE
  5
57E
330
1F
100
AcDbEntity
  8
0
100
AcDbLine
 10
4.320030916857503
 20
6.014914772929419
 30
0.0
 11
4.320703119341058
 21
6.01463010570436
 31
0.0
  0
LINE
  5
57F
330
1F
100
AcDbEntity
  8
0
100
AcDbLine
 10
4.317942118051364
 20
6.016631033332353
 30
0.0
 11
4.320030916857503
 21
6.014914772929419
 31
0.0
  0
LINE
  5
580
330
1F
100
AcDbEntity
  8
0
100
AcDbLine
 10
4.31691895608453
 20
6.018671021958702
 30
0.0
 11
4.317942118051364
 21
6.016631033332353
 31
0.0
  0
LINE
  5
581
330
1F
100
AcDbEntity
  8
0
100
AcDbLine
 10
4.317031157754182
 20
6.020895716954822
 30
0.0
 11
4.31691895608453
 21
6.018671021958702
 31
0.0
  0
LINE
  5
582
330
1F
100
AcDbEntity
  8
0
100
AcDbLine
 10
4.318271076701954
 20
6.023153509033208
 30
0.0
 11
4.317031157754182
 21
6.020895716954822
 31
0.0
  0
LINE
  5
583
330
1F
100
AcDbEntity
  8
0
100
AcDbLine
 10
4.319037398842207
 20
6.023870789034257
 30
0.0
 11
4.318271076701954
 21
6.023153509033208
 31
0.0
  0
LINE
  5
584
330
1F
100
AcDbEntity
  8
0
100
AcDbLine
 10
4.350239313200712
 20
6.02409173652503
 30
0.0
 11
4.349216151233875
 21
6.026131725151381
 31
0.0
  0
LINE
  5
585
330
1F
100
AcDbEntity
  8
0
100
AcDbLine
 10
4.35012711153106
 20
6.02186704152891
 30
0.0
 11
4.350239313200712
 21
6.02409173652503
 31
0.0
  0
LINE
  5
586
330
1F
100
AcDbEntity
  8
0
100
AcDbLine
 10
4.349216151233875
 20
6.026131725151381
 30
0.0
 11
4.348120870443034
 21
6.027031662017435
 31
0.0
  0
LINE
  5
587
330
1F
100
AcDbEntity
  8
0
100
AcDbLine
 10
4.348887192583288
 20
6.019609249450522
 30
0.0
 11
4.35012711153106
 21
6.02186704152891
 31
0.0
  0
LINE
  5
588
330
1F
100
AcDbEntity
  8
0
100
AcDbLine
 10
4.347863585714083
 20
6.01865115011129
 30
0.0
 11
4.348887192583288
 21
6.019609249450522
 31
0.0
  0
LINE
  5
589
330
1F
100
AcDbEntity
  8
0
100
AcDbLine
 10
4.356579134642618
 20
4.460126985232046
 30
0.0
 11
4.356579134642618
 21
4.462104905895269
 31
0.0
  0
LINE
  5
58A
330
1F
100
AcDbEntity
  8
0
100
AcDbLine
 10
4.356579134642618
 20
6.021381379241863
 30
0.0
 11
4.356579134642618
 21
6.028056115617475
 31
0.0
  0
LINE
  5
58B
330
1F
100
AcDbEntity
  8
0
100
AcDbLine
 10
4.356579134642618
 20
6.028056115617475
 30
0.0
 11
4.356579134642618
 21
6.077775359883009
 31
0.0
  0
LINE
  5
58C
330
1F
100
AcDbEntity
  8
0
100
AcDbLine
 10
4.319037398842207
 20
6.023096942423014
 30
0.0
 11
4.319037398842207
 21
6.023870789034257
 31
0.0
  0
LINE
  5
58D
330
1F
100
AcDbEntity
  8
0
100
AcDbLine
 10
4.348120870443034
 20
6.019665816060719
 30
0.0
 11
4.347863585714083
 21
6.01865115011129
 31
0.0
  0
LINE
  5
58E
330
1F
100
AcDbEntity
  8
0
100
AcDbLine
 10
4.347863585714083
 20
6.01865115011129
 30
0.0
 11
4.347181352386953
 21
6.015960594284569
 31
0.0
  0
LINE
  5
58F
330
1F
100
AcDbEntity
  8
0
100
AcDbLine
 10
4.322083488288981
 20
6.012311905606114
 30
0.0
 11
4.320703119341058
 21
6.01463010570436
 31
0.0
  0
LINE
  5
590
330
1F
100
AcDbEntity
  8
0
100
AcDbLine
 10
4.320703119341058
 20
6.01463010570436
 30
0.0
 11
4.320127840433765
 21
6.015596232638331
 31
0.0
  0
LINE
  5
591
330
1F
100
AcDbEntity
  8
0
100
AcDbLine
 10
4.348120870443034
 20
6.019665816060719
 30
0.0
 11
4.348120870443034
 21
6.027031662017435
 31
0.0
  0
LINE
  5
592
330
1F
100
AcDbEntity
  8
0
100
AcDbLine
 10
4.31691895608453
 20
4.458562757581047
 30
0.0
 11
4.31691895608453
 21
4.160286611298903
 31
0.0
  0
LINE
  5
593
330
1F
100
AcDbEntity
  8
0
100
AcDbLine
 10
4.350239313200712
 20
6.016102700781187
 30
0.0
 11
4.350239313200712
 21
6.02409173652503
 31
0.0
  0
LINE
  5
594
330
1F
100
AcDbEntity
  8
0
100
AcDbLine
 10
4.31691895608453
 20
6.018671021958702
 30
0.0
 11
4.31691895608453
 21
6.016102700781187
 31
0.0
  0
LINE
  5
595
330
1F
100
AcDbEntity
  8
0
100
AcDbLine
 10
4.31691895608453
 20
6.016102700781187
 30
0.0
 11
4.31691895608453
 21
4.858997353744188
 31
0.0
  0
LINE
  5
596
330
1F
100
AcDbEntity
  8
0
100
AcDbLine
 10
4.350239313200711
 20
4.159234151286471
 30
0.0
 11
4.350239313200711
 21
4.458562757581047
 31
0.0
  0
LINE
  5
597
330
1F
100
AcDbEntity
  8
0
100
AcDbLine
 10
4.350239313200711
 20
4.858997353744188
 30
0.0
 11
4.350239313200712
 21
6.016102700781187
 31
0.0
  0
LINE
  5
59C
330
1F
100
AcDbEntity
  8
0
100
AcDbLine
 10
4.356579134642618
 20
4.179330676488549
 30
0.0
 11
4.356579134642618
 21
4.160286611298903
 31
0.0
  0
LINE
  5
59D
330
1F
100
AcDbEntity
  8
0
100
AcDbLine
 10
4.310579134642617
 20
4.460126985232046
 30
0.0
 11
4.310579134642617
 21
4.160286611298903
 31
0.0
  0
LINE
  5
59E
330
1F
100
AcDbEntity
  8
0
100
AcDbLine
 10
4.356579134642618
 20
4.460126985232046
 30
0.0
 11
4.356579134642618
 21
4.179330676488549
 31
0.0
  0
LINE
  5
59F
330
1F
100
AcDbEntity
  8
0
100
AcDbLine
 10
4.356579134642618
 20
6.021381379241863
 30
0.0
 11
4.356579134642618
 21
4.862539502058409
 31
0.0
  0
LINE
  5
5A1
330
1F
100
AcDbEntity
  8
0
100
AcDbLine
 10
4.319037398842208
 20
6.077775359883009
 30
0.0
 11
4.319037398842207
 21
6.023870789034257
 31
0.0
  0
LINE
  5
5A2
330
1F
100
AcDbEntity
  8
0
100
AcDbLine
 10
4.348120870443034
 20
6.07777535988301
 30
0.0
 11
4.348120870443034
 21
6.027031662017435
 31
0.0
  0
ARC
  5
5A3
330
1F
100
AcDbEntity
  8
0
100
AcDbCircle
 10
4.333662272655602
 20
4.162392489163525
 30
0.0
 40
0.0168752295208051
100
AcDbArc
 50
187.1686902151657
 51
349.2130127358568
  0
LINE
  5
5A4
330
1F
100
AcDbEntity
  8
0
100
AcDbLine
 10
4.831371927155847
 20
4.154592938356685
 30
0.0
 11
4.830588221160493
 21
4.160286611298903
 31
0.0
  0
LINE
  5
5A5
330
1F
100
AcDbEntity
  8
0
100
AcDbLine
 10
4.833669636873454
 20
4.149287279816231
 30
0.0
 11
4.831371927155847
 21
4.154592938356685
 31
0.0
  0
LINE
  5
5A6
330
1F
100
AcDbEntity
  8
0
100
AcDbLine
 10
4.837324765193205
 20
4.144731207539076
 30
0.0
 11
4.833669636873454
 21
4.149287279816231
 31
0.0
  0
LINE
  5
5A7
330
1F
100
AcDbEntity
  8
0
100
AcDbLine
 10
4.842088221160493
 20
4.141235210321628
 30
0.0
 11
4.837324765193205
 21
4.144731207539076
 31
0.0
  0
LINE
  5
5A8
330
1F
100
AcDbEntity
  8
0
100
AcDbLine
 10
4.847635383123136
 20
4.139037534596852
 30
0.0
 11
4.842088221160493
 21
4.141235210321628
 31
0.0
  0
LINE
  5
5A9
330
1F
100
AcDbEntity
  8
0
100
AcDbLine
 10
4.853588221160493
 20
4.138287948333566
 30
0.0
 11
4.847635383123136
 21
4.139037534596852
 31
0.0
  0
LINE
  5
5AA
330
1F
100
AcDbEntity
  8
0
100
AcDbLine
 10
4.859541059197851
 20
4.139037534596852
 30
0.0
 11
4.853588221160493
 21
4.138287948333566
 31
0.0
  0
LINE
  5
5AB
330
1F
100
AcDbEntity
  8
0
100
AcDbLine
 10
4.865088221160494
 20
4.141235210321628
 30
0.0
 11
4.859541059197851
 21
4.139037534596852
 31
0.0
  0
LINE
  5
5AC
330
1F
100
AcDbEntity
  8
0
100
AcDbLine
 10
4.869851677127784
 20
4.144731207539076
 30
0.0
 11
4.865088221160494
 21
4.141235210321628
 31
0.0
  0
LINE
  5
5AD
330
1F
100
AcDbEntity
  8
0
100
AcDbLine
 10
4.873506805447538
 20
4.149287279816231
 30
0.0
 11
4.869851677127784
 21
4.144731207539076
 31
0.0
  0
LINE
  5
5AE
330
1F
100
AcDbEntity
  8
0
100
AcDbLine
 10
4.875804515165144
 20
4.154592938356685
 30
0.0
 11
4.873506805447538
 21
4.149287279816231
 31
0.0
  0
LINE
  5
5AF
330
1F
100
AcDbEntity
  8
0
100
AcDbLine
 10
4.876588221160494
 20
4.160286611298903
 30
0.0
 11
4.875804515165144
 21
4.154592938356685
 31
0.0
  0
LINE
  5
5B0
330
1F
100
AcDbEntity
  8
0
100
AcDbLine
 10
4.831371927155847
 20
4.459535639148642
 30
0.0
 11
4.830588221160493
 21
4.460126985232047
 31
0.0
  0
LINE
  5
5B1
330
1F
100
AcDbEntity
  8
0
100
AcDbLine
 10
4.833669636873454
 20
4.458984592323575
 30
0.0
 11
4.831371927155847
 21
4.459535639148642
 31
0.0
  0
LINE
  5
5B2
330
1F
100
AcDbEntity
  8
0
100
AcDbLine
 10
4.836928042602405
 20
4.458562757581047
 30
0.0
 11
4.833669636873454
 21
4.458984592323575
 31
0.0
  0
LINE
  5
5B3
330
1F
100
AcDbEntity
  8
0
100
AcDbLine
 10
4.873506805447538
 20
4.458984592323575
 30
0.0
 11
4.870248399718588
 21
4.458562757581048
 31
0.0
  0
LINE
  5
5B4
330
1F
100
AcDbEntity
  8
0
100
AcDbLine
 10
4.875804515165144
 20
4.459535639148642
 30
0.0
 11
4.873506805447538
 21
4.458984592323575
 31
0.0
  0
LINE
  5
5B5
330
1F
100
AcDbEntity
  8
0
100
AcDbLine
 10
4.876588221160494
 20
4.460126985232047
 30
0.0
 11
4.875804515165144
 21
4.459535639148642
 31
0.0
  0
LINE
  5
5B6
330
1F
100
AcDbEntity
  8
0
100
AcDbLine
 10
4.831371927155847
 20
6.01938580920365
 30
0.0
 11
4.830588221160496
 21
6.021381379241864
 31
0.0
  0
LINE
  5
5B7
330
1F
100
AcDbEntity
  8
0
100
AcDbLine
 10
4.833669636873454
 20
6.017526233965707
 30
0.0
 11
4.831371927155847
 21
6.01938580920365
 31
0.0
  0
LINE
  5
5B8
330
1F
100
AcDbEntity
  8
0
100
AcDbLine
 10
4.836928042602405
 20
6.016102700781187
 30
0.0
 11
4.833669636873454
 21
6.017526233965707
 31
0.0
  0
LINE
  5
5B9
330
1F
100
AcDbEntity
  8
0
100
AcDbLine
 10
4.873506805447538
 20
6.017526233965707
 30
0.0
 11
4.870248399718588
 21
6.016102700781187
 31
0.0
  0
LINE
  5
5BA
330
1F
100
AcDbEntity
  8
0
100
AcDbLine
 10
4.875804515165145
 20
6.01938580920365
 30
0.0
 11
4.873506805447538
 21
6.017526233965707
 31
0.0
  0
LINE
  5
5BB
330
1F
100
AcDbEntity
  8
0
100
AcDbLine
 10
4.876588221160494
 20
6.021381379241864
 30
0.0
 11
4.875804515165145
 21
6.01938580920365
 31
0.0
  0
LINE
  5
5BC
330
1F
100
AcDbEntity
  8
0
100
AcDbLine
 10
4.830588221160496
 20
6.021381379241864
 30
0.0
 11
4.830588221160496
 21
6.077775359883008
 31
0.0
  0
LINE
  5
5BD
330
1F
100
AcDbEntity
  8
0
100
AcDbLine
 10
4.867190438904828
 20
6.015960594284569
 30
0.0
 11
4.865323952188202
 21
6.012624790044987
 31
0.0
  0
LINE
  5
5BE
330
1F
100
AcDbEntity
  8
0
100
AcDbLine
 10
4.839097962567443
 20
6.019274807851171
 30
0.0
 11
4.839046485360084
 21
6.023096942423014
 31
0.0
  0
LINE
  5
5BF
330
1F
100
AcDbEntity
  8
0
100
AcDbLine
 10
4.84013692695164
 20
6.015596232638331
 30
0.0
 11
4.839097962567443
 21
6.019274807851171
 31
0.0
  0
LINE
  5
5C0
330
1F
100
AcDbEntity
  8
0
100
AcDbLine
 10
4.862657694796249
 20
6.009885732888228
 30
0.0
 11
4.859373367764032
 21
6.007930085033011
 31
0.0
  0
LINE
  5
5C1
330
1F
100
AcDbEntity
  8
0
100
AcDbLine
 10
4.865323952188202
 20
6.012624790044987
 30
0.0
 11
4.862657694796249
 21
6.009885732888228
 31
0.0
  0
LINE
  5
5C2
330
1F
100
AcDbEntity
  8
0
100
AcDbLine
 10
4.844831631963616
 20
6.009645648214162
 30
0.0
 11
4.842092574806857
 21
6.012311905606114
 31
0.0
  0
LINE
  5
5C3
330
1F
100
AcDbEntity
  8
0
100
AcDbLine
 10
4.848167436203196
 20
6.007779161497529
 30
0.0
 11
4.844831631963616
 21
6.009645648214162
 31
0.0
  0
LINE
  5
5C4
330
1F
100
AcDbEntity
  8
0
100
AcDbLine
 10
4.851872657979345
 20
6.006839643441454
 30
0.0
 11
4.848167436203196
 21
6.007779161497529
 31
0.0
  0
LINE
  5
5C5
330
1F
100
AcDbEntity
  8
0
100
AcDbLine
 10
4.855694792551189
 20
6.006891120648814
 30
0.0
 11
4.851872657979345
 21
6.006839643441454
 31
0.0
  0
LINE
  5
5C6
330
1F
100
AcDbEntity
  8
0
100
AcDbLine
 10
4.859373367764032
 20
6.007930085033011
 30
0.0
 11
4.855694792551189
 21
6.006891120648814
 31
0.0
  0
LINE
  5
5C7
330
1F
100
AcDbEntity
  8
0
100
AcDbLine
 10
4.840040003375379
 20
6.014914772929419
 30
0.0
 11
4.840712205858934
 21
6.01463010570436
 31
0.0
  0
LINE
  5
5C8
330
1F
100
AcDbEntity
  8
0
100
AcDbLine
 10
4.83795120456924
 20
6.016631033332353
 30
0.0
 11
4.840040003375379
 21
6.014914772929419
 31
0.0
  0
LINE
  5
5C9
330
1F
100
AcDbEntity
  8
0
100
AcDbLine
 10
4.836928042602405
 20
6.018671021958702
 30
0.0
 11
4.83795120456924
 21
6.016631033332353
 31
0.0
  0
LINE
  5
5CA
330
1F
100
AcDbEntity
  8
0
100
AcDbLine
 10
4.837040244272057
 20
6.020895716954822
 30
0.0
 11
4.836928042602405
 21
6.018671021958702
 31
0.0
  0
LINE
  5
5CB
330
1F
100
AcDbEntity
  8
0
100
AcDbLine
 10
4.838280163219829
 20
6.023153509033209
 30
0.0
 11
4.837040244272057
 21
6.020895716954822
 31
0.0
  0
LINE
  5
5CC
330
1F
100
AcDbEntity
  8
0
100
AcDbLine
 10
4.839046485360084
 20
6.023870789034258
 30
0.0
 11
4.838280163219829
 21
6.023153509033209
 31
0.0
  0
LINE
  5
5CD
330
1F
100
AcDbEntity
  8
0
100
AcDbLine
 10
4.870248399718588
 20
6.024091736525031
 30
0.0
 11
4.86922523775175
 21
6.026131725151381
 31
0.0
  0
LINE
  5
5CE
330
1F
100
AcDbEntity
  8
0
100
AcDbLine
 10
4.870136198048935
 20
6.021867041528911
 30
0.0
 11
4.870248399718588
 21
6.024091736525031
 31
0.0
  0
LINE
  5
5CF
330
1F
100
AcDbEntity
  8
0
100
AcDbLine
 10
4.86922523775175
 20
6.026131725151381
 30
0.0
 11
4.86812995696091
 21
6.027031662017436
 31
0.0
  0
LINE
  5
5D0
330
1F
100
AcDbEntity
  8
0
100
AcDbLine
 10
4.868896279101163
 20
6.019609249450522
 30
0.0
 11
4.870136198048935
 21
6.021867041528911
 31
0.0
  0
LINE
  5
5D1
330
1F
100
AcDbEntity
  8
0
100
AcDbLine
 10
4.867872672231959
 20
6.018651150111291
 30
0.0
 11
4.868896279101163
 21
6.019609249450522
 31
0.0
  0
LINE
  5
5D2
330
1F
100
AcDbEntity
  8
0
100
AcDbLine
 10
4.876588221160494
 20
4.460126985232047
 30
0.0
 11
4.876588221160494
 21
4.462104905895269
 31
0.0
  0
LINE
  5
5D3
330
1F
100
AcDbEntity
  8
0
100
AcDbLine
 10
4.876588221160494
 20
6.021381379241864
 30
0.0
 11
4.876588221160494
 21
6.028056115617475
 31
0.0
  0
LINE
  5
5D4
330
1F
100
AcDbEntity
  8
0
100
AcDbLine
 10
4.876588221160494
 20
6.028056115617475
 30
0.0
 11
4.876588221160495
 21
6.07777535988301
 31
0.0
  0
LINE
  5
5D5
330
1F
100
AcDbEntity
  8
0
100
AcDbLine
 10
4.839046485360084
 20
6.023096942423014
 30
0.0
 11
4.839046485360084
 21
6.023870789034258
 31
0.0
  0
LINE
  5
5D6
330
1F
100
AcDbEntity
  8
0
100
AcDbLine
 10
4.86812995696091
 20
6.019665816060719
 30
0.0
 11
4.867872672231959
 21
6.018651150111291
 31
0.0
  0
LINE
  5
5D7
330
1F
100
AcDbEntity
  8
0
100
AcDbLine
 10
4.867872672231959
 20
6.018651150111291
 30
0.0
 11
4.867190438904828
 21
6.015960594284569
 31
0.0
  0
LINE
  5
5D8
330
1F
100
AcDbEntity
  8
0
100
AcDbLine
 10
4.842092574806857
 20
6.012311905606114
 30
0.0
 11
4.840712205858934
 21
6.01463010570436
 31
0.0
  0
LINE
  5
5D9
330
1F
100
AcDbEntity
  8
0
100
AcDbLine
 10
4.840712205858934
 20
6.01463010570436
 30
0.0
 11
4.84013692695164
 21
6.015596232638331
 31
0.0
  0
LINE
  5
5DA
330
1F
100
AcDbEntity
  8
0
100
AcDbLine
 10
4.86812995696091
 20
6.019665816060719
 30
0.0
 11
4.86812995696091
 21
6.027031662017436
 31
0.0
  0
LINE
  5
5DB
330
1F
100
AcDbEntity
  8
0
100
AcDbLine
 10
4.836928042602405
 20
4.458562757581047
 30
0.0
 11
4.836928042602405
 21
4.160286611298903
 31
0.0
  0
LINE
  5
5DC
330
1F
100
AcDbEntity
  8
0
100
AcDbLine
 10
4.870248399718588
 20
6.016102700781187
 30
0.0
 11
4.870248399718588
 21
6.024091736525031
 31
0.0
  0
LINE
  5
5DD
330
1F
100
AcDbEntity
  8
0
100
AcDbLine
 10
4.836928042602405
 20
6.018671021958702
 30
0.0
 11
4.836928042602405
 21
6.016102700781187
 31
0.0
  0
LINE
  5
5DE
330
1F
100
AcDbEntity
  8
0
100
AcDbLine
 10
4.836928042602405
 20
6.016102700781187
 30
0.0
 11
4.836928042602405
 21
4.858997353744188
 31
0.0
  0
LINE
  5
5DF
330
1F
100
AcDbEntity
  8
0
100
AcDbLine
 10
4.870248399718588
 20
4.159234151286471
 30
0.0
 11
4.870248399718588
 21
4.458562757581048
 31
0.0
  0
LINE
  5
5E0
330
1F
100
AcDbEntity
  8
0
100
AcDbLine
 10
4.870248399718588
 20
4.858997353744189
 30
0.0
 11
4.870248399718588
 21
6.016102700781187
 31
0.0
  0
LINE
  5
5E4
330
1F
100
AcDbEntity
  8
0
100
AcDbLine
 10
4.876588221160494
 20
4.179330676488549
 30
0.0
 11
4.876588221160494
 21
4.160286611298903
 31
0.0
  0
LINE
  5
5E5
330
1F
100
AcDbEntity
  8
0
100
AcDbLine
 10
4.830588221160493
 20
4.460126985232047
 30
0.0
 11
4.830588221160493
 21
4.160286611298903
 31
0.0
  0
LINE
  5
5E6
330
1F
100
AcDbEntity
  8
0
100
AcDbLine
 10
4.876588221160494
 20
4.460126985232047
 30
0.0
 11
4.876588221160494
 21
4.179330676488549
 31
0.0
  0
LINE
  5
5E7
330
1F
100
AcDbEntity
  8
0
100
AcDbLine
 10
4.876588221160494
 20
6.021381379241864
 30
0.0
 11
4.876588221160494
 21
4.862539502058409
 31
0.0
  0
LINE
  5
5E8
330
1F
100
AcDbEntity
  8
0
100
AcDbLine
 10
4.830588221160496
 20
6.021381379241864
 30
0.0
 11
4.830588221160493
 21
4.860561581395188
 31
0.0
  0
LINE
  5
5E9
330
1F
100
AcDbEntity
  8
0
100
AcDbLine
 10
4.839046485360084
 20
6.077775359883009
 30
0.0
 11
4.839046485360084
 21
6.023870789034258
 31
0.0
  0
LINE
  5
5EA
330
1F
100
AcDbEntity
  8
0
100
AcDbLine
 10
4.86812995696091
 20
6.077775359883009
 30
0.0
 11
4.86812995696091
 21
6.027031662017436
 31
0.0
  0
ARC
  5
5EB
330
1F
100
AcDbEntity
  8
0
100
AcDbCircle
 10
4.853671359173477
 20
4.162392489163525
 30
0.0
 40
0.0168752295208051
100
AcDbArc
 50
187.1686902151657
 51
349.2130127358568
  0
LINE
  5
F51
330
1F
100
AcDbEntity
  8
0
100
AcDbLine
 10
4.636024088121168
 20
6.177775359883004
 30
0.0
 11
4.614733062043342
 21
6.177775359883008
 31
0.0
  0
LINE
  5
F53
330
1F
100
AcDbEntity
  8
0
100
AcDbLine
 10
4.01928501852219
 20
6.177775359883008
 30
0.0
 11
4.588959304515814
 21
6.177775359883008
 31
0.0
  0
LINE
  5
F54
330
1F
100
AcDbEntity
  8
0
100
AcDbLine
 10
4.588959304515814
 20
6.177775359883008
 30
0.0
 11
4.593519858607749
 21
6.177775359883008
 31
0.0
  0
LINE
  5
F56
330
1F
100
AcDbEntity
  8
0
100
AcDbLine
 10
4.593519858608223
 20
7.277775359883063
 30
0.0
 11
4.588959304516285
 21
7.277775359883063
 31
0.0
  0
LINE
  5
F57
330
1F
100
AcDbEntity
  8
0
100
AcDbLine
 10
4.588959304516285
 20
7.277775359883063
 30
0.0
 11
4.019285018522671
 21
7.277775359883063
 31
0.0
  0
LINE
  5
F58
330
1F
100
AcDbEntity
  8
0
100
AcDbLine
 10
4.646473212326883
 20
7.277775359883063
 30
0.0
 11
5.171855703894815
 21
7.277775359883063
 31
0.0
  0
LINE
  5
F59
330
1F
100
AcDbEntity
  8
0
100
AcDbLine
 10
4.643314689453692
 20
6.177775359883004
 30
0.0
 11
4.636024088121168
 21
6.177775359883004
 31
0.0
  0
LINE
  5
F5C
330
1F
100
AcDbEntity
  8
0
100
AcDbLine
 10
4.61473306204382
 20
7.277775359883063
 30
0.0
 11
4.634720773822172
 21
7.277775359883063
 31
0.0
  0
LINE
  5
F5D
330
1F
100
AcDbEntity
  8
0
100
AcDbLine
 10
4.646473212326405
 20
6.177775359883004
 30
0.0
 11
4.643314689453692
 21
6.177775359883004
 31
0.0
  0
LINE
  5
F5E
330
1F
100
AcDbEntity
  8
0
100
AcDbLine
 10
4.634720773822172
 20
7.277775359883063
 30
0.0
 11
4.643314689454163
 21
7.277775359883063
 31
0.0
  0
LINE
  5
F5F
330
1F
100
AcDbEntity
  8
0
100
AcDbLine
 10
4.643314689454163
 20
7.277775359883063
 30
0.0
 11
4.646473212326883
 21
7.277775359883063
 31
0.0
  0
LINE
  5
F61
330
1F
100
AcDbEntity
  8
0
100
AcDbLine
 10
5.171855703894351
 20
6.177775359883008
 30
0.0
 11
4.646473212326405
 21
6.177775359883004
 31
0.0
  0
LINE
  5
F66
330
1F
100
AcDbEntity
  8
0
100
AcDbLine
 10
3.995417123275011
 20
6.177775359883008
 30
0.0
 11
4.01928501852219
 21
6.177775359883008
 31
0.0
  0
LINE
  5
F67
330
1F
100
AcDbEntity
  8
0
100
AcDbLine
 10
3.995417123275489
 20
7.277775359883063
 30
0.0
 11
4.019285018522671
 21
7.277775359883063
 31
0.0
  0
LINE
  5
F69
330
1F
100
AcDbEntity
  8
0
100
AcDbLine
 10
5.195012335863635
 20
7.277775359883063
 30
0.0
 11
5.171855703894815
 21
7.277775359883063
 31
0.0
  0
LINE
  5
F6A
330
1F
100
AcDbEntity
  8
0
100
AcDbLine
 10
5.195012335863165
 20
6.177775359883008
 30
0.0
 11
5.171855703894351
 21
6.177775359883008
 31
0.0
  0
LINE
  5
F70
330
1F
100
AcDbEntity
  8
0
100
AcDbLine
 10
4.317315678675329
 20
4.542532843953877
 30
0.0
 11
4.317315678675329
 21
4.142532843953877
 31
0.0
  0
LINE
  5
F81
330
1F
100
AcDbEntity
  8
0
100
AcDbLine
 10
4.836928027702526
 20
5.619178845857451
 30
0.0
 11
4.836928027702526
 21
4.462073498820451
 31
0.0
  0
LINE
  5
F82
330
1F
100
AcDbEntity
  8
0
100
AcDbLine
 10
4.870248384818709
 20
4.462073498820452
 30
0.0
 11
4.870248384818709
 21
5.619178845857451
 31
0.0
  0
LINE
  5
F83
330
1F
100
AcDbEntity
  8
0
100
AcDbLine
 10
4.876588206260615
 20
5.624457524318128
 30
0.0
 11
4.876588206260615
 21
4.465615647134673
 31
0.0
  0
LINE
  5
F84
330
1F
100
AcDbEntity
  8
0
100
AcDbLine
 10
4.830588206260618
 20
5.624457524318128
 30
0.0
 11
4.830588206260614
 21
4.463637726471452
 31
0.0
  0
LINE
  5
F8F
330
1F
100
AcDbEntity
  8
0
100
AcDbLine
 10
4.316918941184651
 20
5.617232329180926
 30
0.0
 11
4.316918941184651
 21
4.460126982143926
 31
0.0
  0
LINE
  5
F90
330
1F
100
AcDbEntity
  8
0
100
AcDbLine
 10
4.350239298300834
 20
4.460126982143927
 30
0.0
 11
4.350239298300834
 21
5.617232329180926
 31
0.0
  0
LINE
  5
F91
330
1F
100
AcDbEntity
  8
0
100
AcDbLine
 10
4.35657911974274
 20
5.622511007641603
 30
0.0
 11
4.35657911974274
 21
4.463669130458148
 31
0.0
  0
LINE
  5
F93
330
1F
100
AcDbEntity
  8
0
100
AcDbLine
 10
4.311362840637972
 20
4.459535639148642
 30
0.0
 11
4.310579134642621
 21
6.021381379241863
 31
0.0
  0
LINE
  5
F94
330
1F
100
AcDbEntity
  8
0
100
AcDbLine
 10
4.836928027702526
 20
4.462073498820451
 30
0.0
 11
4.836928042602405
 21
4.458562757581047
 31
0.0
  0
LINE
  5
F96
330
1F
100
AcDbEntity
  8
0
100
AcDbLine
 10
4.870248399718588
 20
4.458562757581048
 30
0.0
 11
4.870248384818709
 21
4.462073498820452
 31
0.0
  0
LINE
  5
F98
330
1F
100
AcDbEntity
  8
0
100
AcDbLine
 10
4.876588206260615
 20
4.465615647134673
 30
0.0
 11
4.876588221160494
 21
4.460126985232047
 31
0.0
  0
ARC
  5
FA2
330
1F
100
AcDbEntity
  8
0
100
AcDbCircle
 10
4.356948821288151
 20
7.297140626889876
 30
0.0
 40
0.2159037622021181
100
AcDbArc
 50
101.2178455459636
 51
158.0698885819903
  0
ARC
  5
FA3
330
1F
100
AcDbEntity
  8
0
100
AcDbCircle
 10
4.352606979906934
 20
7.298620275468292
 30
0.0
 40
0.172945637548428
100
AcDbArc
 50
100.036215560973
 51
152.7620031105483
  0
LINE
  5
FA4
330
1F
100
AcDbEntity
  8
0
100
AcDbLine
 10
4.322467636254012
 20
7.468919463696549
 30
0.0
 11
4.597553220148276
 21
7.46891946369655
 31
0.0
  0
LINE
  5
FA6
330
1F
100
AcDbEntity
  8
0
100
AcDbLine
 10
4.597553220148277
 20
7.508919463696582
 30
0.0
 11
4.314946930689733
 21
7.508919463696549
 31
0.0
  0
LINE
  5
FA7
330
1F
100
AcDbEntity
  8
0
100
AcDbLine
 10
4.880159509606822
 20
7.508919463696549
 30
0.0
 11
4.872638804042543
 21
7.50891946369655
 31
0.0
  0
ARC
  5
FA8
330
1F
100
AcDbEntity
  8
0
100
AcDbCircle
 10
4.838157619008404
 20
7.297140626889876
 30
0.0
 40
0.2159037622021181
100
AcDbArc
 50
21.93011141800989
 51
78.78215445403634
  0
ARC
  5
FA9
330
1F
100
AcDbEntity
  8
0
100
AcDbCircle
 10
4.84249946038962
 20
7.298620275468292
 30
0.0
 40
0.172945637548428
100
AcDbArc
 50
27.23799688945188
 51
79.96378443902694
  0
LINE
  5
FAA
330
1F
100
AcDbEntity
  8
0
100
AcDbLine
 10
4.872638804042543
 20
7.468919463696549
 30
0.0
 11
4.597553220148279
 21
7.46891946369655
 31
0.0
  0
LINE
  5
FAB
330
1F
100
AcDbEntity
  8
0
100
AcDbLine
 10
4.597553220148277
 20
7.508919463696582
 30
0.0
 11
4.880159509606822
 21
7.508919463696549
 31
0.0
  0
LINE
  5
FD4
330
1F
100
AcDbEntity
  8
0
100
AcDbLine
 10
4.61473306204382
 20
7.277775359883063
 30
0.0
 11
4.61473306204382
 21
7.177775359883064
 31
0.0
  0
LINE
  5
FD5
330
1F
100
AcDbEntity
  8
0
100
AcDbLine
 10
4.61473306204382
 20
7.177775359883064
 30
0.0
 11
5.195012335863636
 21
7.177775359883055
 31
0.0
  0
LINE
  5
FD7
330
1F
100
AcDbEntity
  8
0
100
AcDbLine
 10
5.195012335863636
 20
7.077775359883055
 30
0.0
 11
4.61473306204382
 21
7.077775359883055
 31
0.0
  0
LINE
  5
FD8
330
1F
100
AcDbEntity
  8
0
100
AcDbLine
 10
4.61473306204382
 20
7.077775359883055
 30
0.0
 11
4.61473306204382
 21
6.977775359883056
 31
0.0
  0
LINE
  5
FD9
330
1F
100
AcDbEntity
  8
0
100
AcDbLine
 10
4.61473306204382
 20
6.977775359883056
 30
0.0
 11
5.195012335863636
 21
6.977775359883053
 31
0.0
  0
ARC
  5
FDA
330
1F
100
AcDbEntity
  8
0
100
AcDbCircle
 10
5.195887171785074
 20
7.227775359883059
 30
0.0
 40
0.0500076527932462
100
AcDbArc
 50
268.9976141588701
 51
91.00238584113085
  0
ARC
  5
FE2
330
1F
100
AcDbEntity
  8
0
100
AcDbCircle
 10
5.195887171785105
 20
7.12777535988305
 30
0.0
 40
0.0500076527932462
100
AcDbArc
 50
268.9976141588701
 51
91.00238584113091
  0
ARC
  5
FEA
330
1F
100
AcDbEntity
  8
0
100
AcDbCircle
 10
5.195887171785106
 20
7.027775359883041
 30
0.0
 40
0.0500076527932462
100
AcDbArc
 50
268.9976141588701
 51
91.00238584113091
  0
LINE
  5
FF7
330
1F
100
AcDbEntity
  8
0
100
AcDbLine
 10
4.61473306204382
 20
6.877775359883053
 30
0.0
 11
5.195012335863637
 21
6.877775359883044
 31
0.0
  0
LINE
  5
FF8
330
1F
100
AcDbEntity
  8
0
100
AcDbLine
 10
5.195012335863637
 20
6.777775359883045
 30
0.0
 11
4.61473306204382
 21
6.777775359883045
 31
0.0
  0
LINE
  5
FF9
330
1F
100
AcDbEntity
  8
0
100
AcDbLine
 10
4.61473306204382
 20
6.677775359883045
 30
0.0
 11
5.195012335863637
 21
6.677775359883042
 31
0.0
  0
ARC
  5
FFA
330
1F
100
AcDbEntity
  8
0
100
AcDbCircle
 10
5.195887171785074
 20
6.927775359883049
 30
0.0
 40
0.0500076527932462
100
AcDbArc
 50
268.9976141588701
 51
91.00238584113091
  0
ARC
  5
FFB
330
1F
100
AcDbEntity
  8
0
100
AcDbCircle
 10
5.195887171785106
 20
6.827775359883039
 30
0.0
 40
0.0500076527932462
100
AcDbArc
 50
268.9976141588701
 51
91.00238584113091
  0
ARC
  5
FFC
330
1F
100
AcDbEntity
  8
0
100
AcDbCircle
 10
5.195887171785106
 20
6.727775359883031
 30
0.0
 40
0.0500076527932462
100
AcDbArc
 50
268.9976141588701
 51
91.00238584113091
  0
LINE
  5
100F
330
1F
100
AcDbEntity
  8
0
100
AcDbLine
 10
4.614733062043853
 20
6.577775359883027
 30
0.0
 11
5.19501233586367
 21
6.577775359883018
 31
0.0
  0
LINE
  5
1010
330
1F
100
AcDbEntity
  8
0
100
AcDbLine
 10
5.19501233586367
 20
6.477775359883018
 30
0.0
 11
4.614733062043853
 21
6.477775359883018
 31
0.0
  0
LINE
  5
1011
330
1F
100
AcDbEntity
  8
0
100
AcDbLine
 10
4.614733062043853
 20
6.377775359883019
 30
0.0
 11
5.19501233586367
 21
6.377775359883016
 31
0.0
  0
ARC
  5
1012
330
1F
100
AcDbEntity
  8
0
100
AcDbCircle
 10
5.195887171785107
 20
6.627775359883022
 30
0.0
 40
0.0500076527932462
100
AcDbArc
 50
268.9976141588701
 51
91.00238584113091
  0
ARC
  5
1013
330
1F
100
AcDbEntity
  8
0
100
AcDbCircle
 10
5.195887171785138
 20
6.527775359883013
 30
0.0
 40
0.0500076527932462
100
AcDbArc
 50
268.9976141588701
 51
91.00238584113091
  0
ARC
  5
1014
330
1F
100
AcDbEntity
  8
0
100
AcDbCircle
 10
5.195887171785139
 20
6.427775359883004
 30
0.0
 40
0.0500076527932462
100
AcDbArc
 50
268.9976141588701
 51
91.00238584113091
  0
LINE
  5
1015
330
1F
100
AcDbEntity
  8
0
100
AcDbLine
 10
4.614733062043854
 20
6.277775359883016
 30
0.0
 11
5.195012335863671
 21
6.277775359883007
 31
0.0
  0
LINE
  5
1016
330
1F
100
AcDbEntity
  8
0
100
AcDbLine
 10
5.195012335863671
 20
6.177775359883008
 30
0.0
 11
4.614733062043854
 21
6.177775359883008
 31
0.0
  0
ARC
  5
1018
330
1F
100
AcDbEntity
  8
0
100
AcDbCircle
 10
5.195887171785108
 20
6.327775359883012
 30
0.0
 40
0.0500076527932462
100
AcDbArc
 50
268.9976141588701
 51
91.00238584113091
  0
ARC
  5
1019
330
1F
100
AcDbEntity
  8
0
100
AcDbCircle
 10
5.195887171785139
 20
6.227775359883002
 30
0.0
 40
0.0500076527932462
100
AcDbArc
 50
268.9976141588701
 51
91.00238584113091
  0
LINE
  5
101B
330
1F
100
AcDbEntity
  8
0
100
AcDbLine
 10
4.61473306204382
 20
7.277775359883063
 30
0.0
 11
4.614733062043854
 21
6.177775359883008
 31
0.0
  0
LINE
  5
101D
330
1F
100
AcDbEntity
  8
0
100
AcDbLine
 10
4.593519858608223
 20
6.176188612412454
 30
0.0
 11
4.593519858608223
 21
7.277775359883063
 31
0.0
  0
LINE
  5
106A
330
1F
100
AcDbEntity
  8
0
100
AcDbLine
 10
4.575696397095371
 20
6.277775359882998
 30
0.0
 11
3.995417123275554
 21
6.277775359883007
 31
0.0
  0
LINE
  5
106B
330
1F
100
AcDbEntity
  8
0
100
AcDbLine
 10
3.995417123275554
 20
6.377775359883006
 30
0.0
 11
4.575696397095371
 21
6.377775359883006
 31
0.0
  0
LINE
  5
106C
330
1F
100
AcDbEntity
  8
0
100
AcDbLine
 10
4.575696397095371
 20
6.477775359883006
 30
0.0
 11
3.995417123275554
 21
6.477775359883009
 31
0.0
  0
ARC
  5
106D
330
1F
100
AcDbEntity
  8
0
100
AcDbCircle
 10
3.994542287354117
 20
6.227775359883002
 30
0.0
 40
0.0500076527932462
100
AcDbArc
 50
88.99761415887006
 51
271.0023858411308
  0
ARC
  5
106E
330
1F
100
AcDbEntity
  8
0
100
AcDbCircle
 10
3.994542287354086
 20
6.327775359883012
 30
0.0
 40
0.0500076527932462
100
AcDbArc
 50
88.99761415887006
 51
271.0023858411308
  0
ARC
  5
106F
330
1F
100
AcDbEntity
  8
0
100
AcDbCircle
 10
3.994542287354085
 20
6.42777535988302
 30
0.0
 40
0.0500076527932462
100
AcDbArc
 50
88.99761415887006
 51
271.0023858411308
  0
LINE
  5
1070
330
1F
100
AcDbEntity
  8
0
100
AcDbLine
 10
4.57569639709537
 20
6.577775359883008
 30
0.0
 11
3.995417123275553
 21
6.577775359883017
 31
0.0
  0
LINE
  5
1071
330
1F
100
AcDbEntity
  8
0
100
AcDbLine
 10
3.995417123275553
 20
6.677775359883017
 30
0.0
 11
4.57569639709537
 21
6.677775359883017
 31
0.0
  0
LINE
  5
1072
330
1F
100
AcDbEntity
  8
0
100
AcDbLine
 10
4.57569639709537
 20
6.777775359883016
 30
0.0
 11
3.995417123275553
 21
6.777775359883019
 31
0.0
  0
ARC
  5
1073
330
1F
100
AcDbEntity
  8
0
100
AcDbCircle
 10
3.994542287354116
 20
6.527775359883013
 30
0.0
 40
0.0500076527932462
100
AcDbArc
 50
88.99761415887006
 51
271.0023858411308
  0
ARC
  5
1074
330
1F
100
AcDbEntity
  8
0
100
AcDbCircle
 10
3.994542287354085
 20
6.627775359883022
 30
0.0
 40
0.0500076527932462
100
AcDbArc
 50
88.99761415887006
 51
271.0023858411308
  0
ARC
  5
1075
330
1F
100
AcDbEntity
  8
0
100
AcDbCircle
 10
3.994542287354084
 20
6.727775359883031
 30
0.0
 40
0.0500076527932462
100
AcDbArc
 50
88.99761415887006
 51
271.0023858411308
  0
LINE
  5
1076
330
1F
100
AcDbEntity
  8
0
100
AcDbLine
 10
4.575696397095337
 20
6.877775359883035
 30
0.0
 11
3.995417123275521
 21
6.877775359883044
 31
0.0
  0
LINE
  5
1077
330
1F
100
AcDbEntity
  8
0
100
AcDbLine
 10
3.995417123275521
 20
6.977775359883043
 30
0.0
 11
4.575696397095337
 21
6.977775359883043
 31
0.0
  0
LINE
  5
1078
330
1F
100
AcDbEntity
  8
0
100
AcDbLine
 10
4.575696397095337
 20
7.077775359883043
 30
0.0
 11
3.995417123275521
 21
7.077775359883045
 31
0.0
  0
ARC
  5
1079
330
1F
100
AcDbEntity
  8
0
100
AcDbCircle
 10
3.994542287354083
 20
6.827775359883039
 30
0.0
 40
0.0500076527932462
100
AcDbArc
 50
88.99761415887006
 51
271.0023858411308
  0
ARC
  5
107A
330
1F
100
AcDbEntity
  8
0
100
AcDbCircle
 10
3.994542287354052
 20
6.927775359883049
 30
0.0
 40
0.0500076527932462
100
AcDbArc
 50
88.99761415887006
 51
271.0023858411308
  0
ARC
  5
107B
330
1F
100
AcDbEntity
  8
0
100
AcDbCircle
 10
3.994542287354051
 20
7.027775359883057
 30
0.0
 40
0.0500076527932462
100
AcDbArc
 50
88.99761415887006
 51
271.0023858411308
  0
LINE
  5
107C
330
1F
100
AcDbEntity
  8
0
100
AcDbLine
 10
4.575696397095336
 20
7.177775359883045
 30
0.0
 11
3.99541712327552
 21
7.177775359883054
 31
0.0
  0
ARC
  5
107D
330
1F
100
AcDbEntity
  8
0
100
AcDbCircle
 10
3.994542287354082
 20
7.12777535988305
 30
0.0
 40
0.0500076527932462
100
AcDbArc
 50
88.99761415887006
 51
271.0023858411308
  0
ARC
  5
107E
330
1F
100
AcDbEntity
  8
0
100
AcDbCircle
 10
3.994542287354051
 20
7.227775359883059
 30
0.0
 40
0.0500076527932462
100
AcDbArc
 50
88.99761415887006
 51
271.0023858411308
  0
LINE
  5
10F2
330
1F
100
AcDbEntity
  8
STREFA BEZPIECZEŃSTWA
100
AcDbLine
 10
6.606374271305103
 20
9.008919463696551
 30
0.0
 11
2.606374271305101
 21
9.008919463696551
 31
0.0
  0
LINE
  5
10FA
102
{ACAD_REACTORS
330
1110
330
112B
102
}
330
1F
100
AcDbEntity
  8
STREFA BEZPIECZEŃSTWA
100
AcDbLine
 10
2.606374271305101
 20
9.008919463696551
 30
0.0
 11
2.606374271305103
 21
2.139037534596853
 31
0.0
  0
LINE
  5
10FB
102
{ACAD_REACTORS
330
1110
102
}
330
1F
100
AcDbEntity
  8
STREFA BEZPIECZEŃSTWA
100
AcDbLine
 10
2.606374271305103
 20
2.139037534596853
 30
0.0
 11
6.606374271305093
 21
2.139037534596853
 31
0.0
  0
LINE
  5
10FC
102
{ACAD_REACTORS
330
112B
102
}
330
1F
100
AcDbEntity
  8
STREFA BEZPIECZEŃSTWA
100
AcDbLine
 10
6.606374271305093
 20
2.139037534596853
 30
0.0
 11
6.606374271305103
 21
9.008919463696551
 31
0.0
  0
DIMENSION
  5
10FD
102
{ACAD_XDICTIONARY
360
1108
102
}
102
{ACAD_REACTORS
330
1110
102
}
330
1F
100
AcDbEntity
  8
WYMIAR
100
AcDbDimension
  2
*D2
 10
1.849956172392225
 20
2.139037534596853
 30
0.0
 11
1.637560068496121
 21
5.573978499146702
 31
0.0
 70
    32
 71
     5
 42
6.869881929099697
  3
AR SKALA 1-50
100
AcDbAlignedDimension
 13
2.606374271305101
 23
9.008919463696551
 33
0.0
 14
2.606374271305103
 24
2.139037534596853
 34
0.0
 50
90.0
100
AcDbRotatedDimension
  0
DIMENSION
  5
1118
102
{ACAD_XDICTIONARY
360
1123
102
}
102
{ACAD_REACTORS
330
112B
102
}
330
1F
100
AcDbEntity
  8
WYMIAR
100
AcDbDimension
  2
*D3
 10
6.606374271305103
 20
9.755244842945852
 30
0.0
 11
4.606374271305102
 21
9.967524063725074
 31
0.0
 70
    32
 71
     5
 42
4.000000000000001
  3
AR SKALA 1-50
100
AcDbAlignedDimension
 13
2.606374271305101
 23
9.008919463696551
 33
0.0
 14
6.606374271305103
 24
9.008919463696551
 34
0.0
100
AcDbRotatedDimension
  0
LINE
  5
1198
330
1F
100
AcDbEntity
  8
0
100
AcDbLine
 10
4.588959304516276
 20
7.377775359883072
 30
0.0
 11
4.019285018522662
 21
7.377775359883072
 31
0.0
  0
LINE
  5
1199
330
1F
100
AcDbEntity
  8
0
100
AcDbLine
 10
4.646473212326874
 20
7.377775359883072
 30
0.0
 11
5.171855703894806
 21
7.377775359883072
 31
0.0
  0
LINE
  5
119A
330
1F
100
AcDbEntity
  8
0
100
AcDbLine
 10
4.614733062043811
 20
7.377775359883072
 30
0.0
 11
4.634720773822163
 21
7.377775359883072
 31
0.0
  0
LINE
  5
119B
330
1F
100
AcDbEntity
  8
0
100
AcDbLine
 10
4.634720773822163
 20
7.377775359883072
 30
0.0
 11
4.643314689454154
 21
7.377775359883072
 31
0.0
  0
LINE
  5
119C
330
1F
100
AcDbEntity
  8
0
100
AcDbLine
 10
4.643314689454154
 20
7.377775359883072
 30
0.0
 11
4.646473212326874
 21
7.377775359883072
 31
0.0
  0
LINE
  5
119D
330
1F
100
AcDbEntity
  8
0
100
AcDbLine
 10
3.995417123275479
 20
7.377775359883072
 30
0.0
 11
4.019285018522662
 21
7.377775359883072
 31
0.0
  0
LINE
  5
119E
330
1F
100
AcDbEntity
  8
0
100
AcDbLine
 10
5.195012335863626
 20
7.377775359883072
 30
0.0
 11
5.171855703894806
 21
7.377775359883072
 31
0.0
  0
ARC
  5
119F
330
1F
100
AcDbEntity
  8
0
100
AcDbCircle
 10
5.195887171785065
 20
7.327775359883068
 30
0.0
 40
0.0500076527932462
100
AcDbArc
 50
268.9976141588701
 51
91.00238584113084
  0
ARC
  5
11A0
330
1F
100
AcDbEntity
  8
0
100
AcDbCircle
 10
3.994542287354042
 20
7.327775359883068
 30
0.0
 40
0.0500076527932462
100
AcDbArc
 50
88.99761415887006
 51
271.0023858411307
  0
LINE
  5
11A2
330
1F
100
AcDbEntity
  8
0
100
AcDbLine
 10
4.588959304516276
 20
7.377775359883072
 30
0.0
 11
4.614733062043811
 21
7.377775359883072
 31
0.0
  0
LINE
  5
11A3
330
1F
100
AcDbEntity
  8
0
100
AcDbLine
 10
4.614733062043811
 20
7.377775359883072
 30
0.0
 11
4.61473306204382
 21
7.277775359883063
 31
0.0
  0
LINE
  5
11A5
330
1F
100
AcDbEntity
  8
0
100
AcDbLine
 10
4.593519858608223
 20
7.277775359883063
 30
0.0
 11
4.593519858608222
 21
7.377775359883073
 31
0.0
  0
LINE
  5
11C2
330
1F
100
AcDbEntity
  8
0
100
AcDbLine
 10
4.356579134642075
 20
6.076188612412456
 30
0.0
 11
4.830588221159953
 21
6.076188612412456
 31
0.0
  0
LINE
  5
11C3
330
1F
100
AcDbEntity
  8
0
100
AcDbLine
 10
4.019285018521646
 20
6.077775359883009
 30
0.0
 11
4.58895930451527
 21
6.077775359883009
 31
0.0
  0
LINE
  5
11C4
330
1F
100
AcDbEntity
  8
0
100
AcDbLine
 10
5.171855703893807
 20
6.077775359883009
 30
0.0
 11
4.646473212325862
 21
6.077775359883005
 31
0.0
  0
LINE
  5
11C5
330
1F
100
AcDbEntity
  8
0
100
AcDbLine
 10
3.995417123274467
 20
6.077775359883009
 30
0.0
 11
4.019285018521646
 21
6.077775359883009
 31
0.0
  0
LINE
  5
11C6
330
1F
100
AcDbEntity
  8
0
100
AcDbLine
 10
5.195012335862621
 20
6.077775359883009
 30
0.0
 11
5.171855703893807
 21
6.077775359883009
 31
0.0
  0
LINE
  5
11C7
330
1F
100
AcDbEntity
  8
0
100
AcDbLine
 10
5.195012335863127
 20
6.077775359883009
 30
0.0
 11
4.614733062043311
 21
6.077775359883009
 31
0.0
  0
ARC
  5
11C8
330
1F
100
AcDbEntity
  8
0
100
AcDbCircle
 10
5.195887171784596
 20
6.127775359883004
 30
0.0
 40
0.0500076527932462
100
AcDbArc
 50
268.9976141588701
 51
91.00238584113091
  0
ARC
  5
11C9
330
1F
100
AcDbEntity
  8
0
100
AcDbCircle
 10
3.994542287353573
 20
6.127775359883004
 30
0.0
 40
0.0500076527932462
100
AcDbArc
 50
88.99761415887006
 51
271.0023858411308
  0
LINE
  5
11CA
330
1F
100
AcDbEntity
  8
0
100
AcDbLine
 10
4.593519858608223
 20
6.176188612412454
 30
0.0
 11
4.593519858608221
 21
6.077775359883008
 31
0.0
  0
LINE
  5
11CB
330
1F
100
AcDbEntity
  8
0
100
AcDbLine
 10
4.614733062043342
 20
6.177775359883008
 30
0.0
 11
4.614733062043311
 21
6.077775359883009
 31
0.0
  0
CIRCLE
  5
11D5
330
1F
100
AcDbEntity
  8
0
100
AcDbCircle
 10
4.728675310278397
 20
7.319513330693695
 30
0.0
 40
0.01089627287962
  0
CIRCLE
  5
11DD
330
1F
100
AcDbEntity
  8
0
100
AcDbCircle
 10
4.728675310278397
 20
7.221537614654543
 30
0.0
 40
0.01089627287962
  0
CIRCLE
  5
11E5
330
1F
100
AcDbEntity
  8
0
100
AcDbCircle
 10
4.728675310278397
 20
7.123561898615395
 30
0.0
 40
0.01089627287962
  0
CIRCLE
  5
11ED
330
1F
100
AcDbEntity
  8
0
100
AcDbCircle
 10
4.728675310278397
 20
7.022864656768799
 30
0.0
 40
0.01089627287962
  0
CIRCLE
  5
11F5
330
1F
100
AcDbEntity
  8
0
100
AcDbCircle
 10
4.728675310278397
 20
6.924888940729648
 30
0.0
 40
0.01089627287962
  0
CIRCLE
  5
11FD
330
1F
100
AcDbEntity
  8
0
100
AcDbCircle
 10
4.728675310278397
 20
6.826913224690496
 30
0.0
 40
0.01089627287962
  0
CIRCLE
  5
1205
330
1F
100
AcDbEntity
  8
0
100
AcDbCircle
 10
4.728675310278397
 20
6.7262159828439
 30
0.0
 40
0.01089627287962
  0
CIRCLE
  5
120D
330
1F
100
AcDbEntity
  8
0
100
AcDbCircle
 10
4.728675310278397
 20
6.625518718512417
 30
0.0
 40
0.01089627287962
  0
CIRCLE
  5
1215
330
1F
100
AcDbEntity
  8
0
100
AcDbCircle
 10
4.728675310278397
 20
6.524821454180933
 30
0.0
 40
0.01089627287962
  0
CIRCLE
  5
121D
330
1F
100
AcDbEntity
  8
0
100
AcDbCircle
 10
4.728675310278397
 20
6.426845760626669
 30
0.0
 40
0.01089627287962
  0
CIRCLE
  5
1225
330
1F
100
AcDbEntity
  8
0
100
AcDbCircle
 10
4.728853785356832
 20
6.326821468976632
 30
0.0
 40
0.01089627287962
  0
CIRCLE
  5
122D
330
1F
100
AcDbEntity
  8
0
100
AcDbCircle
 10
4.724567762344982
 20
6.228334311687493
 30
0.0
 40
0.01089627287962
  0
CIRCLE
  5
1235
330
1F
100
AcDbEntity
  8
0
100
AcDbCircle
 10
4.722424774667508
 20
6.127706143415149
 30
0.0
 40
0.01089627287962
  0
CIRCLE
  5
1283
330
1F
100
AcDbEntity
  8
0
100
AcDbCircle
 10
5.089480910104889
 20
7.321324083650001
 30
0.0
 40
0.01089627287962
  0
CIRCLE
  5
1284
330
1F
100
AcDbEntity
  8
0
100
AcDbCircle
 10
5.089480910104889
 20
7.223348367610849
 30
0.0
 40
0.01089627287962
  0
CIRCLE
  5
1285
330
1F
100
AcDbEntity
  8
0
100
AcDbCircle
 10
5.089480910104889
 20
7.125372651571701
 30
0.0
 40
0.01089627287962
  0
CIRCLE
  5
1286
330
1F
100
AcDbEntity
  8
0
100
AcDbCircle
 10
5.089480910104889
 20
7.024675409725105
 30
0.0
 40
0.01089627287962
  0
CIRCLE
  5
1287
330
1F
100
AcDbEntity
  8
0
100
AcDbCircle
 10
5.089480910104889
 20
6.926699693685954
 30
0.0
 40
0.01089627287962
  0
CIRCLE
  5
1288
330
1F
100
AcDbEntity
  8
0
100
AcDbCircle
 10
5.089480910104889
 20
6.828723977646802
 30
0.0
 40
0.01089627287962
  0
CIRCLE
  5
1289
330
1F
100
AcDbEntity
  8
0
100
AcDbCircle
 10
5.089480910104889
 20
6.728026735800206
 30
0.0
 40
0.01089627287962
  0
CIRCLE
  5
128A
330
1F
100
AcDbEntity
  8
0
100
AcDbCircle
 10
5.089480910104889
 20
6.627329471468723
 30
0.0
 40
0.01089627287962
  0
CIRCLE
  5
128B
330
1F
100
AcDbEntity
  8
0
100
AcDbCircle
 10
5.089480910104889
 20
6.52663220713724
 30
0.0
 40
0.01089627287962
  0
CIRCLE
  5
128C
330
1F
100
AcDbEntity
  8
0
100
AcDbCircle
 10
5.089480910104889
 20
6.428656513582975
 30
0.0
 40
0.01089627287962
  0
CIRCLE
  5
128D
330
1F
100
AcDbEntity
  8
0
100
AcDbCircle
 10
5.089659385183324
 20
6.328632221932938
 30
0.0
 40
0.01089627287962
  0
CIRCLE
  5
128E
330
1F
100
AcDbEntity
  8
0
100
AcDbCircle
 10
5.085373362171473
 20
6.230145064643799
 30
0.0
 40
0.01089627287962
  0
CIRCLE
  5
128F
330
1F
100
AcDbEntity
  8
0
100
AcDbCircle
 10
5.083230374494
 20
6.129516896371455
 30
0.0
 40
0.01089627287962
  0
CIRCLE
  5
12A3
330
1F
100
AcDbEntity
  8
0
100
AcDbCircle
 10
4.487640975780777
 20
7.321717299361765
 30
0.0
 40
0.01089627287962
  0
CIRCLE
  5
12A4
330
1F
100
AcDbEntity
  8
0
100
AcDbCircle
 10
4.487640975780777
 20
7.223741583322613
 30
0.0
 40
0.01089627287962
  0
CIRCLE
  5
12A5
330
1F
100
AcDbEntity
  8
0
100
AcDbCircle
 10
4.487640975780777
 20
7.125765867283465
 30
0.0
 40
0.01089627287962
  0
CIRCLE
  5
12A6
330
1F
100
AcDbEntity
  8
0
100
AcDbCircle
 10
4.487640975780777
 20
7.025068625436869
 30
0.0
 40
0.01089627287962
  0
CIRCLE
  5
12A7
330
1F
100
AcDbEntity
  8
0
100
AcDbCircle
 10
4.487640975780777
 20
6.927092909397718
 30
0.0
 40
0.01089627287962
  0
CIRCLE
  5
12A8
330
1F
100
AcDbEntity
  8
0
100
AcDbCircle
 10
4.487640975780777
 20
6.829117193358566
 30
0.0
 40
0.01089627287962
  0
CIRCLE
  5
12A9
330
1F
100
AcDbEntity
  8
0
100
AcDbCircle
 10
4.487640975780777
 20
6.72841995151197
 30
0.0
 40
0.01089627287962
  0
CIRCLE
  5
12AA
330
1F
100
AcDbEntity
  8
0
100
AcDbCircle
 10
4.487640975780777
 20
6.627722687180487
 30
0.0
 40
0.01089627287962
  0
CIRCLE
  5
12AB
330
1F
100
AcDbEntity
  8
0
100
AcDbCircle
 10
4.487640975780777
 20
6.527025422849003
 30
0.0
 40
0.01089627287962
  0
CIRCLE
  5
12AC
330
1F
100
AcDbEntity
  8
0
100
AcDbCircle
 10
4.487640975780777
 20
6.429049729294739
 30
0.0
 40
0.01089627287962
  0
CIRCLE
  5
12AD
330
1F
100
AcDbEntity
  8
0
100
AcDbCircle
 10
4.487819450859213
 20
6.329025437644702
 30
0.0
 40
0.01089627287962
  0
CIRCLE
  5
12AE
330
1F
100
AcDbEntity
  8
0
100
AcDbCircle
 10
4.483533427847362
 20
6.230538280355563
 30
0.0
 40
0.01089627287962
  0
CIRCLE
  5
12AF
330
1F
100
AcDbEntity
  8
0
100
AcDbCircle
 10
4.481390440169889
 20
6.129910112083219
 30
0.0
 40
0.01089627287962
  0
CIRCLE
  5
12C3
330
1F
100
AcDbEntity
  8
0
100
AcDbCircle
 10
4.113733398921027
 20
7.321717299361765
 30
0.0
 40
0.01089627287962
  0
CIRCLE
  5
12C4
330
1F
100
AcDbEntity
  8
0
100
AcDbCircle
 10
4.113733398921027
 20
7.223741583322613
 30
0.0
 40
0.01089627287962
  0
CIRCLE
  5
12C5
330
1F
100
AcDbEntity
  8
0
100
AcDbCircle
 10
4.113733398921027
 20
7.125765867283465
 30
0.0
 40
0.01089627287962
  0
CIRCLE
  5
12C6
330
1F
100
AcDbEntity
  8
0
100
AcDbCircle
 10
4.113733398921027
 20
7.025068625436869
 30
0.0
 40
0.01089627287962
  0
CIRCLE
  5
12C7
330
1F
100
AcDbEntity
  8
0
100
AcDbCircle
 10
4.113733398921027
 20
6.927092909397718
 30
0.0
 40
0.01089627287962
  0
CIRCLE
  5
12C8
330
1F
100
AcDbEntity
  8
0
100
AcDbCircle
 10
4.113733398921027
 20
6.829117193358566
 30
0.0
 40
0.01089627287962
  0
CIRCLE
  5
12C9
330
1F
100
AcDbEntity
  8
0
100
AcDbCircle
 10
4.113733398921027
 20
6.72841995151197
 30
0.0
 40
0.01089627287962
  0
CIRCLE
  5
12CA
330
1F
100
AcDbEntity
  8
0
100
AcDbCircle
 10
4.113733398921027
 20
6.627722687180487
 30
0.0
 40
0.01089627287962
  0
CIRCLE
  5
12CB
330
1F
100
AcDbEntity
  8
0
100
AcDbCircle
 10
4.113733398921027
 20
6.527025422849003
 30
0.0
 40
0.01089627287962
  0
CIRCLE
  5
12CC
330
1F
100
AcDbEntity
  8
0
100
AcDbCircle
 10
4.113733398921027
 20
6.429049729294739
 30
0.0
 40
0.01089627287962
  0
CIRCLE
  5
12CD
330
1F
100
AcDbEntity
  8
0
100
AcDbCircle
 10
4.113911873999462
 20
6.329025437644702
 30
0.0
 40
0.01089627287962
  0
CIRCLE
  5
12CE
330
1F
100
AcDbEntity
  8
0
100
AcDbCircle
 10
4.109625850987612
 20
6.230538280355563
 30
0.0
 40
0.01089627287962
  0
CIRCLE
  5
12CF
330
1F
100
AcDbEntity
  8
0
100
AcDbCircle
 10
4.107482863310139
 20
6.129910112083219
 30
0.0
 40
0.01089627287962
  0
ENDSEC
  0
SECTION
  2
OBJECTS
  0
DICTIONARY
  5
C
330
0
100
AcDbDictionary
281
     1
  3
ACAD_COLOR
350
4B9
  3
ACAD_GROUP
350
D
  3
ACAD_LAYOUT
350
1A
  3
ACAD_MATERIAL
350
3B
  3
ACAD_MLEADERSTYLE
350
489
  3
ACAD_MLINESTYLE
350
17
  3
ACAD_PLOTSETTINGS
350
19
  3
ACAD_PLOTSTYLENAME
350
E
  3
ACAD_SCALELIST
350
B23
  3
ACAD_TABLESTYLE
350
4BA
  3
ACAD_VISUALSTYLE
350
2A
  3
ACDB_RECOMPOSE_DATA
350
B54
  3
AcDbVariableDictionary
350
487
  0
DICTIONARY
  5
84C
330
8
100
AcDbDictionary
280
     1
281
     1
  0
DICTIONARY
  5
7D1
330
2
100
AcDbDictionary
280
     1
281
     1
  3
ACAD_LAYERFILTERS
360
1354
  3
ACAD_LAYERSTATES
360
7D2
  3
ACLYDICTIONARY
360
1353
  0
DICTIONARY
  5
B4C
330
10
100
AcDbDictionary
280
     1
281
     1
  3
ADSK_XREC_LAYER_RECONCILED
360
B4D
  0
DICTIONARY
  5
B4E
330
87B
100
AcDbDictionary
280
     1
281
     1
  3
ADSK_XREC_LAYER_RECONCILED
360
B4F
  0
DICTIONARY
  5
B50
330
87D
100
AcDbDictionary
280
     1
281
     1
  3
ADSK_XREC_LAYER_RECONCILED
360
B51
  0
DICTIONARY
  5
5F8
330
1F
100
AcDbDictionary
280
     1
281
     1
  3
ACAD_SORTENTS
360
5F9
  0
DICTIONARY
  5
CBA
330
B63
100
AcDbDictionary
280
     1
281
     1
  3
ACAD_SORTENTS
360
CBB
  0
DICTIONARY
  5
1165
330
115A
100
AcDbDictionary
280
     1
281
     1
  3
ACAD_SORTENTS
360
1166
  0
DICTIONARY
  5
11B0
330
11A6
100
AcDbDictionary
280
     1
281
     1
  3
ACAD_SORTENTS
360
11B1
  0
DICTIONARY
  5
1108
330
10FD
100
AcDbDictionary
280
     1
281
     1
  3
ACAD_DIMASSOC
360
1110
  0
DICTIONARY
  5
1123
330
1118
100
AcDbDictionary
280
     1
281
     1
  3
ACAD_DIMASSOC
360
112B
  0
DICTIONARY
  5
4B9
102
{ACAD_REACTORS
330
C
102
}
330
C
100
AcDbDictionary
281
     1
  0
DICTIONARY
  5
D
102
{ACAD_REACTORS
330
C
102
}
330
C
100
AcDbDictionary
281
     1
  0
DICTIONARY
  5
1A
102
{ACAD_REACTORS
330
C
102
}
330
C
100
AcDbDictionary
281
     1
  3
Arkusz1
350
1379
  3
Model
350
22
  0
DICTIONARY
  5
3B
102
{ACAD_REACTORS
330
C
102
}
330
C
100
AcDbDictionary
281
     1
  3
ByBlock
350
3D
  3
ByLayer
350
3C
  3
Global
350
3E
  0
DICTIONARY
  5
489
102
{ACAD_REACTORS
330
C
102
}
330
C
100
AcDbDictionary
281
     1
  3
Standard
350
B45
  0
DICTIONARY
  5
17
102
{ACAD_REACTORS
330
C
102
}
330
C
100
AcDbDictionary
281
     1
  3
Standard
350
18
  0
DICTIONARY
  5
19
102
{ACAD_REACTORS
330
C
102
}
330
C
100
AcDbDictionary
281
     1
  0
ACDBDICTIONARYWDFLT
  5
E
102
{ACAD_REACTORS
330
C
102
}
330
C
100
AcDbDictionary
281
     1
  3
Normal
350
F
100
AcDbDictionaryWithDefault
340
F
  0
DICTIONARY
  5
B23
102
{ACAD_REACTORS
330
C
102
}
330
C
100
AcDbDictionary
281
     1
  3
A0
350
B24
  3
A1
350
B25
  3
A2
350
B26
  3
A3
350
B27
  3
A4
350
B28
  3
A5
350
B29
  3
A6
350
B2A
  3
A7
350
B2B
  3
A8
350
B2C
  3
A9
350
B2D
  3
B0
350
B2E
  3
B1
350
B2F
  3
B2
350
B30
  3
B3
350
B31
  3
B4
350
B32
  3
B5
350
B33
  3
B6
350
B34
  3
B7
350
B35
  3
B8
350
B36
  3
B9
350
B37
  3
C0
350
B38
  3
C1
350
B39
  3
C2
350
B3A
  3
C3
350
B3B
  3
C4
350
B3C
  3
C5
350
B3D
  3
C6
350
B3E
  3
C7
350
B3F
  3
C8
350
B40
  3
C9
350
B41
  3
D0
350
B42
  3
D1
350
B43
  3
D2
350
B44
  0
DICTIONARY
  5
4BA
102
{ACAD_REACTORS
330
C
102
}
330
C
100
AcDbDictionary
281
     1
  3
Standard
350
4BB
  0
DICTIONARY
  5
2A
102
{ACAD_REACTORS
330
C
102
}
330
C
100
AcDbDictionary
281
     1
  3
2dWireframe
350
2F
  3
3D Hidden
350
A48
  3
3dWireframe
350
A47
  3
Basic
350
32
  3
Brighten
350
36
  3
ColorChange
350
3A
  3
Conceptual
350
A49
  3
Dim
350
35
  3
Facepattern
350
39
  3
Flat
350
2B
  3
FlatWithEdges
350
2C
  3
Gouraud
350
2D
  3
GouraudWithEdges
350
2E
  3
Linepattern
350
38
  3
Realistic
350
A4A
  3
Thicken
350
37
  0
XRECORD
  5
B54
102
{ACAD_REACTORS
330
C
102
}
330
C
100
AcDbXrecord
280
     1
 90
        1
330
4BB
  0
DICTIONARY
  5
487
102
{ACAD_REACTORS
330
C
102
}
330
C
100
AcDbDictionary
281
     1
  3
CANNOSCALE
350
B57
  3
CMLEADERSTYLE
350
B55
  3
CTABLESTYLE
350
5FE
  3
DIMASSOC
350
48A
  3
HIDETEXT
350
48B
  3
INDEXCTL
350
86B
  3
LIGHTINGUNITS
350
B58
  3
MSLTSCALE
350
B56
  3
SORTENTS
350
86A
  0
DICTIONARY
  5
1354
102
{ACAD_REACTORS
330
7D1
102
}
330
7D1
100
AcDbDictionary
281
     1
  0
DICTIONARY
  5
7D2
102
{ACAD_REACTORS
330
7D1
102
}
330
7D1
100
AcDbDictionary
281
     1
  0
DICTIONARY
  5
1353
102
{ACAD_REACTORS
330
7D1
102
}
330
7D1
100
AcDbDictionary
281
     1
1001
ACAD
1000
<All
  0
XRECORD
  5
B4D
102
{ACAD_REACTORS
330
B4C
102
}
330
B4C
100
AcDbXrecord
280
     1
290
     1
  0
XRECORD
  5
B4F
102
{ACAD_REACTORS
330
B4E
102
}
330
B4E
100
AcDbXrecord
280
     1
290
     1
  0
XRECORD
  5
B51
102
{ACAD_REACTORS
330
B50
102
}
330
B50
100
AcDbXrecord
280
     1
290
     1
  0
SORTENTSTABLE
  5
5F9
102
{ACAD_REACTORS
330
5F8
102
}
330
5F8
100
AcDbSortentsTable
330
1F
331
5C5
  5
5C5
331
58E
  5
58E
331
5CD
  5
5CD
331
596
  5
596
331
5D5
  5
5D5
331
59E
  5
59E
331
55F
  5
55F
331
5DD
  5
5DD
331
5A6
  5
5A6
331
567
  5
567
331
5E5
  5
5E5
331
5AE
  5
5AE
331
56F
  5
56F
331
5B6
  5
5B6
331
577
  5
577
331
5BE
  5
5BE
331
57F
  5
57F
331
587
  5
587
331
5C6
  5
5C6
331
58F
  5
58F
331
5CE
  5
5CE
331
597
  5
597
331
558
  5
558
331
5D6
  5
5D6
331
59F
  5
59F
331
560
  5
560
331
5DE
  5
5DE
331
5A7
  5
5A7
331
568
  5
568
331
5E6
  5
5E6
331
5AF
  5
5AF
331
570
  5
570
331
5B7
  5
5B7
331
578
  5
578
331
5BF
  5
5BF
331
580
  5
580
331
588
  5
588
331
5C7
  5
5C7
331
590
  5
590
331
5CF
  5
5CF
331
559
  5
559
331
5D7
  5
5D7
331
561
  5
561
331
5DF
  5
5DF
331
5A8
  5
5A8
331
569
  5
569
331
5E7
  5
5E7
331
5B0
  5
5B0
331
571
  5
571
331
5B8
  5
5B8
331
579
  5
579
331
581
  5
581
331
5C0
  5
5C0
331
589
  5
589
331
5C8
  5
5C8
331
591
  5
591
331
5D0
  5
5D0
331
55A
  5
55A
331
5D8
  5
5D8
331
5A1
  5
5A1
331
562
  5
562
331
5E0
  5
5E0
331
5A9
  5
5A9
331
56A
  5
56A
331
5E8
  5
5E8
331
5B1
  5
5B1
331
572
  5
572
331
5B9
  5
5B9
331
57A
  5
57A
331
582
  5
582
331
37C
  5
37C
331
5C1
  5
5C1
331
58A
  5
58A
331
5C9
  5
5C9
331
592
  5
592
331
5D1
  5
5D1
331
55B
  5
55B
331
5D9
  5
5D9
331
5A2
  5
5A2
331
563
  5
563
331
5AA
  5
5AA
331
56B
  5
56B
331
5E9
  5
5E9
331
5B2
  5
5B2
331
573
  5
573
331
5BA
  5
5BA
331
57B
  5
57B
331
583
  5
583
331
5C2
  5
5C2
331
58B
  5
58B
331
5CA
  5
5CA
331
593
  5
593
331
5D2
  5
5D2
331
55C
  5
55C
331
5DA
  5
5DA
331
5A3
  5
5A3
331
564
  5
564
331
5AB
  5
5AB
331
56C
  5
56C
331
5EA
  5
5EA
331
5B3
  5
5B3
331
574
  5
574
331
5BB
  5
5BB
331
57C
  5
57C
331
584
  5
584
331
5C3
  5
5C3
331
58C
  5
58C
331
5CB
  5
5CB
331
594
  5
594
331
5D3
  5
5D3
331
59C
  5
59C
331
55D
  5
55D
331
5DB
  5
5DB
331
5A4
  5
5A4
331
565
  5
565
331
5AC
  5
5AC
331
56D
  5
56D
331
5EB
  5
5EB
331
5B4
  5
5B4
331
575
  5
575
331
5BC
  5
5BC
331
57D
  5
57D
331
585
  5
585
331
5C4
  5
5C4
331
58D
  5
58D
331
5CC
  5
5CC
331
595
  5
595
331
5D4
  5
5D4
331
59D
  5
59D
331
55E
  5
55E
331
5DC
  5
5DC
331
5A5
  5
5A5
331
566
  5
566
331
5E4
  5
5E4
331
5AD
  5
5AD
331
56E
  5
56E
331
5B5
  5
5B5
331
576
  5
576
331
5BD
  5
5BD
331
57E
  5
57E
331
586
  5
586
  0
SORTENTSTABLE
  5
CBB
102
{ACAD_REACTORS
330
CBA
102
}
330
CBA
100
AcDbSortentsTable
330
B63
  0
SORTENTSTABLE
  5
1166
102
{ACAD_REACTORS
330
1165
102
}
330
1165
100
AcDbSortentsTable
330
115A
  0
SORTENTSTABLE
  5
11B1
102
{ACAD_REACTORS
330
11B0
102
}
330
11B0
100
AcDbSortentsTable
330
11A6
  0
DIMASSOC
  5
1110
102
{ACAD_REACTORS
330
1108
102
}
330
1108
100
AcDbDimAssoc
330
10FD
 90
        3
 70
     0
 71
     0
  1
AcDbOsnapPointRef
 72
    13
331
10FA
 73
     2
 91
        0
 40
0.0
 10
0.0
 20
0.0
 30
2.000000000000000E+50
 75
     0
  1
AcDbOsnapPointRef
 72
    13
331
10FB
 73
     2
 91
        0
 40
0.0
 10
0.0
 20
0.0
 30
2.000000000000000E+50
 75
     0
  0
DIMASSOC
  5
112B
102
{ACAD_REACTORS
330
1123
102
}
330
1123
100
AcDbDimAssoc
330
1118
 90
        3
 70
     0
 71
     0
  1
AcDbOsnapPointRef
 72
    13
331
10FA
 73
     2
 91
        0
 40
0.0
 10
0.0
 20
0.0
 30
2.000000000000000E+50
 75
     0
  1
AcDbOsnapPointRef
 72
     1
331
10FC
 73
     2
 91
        0
 40
1.0
 10
0.0
 20
0.0
 30
2.000000000000000E+50
 75
     0
  0
LAYOUT
  5
1379
102
{ACAD_REACTORS
330
1A
102
}
330
1A
100
AcDbPlotSettings
  1

  2
HP Ksero Mariola PCL 6
  4

  6

 40
0.0
 41
0.0
 42
0.0
 43
0.0
 44
0.0
 45
0.0
 46
0.0
 47
0.0
 48
0.0
 49
0.0
140
0.0
141
0.0
142
1.0
143
1.0
 70
   688
 72
     0
 73
     0
 74
     5
  7

 75
    16
147
1.0
 76
     0
 77
     2
 78
   300
148
0.0
149
0.0
100
AcDbLayout
  1
Arkusz1
 70
     1
 71
     1
 10
0.0
 20
0.0
 11
12.0
 21
9.0
 12
0.0
 22
0.0
 32
0.0
 14
0.0
 24
0.0
 34
0.0
 15
0.0
 25
0.0
 35
0.0
146
0.0
 13
0.0
 23
0.0
 33
0.0
 16
1.0
 26
0.0
 36
0.0
 17
0.0
 27
1.0
 37
0.0
 76
     0
330
1378
  0
LAYOUT
  5
22
102
{ACAD_REACTORS
330
1A
102
}
330
1A
100
AcDbPlotSettings
  1

  2
none_device
  4
Letter_(8.50_x_11.00_Inches)
  6

 40
6.349999904632568
 41
6.349999904632568
 42
6.350006103515625
 43
6.350006103515625
 44
215.8999938964844
 45
279.3999938964844
 46
0.0
 47
0.0
 48
0.0
 49
0.0
140
0.0
141
0.0
142
1.0
143
1.949379259054547
 70
 11952
 72
     0
 73
     1
 74
     0
  7

 75
     0
147
0.5129838102848195
 76
     0
 77
     2
 78
   300
148
140.6779445779101
149
-18.22632186469054
100
AcDbLayout
  1
Model
 70
     1
 71
     0
 10
0.0
 20
0.0
 11
12.0
 21
9.0
 12
0.0
 22
0.0
 32
0.0
 14
1.000000000000000E+20
 24
1.000000000000000E+20
 34
1.000000000000000E+20
 15
-1.000000000000000E+20
 25
-1.000000000000000E+20
 35
-1.000000000000000E+20
146
0.0
 13
0.0
 23
0.0
 33
0.0
 16
1.0
 26
0.0
 36
0.0
 17
0.0
 27
1.0
 37
0.0
 76
     0
330
1F
331
29
1001
ACAD_PSEXT
1000
Brak
1000
Brak
1000
Nie można zastosować.
1000
Arkusz nie zostanie wydrukowany dopóki nie wybrano konfiguracji plotera.
1070
     0
  0
MATERIAL
  5
3D
102
{ACAD_XDICTIONARY
360
1380
102
}
102
{ACAD_REACTORS
330
3B
102
}
330
3B
100
AcDbMaterial
  1
ByBlock
 73
     1
 78
     1
172
     1
176
     1
270
     1
274
     1
  0
MATERIAL
  5
3C
102
{ACAD_XDICTIONARY
360
137E
102
}
102
{ACAD_REACTORS
330
3B
102
}
330
3B
100
AcDbMaterial
  1
ByLayer
 73
     1
 78
     1
172
     1
176
     1
270
     1
274
     1
  0
MATERIAL
  5
3E
102
{ACAD_XDICTIONARY
360
1382
102
}
102
{ACAD_REACTORS
330
3B
102
}
330
3B
100
AcDbMaterial
  1
Global
 73
     1
 78
     1
172
     1
176
     1
270
     1
274
     1
  0
MLEADERSTYLE
  5
B45
102
{ACAD_REACTORS
330
489
102
}
330
489
100
AcDbMLeaderStyle
170
     2
171
     1
172
     0
 90
        2
 40
0.0
 41
0.0
173
     1
 91
-1056964608
340
14
 92
       -2
290
     1
 42
0.09
291
     1
 43
0.36
  3
Standard
 44
0.18
300

342
11
174
     1
178
     6
175
     1
176
     0
 93
-1056964608
 45
0.18
292
     0
297
     0
 46
0.18
 94
-1056964608
 47
1.0
 49
1.0
140
1.0
293
     1
141
0.0
294
     1
177
     0
142
1.0
295
     0
296
     0
143
0.125
1001
ACAD_MLEADERVER
1070
     2
  0
MLINESTYLE
  5
18
102
{ACAD_REACTORS
330
17
102
}
330
17
100
AcDbMlineStyle
  2
STANDARD
 70
     0
  3

 62
   256
 51
90.0
 52
90.0
 71
     2
 49
0.5
 62
   256
  6
BYLAYER
 49
-0.5
 62
   256
  6
BYLAYER
  0
ACDBPLACEHOLDER
  5
F
102
{ACAD_REACTORS
330
E
102
}
330
E
  0
SCALE
  5
B24
102
{ACAD_REACTORS
330
B23
102
}
330
B23
100
AcDbScale
 70
     0
300
1:1
140
1.0
141
1.0
290
     1
  0
SCALE
  5
B25
102
{ACAD_REACTORS
330
B23
102
}
330
B23
100
AcDbScale
 70
     0
300
1:2
140
1.0
141
2.0
290
     0
  0
SCALE
  5
B26
102
{ACAD_REACTORS
330
B23
102
}
330
B23
100
AcDbScale
 70
     0
300
1:4
140
1.0
141
4.0
290
     0
  0
SCALE
  5
B27
102
{ACAD_REACTORS
330
B23
102
}
330
B23
100
AcDbScale
 70
     0
300
1:5
140
1.0
141
5.0
290
     0
  0
SCALE
  5
B28
102
{ACAD_REACTORS
330
B23
102
}
330
B23
100
AcDbScale
 70
     0
300
1:8
140
1.0
141
8.0
290
     0
  0
SCALE
  5
B29
102
{ACAD_REACTORS
330
B23
102
}
330
B23
100
AcDbScale
 70
     0
300
1:10
140
1.0
141
10.0
290
     0
  0
SCALE
  5
B2A
102
{ACAD_REACTORS
330
B23
102
}
330
B23
100
AcDbScale
 70
     0
300
1:16
140
1.0
141
16.0
290
     0
  0
SCALE
  5
B2B
102
{ACAD_REACTORS
330
B23
102
}
330
B23
100
AcDbScale
 70
     0
300
1:20
140
1.0
141
20.0
290
     0
  0
SCALE
  5
B2C
102
{ACAD_REACTORS
330
B23
102
}
330
B23
100
AcDbScale
 70
     0
300
1:30
140
1.0
141
30.0
290
     0
  0
SCALE
  5
B2D
102
{ACAD_REACTORS
330
B23
102
}
330
B23
100
AcDbScale
 70
     0
300
1:40
140
1.0
141
40.0
290
     0
  0
SCALE
  5
B2E
102
{ACAD_REACTORS
330
B23
102
}
330
B23
100
AcDbScale
 70
     0
300
1:50
140
1.0
141
50.0
290
     0
  0
SCALE
  5
B2F
102
{ACAD_REACTORS
330
B23
102
}
330
B23
100
AcDbScale
 70
     0
300
1:100
140
1.0
141
100.0
290
     0
  0
SCALE
  5
B30
102
{ACAD_REACTORS
330
B23
102
}
330
B23
100
AcDbScale
 70
     0
300
2:1
140
2.0
141
1.0
290
     0
  0
SCALE
  5
B31
102
{ACAD_REACTORS
330
B23
102
}
330
B23
100
AcDbScale
 70
     0
300
4:1
140
4.0
141
1.0
290
     0
  0
SCALE
  5
B32
102
{ACAD_REACTORS
330
B23
102
}
330
B23
100
AcDbScale
 70
     0
300
8:1
140
8.0
141
1.0
290
     0
  0
SCALE
  5
B33
102
{ACAD_REACTORS
330
B23
102
}
330
B23
100
AcDbScale
 70
     0
300
10:1
140
10.0
141
1.0
290
     0
  0
SCALE
  5
B34
102
{ACAD_REACTORS
330
B23
102
}
330
B23
100
AcDbScale
 70
     0
300
100:1
140
100.0
141
1.0
290
     0
  0
SCALE
  5
B35
102
{ACAD_REACTORS
330
B23
102
}
330
B23
100
AcDbScale
 70
     0
300
1/128" = 1'-0"
140
0.0078125
141
12.0
290
     0
  0
SCALE
  5
B36
102
{ACAD_REACTORS
330
B23
102
}
330
B23
100
AcDbScale
 70
     0
300
1/64" = 1'-0"
140
0.015625
141
12.0
290
     0
  0
SCALE
  5
B37
102
{ACAD_REACTORS
330
B23
102
}
330
B23
100
AcDbScale
 70
     0
300
1/32" = 1'-0"
140
0.03125
141
12.0
290
     0
  0
SCALE
  5
B38
102
{ACAD_REACTORS
330
B23
102
}
330
B23
100
AcDbScale
 70
     0
300
1/16" = 1'-0"
140
0.0625
141
12.0
290
     0
  0
SCALE
  5
B39
102
{ACAD_REACTORS
330
B23
102
}
330
B23
100
AcDbScale
 70
     0
300
3/32" = 1'-0"
140
0.09375
141
12.0
290
     0
  0
SCALE
  5
B3A
102
{ACAD_REACTORS
330
B23
102
}
330
B23
100
AcDbScale
 70
     0
300
1/8" = 1'-0"
140
0.125
141
12.0
290
     0
  0
SCALE
  5
B3B
102
{ACAD_REACTORS
330
B23
102
}
330
B23
100
AcDbScale
 70
     0
300
3/16" = 1'-0"
140
0.1875
141
12.0
290
     0
  0
SCALE
  5
B3C
102
{ACAD_REACTORS
330
B23
102
}
330
B23
100
AcDbScale
 70
     0
300
1/4" = 1'-0"
140
0.25
141
12.0
290
     0
  0
SCALE
  5
B3D
102
{ACAD_REACTORS
330
B23
102
}
330
B23
100
AcDbScale
 70
     0
300
3/8" = 1'-0"
140
0.375
141
12.0
290
     0
  0
SCALE
  5
B3E
102
{ACAD_REACTORS
330
B23
102
}
330
B23
100
AcDbScale
 70
     0
300
1/2" = 1'-0"
140
0.5
141
12.0
290
     0
  0
SCALE
  5
B3F
102
{ACAD_REACTORS
330
B23
102
}
330
B23
100
AcDbScale
 70
     0
300
3/4" = 1'-0"
140
0.75
141
12.0
290
     0
  0
SCALE
  5
B40
102
{ACAD_REACTORS
330
B23
102
}
330
B23
100
AcDbScale
 70
     0
300
1" = 1'-0"
140
1.0
141
12.0
290
     0
  0
SCALE
  5
B41
102
{ACAD_REACTORS
330
B23
102
}
330
B23
100
AcDbScale
 70
     0
300
1-1/2" = 1'-0"
140
1.5
141
12.0
290
     0
  0
SCALE
  5
B42
102
{ACAD_REACTORS
330
B23
102
}
330
B23
100
AcDbScale
 70
     0
300
3" = 1'-0"
140
3.0
141
12.0
290
     0
  0
SCALE
  5
B43
102
{ACAD_REACTORS
330
B23
102
}
330
B23
100
AcDbScale
 70
     0
300
6" = 1'-0"
140
6.0
141
12.0
290
     0
  0
SCALE
  5
B44
102
{ACAD_REACTORS
330
B23
102
}
330
B23
100
AcDbScale
 70
     0
300
1'-0" = 1'-0"
140
12.0
141
12.0
290
     0
  0
TABLESTYLE
  5
4BB
102
{ACAD_XDICTIONARY
360
B52
102
}
102
{ACAD_REACTORS
330
4BA
102
}
330
4BA
100
AcDbTableStyle
  3
Standard
 70
     0
 71
     0
 40
0.06
 41
0.06
280
     0
281
     0
  7
Standard
140
0.18
170
     2
 62
     0
 63
     7
283
     0
274
    -2
284
     1
 64
     0
275
    -2
285
     1
 65
     0
276
    -2
286
     1
 66
     0
277
    -2
287
     1
 67
     0
278
    -2
288
     1
 68
     0
279
    -2
289
     1
 69
     0
  7
Standard
140
0.25
170
     5
 62
     0
 63
     7
283
     0
274
    -2
284
     1
 64
     0
275
    -2
285
     1
 65
     0
276
    -2
286
     1
 66
     0
277
    -2
287
     1
 67
     0
278
    -2
288
     1
 68
     0
279
    -2
289
     1
 69
     0
  7
Standard
140
0.18
170
     5
 62
     0
 63
     7
283
     0
274
    -2
284
     1
 64
     0
275
    -2
285
     1
 65
     0
276
    -2
286
     1
 66
     0
277
    -2
287
     1
 67
     0
278
    -2
288
     1
 68
     0
279
    -2
289
     1
 69
     0
  0
VISUALSTYLE
  5
2F
102
{ACAD_XDICTIONARY
360
49A
102
}
102
{ACAD_REACTORS
330
2A
102
}
330
2A
100
AcDbVisualStyle
  2
2dWireframe
 70
     4
 71
     0
 72
     2
 73
     0
 90
        0
 40
-0.6
 41
-30.0
 62
     5
 63
     7
 74
     1
 91
        4
 64
     7
 65
   257
 75
     1
175
     1
 42
1.0
 92
        0
 66
   257
 43
1.0
 76
     1
 77
     6
 78
     2
 67
     7
 79
     5
170
     0
171
     0
290
     0
174
     0
 93
        1
 44
0.0
173
     0
291
     0
 45
0.0
1001
ACAD
1000
AcDbSavedByObjectVersion
1070
     0
  0
VISUALSTYLE
  5
A48
102
{ACAD_REACTORS
330
2A
102
}
330
2A
100
AcDbVisualStyle
  2
3D Hidden
 70
     6
 71
     1
 72
     2
 73
     2
 90
        0
 40
-0.6
 41
-30.0
 62
     5
 63
     7
 74
     2
 91
        2
 64
     7
 65
   257
 75
     2
175
     1
 42
40.0
 92
        0
 66
   257
 43
1.0
 76
     1
 77
     6
 78
     2
 67
     7
 79
     3
170
     0
171
     0
290
     0
174
     0
 93
        1
 44
0.0
173
     0
291
     0
 45
0.0
1001
ACAD
1000
AcDbSavedByObjectVersion
1070
     0
  0
VISUALSTYLE
  5
A47
102
{ACAD_REACTORS
330
2A
102
}
330
2A
100
AcDbVisualStyle
  2
3dWireframe
 70
     5
 71
     0
 72
     2
 73
     0
 90
        0
 40
-0.6
 41
-30.0
 62
     5
 63
     7
 74
     1
 91
        4
 64
     7
 65
   257
 75
     1
175
     1
 42
1.0
 92
        0
 66
   257
 43
1.0
 76
     1
 77
     6
 78
     2
 67
     7
 79
     5
170
     0
171
     0
290
     0
174
     0
 93
        1
 44
0.0
173
     0
291
     0
 45
0.0
1001
ACAD
1000
AcDbSavedByObjectVersion
1070
     0
  0
VISUALSTYLE
  5
32
102
{ACAD_XDICTIONARY
360
4A0
102
}
102
{ACAD_REACTORS
330
2A
102
}
330
2A
100
AcDbVisualStyle
  2
Basic
 70
     7
 71
     1
 72
     0
 73
     1
 90
        0
 40
-0.6
 41
-30.0
 62
     5
 63
     7
 74
     0
 91
        4
 64
     7
 65
   257
 75
     1
175
     1
 42
1.0
 92
        8
 66
     7
 43
1.0
 76
     1
 77
     6
 78
     2
 67
     7
 79
     5
170
     0
171
     0
290
     0
174
     0
 93
        1
 44
0.0
173
     0
291
     1
 45
0.0
1001
ACAD
1000
AcDbSavedByObjectVersion
1070
     0
  0
VISUALSTYLE
  5
36
102
{ACAD_XDICTIONARY
360
4A8
102
}
102
{ACAD_REACTORS
330
2A
102
}
330
2A
100
AcDbVisualStyle
  2
Brighten
 70
    12
 71
     2
 72
     2
 73
     0
 90
        0
 40
-0.6
 41
-30.0
 62
     5
 63
     7
 74
     1
 91
        4
 64
     7
 65
   257
 75
     1
175
     1
 42
1.0
 92
        8
 66
     7
 43
1.0
 76
     1
 77
     6
 78
     2
 67
     7
 79
     5
170
     0
171
     0
290
     0
174
     0
 93
        1
 44
50.0
173
     0
291
     1
 45
0.0
1001
ACAD
1000
AcDbSavedByObjectVersion
1070
     0
  0
VISUALSTYLE
  5
3A
102
{ACAD_XDICTIONARY
360
4B0
102
}
102
{ACAD_REACTORS
330
2A
102
}
330
2A
100
AcDbVisualStyle
  2
ColorChange
 70
    16
 71
     2
 72
     2
 73
     3
 90
        0
 40
-0.6
 41
-30.0
 62
     5
 63
     8
 74
     1
 91
        4
 64
     7
 65
   257
 75
     1
175
     1
 42
1.0
 92
        8
 66
     8
 43
1.0
 76
     1
 77
     6
 78
     2
 67
     7
 79
     5
170
     0
171
     0
290
     0
174
     0
 93
        1
 44
0.0
173
     0
291
     1
 45
0.0
1001
ACAD
1000
AcDbSavedByObjectVersion
1070
     0
  0
VISUALSTYLE
  5
A49
102
{ACAD_REACTORS
330
2A
102
}
330
2A
100
AcDbVisualStyle
  2
Conceptual
 70
     9
 71
     3
 72
     2
 73
     0
 90
        0
 40
-0.6
 41
-30.0
 62
     5
 63
     7
 74
     2
 91
        2
 64
     7
 65
   257
 75
     1
175
     1
 42
40.0
 92
        8
 66
     7
 43
1.0
 76
     1
 77
     6
 78
     2
 67
     7
 79
     3
170
     0
171
     0
290
     0
174
     0
 93
        1
 44
0.0
173
     0
291
     0
 45
0.0
1001
ACAD
1000
AcDbSavedByObjectVersion
1070
     0
  0
VISUALSTYLE
  5
35
102
{ACAD_XDICTIONARY
360
4A6
102
}
102
{ACAD_REACTORS
330
2A
102
}
330
2A
100
AcDbVisualStyle
  2
Dim
 70
    11
 71
     2
 72
     2
 73
     0
 90
        0
 40
-0.6
 41
-30.0
 62
     5
 63
     7
 74
     1
 91
        4
 64
     7
 65
   257
 75
     1
175
     1
 42
1.0
 92
        8
 66
     7
 43
1.0
 76
     1
 77
     6
 78
     2
 67
     7
 79
     5
170
     0
171
     0
290
     0
174
     0
 93
        1
 44
-50.0
173
     0
291
     1
 45
0.0
1001
ACAD
1000
AcDbSavedByObjectVersion
1070
     0
  0
VISUALSTYLE
  5
39
102
{ACAD_XDICTIONARY
360
4AE
102
}
102
{ACAD_REACTORS
330
2A
102
}
330
2A
100
AcDbVisualStyle
  2
Facepattern
 70
    15
 71
     2
 72
     2
 73
     0
 90
        0
 40
-0.6
 41
-30.0
 62
     5
 63
     7
 74
     1
 91
        4
 64
     7
 65
   257
 75
     1
175
     1
 42
1.0
 92
        8
 66
     7
 43
1.0
 76
     1
 77
     6
 78
     2
 67
     7
 79
     5
170
     0
171
     0
290
     0
174
     0
 93
        1
 44
0.0
173
     0
291
     1
 45
0.0
1001
ACAD
1000
AcDbSavedByObjectVersion
1070
     0
  0
VISUALSTYLE
  5
2B
102
{ACAD_XDICTIONARY
360
492
102
}
102
{ACAD_REACTORS
330
2A
102
}
330
2A
100
AcDbVisualStyle
  2
Flat
 70
     0
 71
     2
 72
     1
 73
     1
 90
        2
 40
-0.6
 41
30.0
 62
     5
 63
     7
 74
     0
 91
        4
 64
     7
 65
   257
 75
     1
175
     1
 42
1.0
 92
        8
 66
     7
 43
1.0
 76
     1
 77
     6
 78
     2
 67
     7
 79
     5
170
     0
171
     0
290
     0
174
     0
 93
       13
 44
0.0
173
     0
291
     1
 45
0.0
1001
ACAD
1000
AcDbSavedByObjectVersion
1070
     0
  0
VISUALSTYLE
  5
2C
102
{ACAD_XDICTIONARY
360
494
102
}
102
{ACAD_REACTORS
330
2A
102
}
330
2A
100
AcDbVisualStyle
  2
FlatWithEdges
 70
     1
 71
     2
 72
     1
 73
     1
 90
        2
 40
-0.6
 41
30.0
 62
     5
 63
     7
 74
     1
 91
        4
 64
     7
 65
   257
 75
     1
175
     1
 42
1.0
 92
        0
 66
   257
 43
1.0
 76
     1
 77
     6
 78
     2
 67
     7
 79
     5
170
     0
171
     0
290
     0
174
     0
 93
       13
 44
0.0
173
     0
291
     1
 45
0.0
1001
ACAD
1000
AcDbSavedByObjectVersion
1070
     0
  0
VISUALSTYLE
  5
2D
102
{ACAD_XDICTIONARY
360
496
102
}
102
{ACAD_REACTORS
330
2A
102
}
330
2A
100
AcDbVisualStyle
  2
Gouraud
 70
     2
 71
     2
 72
     2
 73
     1
 90
        2
 40
-0.6
 41
30.0
 62
     5
 63
     7
 74
     0
 91
        4
 64
     7
 65
   257
 75
     1
175
     1
 42
1.0
 92
        0
 66
     7
 43
1.0
 76
     1
 77
     6
 78
     2
 67
     7
 79
     5
170
     0
171
     0
290
     0
174
     0
 93
       13
 44
0.0
173
     0
291
     1
 45
0.0
1001
ACAD
1000
AcDbSavedByObjectVersion
1070
     0
  0
VISUALSTYLE
  5
2E
102
{ACAD_XDICTIONARY
360
498
102
}
102
{ACAD_REACTORS
330
2A
102
}
330
2A
100
AcDbVisualStyle
  2
GouraudWithEdges
 70
     3
 71
     2
 72
     2
 73
     1
 90
        2
 40
-0.6
 41
30.0
 62
     5
 63
     7
 74
     1
 91
        4
 64
     7
 65
   257
 75
     1
175
     1
 42
1.0
 92
        0
 66
   257
 43
1.0
 76
     1
 77
     6
 78
     2
 67
     7
 79
     5
170
     0
171
     0
290
     0
174
     0
 93
       13
 44
0.0
173
     0
291
     1
 45
0.0
1001
ACAD
1000
AcDbSavedByObjectVersion
1070
     0
  0
VISUALSTYLE
  5
38
102
{ACAD_XDICTIONARY
360
4AC
102
}
102
{ACAD_REACTORS
330
2A
102
}
330
2A
100
AcDbVisualStyle
  2
Linepattern
 70
    14
 71
     2
 72
     2
 73
     0
 90
        0
 40
-0.6
 41
-30.0
 62
     5
 63
     7
 74
     1
 91
        4
 64
     7
 65
   257
 75
     7
175
     7
 42
1.0
 92
        8
 66
     7
 43
1.0
 76
     1
 77
     6
 78
     2
 67
     7
 79
     5
170
     0
171
     0
290
     0
174
     0
 93
        1
 44
0.0
173
     0
291
     1
 45
0.0
1001
ACAD
1000
AcDbSavedByObjectVersion
1070
     0
  0
VISUALSTYLE
  5
A4A
102
{ACAD_REACTORS
330
2A
102
}
330
2A
100
AcDbVisualStyle
  2
Realistic
 70
     8
 71
     2
 72
     2
 73
     0
 90
        0
 40
-0.6
 41
-30.0
 62
     5
 63
     7
 74
     1
 91
        0
 64
     7
 65
   257
 75
     1
175
     1
 42
1.0
 92
        8
 66
     8
 43
1.0
 76
     1
 77
     6
 78
     2
 67
     7
 79
     5
170
     0
171
     0
290
     0
174
     0
 93
       13
 44
0.0
173
     0
291
     0
 45
0.0
1001
ACAD
1000
AcDbSavedByObjectVersion
1070
     0
  0
VISUALSTYLE
  5
37
102
{ACAD_XDICTIONARY
360
4AA
102
}
102
{ACAD_REACTORS
330
2A
102
}
330
2A
100
AcDbVisualStyle
  2
Thicken
 70
    13
 71
     2
 72
     2
 73
     0
 90
        0
 40
-0.6
 41
-30.0
 62
     5
 63
     7
 74
     1
 91
        4
 64
     7
 65
   257
 75
     1
175
     1
 42
1.0
 92
       12
 66
     7
 43
1.0
 76
     1
 77
     6
 78
     2
 67
     7
 79
     5
170
     0
171
     0
290
     0
174
     0
 93
        1
 44
0.0
173
     0
291
     1
 45
0.0
1001
ACAD
1000
AcDbSavedByObjectVersion
1070
     0
  0
DICTIONARYVAR
  5
B57
102
{ACAD_REACTORS
330
487
102
}
330
487
100
DictionaryVariables
280
     0
  1
1:1
  0
DICTIONARYVAR
  5
B55
102
{ACAD_REACTORS
330
487
102
}
330
487
100
DictionaryVariables
280
     0
  1
STANDARD
  0
DICTIONARYVAR
  5
5FE
102
{ACAD_REACTORS
330
487
102
}
330
487
100
DictionaryVariables
280
     0
  1
STANDARD
  0
DICTIONARYVAR
  5
48A
102
{ACAD_REACTORS
330
487
102
}
330
487
100
DictionaryVariables
280
     0
  1
2
  0
DICTIONARYVAR
  5
48B
102
{ACAD_REACTORS
330
487
102
}
330
487
100
DictionaryVariables
280
     0
  1
1
  0
DICTIONARYVAR
  5
86B
102
{ACAD_REACTORS
330
487
102
}
330
487
100
DictionaryVariables
280
     0
  1
0
  0
DICTIONARYVAR
  5
B58
102
{ACAD_REACTORS
330
487
102
}
330
487
100
DictionaryVariables
280
     0
  1
0
  0
DICTIONARYVAR
  5
B56
102
{ACAD_REACTORS
330
487
102
}
330
487
100
DictionaryVariables
280
     0
  1
0
  0
DICTIONARYVAR
  5
86A
102
{ACAD_REACTORS
330
487
102
}
330
487
100
DictionaryVariables
280
     0
  1
127
  0
DICTIONARY
  5
1380
330
3D
100
AcDbDictionary
280
     1
281
     1
  3
ACAD_XREC_ROUNDTRIP
360
1381
  0
DICTIONARY
  5
137E
330
3C
100
AcDbDictionary
280
     1
281
     1
  3
ACAD_XREC_ROUNDTRIP
360
137F
  0
DICTIONARY
  5
1382
330
3E
100
AcDbDictionary
280
     1
281
     1
  3
ACAD_XREC_ROUNDTRIP
360
1383
  0
DICTIONARY
  5
B52
330
4BB
100
AcDbDictionary
280
     1
281
     1
  3
ACAD_ROUNDTRIP_2008_TABLESTYLE_CELLSTYLEMAP
360
137D
  3
ACAD_XREC_ROUNDTRIP
360
1384
  0
DICTIONARY
  5
49A
330
2F
100
AcDbDictionary
280
     1
281
     1
  3
ACAD_XREC_ROUNDTRIP
360
49B
  0
DICTIONARY
  5
4A0
330
32
100
AcDbDictionary
280
     1
281
     1
  3
ACAD_XREC_ROUNDTRIP
360
4A1
  0
DICTIONARY
  5
4A8
330
36
100
AcDbDictionary
280
     1
281
     1
  3
ACAD_XREC_ROUNDTRIP
360
4A9
  0
DICTIONARY
  5
4B0
330
3A
100
AcDbDictionary
280
     1
281
     1
  3
ACAD_XREC_ROUNDTRIP
360
4B1
  0
DICTIONARY
  5
4A6
330
35
100
AcDbDictionary
280
     1
281
     1
  3
ACAD_XREC_ROUNDTRIP
360
4A7
  0
DICTIONARY
  5
4AE
330
39
100
AcDbDictionary
280
     1
281
     1
  3
ACAD_XREC_ROUNDTRIP
360
4AF
  0
DICTIONARY
  5
492
330
2B
100
AcDbDictionary
280
     1
281
     1
  3
ACAD_XREC_ROUNDTRIP
360
493
  0
DICTIONARY
  5
494
330
2C
100
AcDbDictionary
280
     1
281
     1
  3
ACAD_XREC_ROUNDTRIP
360
495
  0
DICTIONARY
  5
496
330
2D
100
AcDbDictionary
280
     1
281
     1
  3
ACAD_XREC_ROUNDTRIP
360
497
  0
DICTIONARY
  5
498
330
2E
100
AcDbDictionary
280
     1
281
     1
  3
ACAD_XREC_ROUNDTRIP
360
499
  0
DICTIONARY
  5
4AC
330
38
100
AcDbDictionary
280
     1
281
     1
  3
ACAD_XREC_ROUNDTRIP
360
4AD
  0
DICTIONARY
  5
4AA
330
37
100
AcDbDictionary
280
     1
281
     1
  3
ACAD_XREC_ROUNDTRIP
360
4AB
  0
XRECORD
  5
1381
102
{ACAD_REACTORS
330
1380
102
}
330
1380
100
AcDbXrecord
280
     1
102
MATERIAL
148
0.0
149
0.0
149
0.0
 93
        0
 94
      127
282
     0
 72
     1
 77
     1
171
     1
175
     1
179
     1
273
     0
  0
XRECORD
  5
137F
102
{ACAD_REACTORS
330
137E
102
}
330
137E
100
AcDbXrecord
280
     1
102
MATERIAL
148
0.0
149
0.0
149
0.0
 93
        0
 94
      127
282
     0
 72
     1
 77
     1
171
     1
175
     1
179
     1
273
     0
  0
XRECORD
  5
1383
102
{ACAD_REACTORS
330
1382
102
}
330
1382
100
AcDbXrecord
280
     1
102
MATERIAL
148
0.0
149
0.0
149
0.0
 93
        0
 94
      127
282
     0
 72
     1
 77
     1
171
     1
175
     1
179
     1
273
     0
  0
CELLSTYLEMAP
  5
137D
102
{ACAD_REACTORS
330
B52
102
}
330
B52
100
AcDbCellStyleMap
 90
        3
300
CELLSTYLE
  1
TABLEFORMAT_BEGIN
 90
        5
170
     1
 91
        0
 92
    32768
 62
   257
 93
        1
300
CONTENTFORMAT
  1
CONTENTFORMAT_BEGIN
 90
        0
 91
        0
 92
      512
 93
        0
300

 40
0.0
140
1.0
 94
        5
 62
     0
340
11
144
0.25
309
CONTENTFORMAT_END
171
     0
 94
        6
 95
        1
302
GRIDFORMAT
  1
GRIDFORMAT_BEGIN
 90
        0
 91
        1
 62
     0
 92
       -2
340
0
 93
        0
 40
0.045
309
GRIDFORMAT_END
 95
        2
302
GRIDFORMAT
  1
GRIDFORMAT_BEGIN
 90
        0
 91
        1
 62
     0
 92
       -2
340
0
 93
        0
 40
0.045
309
GRIDFORMAT_END
 95
        4
302
GRIDFORMAT
  1
GRIDFORMAT_BEGIN
 90
        0
 91
        1
 62
     0
 92
       -2
340
0
 93
        0
 40
0.045
309
GRIDFORMAT_END
 95
        8
302
GRIDFORMAT
  1
GRIDFORMAT_BEGIN
 90
        0
 91
        1
 62
     0
 92
       -2
340
0
 93
        0
 40
0.045
309
GRIDFORMAT_END
 95
       16
302
GRIDFORMAT
  1
GRIDFORMAT_BEGIN
 90
        0
 91
        1
 62
     0
 92
       -2
340
0
 93
        0
 40
0.045
309
GRIDFORMAT_END
 95
       32
302
GRIDFORMAT
  1
GRIDFORMAT_BEGIN
 90
        0
 91
        1
 62
     0
 92
       -2
340
0
 93
        0
 40
0.045
309
GRIDFORMAT_END
309
TABLEFORMAT_END
  1
CELLSTYLE_BEGIN
 90
        1
 91
        1
300
_TITLE
309
CELLSTYLE_END
300
CELLSTYLE
  1
TABLEFORMAT_BEGIN
 90
        5
170
     1
 91
        0
 92
        0
 62
   257
 93
        1
300
CONTENTFORMAT
  1
CONTENTFORMAT_BEGIN
 90
        0
 91
        0
 92
      512
 93
        0
300

 40
0.0
140
1.0
 94
        5
 62
     0
340
11
144
0.18
309
CONTENTFORMAT_END
171
     0
 94
        6
 95
        1
302
GRIDFORMAT
  1
GRIDFORMAT_BEGIN
 90
        0
 91
        1
 62
     0
 92
       -2
340
0
 93
        0
 40
0.045
309
GRIDFORMAT_END
 95
        2
302
GRIDFORMAT
  1
GRIDFORMAT_BEGIN
 90
        0
 91
        1
 62
     0
 92
       -2
340
0
 93
        0
 40
0.045
309
GRIDFORMAT_END
 95
        4
302
GRIDFORMAT
  1
GRIDFORMAT_BEGIN
 90
        0
 91
        1
 62
     0
 92
       -2
340
0
 93
        0
 40
0.045
309
GRIDFORMAT_END
 95
        8
302
GRIDFORMAT
  1
GRIDFORMAT_BEGIN
 90
        0
 91
        1
 62
     0
 92
       -2
340
0
 93
        0
 40
0.045
309
GRIDFORMAT_END
 95
       16
302
GRIDFORMAT
  1
GRIDFORMAT_BEGIN
 90
        0
 91
        1
 62
     0
 92
       -2
340
0
 93
        0
 40
0.045
309
GRIDFORMAT_END
 95
       32
302
GRIDFORMAT
  1
GRIDFORMAT_BEGIN
 90
        0
 91
        1
 62
     0
 92
       -2
340
0
 93
        0
 40
0.045
309
GRIDFORMAT_END
309
TABLEFORMAT_END
  1
CELLSTYLE_BEGIN
 90
        2
 91
        1
300
_HEADER
309
CELLSTYLE_END
300
CELLSTYLE
  1
TABLEFORMAT_BEGIN
 90
        5
170
     1
 91
        0
 92
        0
 62
   257
 93
        1
300
CONTENTFORMAT
  1
CONTENTFORMAT_BEGIN
 90
        0
 91
        0
 92
      512
 93
        0
300

 40
0.0
140
1.0
 94
        2
 62
     0
340
11
144
0.18
309
CONTENTFORMAT_END
171
     0
 94
        6
 95
        1
302
GRIDFORMAT
  1
GRIDFORMAT_BEGIN
 90
        0
 91
        1
 62
     0
 92
       -2
340
0
 93
        0
 40
0.045
309
GRIDFORMAT_END
 95
        2
302
GRIDFORMAT
  1
GRIDFORMAT_BEGIN
 90
        0
 91
        1
 62
     0
 92
       -2
340
0
 93
        0
 40
0.045
309
GRIDFORMAT_END
 95
        4
302
GRIDFORMAT
  1
GRIDFORMAT_BEGIN
 90
        0
 91
        1
 62
     0
 92
       -2
340
0
 93
        0
 40
0.045
309
GRIDFORMAT_END
 95
        8
302
GRIDFORMAT
  1
GRIDFORMAT_BEGIN
 90
        0
 91
        1
 62
     0
 92
       -2
340
0
 93
        0
 40
0.045
309
GRIDFORMAT_END
 95
       16
302
GRIDFORMAT
  1
GRIDFORMAT_BEGIN
 90
        0
 91
        1
 62
     0
 92
       -2
340
0
 93
        0
 40
0.045
309
GRIDFORMAT_END
 95
       32
302
GRIDFORMAT
  1
GRIDFORMAT_BEGIN
 90
        0
 91
        1
 62
     0
 92
       -2
340
0
 93
        0
 40
0.045
309
GRIDFORMAT_END
309
TABLEFORMAT_END
  1
CELLSTYLE_BEGIN
 90
        3
 91
        2
300
_DATA
309
CELLSTYLE_END
  0
XRECORD
  5
1384
102
{ACAD_REACTORS
330
B52
102
}
330
B52
100
AcDbXrecord
280
     1
102
ACAD_ROUNDTRIP_PRE2007_TABLESTYLE
 90
      512
 91
        0
  1

 92
      512
 93
        0
  2

 94
      512
 95
        0
  3

  0
XRECORD
  5
49B
102
{ACAD_REACTORS
330
49A
102
}
330
49A
100
AcDbXrecord
280
     1
102
RTVSPropertyOp0
 70
     1
102
RTVSPropertyOp1
 70
     1
102
RTVSPropertyOp2
 70
     1
102
RTVSPropertyOp3
 70
     1
102
RTVSPropertyOp4
 70
     1
102
RTVSPropertyOp5
 70
     1
102
RTVSPropertyOp6
 70
     1
102
RTVSPropertyOp7
 70
     1
102
RTVSPropertyOp8
 70
     1
102
RTVSPropertyOp9
 70
     1
102
RTVSPropertyOp10
 70
     1
102
RTVSPropertyOp11
 70
     1
102
RTVSPropertyOp12
 70
     1
102
RTVSPropertyOp13
 70
     1
102
RTVSPropertyOp14
 70
     1
102
RTVSPropertyOp15
 70
     1
102
RTVSPropertyOp16
 70
     1
102
RTVSPropertyOp17
 70
     1
102
RTVSPropertyOp18
 70
     1
102
RTVSPropertyOp19
 70
     1
102
RTVSPropertyOp20
 70
     1
102
RTVSPropertyOp21
 70
     1
102
RTVSPropertyOp22
 70
     1
102
RTVSPropertyOp23
 70
     1
102
RTVSPropertyOp24
 70
     1
102
RTVSPropertyOp25
 70
     1
102
RTVSPropertyOp26
 70
     1
102
RTVSPropertyOp27
 70
     1
  0
XRECORD
  5
4A1
102
{ACAD_REACTORS
330
4A0
102
}
330
4A0
100
AcDbXrecord
280
     1
102
RTVSPropertyOp0
 70
     1
102
RTVSPropertyOp1
 70
     1
102
RTVSPropertyOp2
 70
     1
102
RTVSPropertyOp3
 70
     1
102
RTVSPropertyOp4
 70
     1
102
RTVSPropertyOp5
 70
     1
102
RTVSPropertyOp6
 70
     1
102
RTVSPropertyOp7
 70
     1
102
RTVSPropertyOp8
 70
     1
102
RTVSPropertyOp9
 70
     1
102
RTVSPropertyOp10
 70
     1
102
RTVSPropertyOp11
 70
     1
102
RTVSPropertyOp12
 70
     1
102
RTVSPropertyOp13
 70
     1
102
RTVSPropertyOp14
 70
     1
102
RTVSPropertyOp15
 70
     1
102
RTVSPropertyOp16
 70
     1
102
RTVSPropertyOp17
 70
     1
102
RTVSPropertyOp18
 70
     1
102
RTVSPropertyOp19
 70
     1
102
RTVSPropertyOp20
 70
     1
102
RTVSPropertyOp21
 70
     1
102
RTVSPropertyOp22
 70
     1
102
RTVSPropertyOp23
 70
     1
102
RTVSPropertyOp24
 70
     1
102
RTVSPropertyOp25
 70
     1
102
RTVSPropertyOp26
 70
     1
102
RTVSPropertyOp27
 70
     1
  0
XRECORD
  5
4A9
102
{ACAD_REACTORS
330
4A8
102
}
330
4A8
100
AcDbXrecord
280
     1
102
RTVSPropertyOp0
 70
     1
102
RTVSPropertyOp1
 70
     1
102
RTVSPropertyOp2
 70
     1
102
RTVSPropertyOp3
 70
     1
102
RTVSPropertyOp4
 70
     1
102
RTVSPropertyOp5
 70
     1
102
RTVSPropertyOp6
 70
     1
102
RTVSPropertyOp7
 70
     1
102
RTVSPropertyOp8
 70
     1
102
RTVSPropertyOp9
 70
     1
102
RTVSPropertyOp10
 70
     1
102
RTVSPropertyOp11
 70
     1
102
RTVSPropertyOp12
 70
     1
102
RTVSPropertyOp13
 70
     1
102
RTVSPropertyOp14
 70
     1
102
RTVSPropertyOp15
 70
     1
102
RTVSPropertyOp16
 70
     1
102
RTVSPropertyOp17
 70
     1
102
RTVSPropertyOp18
 70
     1
102
RTVSPropertyOp19
 70
     1
102
RTVSPropertyOp20
 70
     1
102
RTVSPropertyOp21
 70
     1
102
RTVSPropertyOp22
 70
     1
102
RTVSPropertyOp23
 70
     1
102
RTVSPropertyOp24
 70
     1
102
RTVSPropertyOp25
 70
     1
102
RTVSPropertyOp26
 70
     1
102
RTVSPropertyOp27
 70
     1
  0
XRECORD
  5
4B1
102
{ACAD_REACTORS
330
4B0
102
}
330
4B0
100
AcDbXrecord
280
     1
102
RTVSPropertyOp0
 70
     1
102
RTVSPropertyOp1
 70
     1
102
RTVSPropertyOp2
 70
     1
102
RTVSPropertyOp3
 70
     1
102
RTVSPropertyOp4
 70
     1
102
RTVSPropertyOp5
 70
     1
102
RTVSPropertyOp6
 70
     1
102
RTVSPropertyOp7
 70
     1
102
RTVSPropertyOp8
 70
     1
102
RTVSPropertyOp9
 70
     1
102
RTVSPropertyOp10
 70
     1
102
RTVSPropertyOp11
 70
     1
102
RTVSPropertyOp12
 70
     1
102
RTVSPropertyOp13
 70
     1
102
RTVSPropertyOp14
 70
     1
102
RTVSPropertyOp15
 70
     1
102
RTVSPropertyOp16
 70
     1
102
RTVSPropertyOp17
 70
     1
102
RTVSPropertyOp18
 70
     1
102
RTVSPropertyOp19
 70
     1
102
RTVSPropertyOp20
 70
     1
102
RTVSPropertyOp21
 70
     1
102
RTVSPropertyOp22
 70
     1
102
RTVSPropertyOp23
 70
     1
102
RTVSPropertyOp24
 70
     1
102
RTVSPropertyOp25
 70
     1
102
RTVSPropertyOp26
 70
     1
102
RTVSPropertyOp27
 70
     1
  0
XRECORD
  5
4A7
102
{ACAD_REACTORS
330
4A6
102
}
330
4A6
100
AcDbXrecord
280
     1
102
RTVSPropertyOp0
 70
     1
102
RTVSPropertyOp1
 70
     1
102
RTVSPropertyOp2
 70
     1
102
RTVSPropertyOp3
 70
     1
102
RTVSPropertyOp4
 70
     1
102
RTVSPropertyOp5
 70
     1
102
RTVSPropertyOp6
 70
     1
102
RTVSPropertyOp7
 70
     1
102
RTVSPropertyOp8
 70
     1
102
RTVSPropertyOp9
 70
     1
102
RTVSPropertyOp10
 70
     1
102
RTVSPropertyOp11
 70
     1
102
RTVSPropertyOp12
 70
     1
102
RTVSPropertyOp13
 70
     1
102
RTVSPropertyOp14
 70
     1
102
RTVSPropertyOp15
 70
     1
102
RTVSPropertyOp16
 70
     1
102
RTVSPropertyOp17
 70
     1
102
RTVSPropertyOp18
 70
     1
102
RTVSPropertyOp19
 70
     1
102
RTVSPropertyOp20
 70
     1
102
RTVSPropertyOp21
 70
     1
102
RTVSPropertyOp22
 70
     1
102
RTVSPropertyOp23
 70
     1
102
RTVSPropertyOp24
 70
     1
102
RTVSPropertyOp25
 70
     1
102
RTVSPropertyOp26
 70
     1
102
RTVSPropertyOp27
 70
     1
  0
XRECORD
  5
4AF
102
{ACAD_REACTORS
330
4AE
102
}
330
4AE
100
AcDbXrecord
280
     1
102
RTVSPropertyOp0
 70
     1
102
RTVSPropertyOp1
 70
     1
102
RTVSPropertyOp2
 70
     1
102
RTVSPropertyOp3
 70
     1
102
RTVSPropertyOp4
 70
     1
102
RTVSPropertyOp5
 70
     1
102
RTVSPropertyOp6
 70
     1
102
RTVSPropertyOp7
 70
     1
102
RTVSPropertyOp8
 70
     1
102
RTVSPropertyOp9
 70
     1
102
RTVSPropertyOp10
 70
     1
102
RTVSPropertyOp11
 70
     1
102
RTVSPropertyOp12
 70
     1
102
RTVSPropertyOp13
 70
     1
102
RTVSPropertyOp14
 70
     1
102
RTVSPropertyOp15
 70
     1
102
RTVSPropertyOp16
 70
     1
102
RTVSPropertyOp17
 70
     1
102
RTVSPropertyOp18
 70
     1
102
RTVSPropertyOp19
 70
     1
102
RTVSPropertyOp20
 70
     1
102
RTVSPropertyOp21
 70
     1
102
RTVSPropertyOp22
 70
     1
102
RTVSPropertyOp23
 70
     1
102
RTVSPropertyOp24
 70
     1
102
RTVSPropertyOp25
 70
     1
102
RTVSPropertyOp26
 70
     1
102
RTVSPropertyOp27
 70
     1
  0
XRECORD
  5
493
102
{ACAD_REACTORS
330
492
102
}
330
492
100
AcDbXrecord
280
     1
102
RTVSPropertyOp0
 70
     1
102
RTVSPropertyOp1
 70
     1
102
RTVSPropertyOp2
 70
     1
102
RTVSPropertyOp3
 70
     1
102
RTVSPropertyOp4
 70
     1
102
RTVSPropertyOp5
 70
     1
102
RTVSPropertyOp6
 70
     1
102
RTVSPropertyOp7
 70
     1
102
RTVSPropertyOp8
 70
     1
102
RTVSPropertyOp9
 70
     1
102
RTVSPropertyOp10
 70
     1
102
RTVSPropertyOp11
 70
     1
102
RTVSPropertyOp12
 70
     1
102
RTVSPropertyOp13
 70
     1
102
RTVSPropertyOp14
 70
     1
102
RTVSPropertyOp15
 70
     1
102
RTVSPropertyOp16
 70
     1
102
RTVSPropertyOp17
 70
     1
102
RTVSPropertyOp18
 70
     1
102
RTVSPropertyOp19
 70
     1
102
RTVSPropertyOp20
 70
     1
102
RTVSPropertyOp21
 70
     1
102
RTVSPropertyOp22
 70
     1
102
RTVSPropertyOp23
 70
     1
102
RTVSPropertyOp24
 70
     1
102
RTVSPropertyOp25
 70
     1
102
RTVSPropertyOp26
 70
     1
102
RTVSPropertyOp27
 70
     1
  0
XRECORD
  5
495
102
{ACAD_REACTORS
330
494
102
}
330
494
100
AcDbXrecord
280
     1
102
RTVSPropertyOp0
 70
     1
102
RTVSPropertyOp1
 70
     1
102
RTVSPropertyOp2
 70
     1
102
RTVSPropertyOp3
 70
     1
102
RTVSPropertyOp4
 70
     1
102
RTVSPropertyOp5
 70
     1
102
RTVSPropertyOp6
 70
     1
102
RTVSPropertyOp7
 70
     1
102
RTVSPropertyOp8
 70
     1
102
RTVSPropertyOp9
 70
     1
102
RTVSPropertyOp10
 70
     1
102
RTVSPropertyOp11
 70
     1
102
RTVSPropertyOp12
 70
     1
102
RTVSPropertyOp13
 70
     1
102
RTVSPropertyOp14
 70
     1
102
RTVSPropertyOp15
 70
     1
102
RTVSPropertyOp16
 70
     1
102
RTVSPropertyOp17
 70
     1
102
RTVSPropertyOp18
 70
     1
102
RTVSPropertyOp19
 70
     1
102
RTVSPropertyOp20
 70
     1
102
RTVSPropertyOp21
 70
     1
102
RTVSPropertyOp22
 70
     1
102
RTVSPropertyOp23
 70
     1
102
RTVSPropertyOp24
 70
     1
102
RTVSPropertyOp25
 70
     1
102
RTVSPropertyOp26
 70
     1
102
RTVSPropertyOp27
 70
     1
  0
XRECORD
  5
497
102
{ACAD_REACTORS
330
496
102
}
330
496
100
AcDbXrecord
280
     1
102
RTVSPropertyOp0
 70
     1
102
RTVSPropertyOp1
 70
     1
102
RTVSPropertyOp2
 70
     1
102
RTVSPropertyOp3
 70
     1
102
RTVSPropertyOp4
 70
     1
102
RTVSPropertyOp5
 70
     1
102
RTVSPropertyOp6
 70
     1
102
RTVSPropertyOp7
 70
     1
102
RTVSPropertyOp8
 70
     1
102
RTVSPropertyOp9
 70
     1
102
RTVSPropertyOp10
 70
     1
102
RTVSPropertyOp11
 70
     1
102
RTVSPropertyOp12
 70
     1
102
RTVSPropertyOp13
 70
     1
102
RTVSPropertyOp14
 70
     1
102
RTVSPropertyOp15
 70
     1
102
RTVSPropertyOp16
 70
     1
102
RTVSPropertyOp17
 70
     1
102
RTVSPropertyOp18
 70
     1
102
RTVSPropertyOp19
 70
     1
102
RTVSPropertyOp20
 70
     1
102
RTVSPropertyOp21
 70
     1
102
RTVSPropertyOp22
 70
     1
102
RTVSPropertyOp23
 70
     1
102
RTVSPropertyOp24
 70
     1
102
RTVSPropertyOp25
 70
     1
102
RTVSPropertyOp26
 70
     1
102
RTVSPropertyOp27
 70
     1
  0
XRECORD
  5
499
102
{ACAD_REACTORS
330
498
102
}
330
498
100
AcDbXrecord
280
     1
102
RTVSPropertyOp0
 70
     1
102
RTVSPropertyOp1
 70
     1
102
RTVSPropertyOp2
 70
     1
102
RTVSPropertyOp3
 70
     1
102
RTVSPropertyOp4
 70
     1
102
RTVSPropertyOp5
 70
     1
102
RTVSPropertyOp6
 70
     1
102
RTVSPropertyOp7
 70
     1
102
RTVSPropertyOp8
 70
     1
102
RTVSPropertyOp9
 70
     1
102
RTVSPropertyOp10
 70
     1
102
RTVSPropertyOp11
 70
     1
102
RTVSPropertyOp12
 70
     1
102
RTVSPropertyOp13
 70
     1
102
RTVSPropertyOp14
 70
     1
102
RTVSPropertyOp15
 70
     1
102
RTVSPropertyOp16
 70
     1
102
RTVSPropertyOp17
 70
     1
102
RTVSPropertyOp18
 70
     1
102
RTVSPropertyOp19
 70
     1
102
RTVSPropertyOp20
 70
     1
102
RTVSPropertyOp21
 70
     1
102
RTVSPropertyOp22
 70
     1
102
RTVSPropertyOp23
 70
     1
102
RTVSPropertyOp24
 70
     1
102
RTVSPropertyOp25
 70
     1
102
RTVSPropertyOp26
 70
     1
102
RTVSPropertyOp27
 70
     1
  0
XRECORD
  5
4AD
102
{ACAD_REACTORS
330
4AC
102
}
330
4AC
100
AcDbXrecord
280
     1
102
RTVSPropertyOp0
 70
     1
102
RTVSPropertyOp1
 70
     1
102
RTVSPropertyOp2
 70
     1
102
RTVSPropertyOp3
 70
     1
102
RTVSPropertyOp4
 70
     1
102
RTVSPropertyOp5
 70
     1
102
RTVSPropertyOp6
 70
     1
102
RTVSPropertyOp7
 70
     1
102
RTVSPropertyOp8
 70
     1
102
RTVSPropertyOp9
 70
     1
102
RTVSPropertyOp10
 70
     1
102
RTVSPropertyOp11
 70
     1
102
RTVSPropertyOp12
 70
     1
102
RTVSPropertyOp13
 70
     1
102
RTVSPropertyOp14
 70
     1
102
RTVSPropertyOp15
 70
     1
102
RTVSPropertyOp16
 70
     1
102
RTVSPropertyOp17
 70
     1
102
RTVSPropertyOp18
 70
     1
102
RTVSPropertyOp19
 70
     1
102
RTVSPropertyOp20
 70
     1
102
RTVSPropertyOp21
 70
     1
102
RTVSPropertyOp22
 70
     1
102
RTVSPropertyOp23
 70
     1
102
RTVSPropertyOp24
 70
     1
102
RTVSPropertyOp25
 70
     1
102
RTVSPropertyOp26
 70
     1
102
RTVSPropertyOp27
 70
     1
  0
XRECORD
  5
4AB
102
{ACAD_REACTORS
330
4AA
102
}
330
4AA
100
AcDbXrecord
280
     1
102
RTVSPropertyOp0
 70
     1
102
RTVSPropertyOp1
 70
     1
102
RTVSPropertyOp2
 70
     1
102
RTVSPropertyOp3
 70
     1
102
RTVSPropertyOp4
 70
     1
102
RTVSPropertyOp5
 70
     1
102
RTVSPropertyOp6
 70
     1
102
RTVSPropertyOp7
 70
     1
102
RTVSPropertyOp8
 70
     1
102
RTVSPropertyOp9
 70
     1
102
RTVSPropertyOp10
 70
     1
102
RTVSPropertyOp11
 70
     1
102
RTVSPropertyOp12
 70
     1
102
RTVSPropertyOp13
 70
     1
102
RTVSPropertyOp14
 70
     1
102
RTVSPropertyOp15
 70
     1
102
RTVSPropertyOp16
 70
     1
102
RTVSPropertyOp17
 70
     1
102
RTVSPropertyOp18
 70
     1
102
RTVSPropertyOp19
 70
     1
102
RTVSPropertyOp20
 70
     1
102
RTVSPropertyOp21
 70
     1
102
RTVSPropertyOp22
 70
     1
102
RTVSPropertyOp23
 70
     1
102
RTVSPropertyOp24
 70
     1
102
RTVSPropertyOp25
 70
     1
102
RTVSPropertyOp26
 70
     1
102
RTVSPropertyOp27
 70
     1
  0
ENDSEC
  0
EOF
