  0
SECTION
  2
HEADER
  9
$ACADVER
  1
AC1018
  9
$ACADMAINTVER
 70
   104
  9
$DWGCODEPAGE
  3
ANSI_1250
  9
$LASTSAVEDBY
  1
bonzo
  9
$INSBASE
 10
0.0
 20
0.0
 30
0.0
  9
$EXTMIN
 10
0.6098155516010771
 20
1.840681929306551
 30
0.0
  9
$EXTMAX
 10
11.18967482667842
 20
10.35028237328012
 30
0.0
  9
$LIMMIN
 10
0.0
 20
0.0
  9
$LIMMAX
 10
12.0
 20
9.0
  9
$ORTHOMODE
 70
     1
  9
$REGENMODE
 70
     1
  9
$FILLMODE
 70
     1
  9
$QTEXTMODE
 70
     0
  9
$MIRRTEXT
 70
     1
  9
$LTSCALE
 40
1.0
  9
$ATTMODE
 70
     1
  9
$TEXTSIZE
 40
0.2
  9
$TRACEWID
 40
0.05
  9
$TEXTSTYLE
  7
Standard
  9
$CLAYER
  8
0
  9
$CELTYPE
  6
ByLayer
  9
$CECOLOR
 62
   256
  9
$CELTSCALE
 40
1.0
  9
$DISPSILH
 70
     0
  9
$DIMSCALE
 40
0.02
  9
$DIMASZ
 40
3.0
  9
$DIMEXO
 40
20.0
  9
$DIMDLI
 40
0.0
  9
$DIMRND
 40
0.05
  9
$DIMDLE
 40
0.0
  9
$DIMEXE
 40
5.0
  9
$DIMTP
 40
0.0
  9
$DIMTM
 40
0.0
  9
$DIMTXT
 40
9.0
  9
$DIMCEN
 40
12.0
  9
$DIMTSZ
 40
0.0
  9
$DIMTOL
 70
     0
  9
$DIMLIM
 70
     0
  9
$DIMTIH
 70
     0
  9
$DIMTOH
 70
     0
  9
$DIMSE1
 70
     1
  9
$DIMSE2
 70
     1
  9
$DIMTAD
 70
     1
  9
$DIMZIN
 70
     1
  9
$DIMBLK
  1

  9
$DIMASO
 70
     1
  9
$DIMSHO
 70
     1
  9
$DIMPOST
  1

  9
$DIMAPOST
  1

  9
$DIMALT
 70
     0
  9
$DIMALTD
 70
     4
  9
$DIMALTF
 40
1.0
  9
$DIMLFAC
 40
1.0
  9
$DIMTOFL
 70
     1
  9
$DIMTVP
 40
0.0
  9
$DIMTIX
 70
     1
  9
$DIMSOXD
 70
     0
  9
$DIMSAH
 70
     1
  9
$DIMBLK1
  1
MAR-STRZ
  9
$DIMBLK2
  1
MAR-STRZ
  9
$DIMSTYLE
  2
AR SKALA 1-50
  9
$DIMCLRD
 70
   256
  9
$DIMCLRE
 70
   256
  9
$DIMCLRT
 70
   256
  9
$DIMTFAC
 40
0.01
  9
$DIMGAP
 40
6.0
  9
$DIMJUST
 70
     0
  9
$DIMSD1
 70
     0
  9
$DIMSD2
 70
     0
  9
$DIMTOLJ
 70
     1
  9
$DIMTZIN
 70
     0
  9
$DIMALTZ
 70
     0
  9
$DIMALTTZ
 70
     0
  9
$DIMUPT
 70
     0
  9
$DIMDEC
 70
     2
  9
$DIMTDEC
 70
     2
  9
$DIMALTU
 70
     2
  9
$DIMALTTD
 70
     4
  9
$DIMTXSTY
  7
AR 01 SWIS
  9
$DIMAUNIT
 70
     0
  9
$DIMADEC
 70
     1
  9
$DIMALTRND
 40
0.0
  9
$DIMAZIN
 70
     0
  9
$DIMDSEP
 70
    46
  9
$DIMATFIT
 70
     3
  9
$DIMFRAC
 70
     0
  9
$DIMLDRBLK
  1
MAR-STRZ
  9
$DIMLUNIT
 70
     2
  9
$DIMLWD
 70
    -2
  9
$DIMLWE
 70
    -2
  9
$DIMTMOVE
 70
     2
  9
$LUNITS
 70
     2
  9
$LUPREC
 70
     4
  9
$SKETCHINC
 40
0.1
  9
$FILLETRAD
 40
0.5
  9
$AUNITS
 70
     0
  9
$AUPREC
 70
     0
  9
$MENU
  1
.
  9
$ELEVATION
 40
0.0
  9
$PELEVATION
 40
0.0
  9
$THICKNESS
 40
0.0
  9
$LIMCHECK
 70
     0
  9
$CHAMFERA
 40
0.5
  9
$CHAMFERB
 40
0.5
  9
$CHAMFERC
 40
1.0
  9
$CHAMFERD
 40
0.0
  9
$SKPOLY
 70
     0
  9
$TDCREATE
 40
2455956.499359827
  9
$TDUCREATE
 40
2455956.416026493
  9
$TDUPDATE
 40
2459311.321591158
  9
$TDUUPDATE
 40
2459311.238257824
  9
$TDINDWG
 40
0.1919164583
  9
$TDUSRTIMER
 40
0.1919164583
  9
$USRTIMER
 70
     1
  9
$ANGBASE
 50
0.0
  9
$ANGDIR
 70
     0
  9
$PDMODE
 70
     0
  9
$PDSIZE
 40
0.0
  9
$PLINEWID
 40
0.0
  9
$SPLFRAME
 70
     0
  9
$SPLINETYPE
 70
     6
  9
$SPLINESEGS
 70
     8
  9
$HANDSEED
  5
9E91
  9
$SURFTAB1
 70
     6
  9
$SURFTAB2
 70
     6
  9
$SURFTYPE
 70
     6
  9
$SURFU
 70
     6
  9
$SURFV
 70
     6
  9
$UCSBASE
  2

  9
$UCSNAME
  2

  9
$UCSORG
 10
0.0
 20
0.0
 30
0.0
  9
$UCSXDIR
 10
1.0
 20
0.0
 30
0.0
  9
$UCSYDIR
 10
0.0
 20
1.0
 30
0.0
  9
$UCSORTHOREF
  2

  9
$UCSORTHOVIEW
 70
     0
  9
$UCSORGTOP
 10
0.0
 20
0.0
 30
0.0
  9
$UCSORGBOTTOM
 10
0.0
 20
0.0
 30
0.0
  9
$UCSORGLEFT
 10
0.0
 20
0.0
 30
0.0
  9
$UCSORGRIGHT
 10
0.0
 20
0.0
 30
0.0
  9
$UCSORGFRONT
 10
0.0
 20
0.0
 30
0.0
  9
$UCSORGBACK
 10
0.0
 20
0.0
 30
0.0
  9
$PUCSBASE
  2

  9
$PUCSNAME
  2

  9
$PUCSORG
 10
0.0
 20
0.0
 30
0.0
  9
$PUCSXDIR
 10
1.0
 20
0.0
 30
0.0
  9
$PUCSYDIR
 10
0.0
 20
1.0
 30
0.0
  9
$PUCSORTHOREF
  2

  9
$PUCSORTHOVIEW
 70
     0
  9
$PUCSORGTOP
 10
0.0
 20
0.0
 30
0.0
  9
$PUCSORGBOTTOM
 10
0.0
 20
0.0
 30
0.0
  9
$PUCSORGLEFT
 10
0.0
 20
0.0
 30
0.0
  9
$PUCSORGRIGHT
 10
0.0
 20
0.0
 30
0.0
  9
$PUCSORGFRONT
 10
0.0
 20
0.0
 30
0.0
  9
$PUCSORGBACK
 10
0.0
 20
0.0
 30
0.0
  9
$USERI1
 70
     0
  9
$USERI2
 70
     0
  9
$USERI3
 70
     0
  9
$USERI4
 70
     0
  9
$USERI5
 70
     0
  9
$USERR1
 40
0.0
  9
$USERR2
 40
0.0
  9
$USERR3
 40
0.0
  9
$USERR4
 40
0.0
  9
$USERR5
 40
0.0
  9
$WORLDVIEW
 70
     1
  9
$SHADEDGE
 70
     3
  9
$SHADEDIF
 70
    70
  9
$TILEMODE
 70
     1
  9
$MAXACTVP
 70
    64
  9
$PINSBASE
 10
0.0
 20
0.0
 30
0.0
  9
$PLIMCHECK
 70
     0
  9
$PEXTMIN
 10
6.561544945354853
 20
3.282189374834842
 30
0.0
  9
$PEXTMAX
 10
416.7133315898103
 20
290.5875349075164
 30
0.0
  9
$PLIMMIN
 10
3.386557152386103
 20
0.1071894225185588
  9
$PLIMMAX
 10
423.5448823476986
 20
297.1601984557217
  9
$UNITMODE
 70
     0
  9
$VISRETAIN
 70
     1
  9
$PLINEGEN
 70
     0
  9
$PSLTSCALE
 70
     0
  9
$TREEDEPTH
 70
  3020
  9
$CMLSTYLE
  2
Standard
  9
$CMLJUST
 70
     0
  9
$CMLSCALE
 40
1.0
  9
$PROXYGRAPHICS
 70
     1
  9
$MEASUREMENT
 70
     0
  9
$CELWEIGHT
370
    -1
  9
$ENDCAPS
280
     0
  9
$JOINSTYLE
280
     0
  9
$LWDISPLAY
290
     0
  9
$INSUNITS
 70
     1
  9
$HYPERLINKBASE
  1

  9
$STYLESHEET
  1

  9
$XEDIT
290
     1
  9
$CEPSNTYPE
380
     0
  9
$PSTYLEMODE
290
     1
  9
$FINGERPRINTGUID
  2
{1B330B5B-CE04-4EC8-B886-8C8BFC3A02BF}
  9
$VERSIONGUID
  2
{A2942D20-E51C-4F38-A497-510B1F54096B}
  9
$EXTNAMES
290
     1
  9
$PSVPSCALE
 40
0.0
  9
$OLESTARTUP
290
     0
  9
$SORTENTS
280
   127
  9
$INDEXCTL
280
     0
  9
$HIDETEXT
280
     1
  9
$XCLIPFRAME
290
     0
  9
$HALOGAP
280
     0
  9
$OBSCOLOR
 70
   257
  9
$OBSLTYPE
280
     0
  9
$INTERSECTIONDISPLAY
280
     0
  9
$INTERSECTIONCOLOR
 70
   257
  9
$DIMASSOC
280
     2
  9
$PROJECTNAME
  1

  0
ENDSEC
  0
SECTION
  2
CLASSES
  0
CLASS
  1
ACDBDICTIONARYWDFLT
  2
AcDbDictionaryWithDefault
  3
ObjectDBX Classes
 90
        0
 91
        1
280
     0
281
     0
  0
CLASS
  1
VISUALSTYLE
  2
AcDbVisualStyle
  3
ObjectDBX Classes
 90
     4095
 91
       16
280
     0
281
     0
  0
CLASS
  1
MATERIAL
  2
AcDbMaterial
  3
ObjectDBX Classes
 90
     1153
 91
        3
280
     0
281
     0
  0
CLASS
  1
DICTIONARYVAR
  2
AcDbDictionaryVar
  3
ObjectDBX Classes
 90
        0
 91
        9
280
     0
281
     0
  0
CLASS
  1
TABLESTYLE
  2
AcDbTableStyle
  3
ObjectDBX Classes
 90
     4095
 91
        1
280
     0
281
     0
  0
CLASS
  1
SORTENTSTABLE
  2
AcDbSortentsTable
  3
ObjectDBX Classes
 90
        0
 91
        3
280
     0
281
     0
  0
CLASS
  1
DIMASSOC
  2
AcDbDimAssoc
  3
"AcDbDimAssoc|Product Desc:     AcDim ARX App For Dimension|Company:          Autodesk, Inc.|WEB Address:      www.autodesk.com"
 90
        0
 91
        0
280
     0
281
     0
  0
CLASS
  1
SCALE
  2
AcDbScale
  3
ObjectDBX Classes
 90
     1153
 91
       33
280
     0
281
     0
  0
CLASS
  1
MLEADERSTYLE
  2
AcDbMLeaderStyle
  3
ACDB_MLEADERSTYLE_CLASS
 90
     4095
 91
        1
280
     0
281
     0
  0
CLASS
  1
CELLSTYLEMAP
  2
AcDbCellStyleMap
  3
ObjectDBX Classes
 90
     1152
 91
        2
280
     0
281
     0
  0
ENDSEC
  0
SECTION
  2
TABLES
  0
TABLE
  2
VPORT
  5
8
102
{ACAD_XDICTIONARY
360
84C
102
}
330
0
100
AcDbSymbolTable
 70
     1
  0
VPORT
  5
29
330
8
100
AcDbSymbolTableRecord
100
AcDbViewportTableRecord
  2
*Active
 70
     0
 10
0.0
 20
0.0
 11
1.0
 21
1.0
 12
5.919569698578515
 22
6.087845270616654
 13
0.0
 23
0.0
 14
0.5
 24
0.5
 15
0.5
 25
0.5
 16
0.0
 26
0.0
 36
1.0
 17
0.0
 27
0.0
 37
-1000.0
 40
10.35933460751489
 41
2.060556464811783
 42
50.0
 43
4.148984367261674
 44
9.217858496371269
 50
0.0
 51
0.0
 71
     0
 72
   100
 73
     1
 74
     3
 75
     0
 76
     0
 77
     0
 78
     0
281
     0
 65
     1
110
0.0
120
0.0
130
0.0
111
1.0
121
0.0
131
0.0
112
0.0
122
1.0
132
0.0
 79
     0
146
0.0
  0
ENDTAB
  0
TABLE
  2
LTYPE
  5
5
330
0
100
AcDbSymbolTable
 70
     2
  0
LTYPE
  5
14
330
5
100
AcDbSymbolTableRecord
100
AcDbLinetypeTableRecord
  2
ByBlock
 70
     0
  3

 72
    65
 73
     0
 40
0.0
  0
LTYPE
  5
15
330
5
100
AcDbSymbolTableRecord
100
AcDbLinetypeTableRecord
  2
ByLayer
 70
     0
  3

 72
    65
 73
     0
 40
0.0
  0
LTYPE
  5
16
330
5
100
AcDbSymbolTableRecord
100
AcDbLinetypeTableRecord
  2
Continuous
 70
     0
  3
Solid line
 72
    65
 73
     0
 40
0.0
  0
LTYPE
  5
886
330
5
100
AcDbSymbolTableRecord
100
AcDbLinetypeTableRecord
  2
DASHED
 70
     0
  3
Dashed __ __ __ __ __ __ __ __ __ __ __ __ __ _
 72
    65
 73
     2
 40
0.75
 49
0.5
 74
     0
 49
-0.25
 74
     0
  0
ENDTAB
  0
TABLE
  2
LAYER
  5
2
102
{ACAD_XDICTIONARY
360
7D1
102
}
330
0
100
AcDbSymbolTable
 70
     4
  0
LAYER
  5
10
102
{ACAD_XDICTIONARY
360
8C9A
102
}
330
2
100
AcDbSymbolTableRecord
100
AcDbLayerTableRecord
  2
0
 70
     0
 62
     7
  6
Continuous
370
    80
390
F
  0
LAYER
  5
87B
102
{ACAD_XDICTIONARY
360
8C9C
102
}
330
2
100
AcDbSymbolTableRecord
100
AcDbLayerTableRecord
  2
STREFA BEZPIECZEŃSTWA
 70
     0
 62
     7
  6
DASHED
370
    80
390
F
1001
AcAecLayerStandard
1000

1000

  0
LAYER
  5
87D
102
{ACAD_XDICTIONARY
360
8C9E
102
}
330
2
100
AcDbSymbolTableRecord
100
AcDbLayerTableRecord
  2
WYMIAR
 70
     0
 62
     7
  6
Continuous
370
    80
390
F
1001
AcAecLayerStandard
1000

1000

  0
LAYER
  5
8CC
330
2
100
AcDbSymbolTableRecord
100
AcDbLayerTableRecord
  2
Defpoints
 70
     0
 62
     7
  6
Continuous
290
     0
370
     5
390
F
1001
RAK
1000
{ACET-LAYISO
1070
     0
1070
     7
1000
Continuous
1071
        5
1071
        0
1005
F
1000
ACET-LAYISO}
  0
ENDTAB
  0
TABLE
  2
STYLE
  5
3
330
0
100
AcDbSymbolTable
 70
     2
  0
STYLE
  5
11
330
3
100
AcDbSymbolTableRecord
100
AcDbTextStyleTableRecord
  2
Standard
 70
     0
 40
0.0
 41
1.0
 50
0.0
 71
     0
 42
0.2
  3
txt
  4

  0
STYLE
  5
8CE
330
3
100
AcDbSymbolTableRecord
100
AcDbTextStyleTableRecord
  2
AR 01 SWIS
 70
     0
 40
0.0
 41
1.0
 50
0.0
 71
     0
 42
55.0
  3

  4

1001
ACAD
1000
Swis721 Cn BT
1071
       34
  0
ENDTAB
  0
TABLE
  2
VIEW
  5
6
330
0
100
AcDbSymbolTable
 70
     0
  0
ENDTAB
  0
TABLE
  2
UCS
  5
7
330
0
100
AcDbSymbolTable
 70
     0
  0
ENDTAB
  0
TABLE
  2
APPID
  5
9
330
0
100
AcDbSymbolTable
 70
     9
  0
APPID
  5
12
330
9
100
AcDbSymbolTableRecord
100
AcDbRegAppTableRecord
  2
ACAD
 70
     0
  0
APPID
  5
7CB
330
9
100
AcDbSymbolTableRecord
100
AcDbRegAppTableRecord
  2
ACAD_PSEXT
 70
     0
  0
APPID
  5
875
330
9
100
AcDbSymbolTableRecord
100
AcDbRegAppTableRecord
  2
ACAD_EXEMPT_FROM_CAD_STANDARDS
 70
     0
  0
APPID
  5
87C
330
9
100
AcDbSymbolTableRecord
100
AcDbRegAppTableRecord
  2
AcAecLayerStandard
 70
     0
  0
APPID
  5
8D4
330
9
100
AcDbSymbolTableRecord
100
AcDbRegAppTableRecord
  2
RAK
 70
     0
  0
APPID
  5
8D5
330
9
100
AcDbSymbolTableRecord
100
AcDbRegAppTableRecord
  2
ACAD_DSTYLE_DIMJOGGED_JOGANGLE_SYMBOL
 70
     0
  0
APPID
  5
8D6
330
9
100
AcDbSymbolTableRecord
100
AcDbRegAppTableRecord
  2
ACAD_DSTYLE_DIMJAG
 70
     0
  0
APPID
  5
8D7
330
9
100
AcDbSymbolTableRecord
100
AcDbRegAppTableRecord
  2
ACAD_DSTYLE_DIMTALN
 70
     0
  0
APPID
  5
8C8C
330
9
100
AcDbSymbolTableRecord
100
AcDbRegAppTableRecord
  2
ACAD_MLEADERVER
 70
     0
  0
ENDTAB
  0
TABLE
  2
DIMSTYLE
  5
A
330
0
100
AcDbSymbolTable
 70
     2
100
AcDbDimStyleTable
 71
     1
340
8CF
  0
DIMSTYLE
105
8CF
102
{ACAD_REACTORS
330
9BD4
330
9BD5
102
}
330
A
100
AcDbSymbolTableRecord
100
AcDbDimStyleTableRecord
  2
AR SKALA 1-50
 70
     0
 40
0.02
 41
3.0
 42
20.0
 43
0.0
 44
5.0
 45
0.05
 73
     0
 74
     0
 75
     1
 76
     1
 77
     1
 78
     1
140
9.0
141
12.0
143
1.0
146
0.01
147
6.0
171
     4
172
     1
173
     1
174
     1
176
   256
177
   256
178
   256
179
     1
271
     2
272
     2
274
     4
279
     2
340
8CE
341
8BC
343
8BC
344
8BC
  0
DIMSTYLE
105
A46
330
A
100
AcDbSymbolTableRecord
100
AcDbDimStyleTableRecord
  2
Standard
 70
     0
340
11
  0
ENDTAB
  0
TABLE
  2
BLOCK_RECORD
  5
1
330
0
100
AcDbSymbolTable
 70
     5
  0
BLOCK_RECORD
  5
1F
102
{ACAD_XDICTIONARY
360
5F8
102
}
330
1
100
AcDbSymbolTableRecord
100
AcDbBlockTableRecord
  2
*Model_Space
340
22
  0
BLOCK_RECORD
  5
1B
330
1
100
AcDbSymbolTableRecord
100
AcDbBlockTableRecord
  2
*Paper_Space
340
1E
  0
BLOCK_RECORD
  5
8BC
330
1
100
AcDbSymbolTableRecord
100
AcDbBlockTableRecord
  2
MAR-STRZ
340
0
310
2800000020000000200000000100080000000000000400000000000000000000000000000000000000000000000080000080000000808000800000008000800080800000C0C0C000C0DCC000F0CAA6000020400000206000002080000020A0000020C0000020E00000400000004020000040400000406000004080000040A0
310
000040C0000040E00000600000006020000060400000606000006080000060A0000060C0000060E00000800000008020000080400000806000008080000080A0000080C0000080E00000A0000000A0200000A0400000A0600000A0800000A0A00000A0C00000A0E00000C0000000C0200000C0400000C0600000C0800000C0
310
A00000C0C00000C0E00000E0000000E0200000E0400000E0600000E0800000E0A00000E0C00000E0E00040000000400020004000400040006000400080004000A0004000C0004000E00040200000402020004020400040206000402080004020A0004020C0004020E000404000004040200040404000404060004040800040
310
40A0004040C0004040E00040600000406020004060400040606000406080004060A0004060C0004060E00040800000408020004080400040806000408080004080A0004080C0004080E00040A0000040A0200040A0400040A0600040A0800040A0A00040A0C00040A0E00040C0000040C0200040C0400040C0600040C08000
310
40C0A00040C0C00040C0E00040E0000040E0200040E0400040E0600040E0800040E0A00040E0C00040E0E00080000000800020008000400080006000800080008000A0008000C0008000E00080200000802020008020400080206000802080008020A0008020C0008020E00080400000804020008040400080406000804080
310
008040A0008040C0008040E00080600000806020008060400080606000806080008060A0008060C0008060E00080800000808020008080400080806000808080008080A0008080C0008080E00080A0000080A0200080A0400080A0600080A0800080A0A00080A0C00080A0E00080C0000080C0200080C0400080C0600080C0
310
800080C0A00080C0C00080C0E00080E0000080E0200080E0400080E0600080E0800080E0A00080E0C00080E0E000C0000000C0002000C0004000C0006000C0008000C000A000C000C000C000E000C0200000C0202000C0204000C0206000C0208000C020A000C020C000C020E000C0400000C0402000C0404000C0406000C0
310
408000C040A000C040C000C040E000C0600000C0602000C0604000C0606000C0608000C060A000C060C000C060E000C0800000C0802000C0804000C0806000C0808000C080A000C080C000C080E000C0A00000C0A02000C0A04000C0A06000C0A08000C0A0A000C0A0C000C0A0E000C0C00000C0C02000C0C04000C0C06000
310
C0C08000C0C0A000F0FBFF00A4A0A000808080000000FF0000FF000000FFFF00FF000000FF00FF00FFFF0000FFFFFF00000000000000000000000000000000000000000000000000000000000000000000000000000000000000000000000000FF000000000000000000000000000000000000000000000000000000000000
310
00FF00000000000000000000000000000000000000000000000000000000000000FF00000000000000000000000000000000000000000000000000000000000000FF00000000000000000000000000000000000000000000000000000000000000FF000000000000000000000000000000000000000000F900000000000000
310
0000FF00000000000000000000000000000000000000000000F90000000000000000FF0000000000000000000000000000000000000000000000F900000000000000FF000000000000000000000000000000000000000000000000F9000000000000FF00000000000000000000000000000000000000000000000000F90000
310
000000FF0000000000000000000000000000000000000000000000000000F900000000FF000000000000000000000000000000000000000000000000000000F9000000FF00000000000000000000000000000000000000000000000000000000F90000FF000000000000000000000000000000000000000000000000000000
310
0000F900FF000000000000000000000000000000000000000000000000000000000000F9FF00000000000000000000000000000000000000000000FFFFFFFFFFFFFFFFFFFFFFFFFFFFFFFFFFFF0000000000000000000000000000000000000000000000FFF900000000000000000000000000000000000000000000000000
310
0000000000FF00F90000000000000000000000000000000000000000000000000000000000FF0000F900000000000000000000000000000000000000000000000000000000FF000000F9000000000000000000000000000000000000000000000000000000FF00000000F90000000000000000000000000000000000000000
310
000000000000FF0000000000F900000000000000000000000000000000000000000000000000FF000000000000F9000000000000000000000000000000000000000000000000FF00000000000000F90000000000000000000000000000000000000000000000FF0000000000000000F9000000000000000000000000000000
310
00000000000000FF00000000000000000000000000000000000000000000000000000000000000FF00000000000000000000000000000000000000000000000000000000000000FF00000000000000000000000000000000000000000000000000000000000000FF0000000000000000000000000000000000000000000000
310
0000000000000000FF0000000000000000000000000000000000000000000000000000000000000000000000000000000000000000000000
102
{BLKREFS
331
9BED
331
9BEE
331
9BF4
331
9BF5
102
}
  0
BLOCK_RECORD
  5
8D3F
102
{ACAD_XDICTIONARY
360
8D7B
102
}
330
1
100
AcDbSymbolTableRecord
100
AcDbBlockTableRecord
  2
A$C7986418B
340
0
1001
ACAD
1000
DesignCenter Data
1002
{
1070
     1
1070
     1
1002
}
  0
BLOCK_RECORD
  5
91D8
102
{ACAD_XDICTIONARY
360
91DA
102
}
330
1
100
AcDbSymbolTableRecord
100
AcDbBlockTableRecord
  2
A$C48B517A9
340
0
1001
ACAD
1000
DesignCenter Data
1002
{
1070
     1
1070
     1
1002
}
  0
BLOCK_RECORD
  5
9BD8
330
1
100
AcDbSymbolTableRecord
100
AcDbBlockTableRecord
  2
*D3
340
0
  0
BLOCK_RECORD
  5
9BE2
330
1
100
AcDbSymbolTableRecord
100
AcDbBlockTableRecord
  2
*D4
340
0
  0
ENDTAB
  0
ENDSEC
  0
SECTION
  2
BLOCKS
  0
BLOCK
  5
20
330
1F
100
AcDbEntity
  8
0
100
AcDbBlockBegin
  2
*Model_Space
 70
     0
 10
0.0
 20
0.0
 30
0.0
  3
*Model_Space
  1

  0
ENDBLK
  5
21
330
1F
100
AcDbEntity
  8
0
100
AcDbBlockEnd
  0
BLOCK
  5
1C
330
1B
100
AcDbEntity
 67
     1
  8
0
100
AcDbBlockBegin
  2
*Paper_Space
 70
     0
 10
0.0
 20
0.0
 30
0.0
  3
*Paper_Space
  1

  0
ENDBLK
  5
1D
330
1B
100
AcDbEntity
 67
     1
  8
0
100
AcDbBlockEnd
  0
BLOCK
  5
8BD
330
8BC
100
AcDbEntity
  8
0
100
AcDbBlockBegin
  2
MAR-STRZ
 70
     0
 10
0.0
 20
0.0
 30
0.0
  3
MAR-STRZ
  1

  0
LINE
  5
8BE
330
8BC
100
AcDbEntity
  8
0
100
AcDbLine
 10
0.0
 20
2.299999999999272
 30
0.0
 11
0.0
 21
-2.299999999999272
 31
0.0
  0
LINE
  5
8BF
330
8BC
100
AcDbEntity
  8
0
 62
    10
100
AcDbLine
 10
1.5
 20
1.5
 30
0.0
 11
-1.5
 21
-1.5
 31
0.0
  0
LINE
  5
8C0
330
8BC
100
AcDbEntity
  8
0
100
AcDbLine
 10
1.399999999999636
 20
0.0
 30
0.0
 11
-1.399999999999636
 21
0.0
 31
0.0
  0
ENDBLK
  5
8C1
330
8BC
100
AcDbEntity
  8
0
100
AcDbBlockEnd
  0
BLOCK
  5
8D7D
330
8D3F
100
AcDbEntity
  8
0
100
AcDbBlockBegin
  2
A$C7986418B
 70
     0
 10
0.0
 20
0.0
 30
0.0
  3
A$C7986418B
  1

  0
LINE
  5
8D40
330
8D3F
100
AcDbEntity
  8
0
100
AcDbLine
 10
1.200000007221493
 20
0.5994216238885475
 30
0.0
 11
1.200000007221493
 21
0.0740391323206158
 31
0.0
  0
LINE
  5
8D41
330
8D3F
100
AcDbEntity
  8
0
100
AcDbLine
 10
0.1000000072214355
 20
0.5994216238890254
 30
0.0
 11
0.1000000072214355
 21
0.6025801467617385
 31
0.0
  0
LINE
  5
8D42
330
8D3F
100
AcDbEntity
  8
0
100
AcDbLine
 10
1.200000007221493
 20
0.6025801467612677
 30
0.0
 11
1.200000007221493
 21
0.5994216238885475
 31
0.0
  0
LINE
  5
8D43
330
8D3F
100
AcDbEntity
  8
0
100
AcDbLine
 10
0.1000000072214391
 20
0.0740391323210794
 30
0.0
 11
0.1000000072214355
 21
0.5994216238890254
 31
0.0
  0
LINE
  5
8D44
330
8D3F
100
AcDbEntity
  8
0
100
AcDbLine
 10
1.200000007221493
 20
0.0508825003517952
 30
0.0
 11
1.200000007221493
 21
0.0740391323206158
 31
0.0
  0
LINE
  5
8D45
330
8D3F
100
AcDbEntity
  8
0
100
AcDbLine
 10
0.1000000072214391
 20
0.0508825003522659
 30
0.0
 11
0.1000000072214391
 21
0.0740391323210794
 31
0.0
  0
LINE
  5
8D46
330
8D3F
100
AcDbEntity
  8
0
100
AcDbLine
 10
1.100000007221495
 20
0.6311617741716109
 30
0.0
 11
1.100000007221485
 21
0.0508825003517934
 31
0.0
  0
LINE
  5
8D47
330
8D3F
100
AcDbEntity
  8
0
100
AcDbLine
 10
1.000000007221487
 20
0.0508825003517934
 30
0.0
 11
1.000000007221487
 21
0.6311617741716109
 31
0.0
  0
LINE
  5
8D48
330
8D3F
100
AcDbEntity
  8
0
100
AcDbLine
 10
0.9000000072214859
 20
0.6311617741716109
 30
0.0
 11
0.9000000072214859
 21
0.0508825003517934
 31
0.0
  0
ARC
  5
8D49
330
8D3F
100
AcDbEntity
  8
0
100
AcDbCircle
 10
1.150000007221489
 20
0.0500076644303569
 30
0.0
 40
0.0500076527932462
100
AcDbArc
 50
178.9976141588701
 51
1.002385841130862
  0
ARC
  5
8D4A
330
8D3F
100
AcDbEntity
  8
0
100
AcDbCircle
 10
1.050000007221481
 20
0.0500076644303249
 30
0.0
 40
0.0500076527932462
100
AcDbArc
 50
178.9976141588701
 51
1.002385841130964
  0
ARC
  5
8D4B
330
8D3F
100
AcDbEntity
  8
0
100
AcDbCircle
 10
0.9500000072214724
 20
0.0500076644303249
 30
0.0
 40
0.0500076527932462
100
AcDbArc
 50
178.9976141588701
 51
1.002385841130964
  0
LINE
  5
8D4C
330
8D3F
100
AcDbEntity
  8
0
100
AcDbLine
 10
0.8000000072214845
 20
0.6311617741716092
 30
0.0
 11
0.8000000072214774
 21
0.0508825003517934
 31
0.0
  0
LINE
  5
8D4D
330
8D3F
100
AcDbEntity
  8
0
100
AcDbLine
 10
0.7000000072214761
 20
0.0508825003517934
 30
0.0
 11
0.7000000072214761
 21
0.6311617741716092
 31
0.0
  0
LINE
  5
8D4E
330
8D3F
100
AcDbEntity
  8
0
100
AcDbLine
 10
0.6000000072214747
 20
0.6311617741716092
 30
0.0
 11
0.6000000072214747
 21
0.0508825003517934
 31
0.0
  0
ARC
  5
8D4F
330
8D3F
100
AcDbEntity
  8
0
100
AcDbCircle
 10
0.8500000072214817
 20
0.0500076644303569
 30
0.0
 40
0.0500076527932462
100
AcDbArc
 50
178.9976141588701
 51
1.002385841130964
  0
ARC
  5
8D50
330
8D3F
100
AcDbEntity
  8
0
100
AcDbCircle
 10
0.7500000072214697
 20
0.0500076644303249
 30
0.0
 40
0.0500076527932462
100
AcDbArc
 50
178.9976141588701
 51
1.002385841130964
  0
ARC
  5
8D51
330
8D3F
100
AcDbEntity
  8
0
100
AcDbCircle
 10
0.6500000072214612
 20
0.0500076644303249
 30
0.0
 40
0.0500076527932462
100
AcDbArc
 50
178.9976141588701
 51
1.002385841130964
  0
LINE
  5
8D52
330
8D3F
100
AcDbEntity
  8
0
100
AcDbLine
 10
0.500000007221459
 20
0.6311617741715772
 30
0.0
 11
0.5000000072214484
 21
0.0508825003517615
 31
0.0
  0
LINE
  5
8D53
330
8D3F
100
AcDbEntity
  8
0
100
AcDbLine
 10
0.4000000072214505
 20
0.0508825003517615
 30
0.0
 11
0.4000000072214505
 21
0.6311617741715772
 31
0.0
  0
LINE
  5
8D54
330
8D3F
100
AcDbEntity
  8
0
100
AcDbLine
 10
0.300000007221449
 20
0.6311617741715772
 30
0.0
 11
0.300000007221449
 21
0.0508825003517615
 31
0.0
  0
ARC
  5
8D55
330
8D3F
100
AcDbEntity
  8
0
100
AcDbCircle
 10
0.5500000072214526
 20
0.0500076644303231
 30
0.0
 40
0.0500076527932462
100
AcDbArc
 50
178.9976141588701
 51
1.002385841130964
  0
ARC
  5
8D56
330
8D3F
100
AcDbEntity
  8
0
100
AcDbCircle
 10
0.4500000072214441
 20
0.0500076644302929
 30
0.0
 40
0.0500076527932462
100
AcDbArc
 50
178.9976141588701
 51
1.002385841130964
  0
ARC
  5
8D57
330
8D3F
100
AcDbEntity
  8
0
100
AcDbCircle
 10
0.3500000072214355
 20
0.0500076644302912
 30
0.0
 40
0.0500076527932462
100
AcDbArc
 50
178.9976141588701
 51
1.002385841130964
  0
LINE
  5
8D58
330
8D3F
100
AcDbEntity
  8
0
100
AcDbLine
 10
0.2000000072214476
 20
0.6311617741715772
 30
0.0
 11
0.2000000072214405
 21
0.0508825003517597
 31
0.0
  0
LINE
  5
8D59
330
8D3F
100
AcDbEntity
  8
0
100
AcDbLine
 10
0.1000000072214391
 20
0.0508825003517597
 30
0.0
 11
0.1000000072214391
 21
0.6311617741715772
 31
0.0
  0
ARC
  5
8D5A
330
8D3F
100
AcDbEntity
  8
0
100
AcDbCircle
 10
0.2500000072214448
 20
0.0500076644303214
 30
0.0
 40
0.0500076527932462
100
AcDbArc
 50
178.9976141588701
 51
1.002385841130964
  0
ARC
  5
8D5B
330
8D3F
100
AcDbEntity
  8
0
100
AcDbCircle
 10
0.1500000072214327
 20
0.0500076644302912
 30
0.0
 40
0.0500076527932462
100
AcDbArc
 50
178.9976141588701
 51
1.002385841130964
  0
LINE
  5
8D5C
330
8D3F
100
AcDbEntity
  8
0
100
AcDbLine
 10
1.300000007221502
 20
0.5994216238885564
 30
0.0
 11
1.300000007221502
 21
0.0740391323206247
 31
0.0
  0
ARC
  5
8D5D
330
8D3F
100
AcDbEntity
  8
0
100
AcDbCircle
 10
1.250000007221498
 20
0.0500076644303658
 30
0.0
 40
0.0500076527932462
100
AcDbArc
 50
178.9976141588701
 51
1.002385841130862
  0
LINE
  5
8D5E
330
8D3F
100
AcDbEntity
  8
0
100
AcDbLine
 10
0.0000000072214412
 20
0.074039132321623
 30
0.0
 11
0.0000000072214377
 21
0.5994216238895689
 31
0.0
  0
LINE
  5
8D5F
330
8D3F
100
AcDbEntity
  8
0
100
AcDbLine
 10
0.0000000072214412
 20
0.0508825003523033
 30
0.0
 11
0.0000000072214412
 21
0.6311617741721208
 31
0.0
  0
ARC
  5
8D60
330
8D3F
100
AcDbEntity
  8
0
100
AcDbCircle
 10
0.0500000072214348
 20
0.0500076644308347
 30
0.0
 40
0.0500076527932462
100
AcDbArc
 50
178.9976141588701
 51
1.002385841130964
  0
CIRCLE
  5
8D61
330
8D3F
100
AcDbEntity
  8
0
100
AcDbCircle
 10
1.241737978032126
 20
0.5172195259370334
 30
0.0
 40
0.01089627287962
  0
CIRCLE
  5
8D62
330
8D3F
100
AcDbEntity
  8
0
100
AcDbCircle
 10
1.143762261992975
 20
0.5172195259370334
 30
0.0
 40
0.01089627287962
  0
CIRCLE
  5
8D63
330
8D3F
100
AcDbEntity
  8
0
100
AcDbCircle
 10
1.045786545953827
 20
0.5172195259370334
 30
0.0
 40
0.01089627287962
  0
CIRCLE
  5
8D64
330
8D3F
100
AcDbEntity
  8
0
100
AcDbCircle
 10
0.9450893041072312
 20
0.5172195259370334
 30
0.0
 40
0.01089627287962
  0
CIRCLE
  5
8D65
330
8D3F
100
AcDbEntity
  8
0
100
AcDbCircle
 10
0.8471135880680797
 20
0.5172195259370334
 30
0.0
 40
0.01089627287962
  0
CIRCLE
  5
8D66
330
8D3F
100
AcDbEntity
  8
0
100
AcDbCircle
 10
0.7491378720289284
 20
0.5172195259370334
 30
0.0
 40
0.01089627287962
  0
CIRCLE
  5
8D67
330
8D3F
100
AcDbEntity
  8
0
100
AcDbCircle
 10
0.648440630182332
 20
0.5172195259370334
 30
0.0
 40
0.01089627287962
  0
CIRCLE
  5
8D68
330
8D3F
100
AcDbEntity
  8
0
100
AcDbCircle
 10
0.5477433658508489
 20
0.5172195259370334
 30
0.0
 40
0.01089627287962
  0
CIRCLE
  5
8D69
330
8D3F
100
AcDbEntity
  8
0
100
AcDbCircle
 10
0.4470461015193657
 20
0.5172195259370334
 30
0.0
 40
0.01089627287962
  0
CIRCLE
  5
8D6A
330
8D3F
100
AcDbEntity
  8
0
100
AcDbCircle
 10
0.349070407965101
 20
0.5172195259370334
 30
0.0
 40
0.01089627287962
  0
CIRCLE
  5
8D6B
330
8D3F
100
AcDbEntity
  8
0
100
AcDbCircle
 10
0.2490461163150641
 20
0.5170410508585981
 30
0.0
 40
0.01089627287962
  0
CIRCLE
  5
8D6C
330
8D3F
100
AcDbEntity
  8
0
100
AcDbCircle
 10
0.1505589590259255
 20
0.5213270738704488
 30
0.0
 40
0.01089627287962
  0
CIRCLE
  5
8D6D
330
8D3F
100
AcDbEntity
  8
0
100
AcDbCircle
 10
0.0499307907535815
 20
0.523470061547922
 30
0.0
 40
0.01089627287962
  0
CIRCLE
  5
8D6E
330
8D3F
100
AcDbEntity
  8
0
100
AcDbCircle
 10
1.243548730988432
 20
0.1564139261105417
 30
0.0
 40
0.01089627287962
  0
CIRCLE
  5
8D6F
330
8D3F
100
AcDbEntity
  8
0
100
AcDbCircle
 10
1.145573014949281
 20
0.1564139261105417
 30
0.0
 40
0.01089627287962
  0
CIRCLE
  5
8D70
330
8D3F
100
AcDbEntity
  8
0
100
AcDbCircle
 10
1.047597298910133
 20
0.1564139261105417
 30
0.0
 40
0.01089627287962
  0
CIRCLE
  5
8D71
330
8D3F
100
AcDbEntity
  8
0
100
AcDbCircle
 10
0.9469000570635373
 20
0.1564139261105417
 30
0.0
 40
0.01089627287962
  0
CIRCLE
  5
8D72
330
8D3F
100
AcDbEntity
  8
0
100
AcDbCircle
 10
0.8489243410243858
 20
0.1564139261105417
 30
0.0
 40
0.01089627287962
  0
CIRCLE
  5
8D73
330
8D3F
100
AcDbEntity
  8
0
100
AcDbCircle
 10
0.7509486249852344
 20
0.1564139261105417
 30
0.0
 40
0.01089627287962
  0
CIRCLE
  5
8D74
330
8D3F
100
AcDbEntity
  8
0
100
AcDbCircle
 10
0.6502513831386381
 20
0.1564139261105417
 30
0.0
 40
0.01089627287962
  0
CIRCLE
  5
8D75
330
8D3F
100
AcDbEntity
  8
0
100
AcDbCircle
 10
0.5495541188071549
 20
0.1564139261105417
 30
0.0
 40
0.01089627287962
  0
CIRCLE
  5
8D76
330
8D3F
100
AcDbEntity
  8
0
100
AcDbCircle
 10
0.4488568544756717
 20
0.1564139261105417
 30
0.0
 40
0.01089627287962
  0
CIRCLE
  5
8D77
330
8D3F
100
AcDbEntity
  8
0
100
AcDbCircle
 10
0.3508811609214071
 20
0.1564139261105417
 30
0.0
 40
0.01089627287962
  0
CIRCLE
  5
8D78
330
8D3F
100
AcDbEntity
  8
0
100
AcDbCircle
 10
0.2508568692713702
 20
0.1562354510321064
 30
0.0
 40
0.01089627287962
  0
CIRCLE
  5
8D79
330
8D3F
100
AcDbEntity
  8
0
100
AcDbCircle
 10
0.1523697119822316
 20
0.1605214740439571
 30
0.0
 40
0.01089627287962
  0
CIRCLE
  5
8D7A
330
8D3F
100
AcDbEntity
  8
0
100
AcDbCircle
 10
0.0517415437098876
 20
0.1626644617214303
 30
0.0
 40
0.01089627287962
  0
ENDBLK
  5
8D7E
330
8D3F
100
AcDbEntity
  8
0
100
AcDbBlockEnd
  0
BLOCK
  5
91DC
330
91D8
100
AcDbEntity
  8
0
100
AcDbBlockBegin
  2
A$C48B517A9
 70
     0
 10
0.0
 20
0.0
 30
0.0
  3
A$C48B517A9
  1

  0
ARC
  5
91D9
330
91D8
100
AcDbEntity
  8
0
100
AcDbCircle
 10
0.049376789266443
 20
0.049470213183481
 30
0.0
 40
0.0494882445605987
100
AcDbArc
 50
176.1542009092439
 51
268.4536732191058
  0
ENDBLK
  5
91DD
330
91D8
100
AcDbEntity
  8
0
100
AcDbBlockEnd
  0
BLOCK
  5
9BD9
330
9BD8
100
AcDbEntity
  8
0
100
AcDbBlockBegin
  2
*D3
 70
     1
 10
0.0
 20
0.0
 30
0.0
  3
*D3
  1

  0
LINE
  5
9BEC
330
9BD8
100
AcDbEntity
  8
WYMIAR
370
    -2
100
AcDbLine
 10
0.759815551601077
 20
9.997977178474929
 30
0.0
 11
10.12670920700631
 21
9.997977178474929
 31
0.0
  0
INSERT
  5
9BED
330
9BD8
100
AcDbEntity
  8
WYMIAR
370
    -2
100
AcDbBlockReference
  2
MAR-STRZ
 10
0.699815551601077
 20
9.997977178474929
 30
0.0
 41
0.06
 42
0.06
 43
0.06
 50
180.0
  0
INSERT
  5
9BEE
330
9BD8
100
AcDbEntity
  8
WYMIAR
370
    -2
100
AcDbBlockReference
  2
MAR-STRZ
 10
10.18670920700631
 20
9.997977178474929
 30
0.0
 41
0.06
 42
0.06
 43
0.06
  0
MTEXT
  5
9BEF
330
9BD8
100
AcDbEntity
  8
WYMIAR
100
AcDbMText
 10
5.443262379303696
 20
10.20797717847493
 30
0.0
 40
0.18
 41
0.0
 71
     5
 72
     1
  1
\A1;9.50
  7
AR 01 SWIS
 73
     1
 44
1.0
  0
POINT
  5
9BF0
330
9BD8
100
AcDbEntity
  8
Defpoints
 62
     0
100
AcDbPoint
 10
0.6998155516010769
 20
7.807430534615008
 30
0.0
  0
POINT
  5
9BF1
330
9BD8
100
AcDbEntity
  8
Defpoints
 62
     0
100
AcDbPoint
 10
10.18670920700631
 20
7.36231679057489
 30
0.0
  0
POINT
  5
9BF2
330
9BD8
100
AcDbEntity
  8
Defpoints
 62
     0
100
AcDbPoint
 10
10.18670920700631
 20
9.997977178474929
 30
0.0
  0
ENDBLK
  5
9BDA
330
9BD8
100
AcDbEntity
  8
0
100
AcDbBlockEnd
  0
BLOCK
  5
9BE3
330
9BE2
100
AcDbEntity
  8
0
100
AcDbBlockBegin
  2
*D4
 70
     1
 10
0.0
 20
0.0
 30
0.0
  3
*D4
  1

  0
LINE
  5
9BF3
330
9BE2
100
AcDbEntity
  8
WYMIAR
370
    -2
100
AcDbLine
 10
11.05167482667846
 20
9.307633463230493
 30
0.0
 11
11.05167482667846
 21
2.930601827265804
 31
0.0
  0
INSERT
  5
9BF4
330
9BE2
100
AcDbEntity
  8
WYMIAR
370
    -2
100
AcDbBlockReference
  2
MAR-STRZ
 10
11.05167482667846
 20
9.367633463230493
 30
0.0
 41
0.06
 42
0.06
 43
0.06
 50
90.0
  0
INSERT
  5
9BF5
330
9BE2
100
AcDbEntity
  8
WYMIAR
370
    -2
100
AcDbBlockReference
  2
MAR-STRZ
 10
11.05167482667846
 20
2.870601827265804
 30
0.0
 41
0.06
 42
0.06
 43
0.06
 50
270.0
  0
MTEXT
  5
9BF6
330
9BE2
100
AcDbEntity
  8
WYMIAR
100
AcDbMText
 10
10.84167482667846
 20
6.11911764524815
 30
0.0
 40
0.18
 41
0.0
 71
     5
 72
     1
  1
\A1;6.50
  7
AR 01 SWIS
 11
0.0000000000000001
 21
1.0
 31
0.0
 73
     1
 44
1.0
  0
POINT
  5
9BF7
330
9BE2
100
AcDbEntity
  8
Defpoints
 62
     0
100
AcDbPoint
 10
8.812220434455909
 20
9.367633463230493
 30
0.0
  0
POINT
  5
9BF8
330
9BE2
100
AcDbEntity
  8
Defpoints
 62
     0
100
AcDbPoint
 10
9.830153186306802
 20
2.870601827265804
 30
0.0
  0
POINT
  5
9BF9
330
9BE2
100
AcDbEntity
  8
Defpoints
 62
     0
100
AcDbPoint
 10
11.05167482667846
 20
2.870601827265804
 30
0.0
  0
ENDBLK
  5
9BE4
330
9BE2
100
AcDbEntity
  8
0
100
AcDbBlockEnd
  0
ENDSEC
  0
SECTION
  2
ENTITIES
  0
LINE
  5
9A84
330
1F
100
AcDbEntity
  8
0
100
AcDbLine
 10
8.399142962351447
 20
5.376625486475646
 30
0.0
 11
8.399142962351447
 21
5.718165704850136
 31
0.0
  0
LINE
  5
9A85
330
1F
100
AcDbEntity
  8
0
100
AcDbLine
 10
7.079588228504491
 20
5.702296562242814
 30
0.0
 11
7.079588228504483
 21
5.076146058447591
 31
0.0
  0
LINE
  5
9A86
330
1F
100
AcDbEntity
  8
0
100
AcDbLine
 10
7.72217487470256
 20
5.726884568730284
 30
0.0
 11
7.079588228504491
 21
5.726884568730284
 31
0.0
  0
LINE
  5
9A87
330
1F
100
AcDbEntity
  8
0
100
AcDbLine
 10
8.399142962351447
 20
4.464165704850131
 30
0.0
 11
8.399142962351447
 21
4.79242548647565
 31
0.0
  0
LINE
  5
9A88
330
1F
100
AcDbEntity
  8
0
100
AcDbLine
 10
8.399142962351447
 20
4.79242548647565
 30
0.0
 11
8.399142962351447
 21
5.376625486475646
 31
0.0
  0
LINE
  5
9A89
330
1F
100
AcDbEntity
  8
0
100
AcDbLine
 10
7.079588228504483
 20
5.056146058447588
 30
0.0
 11
7.079588228504483
 21
4.464165704850131
 31
0.0
  0
LINE
  5
9A8A
330
1F
100
AcDbEntity
  8
0
100
AcDbLine
 10
8.399142962351447
 20
5.726884568730284
 30
0.0
 11
7.742174874702556
 21
5.726884568730284
 31
0.0
  0
LINE
  5
9A8B
330
1F
100
AcDbEntity
  8
0
100
AcDbLine
 10
7.742174874702556
 20
5.726884568730284
 30
0.0
 11
7.72217487470256
 21
5.726884568730284
 31
0.0
  0
LINE
  5
9A8C
330
1F
100
AcDbEntity
  8
0
100
AcDbLine
 10
8.399142962351447
 20
4.464165704850131
 30
0.0
 11
7.079588228504483
 21
4.464165704850131
 31
0.0
  0
LINE
  5
9A8D
330
1F
100
AcDbEntity
  8
0
100
AcDbLine
 10
8.413640630149835
 20
5.740662000581234
 30
0.0
 11
8.413640630149835
 21
4.45038827299918
 31
0.0
  0
LINE
  5
9A8E
330
1F
100
AcDbEntity
  8
0
100
AcDbLine
 10
7.065090560706103
 20
5.740662000581234
 30
0.0
 11
8.413640630149835
 21
5.740662000581234
 31
0.0
  0
LINE
  5
9A8F
330
1F
100
AcDbEntity
  8
0
100
AcDbLine
 10
7.065090560706096
 20
4.45038827299918
 30
0.0
 11
8.413640630149835
 21
4.45038827299918
 31
0.0
  0
LINE
  5
9A90
330
1F
100
AcDbEntity
  8
0
100
AcDbLine
 10
7.065090560706103
 20
5.740662000581234
 30
0.0
 11
7.065090560706096
 21
4.45038827299918
 31
0.0
  0
LINE
  5
9A9E
330
1F
100
AcDbEntity
  8
0
100
AcDbLine
 10
3.048121936213462
 20
7.00318255923447
 30
0.0
 11
3.053815609155677
 21
7.003966265229816
 31
0.0
  0
LINE
  5
9A9F
330
1F
100
AcDbEntity
  8
0
100
AcDbLine
 10
3.042816277672997
 20
7.000884849516861
 30
0.0
 11
3.048121936213462
 21
7.00318255923447
 31
0.0
  0
LINE
  5
9AA0
330
1F
100
AcDbEntity
  8
0
100
AcDbLine
 10
3.038260205395843
 20
6.997229721197111
 30
0.0
 11
3.042816277672997
 21
7.000884849516861
 31
0.0
  0
LINE
  5
9AA1
330
1F
100
AcDbEntity
  8
0
100
AcDbLine
 10
3.034764208178401
 20
6.992466265229818
 30
0.0
 11
3.038260205395843
 21
6.997229721197111
 31
0.0
  0
LINE
  5
9AA2
330
1F
100
AcDbEntity
  8
0
100
AcDbLine
 10
3.032566532453628
 20
6.98691910326718
 30
0.0
 11
3.034764208178401
 21
6.992466265229818
 31
0.0
  0
LINE
  5
9AA3
330
1F
100
AcDbEntity
  8
0
100
AcDbLine
 10
3.031816946190332
 20
6.98096626522982
 30
0.0
 11
3.032566532453628
 21
6.98691910326718
 31
0.0
  0
LINE
  5
9AA4
330
1F
100
AcDbEntity
  8
0
100
AcDbLine
 10
3.032566532453628
 20
6.975013427192461
 30
0.0
 11
3.031816946190332
 21
6.98096626522982
 31
0.0
  0
LINE
  5
9AA5
330
1F
100
AcDbEntity
  8
0
100
AcDbLine
 10
3.034764208178401
 20
6.969466265229822
 30
0.0
 11
3.032566532453628
 21
6.975013427192461
 31
0.0
  0
LINE
  5
9AA6
330
1F
100
AcDbEntity
  8
0
100
AcDbLine
 10
3.038260205395843
 20
6.964702809262529
 30
0.0
 11
3.034764208178401
 21
6.969466265229822
 31
0.0
  0
LINE
  5
9AA7
330
1F
100
AcDbEntity
  8
0
100
AcDbLine
 10
3.042816277672997
 20
6.961047680942765
 30
0.0
 11
3.038260205395843
 21
6.964702809262529
 31
0.0
  0
LINE
  5
9AA8
330
1F
100
AcDbEntity
  8
0
100
AcDbLine
 10
3.048121936213462
 20
6.95874997122517
 30
0.0
 11
3.042816277672997
 21
6.961047680942765
 31
0.0
  0
LINE
  5
9AA9
330
1F
100
AcDbEntity
  8
0
100
AcDbLine
 10
3.053815609155677
 20
6.95796626522981
 30
0.0
 11
3.048121936213462
 21
6.95874997122517
 31
0.0
  0
LINE
  5
9AAA
330
1F
100
AcDbEntity
  8
0
100
AcDbLine
 10
3.072557306519868
 20
6.483957178711943
 30
0.0
 11
3.072859674345323
 21
6.95796626522981
 31
0.0
  0
LINE
  5
9AAB
330
1F
100
AcDbEntity
  8
0
100
AcDbLine
 10
3.353064637005402
 20
7.00318255923447
 30
0.0
 11
3.353655983088813
 21
7.003966265229816
 31
0.0
  0
LINE
  5
9AAC
330
1F
100
AcDbEntity
  8
0
100
AcDbLine
 10
3.35251359018035
 20
7.000884849516861
 30
0.0
 11
3.353064637005402
 21
7.00318255923447
 31
0.0
  0
LINE
  5
9AAD
330
1F
100
AcDbEntity
  8
0
100
AcDbLine
 10
3.352091755437825
 20
6.997626443787904
 30
0.0
 11
3.35251359018035
 21
7.000884849516861
 31
0.0
  0
LINE
  5
9AAE
330
1F
100
AcDbEntity
  8
0
100
AcDbLine
 10
3.35251359018035
 20
6.961047680942765
 30
0.0
 11
3.352091755437825
 21
6.964306086671722
 31
0.0
  0
LINE
  5
9AAF
330
1F
100
AcDbEntity
  8
0
100
AcDbLine
 10
3.353064637005402
 20
6.95874997122517
 30
0.0
 11
3.35251359018035
 21
6.961047680942765
 31
0.0
  0
LINE
  5
9AB0
330
1F
100
AcDbEntity
  8
0
100
AcDbLine
 10
3.353655983088813
 20
6.95796626522981
 30
0.0
 11
3.353064637005402
 21
6.95874997122517
 31
0.0
  0
LINE
  5
9AB1
330
1F
100
AcDbEntity
  8
0
100
AcDbLine
 10
3.355602499765339
 20
6.483957178711943
 30
0.0
 11
3.355633903752035
 21
6.95796626522981
 31
0.0
  0
LINE
  5
9AB2
330
1F
100
AcDbEntity
  8
0
100
AcDbLine
 10
4.088878934232383
 20
7.00318255923447
 30
0.0
 11
4.090874504270587
 21
7.003966265229816
 31
0.0
  0
LINE
  5
9AB3
330
1F
100
AcDbEntity
  8
0
100
AcDbLine
 10
3.353655983088813
 20
6.95796626522981
 30
0.0
 11
3.355633903752035
 21
6.95796626522981
 31
0.0
  0
LINE
  5
9AB4
330
1F
100
AcDbEntity
  8
0
100
AcDbLine
 10
3.352091755437825
 20
6.997626443787904
 30
0.0
 11
3.053815609155677
 21
6.997626443787904
 31
0.0
  0
LINE
  5
9AB5
330
1F
100
AcDbEntity
  8
0
100
AcDbLine
 10
4.909631698637966
 20
6.997626443787904
 30
0.0
 11
3.752526351600963
 21
6.997626443787904
 31
0.0
  0
LINE
  5
9AB6
330
1F
100
AcDbEntity
  8
0
100
AcDbLine
 10
3.052763149143245
 20
6.964306086671722
 30
0.0
 11
3.352091755437825
 21
6.964306086671722
 31
0.0
  0
LINE
  5
9AB7
330
1F
100
AcDbEntity
  8
0
100
AcDbLine
 10
3.752526351600963
 20
6.964306086671722
 30
0.0
 11
4.909631698637966
 21
6.964306086671722
 31
0.0
  0
LINE
  5
9AB8
330
1F
100
AcDbEntity
  8
0
100
AcDbLine
 10
3.072859674345323
 20
6.95796626522981
 30
0.0
 11
3.053815609155677
 21
6.95796626522981
 31
0.0
  0
LINE
  5
9AB9
330
1F
100
AcDbEntity
  8
0
100
AcDbLine
 10
3.353655983088813
 20
7.003966265229816
 30
0.0
 11
3.053815609155677
 21
7.003966265229816
 31
0.0
  0
LINE
  5
9ABA
330
1F
100
AcDbEntity
  8
0
100
AcDbLine
 10
3.353655983088813
 20
6.95796626522981
 30
0.0
 11
3.072859674345323
 21
6.95796626522981
 31
0.0
  0
LINE
  5
9ABB
330
1F
100
AcDbEntity
  8
0
100
AcDbLine
 10
4.914910377098635
 20
6.95796626522981
 30
0.0
 11
3.756068499915173
 21
6.95796626522981
 31
0.0
  0
ARC
  5
9ABC
330
1F
100
AcDbEntity
  8
0
100
AcDbCircle
 10
3.055921487020299
 20
6.980883127216838
 30
0.0
 40
0.0168752295208051
100
AcDbArc
 50
97.16869021516554
 51
259.2130127358568
  0
LINE
  5
9ABD
330
1F
100
AcDbEntity
  8
0
100
AcDbLine
 10
3.048121936213462
 20
6.483173472716583
 30
0.0
 11
3.053815609155677
 21
6.483957178711943
 31
0.0
  0
LINE
  5
9ABE
330
1F
100
AcDbEntity
  8
0
100
AcDbLine
 10
3.042816277672997
 20
6.480875762998987
 30
0.0
 11
3.048121936213462
 21
6.483173472716583
 31
0.0
  0
LINE
  5
9ABF
330
1F
100
AcDbEntity
  8
0
100
AcDbLine
 10
3.038260205395843
 20
6.477220634679223
 30
0.0
 11
3.042816277672997
 21
6.480875762998987
 31
0.0
  0
LINE
  5
9AC0
330
1F
100
AcDbEntity
  8
0
100
AcDbLine
 10
3.034764208178401
 20
6.472457178711945
 30
0.0
 11
3.038260205395843
 21
6.477220634679223
 31
0.0
  0
LINE
  5
9AC1
330
1F
100
AcDbEntity
  8
0
100
AcDbLine
 10
3.032566532453628
 20
6.466910016749306
 30
0.0
 11
3.034764208178401
 21
6.472457178711945
 31
0.0
  0
LINE
  5
9AC2
330
1F
100
AcDbEntity
  8
0
100
AcDbLine
 10
3.031816946190332
 20
6.460957178711947
 30
0.0
 11
3.032566532453628
 21
6.466910016749306
 31
0.0
  0
LINE
  5
9AC3
330
1F
100
AcDbEntity
  8
0
100
AcDbLine
 10
3.032566532453628
 20
6.455004340674587
 30
0.0
 11
3.031816946190332
 21
6.460957178711947
 31
0.0
  0
LINE
  5
9AC4
330
1F
100
AcDbEntity
  8
0
100
AcDbLine
 10
3.034764208178401
 20
6.449457178711934
 30
0.0
 11
3.032566532453628
 21
6.455004340674587
 31
0.0
  0
LINE
  5
9AC5
330
1F
100
AcDbEntity
  8
0
100
AcDbLine
 10
3.038260205395843
 20
6.444693722744656
 30
0.0
 11
3.034764208178401
 21
6.449457178711934
 31
0.0
  0
LINE
  5
9AC6
330
1F
100
AcDbEntity
  8
0
100
AcDbLine
 10
3.042816277672997
 20
6.441038594424892
 30
0.0
 11
3.038260205395843
 21
6.444693722744656
 31
0.0
  0
LINE
  5
9AC7
330
1F
100
AcDbEntity
  8
0
100
AcDbLine
 10
3.048121936213462
 20
6.438740884707296
 30
0.0
 11
3.042816277672997
 21
6.441038594424892
 31
0.0
  0
LINE
  5
9AC8
330
1F
100
AcDbEntity
  8
0
100
AcDbLine
 10
3.053815609155677
 20
6.437957178711936
 30
0.0
 11
3.048121936213462
 21
6.438740884707296
 31
0.0
  0
LINE
  5
9AC9
330
1F
100
AcDbEntity
  8
0
100
AcDbLine
 10
3.353064637005402
 20
6.483173472716583
 30
0.0
 11
3.353655983088813
 21
6.483957178711943
 31
0.0
  0
LINE
  5
9ACA
330
1F
100
AcDbEntity
  8
0
100
AcDbLine
 10
3.35251359018035
 20
6.480875762998987
 30
0.0
 11
3.353064637005402
 21
6.483173472716583
 31
0.0
  0
LINE
  5
9ACB
330
1F
100
AcDbEntity
  8
0
100
AcDbLine
 10
3.352091755437825
 20
6.47761735727003
 30
0.0
 11
3.35251359018035
 21
6.480875762998987
 31
0.0
  0
LINE
  5
9ACC
330
1F
100
AcDbEntity
  8
0
100
AcDbLine
 10
3.35251359018035
 20
6.441038594424892
 30
0.0
 11
3.352091755437825
 21
6.444297000153849
 31
0.0
  0
LINE
  5
9ACD
330
1F
100
AcDbEntity
  8
0
100
AcDbLine
 10
3.353064637005402
 20
6.438740884707296
 30
0.0
 11
3.35251359018035
 21
6.441038594424892
 31
0.0
  0
LINE
  5
9ACE
330
1F
100
AcDbEntity
  8
0
100
AcDbLine
 10
3.353655983088813
 20
6.437957178711936
 30
0.0
 11
3.353064637005402
 21
6.438740884707296
 31
0.0
  0
LINE
  5
9ACF
330
1F
100
AcDbEntity
  8
0
100
AcDbLine
 10
3.353655983088813
 20
6.437957178711936
 30
0.0
 11
3.355633903752035
 21
6.437957178711936
 31
0.0
  0
LINE
  5
9AD0
330
1F
100
AcDbEntity
  8
0
100
AcDbLine
 10
3.352091755437825
 20
6.47761735727003
 30
0.0
 11
3.053815609155677
 21
6.47761735727003
 31
0.0
  0
LINE
  5
9AD1
330
1F
100
AcDbEntity
  8
0
100
AcDbLine
 10
4.909631698637966
 20
6.47761735727003
 30
0.0
 11
3.752526351600963
 21
6.47761735727003
 31
0.0
  0
LINE
  5
9AD2
330
1F
100
AcDbEntity
  8
0
100
AcDbLine
 10
3.052763149143245
 20
6.444297000153849
 30
0.0
 11
3.352091755437825
 21
6.444297000153849
 31
0.0
  0
LINE
  5
9AD3
330
1F
100
AcDbEntity
  8
0
100
AcDbLine
 10
3.752526351600963
 20
6.444297000153849
 30
0.0
 11
4.909631698637966
 21
6.444297000153849
 31
0.0
  0
LINE
  5
9AD4
330
1F
100
AcDbEntity
  8
0
100
AcDbLine
 10
3.072859674345323
 20
6.437957178711936
 30
0.0
 11
3.053815609155677
 21
6.437957178711936
 31
0.0
  0
LINE
  5
9AD5
330
1F
100
AcDbEntity
  8
0
100
AcDbLine
 10
3.353655983088813
 20
6.483957178711943
 30
0.0
 11
3.053815609155677
 21
6.483957178711943
 31
0.0
  0
LINE
  5
9AD6
330
1F
100
AcDbEntity
  8
0
100
AcDbLine
 10
3.353655983088813
 20
6.437957178711936
 30
0.0
 11
3.072859674345323
 21
6.437957178711936
 31
0.0
  0
LINE
  5
9AD7
330
1F
100
AcDbEntity
  8
0
100
AcDbLine
 10
4.914910377098635
 20
6.437957178711936
 30
0.0
 11
3.756068499915173
 21
6.437957178711936
 31
0.0
  0
LINE
  5
9AD8
330
1F
100
AcDbEntity
  8
0
100
AcDbLine
 10
4.914910377098635
 20
6.483957178711943
 30
0.0
 11
3.75409057925195
 21
6.483957178711943
 31
0.0
  0
ARC
  5
9AD9
330
1F
100
AcDbEntity
  8
0
100
AcDbCircle
 10
3.055921487020299
 20
6.46087404069895
 30
0.0
 40
0.0168752295208051
100
AcDbArc
 50
97.16869021516554
 51
259.2130127358568
  0
LINE
  5
9ADA
330
1F
100
AcDbEntity
  8
0
100
AcDbLine
 10
3.436061841810655
 20
6.997229721197111
 30
0.0
 11
3.036061841810649
 21
6.997229721197111
 31
0.0
  0
LINE
  5
9ADB
330
1F
100
AcDbEntity
  8
0
100
AcDbLine
 10
4.512707843714224
 20
6.477617372169913
 30
0.0
 11
3.355602496677221
 21
6.477617372169913
 31
0.0
  0
LINE
  5
9ADC
330
1F
100
AcDbEntity
  8
0
100
AcDbLine
 10
3.355602496677221
 20
6.444297015053731
 30
0.0
 11
4.512707843714224
 21
6.444297015053731
 31
0.0
  0
LINE
  5
9ADD
330
1F
100
AcDbEntity
  8
0
100
AcDbLine
 10
4.517986522174894
 20
6.437957193611818
 30
0.0
 11
3.359144644991445
 21
6.437957193611818
 31
0.0
  0
LINE
  5
9ADE
330
1F
100
AcDbEntity
  8
0
100
AcDbLine
 10
4.517986522174894
 20
6.483957193611825
 30
0.0
 11
3.357166724328223
 21
6.483957193611825
 31
0.0
  0
LINE
  5
9ADF
330
1F
100
AcDbEntity
  8
0
100
AcDbLine
 10
4.510761327037698
 20
6.997626458687786
 30
0.0
 11
3.353655980000695
 21
6.997626458687786
 31
0.0
  0
LINE
  5
9AE0
330
1F
100
AcDbEntity
  8
0
100
AcDbLine
 10
3.353655980000695
 20
6.964306101571605
 30
0.0
 11
4.510761327037698
 21
6.964306101571605
 31
0.0
  0
LINE
  5
9AE1
330
1F
100
AcDbEntity
  8
0
100
AcDbLine
 10
4.516040005498368
 20
6.957966280129692
 30
0.0
 11
3.357198128314919
 21
6.957966280129692
 31
0.0
  0
LINE
  5
9AE2
330
1F
100
AcDbEntity
  8
0
100
AcDbLine
 10
3.353064637005402
 20
7.00318255923447
 30
0.0
 11
4.914910377098635
 21
7.003966265229816
 31
0.0
  0
LINE
  5
9AE3
330
1F
100
AcDbEntity
  8
0
100
AcDbLine
 10
3.355602496677221
 20
6.477617372169913
 30
0.0
 11
3.352091755437825
 21
6.47761735727003
 31
0.0
  0
LINE
  5
9AE4
330
1F
100
AcDbEntity
  8
0
100
AcDbLine
 10
3.352091755437825
 20
6.444297000153849
 30
0.0
 11
3.355602496677221
 21
6.444297015053731
 31
0.0
  0
LINE
  5
9AE5
330
1F
100
AcDbEntity
  8
0
100
AcDbLine
 10
3.359144644991445
 20
6.437957193611818
 30
0.0
 11
3.353655983088813
 21
6.437957178711936
 31
0.0
  0
LINE
  5
9AE6
330
1F
100
AcDbEntity
  8
0
100
AcDbLine
 10
4.491309100433738
 20
6.95796626522981
 30
0.0
 11
5.407015013217133
 21
6.95869672980832
 31
0.0
  0
LINE
  5
9AE7
330
1F
100
AcDbEntity
  8
0
100
AcDbLine
 10
5.407015013217147
 20
7.003966265229813
 30
0.0
 11
4.491309100433738
 21
7.003966265229816
 31
0.0
  0
LINE
  5
9AE8
330
1F
100
AcDbEntity
  8
0
100
AcDbLine
 10
4.486030421973069
 20
6.997626443787904
 30
0.0
 11
5.407015013217147
 21
6.997626443787904
 31
0.0
  0
LINE
  5
9AE9
330
1F
100
AcDbEntity
  8
0
100
AcDbLine
 10
4.486030421973069
 20
6.964306086671722
 30
0.0
 11
5.407015013217147
 21
6.964306086671722
 31
0.0
  0
LINE
  5
9AEA
330
1F
100
AcDbEntity
  8
0
100
AcDbLine
 10
4.491309100433738
 20
6.437957178711936
 30
0.0
 11
5.407015013217147
 21
6.437957178711933
 31
0.0
  0
LINE
  5
9AEB
330
1F
100
AcDbEntity
  8
0
100
AcDbLine
 10
5.407015013217147
 20
6.483957178711943
 30
0.0
 11
4.491309100433738
 21
6.483957178711943
 31
0.0
  0
LINE
  5
9AEC
330
1F
100
AcDbEntity
  8
0
100
AcDbLine
 10
4.486030421973069
 20
6.444297000153849
 30
0.0
 11
5.407015013217147
 21
6.444297000153845
 31
0.0
  0
LINE
  5
9AED
330
1F
100
AcDbEntity
  8
0
100
AcDbLine
 10
5.407015013217147
 20
6.477617357270027
 30
0.0
 11
4.486030421973069
 21
6.47761735727003
 31
0.0
  0
LINE
  5
9AEE
330
1F
100
AcDbEntity
  8
0
100
AcDbLine
 10
7.079588228504483
 20
4.791137167499375
 30
0.0
 11
7.079588228504483
 21
5.391137167499376
 31
0.0
  0
LINE
  5
9AEF
330
1F
100
AcDbEntity
  8
0
100
AcDbLine
 10
7.079588228504483
 20
5.391137167499376
 30
0.0
 11
7.079588228504483
 21
5.091137167499375
 31
0.0
  0
LINE
  5
9AF0
330
1F
100
AcDbEntity
  8
0
100
AcDbLine
 10
7.079588228504483
 20
4.791137167499375
 30
0.0
 11
7.079588228504483
 21
5.091137167499375
 31
0.0
  0
LINE
  5
9AF3
330
1F
100
AcDbEntity
  8
STREFA BEZPIECZEŃSTWA
100
AcDbLine
 10
0.9703443517343117
 20
8.591191291173572
 30
0.0
 11
3.607015013217157
 21
8.591191291173586
 31
0.0
  0
ARC
  5
9AF4
330
1F
100
AcDbEntity
  8
0
100
AcDbCircle
 10
6.694964071830554
 20
5.700945894243279
 30
0.0
 40
0.725773866878056
100
AcDbArc
 50
3.088939541168722
 51
85.21031316015665
  0
ARC
  5
9AF5
330
1F
100
AcDbEntity
  8
0
100
AcDbCircle
 10
6.695470163707994
 20
5.701451986120741
 30
0.0
 40
1.325058144881166
100
AcDbArc
 50
1.669437537581526
 51
87.40059204636576
  0
LINE
  5
9AF6
330
1F
100
AcDbEntity
  8
0
100
AcDbLine
 10
8.399142958786264
 20
4.464165697786292
 30
0.0
 11
7.756463983292661
 21
5.074916744784882
 31
0.0
  0
LINE
  5
9AF7
330
1F
100
AcDbEntity
  8
0
100
AcDbLine
 10
7.0795882249393
 20
4.464165697786292
 30
0.0
 11
7.720477320678718
 21
5.073215785245903
 31
0.0
  0
LINE
  5
9AF8
330
1F
100
AcDbEntity
  8
0
100
AcDbLine
 10
8.399142958786264
 20
5.726884561666444
 30
0.0
 11
7.75170824584152
 21
5.111614039567079
 31
0.0
  0
LINE
  5
9AF9
330
1F
100
AcDbEntity
  8
0
100
AcDbLine
 10
7.079588224939307
 20
5.726884561666444
 30
0.0
 11
7.725683956455945
 21
5.112886501154129
 31
0.0
  0
CIRCLE
  5
9AFA
330
1F
100
AcDbEntity
  8
0
100
AcDbCircle
 10
7.737663772428248
 20
5.091137160435501
 30
0.0
 40
0.0248304211084971
  0
ARC
  5
9AFB
330
1F
100
AcDbEntity
  8
0
100
AcDbCircle
 10
8.236994433130732
 20
5.408422853749797
 30
0.0
 40
0.532935279234085
100
AcDbArc
 50
180.4937219122279
 51
196.3927529514441
  0
ARC
  5
9AFC
330
1F
100
AcDbEntity
  8
0
100
AcDbCircle
 10
9.127910817215017
 20
5.452088466050156
 30
0.0
 40
1.415554200586691
100
AcDbArc
 50
187.879996243708
 51
194.0086191108529
  0
ARC
  5
9AFD
330
1F
100
AcDbEntity
  8
0
100
AcDbCircle
 10
8.654140271365442
 20
5.496263985237028
 30
0.0
 40
0.9800103257468235
100
AcDbArc
 50
185.6319887749354
 51
194.381366926223
  0
ARC
  5
9AFE
330
1F
100
AcDbEntity
  8
0
100
AcDbCircle
 10
8.952332090470548
 20
5.421872066666317
 30
0.0
 40
1.258890265692462
100
AcDbArc
 50
187.7158050035386
 51
194.101360183585
  0
LINE
  5
9AFF
330
1F
100
AcDbEntity
  8
0
100
AcDbLine
 10
7.704078940048027
 20
5.403830568399996
 30
0.0
 11
7.678860687312777
 21
5.40008721309087
 31
0.0
  0
LINE
  5
9B00
330
1F
100
AcDbEntity
  8
0
100
AcDbLine
 10
5.619127712046577
 20
7.367633445777773
 30
0.0
 11
5.620835914574172
 21
7.943641803280019
 31
0.0
  0
LINE
  5
9B01
330
1F
100
AcDbEntity
  8
0
100
AcDbLine
 10
6.520839872181568
 20
7.943641803280005
 30
0.0
 11
6.519131669653958
 21
7.367633445777759
 31
0.0
  0
LINE
  5
9B02
330
1F
100
AcDbEntity
  8
0
100
AcDbLine
 10
6.503131599296494
 20
7.367633445777773
 30
0.0
 11
6.50483980182409
 21
7.943641803280019
 31
0.0
  0
LINE
  5
9B03
330
1F
100
AcDbEntity
  8
0
100
AcDbLine
 10
5.63512778240404
 20
7.367633445777773
 30
0.0
 11
5.636835984931636
 21
7.943641803280005
 31
0.0
  0
LINE
  5
9B04
330
1F
100
AcDbEntity
  8
0
100
AcDbLine
 10
6.061129655671507
 20
7.367633445777773
 30
0.0
 11
6.062837858199088
 21
7.943641803280005
 31
0.0
  0
LINE
  5
9B05
330
1F
100
AcDbEntity
  8
0
100
AcDbLine
 10
6.078837928556538
 20
7.943641803280005
 30
0.0
 11
6.077129726028928
 21
7.367633445777773
 31
0.0
  0
LINE
  5
9B06
330
1F
100
AcDbEntity
  8
0
100
AcDbLine
 10
5.635127782404026
 20
7.367633445777773
 30
0.0
 11
5.635365914593194
 21
7.447931963623378
 31
0.0
  0
LINE
  5
9B07
330
1F
100
AcDbEntity
  8
0
100
AcDbLine
 10
5.635365914593194
 20
7.447931963623378
 30
0.0
 11
6.503362097717499
 21
7.445357845983185
 31
0.0
  0
LINE
  5
9B08
330
1F
100
AcDbEntity
  8
0
100
AcDbLine
 10
6.503362097717499
 20
7.445357845983185
 30
0.0
 11
5.635365914593194
 21
7.447931963623378
 31
0.0
  0
LINE
  5
9B09
330
1F
100
AcDbEntity
  8
0
100
AcDbLine
 10
5.635365914593194
 20
7.447931963623378
 30
0.0
 11
5.635413363766275
 21
7.463931893266224
 31
0.0
  0
LINE
  5
9B0A
330
1F
100
AcDbEntity
  8
0
100
AcDbLine
 10
5.635413363766275
 20
7.463931893266224
 30
0.0
 11
6.50340954689058
 21
7.461357775625973
 31
0.0
  0
LINE
  5
9B0B
330
1F
100
AcDbEntity
  8
0
100
AcDbLine
 10
6.50340954689058
 20
7.461357775625973
 30
0.0
 11
6.50429921888606
 21
7.761356456429314
 31
0.0
  0
LINE
  5
9B0C
330
1F
100
AcDbEntity
  8
0
100
AcDbLine
 10
6.50429921888606
 20
7.761356456429314
 30
0.0
 11
5.636303035761756
 21
7.763930574069537
 31
0.0
  0
LINE
  5
9B0D
330
1F
100
AcDbEntity
  8
0
100
AcDbLine
 10
5.636303035761756
 20
7.763930574069537
 30
0.0
 11
5.636350484934837
 21
7.779930503712382
 31
0.0
  0
LINE
  5
9B0E
330
1F
100
AcDbEntity
  8
0
100
AcDbLine
 10
5.636350484934837
 20
7.779930503712382
 30
0.0
 11
6.504346668059142
 21
7.777356386072131
 31
0.0
  0
LINE
  5
9B0F
330
1F
100
AcDbEntity
  8
0
100
AcDbLine
 10
6.504346668059142
 20
7.777356386072131
 30
0.0
 11
6.504839801824104
 21
7.943641803280019
 31
0.0
  0
LINE
  5
9B10
330
1F
100
AcDbEntity
  8
0
100
AcDbLine
 10
8.731673151183301
 20
5.092830481640095
 30
0.0
 11
8.729261341634327
 21
5.091831477415052
 31
0.0
  0
LINE
  5
9B11
330
1F
100
AcDbEntity
  8
0
100
AcDbLine
 10
8.564632233087088
 20
5.094419667866073
 30
0.0
 11
8.564335258578324
 21
5.092830481640095
 31
0.0
  0
LINE
  5
9B12
330
1F
100
AcDbEntity
  8
0
100
AcDbLine
 10
8.565003358833614
 20
5.098902545226916
 30
0.0
 11
8.56486010964241
 21
5.096490735677942
 31
0.0
  0
LINE
  5
9B13
330
1F
100
AcDbEntity
  8
0
100
AcDbLine
 10
8.73374421899517
 20
5.094419667866073
 30
0.0
 11
8.731673151183301
 21
5.092830481640095
 31
0.0
  0
LINE
  5
9B14
330
1F
100
AcDbEntity
  8
0
100
AcDbLine
 10
8.56486010964241
 20
5.096490735677942
 30
0.0
 11
8.564632233087088
 21
5.094419667866073
 31
0.0
  0
LINE
  5
9B15
330
1F
100
AcDbEntity
  8
0
100
AcDbLine
 10
8.729261341634327
 20
5.091831477415052
 30
0.0
 11
8.726673151183305
 21
5.09149073567794
 31
0.0
  0
LINE
  5
9B16
330
1F
100
AcDbEntity
  8
0
100
AcDbLine
 10
8.564335258578324
 20
5.092830481640095
 30
0.0
 11
8.563989424438105
 21
5.091831477415052
 31
0.0
  0
LINE
  5
9B17
330
1F
100
AcDbEntity
  8
0
100
AcDbLine
 10
8.729261341634327
 20
5.111149993940831
 30
0.0
 11
8.731673151183301
 21
5.110150989715787
 31
0.0
  0
LINE
  5
9B18
330
1F
100
AcDbEntity
  8
0
100
AcDbLine
 10
8.731673151183301
 20
5.110150989715787
 30
0.0
 11
8.73374421899517
 21
5.108561803489802
 31
0.0
  0
LINE
  5
9B19
330
1F
100
AcDbEntity
  8
0
100
AcDbLine
 10
8.563989424438105
 20
5.111149993940831
 30
0.0
 11
8.564335258578324
 21
5.110150989715787
 31
0.0
  0
LINE
  5
9B1A
330
1F
100
AcDbEntity
  8
0
100
AcDbLine
 10
8.736673151183303
 20
5.101490735677938
 30
0.0
 11
8.736332409446191
 21
5.098902545226916
 31
0.0
  0
LINE
  5
9B1B
330
1F
100
AcDbEntity
  8
0
100
AcDbLine
 10
8.73374421899517
 20
5.108561803489802
 30
0.0
 11
8.735333405221147
 21
5.10649073567794
 31
0.0
  0
LINE
  5
9B1C
330
1F
100
AcDbEntity
  8
0
100
AcDbLine
 10
8.735333405221147
 20
5.096490735677942
 30
0.0
 11
8.73374421899517
 21
5.094419667866073
 31
0.0
  0
LINE
  5
9B1D
330
1F
100
AcDbEntity
  8
0
100
AcDbLine
 10
8.564632233087088
 20
5.108561803489802
 30
0.0
 11
8.56486010964241
 21
5.10649073567794
 31
0.0
  0
LINE
  5
9B1E
330
1F
100
AcDbEntity
  8
0
100
AcDbLine
 10
8.563618298691579
 20
5.111490735677943
 30
0.0
 11
8.563989424438105
 21
5.111149993940831
 31
0.0
  0
LINE
  5
9B1F
330
1F
100
AcDbEntity
  8
0
100
AcDbLine
 10
8.563989424438105
 20
5.091831477415052
 30
0.0
 11
8.563618298691579
 21
5.09149073567794
 31
0.0
  0
LINE
  5
9B20
330
1F
100
AcDbEntity
  8
0
100
AcDbLine
 10
8.726673151183305
 20
5.111490735677943
 30
0.0
 11
8.729261341634327
 21
5.111149993940831
 31
0.0
  0
LINE
  5
9B21
330
1F
100
AcDbEntity
  8
0
100
AcDbLine
 10
8.565003358833614
 20
5.104078926128966
 30
0.0
 11
8.565052218465062
 21
5.101490735677938
 31
0.0
  0
LINE
  5
9B22
330
1F
100
AcDbEntity
  8
0
100
AcDbLine
 10
8.735333405221147
 20
5.10649073567794
 30
0.0
 11
8.736332409446191
 21
5.104078926128966
 31
0.0
  0
LINE
  5
9B23
330
1F
100
AcDbEntity
  8
0
100
AcDbLine
 10
8.56486010964241
 20
5.10649073567794
 30
0.0
 11
8.565003358833614
 21
5.104078926128966
 31
0.0
  0
LINE
  5
9B24
330
1F
100
AcDbEntity
  8
0
100
AcDbLine
 10
8.564335258578324
 20
5.110150989715787
 30
0.0
 11
8.564632233087088
 21
5.108561803489802
 31
0.0
  0
LINE
  5
9B25
330
1F
100
AcDbEntity
  8
0
100
AcDbLine
 10
8.565052218465062
 20
5.101490735677938
 30
0.0
 11
8.565003358833614
 21
5.098902545226916
 31
0.0
  0
LINE
  5
9B26
330
1F
100
AcDbEntity
  8
0
100
AcDbLine
 10
8.413640630149835
 20
5.091490735677936
 30
0.0
 11
8.563618298691579
 21
5.09149073567794
 31
0.0
  0
LINE
  5
9B27
330
1F
100
AcDbEntity
  8
0
100
AcDbLine
 10
8.413640630149835
 20
5.111490735677943
 30
0.0
 11
8.563618298691579
 21
5.111490735677943
 31
0.0
  0
LINE
  5
9B28
330
1F
100
AcDbEntity
  8
0
100
AcDbLine
 10
8.736332409446191
 20
5.098902545226916
 30
0.0
 11
8.735333405221147
 21
5.096490735677942
 31
0.0
  0
LINE
  5
9B29
330
1F
100
AcDbEntity
  8
0
100
AcDbLine
 10
8.736414083860324
 20
5.455013659133175
 30
0.0
 11
8.736754825597436
 21
5.45242546868469
 31
0.0
  0
LINE
  5
9B2A
330
1F
100
AcDbEntity
  8
0
100
AcDbLine
 10
8.735415079635281
 20
5.457425468679783
 30
0.0
 11
8.736414083860324
 21
5.455013659133175
 31
0.0
  0
LINE
  5
9B2B
330
1F
100
AcDbEntity
  8
0
100
AcDbLine
 10
8.733825893409303
 20
5.45949653648962
 30
0.0
 11
8.735415079635281
 21
5.457425468679783
 31
0.0
  0
LINE
  5
9B2C
330
1F
100
AcDbEntity
  8
0
100
AcDbLine
 10
8.731754825597434
 20
5.461085722714042
 30
0.0
 11
8.733825893409303
 21
5.45949653648962
 31
0.0
  0
LINE
  5
9B2D
330
1F
100
AcDbEntity
  8
0
100
AcDbLine
 10
8.72934301604846
 20
5.462084726938105
 30
0.0
 11
8.731754825597434
 21
5.461085722714042
 31
0.0
  0
LINE
  5
9B2E
330
1F
100
AcDbEntity
  8
0
100
AcDbLine
 10
8.726754825597438
 20
5.462425468674876
 30
0.0
 11
8.72934301604846
 21
5.462084726938105
 31
0.0
  0
LINE
  5
9B2F
330
1F
100
AcDbEntity
  8
0
100
AcDbLine
 10
8.724166635146417
 20
5.462084726938105
 30
0.0
 11
8.726754825597438
 21
5.462425468674876
 31
0.0
  0
LINE
  5
9B30
330
1F
100
AcDbEntity
  8
0
100
AcDbLine
 10
8.721754825597436
 20
5.461085722714042
 30
0.0
 11
8.724166635146417
 21
5.462084726938105
 31
0.0
  0
LINE
  5
9B31
330
1F
100
AcDbEntity
  8
0
100
AcDbLine
 10
8.719683757785574
 20
5.45949653648962
 30
0.0
 11
8.721754825597436
 21
5.461085722714042
 31
0.0
  0
LINE
  5
9B32
330
1F
100
AcDbEntity
  8
0
100
AcDbLine
 10
8.718094571559589
 20
5.457425468679783
 30
0.0
 11
8.719683757785574
 21
5.45949653648962
 31
0.0
  0
LINE
  5
9B33
330
1F
100
AcDbEntity
  8
0
100
AcDbLine
 10
8.717095567334546
 20
5.455013659133175
 30
0.0
 11
8.718094571559589
 21
5.457425468679783
 31
0.0
  0
LINE
  5
9B34
330
1F
100
AcDbEntity
  8
0
100
AcDbLine
 10
8.716754825597433
 20
5.45242546868469
 30
0.0
 11
8.717095567334546
 21
5.455013659133175
 31
0.0
  0
LINE
  5
9B35
330
1F
100
AcDbEntity
  8
0
100
AcDbLine
 10
8.72934301604846
 20
4.792766210430482
 30
0.0
 11
8.726754825597438
 21
4.792425468693682
 31
0.0
  0
LINE
  5
9B36
330
1F
100
AcDbEntity
  8
0
100
AcDbLine
 10
8.731754825597434
 20
4.793765214654637
 30
0.0
 11
8.72934301604846
 21
4.792766210430482
 31
0.0
  0
LINE
  5
9B37
330
1F
100
AcDbEntity
  8
0
100
AcDbLine
 10
8.733825893409303
 20
4.795354400879187
 30
0.0
 11
8.731754825597434
 21
4.793765214654637
 31
0.0
  0
LINE
  5
9B38
330
1F
100
AcDbEntity
  8
0
100
AcDbLine
 10
8.735415079635281
 20
4.797425468689187
 30
0.0
 11
8.733825893409303
 21
4.795354400879187
 31
0.0
  0
LINE
  5
9B39
330
1F
100
AcDbEntity
  8
0
100
AcDbLine
 10
8.736414083860324
 20
4.799837278235994
 30
0.0
 11
8.735415079635281
 21
4.797425468689187
 31
0.0
  0
LINE
  5
9B3A
330
1F
100
AcDbEntity
  8
0
100
AcDbLine
 10
8.736754825597436
 20
4.802425468684692
 30
0.0
 11
8.736414083860324
 21
4.799837278235994
 31
0.0
  0
LINE
  5
9B3B
330
1F
100
AcDbEntity
  8
0
100
AcDbLine
 10
8.717095567334546
 20
4.799837278235994
 30
0.0
 11
8.716754825597433
 21
4.802425468684692
 31
0.0
  0
LINE
  5
9B3C
330
1F
100
AcDbEntity
  8
0
100
AcDbLine
 10
8.718094571559589
 20
4.79742546868918
 30
0.0
 11
8.717095567334546
 21
4.799837278235994
 31
0.0
  0
LINE
  5
9B3D
330
1F
100
AcDbEntity
  8
0
100
AcDbLine
 10
8.719683757785574
 20
4.795354400879187
 30
0.0
 11
8.718094571559589
 21
4.79742546868918
 31
0.0
  0
LINE
  5
9B3E
330
1F
100
AcDbEntity
  8
0
100
AcDbLine
 10
8.721754825597436
 20
4.793765214654637
 30
0.0
 11
8.719683757785574
 21
4.795354400879187
 31
0.0
  0
LINE
  5
9B3F
330
1F
100
AcDbEntity
  8
0
100
AcDbLine
 10
8.724166635146417
 20
4.792766210430482
 30
0.0
 11
8.721754825597436
 21
4.793765214654637
 31
0.0
  0
LINE
  5
9B40
330
1F
100
AcDbEntity
  8
0
100
AcDbLine
 10
8.726754825597438
 20
4.792425468693682
 30
0.0
 11
8.724166635146417
 21
4.792766210430482
 31
0.0
  0
LINE
  5
9B41
330
1F
100
AcDbEntity
  8
0
100
AcDbLine
 10
8.736414083860324
 20
5.355013659133387
 30
0.0
 11
8.736754825597436
 21
5.352425468684689
 31
0.0
  0
LINE
  5
9B42
330
1F
100
AcDbEntity
  8
0
100
AcDbLine
 10
8.735415079635281
 20
5.357425468680194
 30
0.0
 11
8.736414083860324
 21
5.355013659133387
 31
0.0
  0
LINE
  5
9B43
330
1F
100
AcDbEntity
  8
0
100
AcDbLine
 10
8.733825893409303
 20
5.359496536490194
 30
0.0
 11
8.735415079635281
 21
5.357425468680194
 31
0.0
  0
LINE
  5
9B44
330
1F
100
AcDbEntity
  8
0
100
AcDbLine
 10
8.731754825597434
 20
5.361085722714744
 30
0.0
 11
8.733825893409303
 21
5.359496536490194
 31
0.0
  0
LINE
  5
9B45
330
1F
100
AcDbEntity
  8
0
100
AcDbLine
 10
8.72934301604846
 20
5.362084726938899
 30
0.0
 11
8.731754825597434
 21
5.361085722714744
 31
0.0
  0
LINE
  5
9B46
330
1F
100
AcDbEntity
  8
0
100
AcDbLine
 10
8.726754825597438
 20
5.362425468675699
 30
0.0
 11
8.72934301604846
 21
5.362084726938899
 31
0.0
  0
LINE
  5
9B47
330
1F
100
AcDbEntity
  8
0
100
AcDbLine
 10
8.724166635146417
 20
5.362084726938899
 30
0.0
 11
8.726754825597438
 21
5.362425468675699
 31
0.0
  0
LINE
  5
9B48
330
1F
100
AcDbEntity
  8
0
100
AcDbLine
 10
8.721754825597436
 20
5.361085722714744
 30
0.0
 11
8.724166635146417
 21
5.362084726938899
 31
0.0
  0
LINE
  5
9B49
330
1F
100
AcDbEntity
  8
0
100
AcDbLine
 10
8.719683757785574
 20
5.359496536490194
 30
0.0
 11
8.721754825597436
 21
5.361085722714744
 31
0.0
  0
LINE
  5
9B4A
330
1F
100
AcDbEntity
  8
0
100
AcDbLine
 10
8.718094571559589
 20
5.357425468680194
 30
0.0
 11
8.719683757785574
 21
5.359496536490194
 31
0.0
  0
LINE
  5
9B4B
330
1F
100
AcDbEntity
  8
0
100
AcDbLine
 10
8.717095567334546
 20
5.355013659133387
 30
0.0
 11
8.718094571559589
 21
5.357425468680194
 31
0.0
  0
LINE
  5
9B4C
330
1F
100
AcDbEntity
  8
0
100
AcDbLine
 10
8.716754825597433
 20
5.352425468684689
 30
0.0
 11
8.717095567334546
 21
5.355013659133387
 31
0.0
  0
LINE
  5
9B4D
330
1F
100
AcDbEntity
  8
0
100
AcDbLine
 10
8.736754825597436
 20
5.102425468684689
 30
0.0
 11
8.736573550032659
 21
5.102247281527606
 31
0.0
  0
LINE
  5
9B4E
330
1F
100
AcDbEntity
  8
0
100
AcDbLine
 10
8.736519658369758
 20
5.102656629347674
 30
0.0
 11
8.736754825597436
 21
5.102425468684689
 31
0.0
  0
LINE
  5
9B4F
330
1F
100
AcDbEntity
  8
0
100
AcDbLine
 10
8.736573550032659
 20
5.102247281527606
 30
0.0
 11
8.736673151183303
 21
5.101490735677938
 31
0.0
  0
LINE
  5
9B50
330
1F
100
AcDbEntity
  8
0
100
AcDbLine
 10
8.736332409446191
 20
5.104078926128966
 30
0.0
 11
8.736519658369758
 21
5.102656629347674
 31
0.0
  0
LINE
  5
9B51
330
1F
100
AcDbEntity
  8
0
100
AcDbLine
 10
8.736519658369758
 20
5.102656629347674
 30
0.0
 11
8.736573550032659
 21
5.102247281527606
 31
0.0
  0
LINE
  5
9B52
330
1F
100
AcDbEntity
  8
0
100
AcDbLine
 10
8.726673151183305
 20
5.111490735677943
 30
0.0
 11
8.716754825597433
 21
5.111490735677943
 31
0.0
  0
LINE
  5
9B53
330
1F
100
AcDbEntity
  8
0
100
AcDbLine
 10
8.726673151183305
 20
5.09149073567794
 30
0.0
 11
8.716754825597433
 21
5.09149073567794
 31
0.0
  0
LINE
  5
9B54
330
1F
100
AcDbEntity
  8
0
100
AcDbLine
 10
8.563618298691579
 20
5.111490735677943
 30
0.0
 11
8.716754825597433
 21
5.111490735677943
 31
0.0
  0
LINE
  5
9B55
330
1F
100
AcDbEntity
  8
0
100
AcDbLine
 10
8.563618298691579
 20
5.09149073567794
 30
0.0
 11
8.716754825597433
 21
5.09149073567794
 31
0.0
  0
LINE
  5
9B56
330
1F
100
AcDbEntity
  8
0
100
AcDbLine
 10
8.736754825597436
 20
5.45242546868469
 30
0.0
 11
8.736754825597436
 21
5.352425468684689
 31
0.0
  0
LINE
  5
9B57
330
1F
100
AcDbEntity
  8
0
100
AcDbLine
 10
8.716754825597433
 20
5.45242546868469
 30
0.0
 11
8.716754825597433
 21
5.352425468684689
 31
0.0
  0
LINE
  5
9B58
330
1F
100
AcDbEntity
  8
0
100
AcDbLine
 10
8.736754825597436
 20
4.802425468684692
 30
0.0
 11
8.736754825597436
 21
5.102425468684689
 31
0.0
  0
LINE
  5
9B59
330
1F
100
AcDbEntity
  8
0
100
AcDbLine
 10
8.716754825597433
 20
4.802425468684692
 30
0.0
 11
8.716754825597433
 21
5.09149073567794
 31
0.0
  0
LINE
  5
9B5A
330
1F
100
AcDbEntity
  8
0
100
AcDbLine
 10
8.736754825597436
 20
5.352425468684689
 30
0.0
 11
8.736754825597436
 21
5.102425468684689
 31
0.0
  0
LINE
  5
9B5B
330
1F
100
AcDbEntity
  8
0
100
AcDbLine
 10
8.716754825597433
 20
5.352425468684689
 30
0.0
 11
8.716754825597433
 21
5.111490735677943
 31
0.0
  0
LINE
  5
9B5C
330
1F
100
AcDbEntity
  8
0
100
AcDbLine
 10
8.726754825597438
 20
5.11147998303733
 30
0.0
 11
8.726754825597438
 21
5.193012134050764
 31
0.0
  0
LINE
  5
9B5D
330
1F
100
AcDbEntity
  8
0
100
AcDbLine
 10
8.726754825597438
 20
5.193012134050764
 30
0.0
 11
8.726754825597438
 21
5.277425467931909
 31
0.0
  0
LINE
  5
9B5E
330
1F
100
AcDbEntity
  8
0
100
AcDbLine
 10
8.726754825597438
 20
5.277425467931909
 30
0.0
 11
8.726754825597438
 21
5.349912841178021
 31
0.0
  0
LINE
  5
9B5F
330
1F
100
AcDbEntity
  8
0
100
AcDbLine
 10
8.726754825597438
 20
5.349912841178021
 30
0.0
 11
8.726754825597438
 21
5.405534359140009
 31
0.0
  0
LINE
  5
9B60
330
1F
100
AcDbEntity
  8
0
100
AcDbLine
 10
8.726754825597438
 20
5.405534359140009
 30
0.0
 11
8.726754825597438
 21
5.440499507323426
 31
0.0
  0
LINE
  5
9B61
330
1F
100
AcDbEntity
  8
0
100
AcDbLine
 10
8.726754825597438
 20
5.440499507323426
 30
0.0
 11
8.726754825597438
 21
5.45242546868469
 31
0.0
  0
LINE
  5
9B62
330
1F
100
AcDbEntity
  8
0
100
AcDbLine
 10
8.726754825597438
 20
5.45242546868469
 30
0.0
 11
8.726754825597438
 21
5.440499508673273
 31
0.0
  0
LINE
  5
9B63
330
1F
100
AcDbEntity
  8
0
100
AcDbLine
 10
8.726754825597438
 20
5.440499508673273
 30
0.0
 11
8.726754825597438
 21
5.405534361747708
 31
0.0
  0
LINE
  5
9B64
330
1F
100
AcDbEntity
  8
0
100
AcDbLine
 10
8.726754825597438
 20
5.405534361747708
 30
0.0
 11
8.726754825597438
 21
5.349912844865865
 31
0.0
  0
LINE
  5
9B65
330
1F
100
AcDbEntity
  8
0
100
AcDbLine
 10
8.726754825597438
 20
5.349912844865865
 30
0.0
 11
8.726754825597438
 21
5.27742547244858
 31
0.0
  0
LINE
  5
9B66
330
1F
100
AcDbEntity
  8
0
100
AcDbLine
 10
8.726754825597438
 20
5.27742547244858
 30
0.0
 11
8.726754825597438
 21
5.193012139088462
 31
0.0
  0
LINE
  5
9B67
330
1F
100
AcDbEntity
  8
0
100
AcDbLine
 10
8.726754825597438
 20
5.193012139088462
 30
0.0
 11
8.726754825597438
 21
5.11147998303733
 31
0.0
  0
LINE
  5
9B68
330
1F
100
AcDbEntity
  8
0
100
AcDbLine
 10
8.726754825597438
 20
5.091501488318552
 30
0.0
 11
8.726754825597438
 21
5.024779755153932
 31
0.0
  0
LINE
  5
9B69
330
1F
100
AcDbEntity
  8
0
100
AcDbLine
 10
8.726754825597438
 20
5.024779755153932
 30
0.0
 11
8.726754825597438
 21
4.95242546868469
 31
0.0
  0
LINE
  5
9B6A
330
1F
100
AcDbEntity
  8
0
100
AcDbLine
 10
8.726754825597438
 20
4.95242546868469
 30
0.0
 11
8.726754825597438
 21
4.890293434328722
 31
0.0
  0
LINE
  5
9B6B
330
1F
100
AcDbEntity
  8
0
100
AcDbLine
 10
8.726754825597438
 20
4.890293434328722
 30
0.0
 11
8.726754825597438
 21
4.842617847549359
 31
0.0
  0
LINE
  5
9B6C
330
1F
100
AcDbEntity
  8
0
100
AcDbLine
 10
8.726754825597438
 20
4.842617847549359
 30
0.0
 11
8.726754825597438
 21
4.812647720797965
 31
0.0
  0
LINE
  5
9B6D
330
1F
100
AcDbEntity
  8
0
100
AcDbLine
 10
8.726754825597438
 20
4.812647720797965
 30
0.0
 11
8.726754825597438
 21
4.802425468684692
 31
0.0
  0
LINE
  5
9B6E
330
1F
100
AcDbEntity
  8
0
100
AcDbLine
 10
8.726754825597438
 20
4.802425468684692
 30
0.0
 11
8.726754825597438
 21
4.812647720797965
 31
0.0
  0
LINE
  5
9B6F
330
1F
100
AcDbEntity
  8
0
100
AcDbLine
 10
8.726754825597438
 20
4.812647720797965
 30
0.0
 11
8.726754825597438
 21
4.842617847549359
 31
0.0
  0
LINE
  5
9B70
330
1F
100
AcDbEntity
  8
0
100
AcDbLine
 10
8.726754825597438
 20
4.842617847549359
 30
0.0
 11
8.726754825597438
 21
4.890293434328722
 31
0.0
  0
LINE
  5
9B71
330
1F
100
AcDbEntity
  8
0
100
AcDbLine
 10
8.726754825597438
 20
4.890293434328722
 30
0.0
 11
8.726754825597438
 21
4.95242546868469
 31
0.0
  0
LINE
  5
9B72
330
1F
100
AcDbEntity
  8
0
100
AcDbLine
 10
8.726754825597438
 20
4.95242546868469
 30
0.0
 11
8.726754825597438
 21
5.024779755153932
 31
0.0
  0
LINE
  5
9B73
330
1F
100
AcDbEntity
  8
0
100
AcDbLine
 10
8.726754825597438
 20
5.024779755153932
 30
0.0
 11
8.726754825597438
 21
5.091501488318552
 31
0.0
  0
LINE
  5
9B74
330
1F
100
AcDbEntity
  8
0
100
AcDbLine
 10
8.726754825597438
 20
5.11147998303733
 30
0.0
 11
8.726754825597438
 21
5.167130229960317
 31
0.0
  0
LINE
  5
9B75
330
1F
100
AcDbEntity
  8
0
100
AcDbLine
 10
8.726754825597438
 20
5.167130229960317
 30
0.0
 11
8.726754825597438
 21
5.227425468684689
 31
0.0
  0
LINE
  5
9B76
330
1F
100
AcDbEntity
  8
0
100
AcDbLine
 10
8.726754825597438
 20
5.227425468684689
 30
0.0
 11
8.726754825597438
 21
5.279202163981327
 31
0.0
  0
LINE
  5
9B77
330
1F
100
AcDbEntity
  8
0
100
AcDbLine
 10
8.726754825597438
 20
5.279202163981327
 30
0.0
 11
8.726754825597438
 21
5.318931819630801
 31
0.0
  0
LINE
  5
9B78
330
1F
100
AcDbEntity
  8
0
100
AcDbLine
 10
8.726754825597438
 20
5.318931819630801
 30
0.0
 11
8.726754825597438
 21
5.343906925256955
 31
0.0
  0
LINE
  5
9B79
330
1F
100
AcDbEntity
  8
0
100
AcDbLine
 10
8.726754825597438
 20
5.343906925256955
 30
0.0
 11
8.726754825597438
 21
5.352425468684689
 31
0.0
  0
LINE
  5
9B7A
330
1F
100
AcDbEntity
  8
0
100
AcDbLine
 10
8.726754825597438
 20
5.352425468684689
 30
0.0
 11
8.726754825597438
 21
5.343906925256955
 31
0.0
  0
LINE
  5
9B7B
330
1F
100
AcDbEntity
  8
0
100
AcDbLine
 10
8.726754825597438
 20
5.343906925256955
 30
0.0
 11
8.726754825597438
 21
5.318931819630801
 31
0.0
  0
LINE
  5
9B7C
330
1F
100
AcDbEntity
  8
0
100
AcDbLine
 10
8.726754825597438
 20
5.318931819630801
 30
0.0
 11
8.726754825597438
 21
5.279202163981327
 31
0.0
  0
LINE
  5
9B7D
330
1F
100
AcDbEntity
  8
0
100
AcDbLine
 10
8.726754825597438
 20
5.279202163981327
 30
0.0
 11
8.726754825597438
 21
5.227425468684689
 31
0.0
  0
LINE
  5
9B7E
330
1F
100
AcDbEntity
  8
0
100
AcDbLine
 10
8.726754825597438
 20
5.227425468684689
 30
0.0
 11
8.726754825597438
 21
5.167130229960317
 31
0.0
  0
LINE
  5
9B7F
330
1F
100
AcDbEntity
  8
0
100
AcDbLine
 10
8.726754825597438
 20
5.167130229960317
 30
0.0
 11
8.726754825597438
 21
5.11147998303733
 31
0.0
  0
LINE
  5
9B80
330
1F
100
AcDbEntity
  8
0
100
AcDbLine
 10
7.467934147224838
 20
4.420916432761039
 30
0.0
 11
7.454696964795147
 21
4.42727066967847
 31
0.0
  0
LINE
  5
9B81
330
1F
100
AcDbEntity
  8
0
100
AcDbLine
 10
7.454696964795147
 20
4.42727066967847
 30
0.0
 11
7.445845395553078
 21
4.433430466821675
 31
0.0
  0
LINE
  5
9B82
330
1F
100
AcDbEntity
  8
0
100
AcDbLine
 10
7.500694148490893
 20
4.418241833853215
 30
0.0
 11
7.512528003961563
 21
4.421226001885322
 31
0.0
  0
LINE
  5
9B83
330
1F
100
AcDbEntity
  8
0
100
AcDbLine
 10
7.530740537151743
 20
4.431567961974714
 30
0.0
 11
7.541142544380605
 21
4.441931241913536
 31
0.0
  0
LINE
  5
9B84
330
1F
100
AcDbEntity
  8
0
100
AcDbLine
 10
7.530740537151743
 20
4.431567961974714
 30
0.0
 11
7.522881283907395
 21
4.425817872695255
 31
0.0
  0
LINE
  5
9B85
330
1F
100
AcDbEntity
  8
0
100
AcDbLine
 10
7.432422296077845
 20
4.450388272999177
 30
0.0
 11
7.43446636635808
 21
4.446411277934302
 31
0.0
  0
LINE
  5
9B86
330
1F
100
AcDbEntity
  8
0
100
AcDbLine
 10
7.500694148490893
 20
4.418241833853215
 30
0.0
 11
7.488538097720166
 21
4.417157479757861
 31
0.0
  0
LINE
  5
9B87
330
1F
100
AcDbEntity
  8
0
100
AcDbLine
 10
7.477249770595015
 20
4.418079083733232
 30
0.0
 11
7.467934147224838
 21
4.420916432761039
 31
0.0
  0
LINE
  5
9B88
330
1F
100
AcDbEntity
  8
0
100
AcDbLine
 10
7.512528003961563
 20
4.421226001885322
 30
0.0
 11
7.522881283907395
 21
4.425817872695255
 31
0.0
  0
LINE
  5
9B89
330
1F
100
AcDbEntity
  8
0
100
AcDbLine
 10
7.477249770595015
 20
4.418079083733232
 30
0.0
 11
7.488538097720166
 21
4.417157479757861
 31
0.0
  0
LINE
  5
9B8A
330
1F
100
AcDbEntity
  8
0
100
AcDbLine
 10
7.445845395553078
 20
4.433430466821675
 30
0.0
 11
7.43446636635808
 21
4.446411277934302
 31
0.0
  0
LINE
  5
9B8B
330
1F
100
AcDbEntity
  8
0
100
AcDbLine
 10
7.541142544380605
 20
4.441931241913536
 30
0.0
 11
7.546154501206864
 21
4.448851118385256
 31
0.0
  0
LINE
  5
9B8C
330
1F
100
AcDbEntity
  8
0
100
AcDbLine
 10
7.790969435117474
 20
4.443460332693376
 30
0.0
 11
7.79673424933123
 21
4.450388272999177
 31
0.0
  0
LINE
  5
9B8D
330
1F
100
AcDbEntity
  8
0
100
AcDbLine
 10
7.712059735350223
 20
4.433296230968416
 30
0.0
 11
7.717843876998344
 21
4.430867408932328
 31
0.0
  0
LINE
  5
9B8E
330
1F
100
AcDbEntity
  8
0
100
AcDbLine
 10
7.750697713570261
 20
4.426728320430875
 30
0.0
 11
7.743091406639329
 21
4.426854063984514
 31
0.0
  0
LINE
  5
9B8F
330
1F
100
AcDbEntity
  8
0
100
AcDbLine
 10
7.774661142086046
 20
4.433367230803007
 30
0.0
 11
7.790969435117474
 21
4.443460332693376
 31
0.0
  0
LINE
  5
9B90
330
1F
100
AcDbEntity
  8
0
100
AcDbLine
 10
7.702543260748981
 20
4.439080391152131
 30
0.0
 11
7.706787502298809
 21
4.436126231773897
 31
0.0
  0
LINE
  5
9B91
330
1F
100
AcDbEntity
  8
0
100
AcDbLine
 10
7.723573735158183
 20
4.429077515689094
 30
0.0
 11
7.717843876998344
 21
4.430867408932328
 31
0.0
  0
LINE
  5
9B92
330
1F
100
AcDbEntity
  8
0
100
AcDbLine
 10
7.693360336822266
 20
4.447736664307655
 30
0.0
 11
7.690697652731813
 21
4.450388272999177
 31
0.0
  0
LINE
  5
9B93
330
1F
100
AcDbEntity
  8
0
100
AcDbLine
 10
7.702543260748981
 20
4.439080391152131
 30
0.0
 11
7.693360336822266
 21
4.447736664307655
 31
0.0
  0
LINE
  5
9B94
330
1F
100
AcDbEntity
  8
0
100
AcDbLine
 10
7.712059735350223
 20
4.433296230968416
 30
0.0
 11
7.706787502298809
 21
4.436126231773897
 31
0.0
  0
LINE
  5
9B95
330
1F
100
AcDbEntity
  8
0
100
AcDbLine
 10
7.728688431390779
 20
4.428101758460307
 30
0.0
 11
7.723573735158183
 21
4.429077515689094
 31
0.0
  0
LINE
  5
9B96
330
1F
100
AcDbEntity
  8
0
100
AcDbLine
 10
7.768138020591067
 20
4.431141866110579
 30
0.0
 11
7.774661142086046
 21
4.433367230803007
 31
0.0
  0
LINE
  5
9B97
330
1F
100
AcDbEntity
  8
0
100
AcDbLine
 10
7.750697713570261
 20
4.426728320430875
 30
0.0
 11
7.768138020591067
 21
4.431141866110579
 31
0.0
  0
LINE
  5
9B98
330
1F
100
AcDbEntity
  8
0
100
AcDbLine
 10
7.728688431390779
 20
4.428101758460307
 30
0.0
 11
7.743091406639329
 21
4.426854063984514
 31
0.0
  0
LINE
  5
9B99
330
1F
100
AcDbEntity
  8
0
100
AcDbLine
 10
7.970927612777636
 20
4.418644808303625
 30
0.0
 11
7.977198891572058
 21
4.418807698976188
 31
0.0
  0
LINE
  5
9B9A
330
1F
100
AcDbEntity
  8
0
100
AcDbLine
 10
8.008851072682972
 20
4.428536319743756
 30
0.0
 11
8.001865121874935
 21
4.425524973221591
 31
0.0
  0
LINE
  5
9B9B
330
1F
100
AcDbEntity
  8
0
100
AcDbLine
 10
8.02796887454842
 20
4.444436970327735
 30
0.0
 11
8.031980203874908
 21
4.450388272999177
 31
0.0
  0
LINE
  5
9B9C
330
1F
100
AcDbEntity
  8
0
100
AcDbLine
 10
7.959874809943116
 20
4.420006919667713
 30
0.0
 11
7.96495814107395
 21
4.419058031592335
 31
0.0
  0
LINE
  5
9B9D
330
1F
100
AcDbEntity
  8
0
100
AcDbLine
 10
7.983158100994259
 20
4.419530758736051
 30
0.0
 11
7.977198891572058
 21
4.418807698976188
 31
0.0
  0
LINE
  5
9B9E
330
1F
100
AcDbEntity
  8
0
100
AcDbLine
 10
7.940908674533083
 20
4.426771578724803
 30
0.0
 11
7.937192471123601
 21
4.430001792404191
 31
0.0
  0
LINE
  5
9B9F
330
1F
100
AcDbEntity
  8
0
100
AcDbLine
 10
7.937192471123601
 20
4.430001792404191
 30
0.0
 11
7.924307043859158
 21
4.441744450050293
 31
0.0
  0
LINE
  5
9BA0
330
1F
100
AcDbEntity
  8
0
100
AcDbLine
 10
7.947945729415238
 20
4.424124466819378
 30
0.0
 11
7.940908674533083
 21
4.426771578724803
 31
0.0
  0
LINE
  5
9BA1
330
1F
100
AcDbEntity
  8
0
100
AcDbLine
 10
7.959874809943116
 20
4.420006919667713
 30
0.0
 11
7.947945729415238
 21
4.424124466819378
 31
0.0
  0
LINE
  5
9BA2
330
1F
100
AcDbEntity
  8
0
100
AcDbLine
 10
7.970927612777636
 20
4.418644808303625
 30
0.0
 11
7.96495814107395
 21
4.419058031592335
 31
0.0
  0
LINE
  5
9BA3
330
1F
100
AcDbEntity
  8
0
100
AcDbLine
 10
7.988221912105743
 20
4.420743209456084
 30
0.0
 11
7.983158100994259
 21
4.419530758736051
 31
0.0
  0
LINE
  5
9BA4
330
1F
100
AcDbEntity
  8
0
100
AcDbLine
 10
8.022936647491718
 20
4.439727399975531
 30
0.0
 11
8.02796887454842
 21
4.444436970327735
 31
0.0
  0
LINE
  5
9BA5
330
1F
100
AcDbEntity
  8
0
100
AcDbLine
 10
8.008851072682972
 20
4.428536319743756
 30
0.0
 11
8.022936647491718
 21
4.439727399975531
 31
0.0
  0
LINE
  5
9BA6
330
1F
100
AcDbEntity
  8
0
100
AcDbLine
 10
7.924307043859158
 20
4.441744450050293
 30
0.0
 11
7.920116725194063
 21
4.45038827299918
 31
0.0
  0
LINE
  5
9BA7
330
1F
100
AcDbEntity
  8
0
100
AcDbLine
 10
7.988221912105743
 20
4.420743209456084
 30
0.0
 11
8.001865121874935
 21
4.425524973221591
 31
0.0
  0
LINE
  5
9BA8
330
1F
100
AcDbEntity
  8
0
100
AcDbLine
 10
6.746553786493976
 20
5.10332082350445
 30
0.0
 11
6.74896559604295
 21
5.104319827729494
 31
0.0
  0
LINE
  5
9BA9
330
1F
100
AcDbEntity
  8
0
100
AcDbLine
 10
6.913594704590188
 20
5.101731637278472
 30
0.0
 11
6.913891679098952
 21
5.10332082350445
 31
0.0
  0
LINE
  5
9BAA
330
1F
100
AcDbEntity
  8
0
100
AcDbLine
 10
6.913223578843663
 20
5.097248759917629
 30
0.0
 11
6.913366828034867
 21
5.099660569466603
 31
0.0
  0
LINE
  5
9BAB
330
1F
100
AcDbEntity
  8
0
100
AcDbLine
 10
6.744482718682107
 20
5.101731637278472
 30
0.0
 11
6.746553786493976
 21
5.10332082350445
 31
0.0
  0
LINE
  5
9BAC
330
1F
100
AcDbEntity
  8
0
100
AcDbLine
 10
6.913366828034867
 20
5.099660569466603
 30
0.0
 11
6.913594704590188
 21
5.101731637278472
 31
0.0
  0
LINE
  5
9BAD
330
1F
100
AcDbEntity
  8
0
100
AcDbLine
 10
6.74896559604295
 20
5.104319827729494
 30
0.0
 11
6.751553786493971
 21
5.104660569466606
 31
0.0
  0
LINE
  5
9BAE
330
1F
100
AcDbEntity
  8
0
100
AcDbLine
 10
6.913891679098952
 20
5.10332082350445
 30
0.0
 11
6.914237513239172
 21
5.104319827729494
 31
0.0
  0
LINE
  5
9BAF
330
1F
100
AcDbEntity
  8
0
100
AcDbLine
 10
6.74896559604295
 20
5.085001311203715
 30
0.0
 11
6.746553786493976
 21
5.086000315428758
 31
0.0
  0
LINE
  5
9BB0
330
1F
100
AcDbEntity
  8
0
100
AcDbLine
 10
6.746553786493976
 20
5.086000315428758
 30
0.0
 11
6.744482718682107
 21
5.087589501654743
 31
0.0
  0
LINE
  5
9BB1
330
1F
100
AcDbEntity
  8
0
100
AcDbLine
 10
6.914237513239172
 20
5.085001311203715
 30
0.0
 11
6.913891679098952
 21
5.086000315428758
 31
0.0
  0
LINE
  5
9BB2
330
1F
100
AcDbEntity
  8
0
100
AcDbLine
 10
6.741553786493973
 20
5.094660569466608
 30
0.0
 11
6.741894528231085
 21
5.097248759917629
 31
0.0
  0
LINE
  5
9BB3
330
1F
100
AcDbEntity
  8
0
100
AcDbLine
 10
6.744482718682107
 20
5.087589501654743
 30
0.0
 11
6.742893532456129
 21
5.089660569466605
 31
0.0
  0
LINE
  5
9BB4
330
1F
100
AcDbEntity
  8
0
100
AcDbLine
 10
6.742893532456129
 20
5.099660569466603
 30
0.0
 11
6.744482718682107
 21
5.101731637278472
 31
0.0
  0
LINE
  5
9BB5
330
1F
100
AcDbEntity
  8
0
100
AcDbLine
 10
6.913594704590188
 20
5.087589501654743
 30
0.0
 11
6.913366828034867
 21
5.089660569466605
 31
0.0
  0
LINE
  5
9BB6
330
1F
100
AcDbEntity
  8
0
100
AcDbLine
 10
6.914608638985697
 20
5.084660569466603
 30
0.0
 11
6.914237513239172
 21
5.085001311203715
 31
0.0
  0
LINE
  5
9BB7
330
1F
100
AcDbEntity
  8
0
100
AcDbLine
 10
6.914237513239172
 20
5.104319827729494
 30
0.0
 11
6.914608638985697
 21
5.104660569466606
 31
0.0
  0
LINE
  5
9BB8
330
1F
100
AcDbEntity
  8
0
100
AcDbLine
 10
6.751553786493971
 20
5.084660569466603
 30
0.0
 11
6.74896559604295
 21
5.085001311203715
 31
0.0
  0
LINE
  5
9BB9
330
1F
100
AcDbEntity
  8
0
100
AcDbLine
 10
6.913223578843663
 20
5.092072379015579
 30
0.0
 11
6.913174719212214
 21
5.094660569466608
 31
0.0
  0
LINE
  5
9BBA
330
1F
100
AcDbEntity
  8
0
100
AcDbLine
 10
6.742893532456129
 20
5.089660569466605
 30
0.0
 11
6.741894528231085
 21
5.092072379015579
 31
0.0
  0
LINE
  5
9BBB
330
1F
100
AcDbEntity
  8
0
100
AcDbLine
 10
6.913366828034867
 20
5.089660569466605
 30
0.0
 11
6.913223578843663
 21
5.092072379015579
 31
0.0
  0
LINE
  5
9BBC
330
1F
100
AcDbEntity
  8
0
100
AcDbLine
 10
6.913891679098952
 20
5.086000315428758
 30
0.0
 11
6.913594704590188
 21
5.087589501654743
 31
0.0
  0
LINE
  5
9BBD
330
1F
100
AcDbEntity
  8
0
100
AcDbLine
 10
6.913174719212214
 20
5.094660569466608
 30
0.0
 11
6.913223578843663
 21
5.097248759917629
 31
0.0
  0
LINE
  5
9BBE
330
1F
100
AcDbEntity
  8
0
100
AcDbLine
 10
7.064586307527441
 20
5.104660569466609
 30
0.0
 11
6.914608638985697
 21
5.104660569466606
 31
0.0
  0
LINE
  5
9BBF
330
1F
100
AcDbEntity
  8
0
100
AcDbLine
 10
7.064586307527441
 20
5.084660569466603
 30
0.0
 11
6.914608638985697
 21
5.084660569466603
 31
0.0
  0
LINE
  5
9BC0
330
1F
100
AcDbEntity
  8
0
100
AcDbLine
 10
6.741894528231085
 20
5.097248759917629
 30
0.0
 11
6.742893532456129
 21
5.099660569466603
 31
0.0
  0
LINE
  5
9BC1
330
1F
100
AcDbEntity
  8
0
100
AcDbLine
 10
6.74147211207984
 20
5.093725836459856
 30
0.0
 11
6.741653387644618
 21
5.093904023616939
 31
0.0
  0
LINE
  5
9BC2
330
1F
100
AcDbEntity
  8
0
100
AcDbLine
 10
6.741707279307519
 20
5.093494675796872
 30
0.0
 11
6.74147211207984
 21
5.093725836459856
 31
0.0
  0
LINE
  5
9BC3
330
1F
100
AcDbEntity
  8
0
100
AcDbLine
 10
6.741653387644618
 20
5.093904023616939
 30
0.0
 11
6.741553786493973
 21
5.094660569466608
 31
0.0
  0
LINE
  5
9BC4
330
1F
100
AcDbEntity
  8
0
100
AcDbLine
 10
6.741894528231085
 20
5.092072379015579
 30
0.0
 11
6.741707279307519
 21
5.093494675796872
 31
0.0
  0
LINE
  5
9BC5
330
1F
100
AcDbEntity
  8
0
100
AcDbLine
 10
6.741707279307519
 20
5.093494675796872
 30
0.0
 11
6.741653387644618
 21
5.093904023616939
 31
0.0
  0
LINE
  5
9BC6
330
1F
100
AcDbEntity
  8
0
100
AcDbLine
 10
6.751553786493971
 20
5.084660569466603
 30
0.0
 11
6.761472112079843
 21
5.084660569466603
 31
0.0
  0
LINE
  5
9BC7
330
1F
100
AcDbEntity
  8
0
100
AcDbLine
 10
6.751553786493971
 20
5.104660569466606
 30
0.0
 11
6.761472112079843
 21
5.104660569466606
 31
0.0
  0
LINE
  5
9BC8
330
1F
100
AcDbEntity
  8
0
100
AcDbLine
 10
6.914608638985697
 20
5.084660569466603
 30
0.0
 11
6.761472112079843
 21
5.084660569466603
 31
0.0
  0
LINE
  5
9BC9
330
1F
100
AcDbEntity
  8
0
100
AcDbLine
 10
6.914608638985697
 20
5.104660569466606
 30
0.0
 11
6.761472112079843
 21
5.104660569466606
 31
0.0
  0
LINE
  5
9BCA
330
1F
100
AcDbEntity
  8
STREFA BEZPIECZEŃSTWA
100
AcDbLine
 10
10.18670920700631
 20
8.146077547133454
 30
0.0
 11
9.168776455155438
 21
8.146077547133458
 31
0.0
  0
LINE
  5
9BCB
330
1F
100
AcDbEntity
  8
STREFA BEZPIECZEŃSTWA
100
AcDbLine
 10
9.168776455155438
 20
8.146077547133458
 30
0.0
 11
9.168776455155452
 21
9.367633463230493
 31
0.0
  0
LINE
  5
9BCC
330
1F
100
AcDbEntity
  8
STREFA BEZPIECZEŃSTWA
100
AcDbLine
 10
9.168776455155452
 20
9.367633463230493
 30
0.0
 11
3.607015013217015
 21
9.36763346323049
 31
0.0
  0
LINE
  5
9BCD
330
1F
100
AcDbEntity
  8
STREFA BEZPIECZEŃSTWA
100
AcDbLine
 10
3.607015013217015
 20
9.36763346323049
 30
0.0
 11
3.607015013217157
 21
8.591191291173586
 31
0.0
  0
LINE
  5
9BCE
330
1F
100
AcDbEntity
  8
STREFA BEZPIECZEŃSTWA
100
AcDbLine
 10
0.9703443517343117
 20
4.84750726224513
 30
0.0
 11
3.607015013217157
 21
4.84750726224512
 31
0.0
  0
LINE
  5
9BCF
330
1F
100
AcDbEntity
  8
STREFA BEZPIECZEŃSTWA
100
AcDbLine
 10
3.607015013217157
 20
4.84750726224512
 30
0.0
 11
4.538074362969119
 21
4.847507262245116
 31
0.0
  0
LINE
  5
9BD0
330
1F
100
AcDbEntity
  8
STREFA BEZPIECZEŃSTWA
100
AcDbLine
 10
4.541452115571289
 20
3.592072379015572
 30
0.0
 11
5.565090560706074
 21
3.592072379015576
 31
0.0
  0
LINE
  5
9BD1
330
1F
100
AcDbEntity
  8
STREFA BEZPIECZEŃSTWA
100
AcDbLine
 10
5.565090560706032
 20
2.870601827265804
 30
0.0
 11
10.18670920700634
 21
2.870601827265804
 31
0.0
  0
LINE
  5
9BD2
330
1F
100
AcDbEntity
  8
STREFA BEZPIECZEŃSTWA
100
AcDbLine
 10
0.6998155516010769
 20
8.591191291173572
 30
0.0
 11
0.6998155516010769
 21
4.84750726224513
 31
0.0
  0
LINE
  5
9BD3
330
1F
100
AcDbEntity
  8
STREFA BEZPIECZEŃSTWA
100
AcDbLine
 10
4.538074362969119
 20
4.847507262245116
 30
0.0
 11
4.541452115571289
 21
3.592072379015572
 31
0.0
  0
DIMENSION
  5
9BD4
330
1F
100
AcDbEntity
  8
WYMIAR
100
AcDbDimension
  2
*D3
 10
10.18670920700631
 20
9.997977178474929
 30
0.0
 11
5.443262379303696
 21
10.20797717847493
 31
0.0
 70
    32
 71
     5
 42
9.486893655405239
  3
AR SKALA 1-50
100
AcDbAlignedDimension
 13
0.6998155516010769
 23
7.807430534615008
 33
0.0
 14
10.18670920700631
 24
7.36231679057489
 34
0.0
100
AcDbRotatedDimension
  0
DIMENSION
  5
9BD5
330
1F
100
AcDbEntity
  8
WYMIAR
100
AcDbDimension
  2
*D4
 10
11.05167482667846
 20
2.870601827265804
 30
0.0
 11
10.84167482667846
 21
6.11911764524815
 31
0.0
 70
    32
 71
     5
 42
6.497031635964688
  3
AR SKALA 1-50
100
AcDbAlignedDimension
 13
8.812220434455909
 23
9.367633463230493
 33
0.0
 14
9.830153186306802
 24
2.870601827265804
 34
0.0
 50
90.0
100
AcDbRotatedDimension
  0
LINE
  5
9BD6
330
1F
100
AcDbEntity
  8
STREFA BEZPIECZEŃSTWA
100
AcDbLine
 10
10.18670920700631
 20
8.146077547133454
 30
0.0
 11
10.18670920700634
 21
2.870601827265804
 31
0.0
  0
LINE
  5
9BD7
330
1F
100
AcDbEntity
  8
STREFA BEZPIECZEŃSTWA
100
AcDbLine
 10
5.565090560706074
 20
3.592072379015576
 30
0.0
 11
5.565090560706032
 21
2.870601827265804
 31
0.0
  0
LINE
  5
9DCF
330
1F
100
AcDbEntity
  8
0
100
AcDbLine
 10
6.631228850202337
 20
6.770234880123929
 30
0.0
 11
6.631228850202333
 21
6.748943854046103
 31
0.0
  0
LINE
  5
9DD0
330
1F
100
AcDbEntity
  8
0
100
AcDbLine
 10
6.631228850202333
 20
6.153495810524951
 30
0.0
 11
6.631228850202333
 21
6.723170096518575
 31
0.0
  0
LINE
  5
9DD1
330
1F
100
AcDbEntity
  8
0
100
AcDbLine
 10
6.631228850202333
 20
6.723170096518575
 30
0.0
 11
6.631228850202333
 21
6.72773065061051
 31
0.0
  0
LINE
  5
9DD2
330
1F
100
AcDbEntity
  8
0
100
AcDbLine
 10
5.531228850202277
 20
6.727730650610984
 30
0.0
 11
5.531228850202277
 21
6.723170096519046
 31
0.0
  0
LINE
  5
9DD3
330
1F
100
AcDbEntity
  8
0
100
AcDbLine
 10
5.531228850202277
 20
6.723170096519046
 30
0.0
 11
5.531228850202277
 21
6.153495810525432
 31
0.0
  0
LINE
  5
9DD4
330
1F
100
AcDbEntity
  8
0
100
AcDbLine
 10
5.531228850202277
 20
6.780684004329645
 30
0.0
 11
5.531228850202277
 21
7.306066495897576
 31
0.0
  0
LINE
  5
9DD5
330
1F
100
AcDbEntity
  8
0
100
AcDbLine
 10
6.631228850202337
 20
6.777525481456454
 30
0.0
 11
6.631228850202337
 21
6.770234880123929
 31
0.0
  0
LINE
  5
9DD6
330
1F
100
AcDbEntity
  8
0
100
AcDbLine
 10
5.531228850202277
 20
6.748943854046581
 30
0.0
 11
5.531228850202277
 21
6.768931565824933
 31
0.0
  0
LINE
  5
9DD7
330
1F
100
AcDbEntity
  8
0
100
AcDbLine
 10
6.631228850202337
 20
6.780684004329167
 30
0.0
 11
6.631228850202337
 21
6.777525481456454
 31
0.0
  0
LINE
  5
9DD8
330
1F
100
AcDbEntity
  8
0
100
AcDbLine
 10
5.531228850202277
 20
6.768931565824933
 30
0.0
 11
5.531228850202277
 21
6.777525481456924
 31
0.0
  0
LINE
  5
9DD9
330
1F
100
AcDbEntity
  8
0
100
AcDbLine
 10
5.531228850202277
 20
6.777525481456924
 30
0.0
 11
5.531228850202277
 21
6.780684004329645
 31
0.0
  0
LINE
  5
9DDA
330
1F
100
AcDbEntity
  8
0
100
AcDbLine
 10
6.631228850202333
 20
7.306066495897113
 30
0.0
 11
6.631228850202337
 21
6.780684004329167
 31
0.0
  0
LINE
  5
9DDB
330
1F
100
AcDbEntity
  8
0
100
AcDbLine
 10
6.631228850202333
 20
6.129627915277772
 30
0.0
 11
6.631228850202333
 21
6.153495810524951
 31
0.0
  0
LINE
  5
9DDC
330
1F
100
AcDbEntity
  8
0
100
AcDbLine
 10
5.531228850202277
 20
6.12962791527825
 30
0.0
 11
5.531228850202277
 21
6.153495810525432
 31
0.0
  0
LINE
  5
9DDD
330
1F
100
AcDbEntity
  8
0
100
AcDbLine
 10
5.531228850202277
 20
7.329223127866397
 30
0.0
 11
5.531228850202277
 21
7.306066495897576
 31
0.0
  0
LINE
  5
9DDE
330
1F
100
AcDbEntity
  8
0
100
AcDbLine
 10
6.631228850202333
 20
7.329223127865926
 30
0.0
 11
6.631228850202333
 21
7.306066495897113
 31
0.0
  0
LINE
  5
9DDF
330
1F
100
AcDbEntity
  8
0
100
AcDbLine
 10
5.531228850202277
 20
6.748943854046581
 30
0.0
 11
5.631228850202276
 21
6.748943854046581
 31
0.0
  0
LINE
  5
9DE0
330
1F
100
AcDbEntity
  8
0
100
AcDbLine
 10
5.631228850202276
 20
6.748943854046581
 30
0.0
 11
5.631228850202285
 21
7.329223127866399
 31
0.0
  0
LINE
  5
9DE1
330
1F
100
AcDbEntity
  8
0
100
AcDbLine
 10
5.731228850202285
 20
7.329223127866399
 30
0.0
 11
5.731228850202285
 21
6.748943854046581
 31
0.0
  0
LINE
  5
9DE2
330
1F
100
AcDbEntity
  8
0
100
AcDbLine
 10
5.731228850202285
 20
6.748943854046581
 30
0.0
 11
5.831228850202286
 21
6.748943854046581
 31
0.0
  0
LINE
  5
9DE3
330
1F
100
AcDbEntity
  8
0
100
AcDbLine
 10
5.831228850202286
 20
6.748943854046581
 30
0.0
 11
5.831228850202288
 21
7.329223127866399
 31
0.0
  0
ARC
  5
9DE4
330
1F
100
AcDbEntity
  8
0
100
AcDbCircle
 10
5.581228850202281
 20
7.330097963787835
 30
0.0
 40
0.0500076527932462
100
AcDbArc
 50
358.9976141588702
 51
181.0023858411308
  0
ARC
  5
9DE5
330
1F
100
AcDbEntity
  8
0
100
AcDbCircle
 10
5.681228850202291
 20
7.330097963787867
 30
0.0
 40
0.0500076527932462
100
AcDbArc
 50
358.9976141588702
 51
181.002385841131
  0
ARC
  5
9DE6
330
1F
100
AcDbEntity
  8
0
100
AcDbCircle
 10
5.7812288502023
 20
7.330097963787867
 30
0.0
 40
0.0500076527932462
100
AcDbArc
 50
358.9976141588702
 51
181.002385841131
  0
LINE
  5
9DE7
330
1F
100
AcDbEntity
  8
0
100
AcDbLine
 10
5.931228850202288
 20
6.748943854046583
 30
0.0
 11
5.931228850202296
 21
7.329223127866399
 31
0.0
  0
LINE
  5
9DE8
330
1F
100
AcDbEntity
  8
0
100
AcDbLine
 10
6.031228850202296
 20
7.329223127866399
 30
0.0
 11
6.031228850202296
 21
6.748943854046583
 31
0.0
  0
LINE
  5
9DE9
330
1F
100
AcDbEntity
  8
0
100
AcDbLine
 10
6.131228850202296
 20
6.748943854046583
 30
0.0
 11
6.131228850202298
 21
7.329223127866399
 31
0.0
  0
ARC
  5
9DEA
330
1F
100
AcDbEntity
  8
0
100
AcDbCircle
 10
5.881228850202292
 20
7.330097963787835
 30
0.0
 40
0.0500076527932462
100
AcDbArc
 50
358.9976141588702
 51
181.002385841131
  0
ARC
  5
9DEB
330
1F
100
AcDbEntity
  8
0
100
AcDbCircle
 10
5.981228850202302
 20
7.330097963787867
 30
0.0
 40
0.0500076527932462
100
AcDbArc
 50
358.9976141588702
 51
181.002385841131
  0
ARC
  5
9DEC
330
1F
100
AcDbEntity
  8
0
100
AcDbCircle
 10
6.081228850202311
 20
7.330097963787867
 30
0.0
 40
0.0500076527932462
100
AcDbArc
 50
358.9976141588702
 51
181.002385841131
  0
LINE
  5
9DED
330
1F
100
AcDbEntity
  8
0
100
AcDbLine
 10
6.231228850202313
 20
6.748943854046615
 30
0.0
 11
6.231228850202324
 21
7.329223127866431
 31
0.0
  0
LINE
  5
9DEE
330
1F
100
AcDbEntity
  8
0
100
AcDbLine
 10
6.331228850202322
 20
7.329223127866431
 30
0.0
 11
6.331228850202322
 21
6.748943854046615
 31
0.0
  0
LINE
  5
9DEF
330
1F
100
AcDbEntity
  8
0
100
AcDbLine
 10
6.431228850202323
 20
6.748943854046615
 30
0.0
 11
6.431228850202325
 21
7.329223127866431
 31
0.0
  0
ARC
  5
9DF0
330
1F
100
AcDbEntity
  8
0
100
AcDbCircle
 10
6.18122885020232
 20
7.330097963787869
 30
0.0
 40
0.0500076527932462
100
AcDbArc
 50
358.9976141588702
 51
181.002385841131
  0
ARC
  5
9DF1
330
1F
100
AcDbEntity
  8
0
100
AcDbCircle
 10
6.281228850202328
 20
7.330097963787899
 30
0.0
 40
0.0500076527932462
100
AcDbArc
 50
358.9976141588702
 51
181.002385841131
  0
ARC
  5
9DF2
330
1F
100
AcDbEntity
  8
0
100
AcDbCircle
 10
6.381228850202337
 20
7.330097963787901
 30
0.0
 40
0.0500076527932462
100
AcDbArc
 50
358.9976141588702
 51
181.002385841131
  0
LINE
  5
9DF3
330
1F
100
AcDbEntity
  8
0
100
AcDbLine
 10
6.531228850202325
 20
6.748943854046615
 30
0.0
 11
6.531228850202333
 21
7.329223127866432
 31
0.0
  0
LINE
  5
9DF4
330
1F
100
AcDbEntity
  8
0
100
AcDbLine
 10
6.631228850202333
 20
7.329223127866432
 30
0.0
 11
6.631228850202333
 21
6.748943854046615
 31
0.0
  0
ARC
  5
9DF5
330
1F
100
AcDbEntity
  8
0
100
AcDbCircle
 10
6.481228850202329
 20
7.330097963787871
 30
0.0
 40
0.0500076527932462
100
AcDbArc
 50
358.9976141588702
 51
181.002385841131
  0
ARC
  5
9DF6
330
1F
100
AcDbEntity
  8
0
100
AcDbCircle
 10
6.581228850202339
 20
7.330097963787901
 30
0.0
 40
0.0500076527932462
100
AcDbArc
 50
358.9976141588702
 51
181.002385841131
  0
LINE
  5
9DF7
330
1F
100
AcDbEntity
  8
0
100
AcDbLine
 10
5.531228850202277
 20
6.748943854046581
 30
0.0
 11
6.631228850202333
 21
6.748943854046615
 31
0.0
  0
LINE
  5
9DF8
330
1F
100
AcDbEntity
  8
0
100
AcDbLine
 10
6.632815597672887
 20
6.727730650610984
 30
0.0
 11
5.531228850202277
 21
6.727730650610984
 31
0.0
  0
LINE
  5
9DF9
330
1F
100
AcDbEntity
  8
0
100
AcDbLine
 10
6.531228850202342
 20
6.709907189098132
 30
0.0
 11
6.531228850202335
 21
6.129627915278316
 31
0.0
  0
LINE
  5
9DFA
330
1F
100
AcDbEntity
  8
0
100
AcDbLine
 10
6.431228850202334
 20
6.129627915278316
 30
0.0
 11
6.431228850202334
 21
6.709907189098132
 31
0.0
  0
LINE
  5
9DFB
330
1F
100
AcDbEntity
  8
0
100
AcDbLine
 10
6.331228850202336
 20
6.709907189098132
 30
0.0
 11
6.331228850202332
 21
6.129627915278316
 31
0.0
  0
ARC
  5
9DFC
330
1F
100
AcDbEntity
  8
0
100
AcDbCircle
 10
6.581228850202339
 20
6.128753079356879
 30
0.0
 40
0.0500076527932462
100
AcDbArc
 50
178.99761415887
 51
1.00238584113076
  0
ARC
  5
9DFD
330
1F
100
AcDbEntity
  8
0
100
AcDbCircle
 10
6.481228850202329
 20
6.128753079356847
 30
0.0
 40
0.0500076527932462
100
AcDbArc
 50
178.99761415887
 51
1.00238584113076
  0
ARC
  5
9DFE
330
1F
100
AcDbEntity
  8
0
100
AcDbCircle
 10
6.381228850202321
 20
6.128753079356847
 30
0.0
 40
0.0500076527932462
100
AcDbArc
 50
178.99761415887
 51
1.00238584113076
  0
LINE
  5
9DFF
330
1F
100
AcDbEntity
  8
0
100
AcDbLine
 10
6.231228850202333
 20
6.709907189098132
 30
0.0
 11
6.231228850202324
 21
6.129627915278316
 31
0.0
  0
LINE
  5
9E00
330
1F
100
AcDbEntity
  8
0
100
AcDbLine
 10
6.131228850202324
 20
6.129627915278316
 30
0.0
 11
6.131228850202324
 21
6.709907189098132
 31
0.0
  0
LINE
  5
9E01
330
1F
100
AcDbEntity
  8
0
100
AcDbLine
 10
6.031228850202325
 20
6.709907189098132
 30
0.0
 11
6.031228850202321
 21
6.129627915278316
 31
0.0
  0
ARC
  5
9E02
330
1F
100
AcDbEntity
  8
0
100
AcDbCircle
 10
6.281228850202328
 20
6.128753079356878
 30
0.0
 40
0.0500076527932462
100
AcDbArc
 50
178.99761415887
 51
1.00238584113076
  0
ARC
  5
9E03
330
1F
100
AcDbEntity
  8
0
100
AcDbCircle
 10
6.18122885020232
 20
6.128753079356847
 30
0.0
 40
0.0500076527932462
100
AcDbArc
 50
178.99761415887
 51
1.00238584113076
  0
ARC
  5
9E04
330
1F
100
AcDbEntity
  8
0
100
AcDbCircle
 10
6.081228850202311
 20
6.128753079356846
 30
0.0
 40
0.0500076527932462
100
AcDbArc
 50
178.99761415887
 51
1.00238584113076
  0
LINE
  5
9E05
330
1F
100
AcDbEntity
  8
0
100
AcDbLine
 10
5.931228850202305
 20
6.7099071890981
 30
0.0
 11
5.931228850202298
 21
6.129627915278282
 31
0.0
  0
LINE
  5
9E06
330
1F
100
AcDbEntity
  8
0
100
AcDbLine
 10
5.831228850202297
 20
6.129627915278282
 30
0.0
 11
5.831228850202297
 21
6.7099071890981
 31
0.0
  0
LINE
  5
9E07
330
1F
100
AcDbEntity
  8
0
100
AcDbLine
 10
5.731228850202297
 20
6.7099071890981
 30
0.0
 11
5.731228850202295
 21
6.129627915278282
 31
0.0
  0
ARC
  5
9E08
330
1F
100
AcDbEntity
  8
0
100
AcDbCircle
 10
5.981228850202302
 20
6.128753079356844
 30
0.0
 40
0.0500076527932462
100
AcDbArc
 50
178.99761415887
 51
1.00238584113076
  0
ARC
  5
9E09
330
1F
100
AcDbEntity
  8
0
100
AcDbCircle
 10
5.881228850202292
 20
6.128753079356814
 30
0.0
 40
0.0500076527932462
100
AcDbArc
 50
178.99761415887
 51
1.00238584113076
  0
ARC
  5
9E0A
330
1F
100
AcDbEntity
  8
0
100
AcDbCircle
 10
5.781228850202284
 20
6.128753079356812
 30
0.0
 40
0.0500076527932462
100
AcDbArc
 50
178.99761415887
 51
1.00238584113076
  0
LINE
  5
9E0B
330
1F
100
AcDbEntity
  8
0
100
AcDbLine
 10
5.631228850202294
 20
6.709907189098098
 30
0.0
 11
5.631228850202287
 21
6.12962791527828
 31
0.0
  0
ARC
  5
9E0C
330
1F
100
AcDbEntity
  8
0
100
AcDbCircle
 10
5.681228850202291
 20
6.128753079356844
 30
0.0
 40
0.0500076527932462
100
AcDbArc
 50
178.99761415887
 51
1.00238584113076
  0
ARC
  5
9E0D
330
1F
100
AcDbEntity
  8
0
100
AcDbCircle
 10
5.581228850202281
 20
6.128753079356812
 30
0.0
 40
0.0500076527932462
100
AcDbArc
 50
178.99761415887
 51
1.00238584113076
  0
LINE
  5
9E0E
330
1F
100
AcDbEntity
  8
0
100
AcDbLine
 10
5.431228850202268
 20
6.723170096519037
 30
0.0
 11
5.431228850202268
 21
6.153495810525424
 31
0.0
  0
LINE
  5
9E0F
330
1F
100
AcDbEntity
  8
0
100
AcDbLine
 10
5.431228850202268
 20
6.780684004329636
 30
0.0
 11
5.431228850202268
 21
7.306066495897567
 31
0.0
  0
LINE
  5
9E10
330
1F
100
AcDbEntity
  8
0
100
AcDbLine
 10
5.431228850202268
 20
6.748943854046572
 30
0.0
 11
5.431228850202268
 21
6.768931565824924
 31
0.0
  0
LINE
  5
9E11
330
1F
100
AcDbEntity
  8
0
100
AcDbLine
 10
5.431228850202268
 20
6.768931565824924
 30
0.0
 11
5.431228850202268
 21
6.777525481456915
 31
0.0
  0
LINE
  5
9E12
330
1F
100
AcDbEntity
  8
0
100
AcDbLine
 10
5.431228850202268
 20
6.777525481456915
 30
0.0
 11
5.431228850202268
 21
6.780684004329636
 31
0.0
  0
LINE
  5
9E13
330
1F
100
AcDbEntity
  8
0
100
AcDbLine
 10
5.431228850202268
 20
6.129627915278241
 30
0.0
 11
5.431228850202268
 21
6.153495810525424
 31
0.0
  0
LINE
  5
9E14
330
1F
100
AcDbEntity
  8
0
100
AcDbLine
 10
5.431228850202268
 20
7.329223127866388
 30
0.0
 11
5.431228850202268
 21
7.306066495897567
 31
0.0
  0
ARC
  5
9E15
330
1F
100
AcDbEntity
  8
0
100
AcDbCircle
 10
5.481228850202272
 20
7.330097963787826
 30
0.0
 40
0.0500076527932462
100
AcDbArc
 50
358.9976141588702
 51
181.0023858411308
  0
ARC
  5
9E16
330
1F
100
AcDbEntity
  8
0
100
AcDbCircle
 10
5.481228850202272
 20
6.128753079356803
 30
0.0
 40
0.0500076527932462
100
AcDbArc
 50
178.99761415887
 51
1.00238584113076
  0
LINE
  5
9E17
330
1F
100
AcDbEntity
  8
0
100
AcDbLine
 10
5.431228850202268
 20
6.723170096519037
 30
0.0
 11
5.431228850202268
 21
6.748943854046572
 31
0.0
  0
LINE
  5
9E18
330
1F
100
AcDbEntity
  8
0
100
AcDbLine
 10
5.431228850202268
 20
6.748943854046572
 30
0.0
 11
5.531228850202277
 21
6.748943854046581
 31
0.0
  0
LINE
  5
9E19
330
1F
100
AcDbEntity
  8
0
100
AcDbLine
 10
5.531228850202277
 20
6.727730650610984
 30
0.0
 11
5.431228850202266
 21
6.727730650610983
 31
0.0
  0
LINE
  5
9E1B
330
1F
100
AcDbEntity
  8
0
100
AcDbLine
 10
6.731228850202331
 20
6.153495810524407
 30
0.0
 11
6.731228850202331
 21
6.723170096518032
 31
0.0
  0
LINE
  5
9E1C
330
1F
100
AcDbEntity
  8
0
100
AcDbLine
 10
6.731228850202331
 20
7.306066495896569
 30
0.0
 11
6.731228850202334
 21
6.780684004328623
 31
0.0
  0
LINE
  5
9E1D
330
1F
100
AcDbEntity
  8
0
100
AcDbLine
 10
6.731228850202331
 20
6.129627915277229
 30
0.0
 11
6.731228850202331
 21
6.153495810524407
 31
0.0
  0
LINE
  5
9E1E
330
1F
100
AcDbEntity
  8
0
100
AcDbLine
 10
6.731228850202331
 20
7.329223127865382
 30
0.0
 11
6.731228850202331
 21
7.306066495896569
 31
0.0
  0
LINE
  5
9E1F
330
1F
100
AcDbEntity
  8
0
100
AcDbLine
 10
6.731228850202331
 20
7.329223127865889
 30
0.0
 11
6.731228850202331
 21
6.748943854046071
 31
0.0
  0
ARC
  5
9E20
330
1F
100
AcDbEntity
  8
0
100
AcDbCircle
 10
6.681228850202337
 20
7.330097963787357
 30
0.0
 40
0.0500076527932462
100
AcDbArc
 50
358.9976141588702
 51
181.002385841131
  0
ARC
  5
9E21
330
1F
100
AcDbEntity
  8
0
100
AcDbCircle
 10
6.681228850202337
 20
6.128753079356336
 30
0.0
 40
0.0500076527932462
100
AcDbArc
 50
178.99761415887
 51
1.00238584113076
  0
LINE
  5
9E22
330
1F
100
AcDbEntity
  8
0
100
AcDbLine
 10
6.632815597672887
 20
6.727730650610984
 30
0.0
 11
6.731228850202333
 21
6.727730650610983
 31
0.0
  0
LINE
  5
9E23
330
1F
100
AcDbEntity
  8
0
100
AcDbLine
 10
6.631228850202333
 20
6.748943854046103
 30
0.0
 11
6.731228850202331
 21
6.748943854046071
 31
0.0
  0
CIRCLE
  5
9E24
330
1F
100
AcDbEntity
  8
0
100
AcDbCircle
 10
5.489490879391645
 20
6.862886102281159
 30
0.0
 40
0.01089627287962
  0
CIRCLE
  5
9E25
330
1F
100
AcDbEntity
  8
0
100
AcDbCircle
 10
5.587466595430797
 20
6.862886102281159
 30
0.0
 40
0.01089627287962
  0
CIRCLE
  5
9E26
330
1F
100
AcDbEntity
  8
0
100
AcDbCircle
 10
5.685442311469945
 20
6.862886102281159
 30
0.0
 40
0.01089627287962
  0
CIRCLE
  5
9E27
330
1F
100
AcDbEntity
  8
0
100
AcDbCircle
 10
5.786139553316541
 20
6.862886102281159
 30
0.0
 40
0.01089627287962
  0
CIRCLE
  5
9E28
330
1F
100
AcDbEntity
  8
0
100
AcDbCircle
 10
5.884115269355692
 20
6.862886102281159
 30
0.0
 40
0.01089627287962
  0
CIRCLE
  5
9E29
330
1F
100
AcDbEntity
  8
0
100
AcDbCircle
 10
5.982090985394844
 20
6.862886102281159
 30
0.0
 40
0.01089627287962
  0
CIRCLE
  5
9E2A
330
1F
100
AcDbEntity
  8
0
100
AcDbCircle
 10
6.08278822724144
 20
6.862886102281159
 30
0.0
 40
0.01089627287962
  0
CIRCLE
  5
9E2B
330
1F
100
AcDbEntity
  8
0
100
AcDbCircle
 10
6.183485491572923
 20
6.862886102281159
 30
0.0
 40
0.01089627287962
  0
CIRCLE
  5
9E2C
330
1F
100
AcDbEntity
  8
0
100
AcDbCircle
 10
6.284182755904407
 20
6.862886102281159
 30
0.0
 40
0.01089627287962
  0
CIRCLE
  5
9E2D
330
1F
100
AcDbEntity
  8
0
100
AcDbCircle
 10
6.382158449458671
 20
6.862886102281159
 30
0.0
 40
0.01089627287962
  0
CIRCLE
  5
9E2E
330
1F
100
AcDbEntity
  8
0
100
AcDbCircle
 10
6.482182741108708
 20
6.863064577359594
 30
0.0
 40
0.01089627287962
  0
CIRCLE
  5
9E2F
330
1F
100
AcDbEntity
  8
0
100
AcDbCircle
 10
6.580669898397847
 20
6.858778554347743
 30
0.0
 40
0.01089627287962
  0
CIRCLE
  5
9E30
330
1F
100
AcDbEntity
  8
0
100
AcDbCircle
 10
6.681298066670191
 20
6.85663556667027
 30
0.0
 40
0.01089627287962
  0
CIRCLE
  5
9E31
330
1F
100
AcDbEntity
  8
0
100
AcDbCircle
 10
5.487680126435339
 20
7.22369170210765
 30
0.0
 40
0.01089627287962
  0
CIRCLE
  5
9E32
330
1F
100
AcDbEntity
  8
0
100
AcDbCircle
 10
5.585655842474491
 20
7.22369170210765
 30
0.0
 40
0.01089627287962
  0
CIRCLE
  5
9E33
330
1F
100
AcDbEntity
  8
0
100
AcDbCircle
 10
5.683631558513638
 20
7.22369170210765
 30
0.0
 40
0.01089627287962
  0
CIRCLE
  5
9E34
330
1F
100
AcDbEntity
  8
0
100
AcDbCircle
 10
5.784328800360235
 20
7.22369170210765
 30
0.0
 40
0.01089627287962
  0
CIRCLE
  5
9E35
330
1F
100
AcDbEntity
  8
0
100
AcDbCircle
 10
5.882304516399386
 20
7.22369170210765
 30
0.0
 40
0.01089627287962
  0
CIRCLE
  5
9E36
330
1F
100
AcDbEntity
  8
0
100
AcDbCircle
 10
5.980280232438538
 20
7.22369170210765
 30
0.0
 40
0.01089627287962
  0
CIRCLE
  5
9E37
330
1F
100
AcDbEntity
  8
0
100
AcDbCircle
 10
6.080977474285134
 20
7.22369170210765
 30
0.0
 40
0.01089627287962
  0
CIRCLE
  5
9E38
330
1F
100
AcDbEntity
  8
0
100
AcDbCircle
 10
6.181674738616617
 20
7.22369170210765
 30
0.0
 40
0.01089627287962
  0
CIRCLE
  5
9E39
330
1F
100
AcDbEntity
  8
0
100
AcDbCircle
 10
6.2823720029481
 20
7.22369170210765
 30
0.0
 40
0.01089627287962
  0
CIRCLE
  5
9E3A
330
1F
100
AcDbEntity
  8
0
100
AcDbCircle
 10
6.380347696502365
 20
7.22369170210765
 30
0.0
 40
0.01089627287962
  0
CIRCLE
  5
9E3B
330
1F
100
AcDbEntity
  8
0
100
AcDbCircle
 10
6.480371988152402
 20
7.223870177186086
 30
0.0
 40
0.01089627287962
  0
CIRCLE
  5
9E3C
330
1F
100
AcDbEntity
  8
0
100
AcDbCircle
 10
6.578859145441541
 20
7.219584154174235
 30
0.0
 40
0.01089627287962
  0
CIRCLE
  5
9E3D
330
1F
100
AcDbEntity
  8
0
100
AcDbCircle
 10
6.679487313713885
 20
7.217441166496762
 30
0.0
 40
0.01089627287962
  0
CIRCLE
  5
9E3E
330
1F
100
AcDbEntity
  8
0
100
AcDbCircle
 10
5.487286910723575
 20
6.621851767783539
 30
0.0
 40
0.01089627287962
  0
CIRCLE
  5
9E3F
330
1F
100
AcDbEntity
  8
0
100
AcDbCircle
 10
5.585262626762727
 20
6.621851767783539
 30
0.0
 40
0.01089627287962
  0
CIRCLE
  5
9E40
330
1F
100
AcDbEntity
  8
0
100
AcDbCircle
 10
5.683238342801875
 20
6.621851767783539
 30
0.0
 40
0.01089627287962
  0
CIRCLE
  5
9E41
330
1F
100
AcDbEntity
  8
0
100
AcDbCircle
 10
5.783935584648471
 20
6.621851767783539
 30
0.0
 40
0.01089627287962
  0
CIRCLE
  5
9E42
330
1F
100
AcDbEntity
  8
0
100
AcDbCircle
 10
5.881911300687622
 20
6.621851767783539
 30
0.0
 40
0.01089627287962
  0
CIRCLE
  5
9E43
330
1F
100
AcDbEntity
  8
0
100
AcDbCircle
 10
5.979887016726774
 20
6.621851767783539
 30
0.0
 40
0.01089627287962
  0
CIRCLE
  5
9E44
330
1F
100
AcDbEntity
  8
0
100
AcDbCircle
 10
6.08058425857337
 20
6.621851767783539
 30
0.0
 40
0.01089627287962
  0
CIRCLE
  5
9E45
330
1F
100
AcDbEntity
  8
0
100
AcDbCircle
 10
6.181281522904853
 20
6.621851767783539
 30
0.0
 40
0.01089627287962
  0
CIRCLE
  5
9E46
330
1F
100
AcDbEntity
  8
0
100
AcDbCircle
 10
6.281978787236337
 20
6.621851767783539
 30
0.0
 40
0.01089627287962
  0
CIRCLE
  5
9E47
330
1F
100
AcDbEntity
  8
0
100
AcDbCircle
 10
6.379954480790601
 20
6.621851767783539
 30
0.0
 40
0.01089627287962
  0
CIRCLE
  5
9E48
330
1F
100
AcDbEntity
  8
0
100
AcDbCircle
 10
6.479978772440638
 20
6.622030242861974
 30
0.0
 40
0.01089627287962
  0
CIRCLE
  5
9E49
330
1F
100
AcDbEntity
  8
0
100
AcDbCircle
 10
6.578465929729777
 20
6.617744219850123
 30
0.0
 40
0.01089627287962
  0
CIRCLE
  5
9E4A
330
1F
100
AcDbEntity
  8
0
100
AcDbCircle
 10
6.679094098002121
 20
6.61560123217265
 30
0.0
 40
0.01089627287962
  0
CIRCLE
  5
9E4B
330
1F
100
AcDbEntity
  8
0
100
AcDbCircle
 10
5.487286910723575
 20
6.247944190923789
 30
0.0
 40
0.01089627287962
  0
CIRCLE
  5
9E4C
330
1F
100
AcDbEntity
  8
0
100
AcDbCircle
 10
5.585262626762727
 20
6.247944190923789
 30
0.0
 40
0.01089627287962
  0
CIRCLE
  5
9E4D
330
1F
100
AcDbEntity
  8
0
100
AcDbCircle
 10
5.683238342801875
 20
6.247944190923789
 30
0.0
 40
0.01089627287962
  0
CIRCLE
  5
9E4E
330
1F
100
AcDbEntity
  8
0
100
AcDbCircle
 10
5.783935584648471
 20
6.247944190923789
 30
0.0
 40
0.01089627287962
  0
CIRCLE
  5
9E4F
330
1F
100
AcDbEntity
  8
0
100
AcDbCircle
 10
5.881911300687622
 20
6.247944190923789
 30
0.0
 40
0.01089627287962
  0
CIRCLE
  5
9E50
330
1F
100
AcDbEntity
  8
0
100
AcDbCircle
 10
5.979887016726774
 20
6.247944190923789
 30
0.0
 40
0.01089627287962
  0
CIRCLE
  5
9E51
330
1F
100
AcDbEntity
  8
0
100
AcDbCircle
 10
6.08058425857337
 20
6.247944190923789
 30
0.0
 40
0.01089627287962
  0
CIRCLE
  5
9E52
330
1F
100
AcDbEntity
  8
0
100
AcDbCircle
 10
6.181281522904853
 20
6.247944190923789
 30
0.0
 40
0.01089627287962
  0
CIRCLE
  5
9E53
330
1F
100
AcDbEntity
  8
0
100
AcDbCircle
 10
6.281978787236337
 20
6.247944190923789
 30
0.0
 40
0.01089627287962
  0
CIRCLE
  5
9E54
330
1F
100
AcDbEntity
  8
0
100
AcDbCircle
 10
6.379954480790601
 20
6.247944190923789
 30
0.0
 40
0.01089627287962
  0
CIRCLE
  5
9E55
330
1F
100
AcDbEntity
  8
0
100
AcDbCircle
 10
6.479978772440638
 20
6.248122666002224
 30
0.0
 40
0.01089627287962
  0
CIRCLE
  5
9E56
330
1F
100
AcDbEntity
  8
0
100
AcDbCircle
 10
6.578465929729777
 20
6.243836642990373
 30
0.0
 40
0.01089627287962
  0
CIRCLE
  5
9E57
330
1F
100
AcDbEntity
  8
0
100
AcDbCircle
 10
6.679094098002121
 20
6.2416936553129
 30
0.0
 40
0.01089627287962
  0
LINE
  5
9E5A
330
1F
100
AcDbEntity
  8
0
100
AcDbLine
 10
5.431228850202268
 20
7.003966265229813
 30
0.0
 11
5.407015013217147
 21
7.003966265229813
 31
0.0
  0
LINE
  5
9E5C
330
1F
100
AcDbEntity
  8
0
100
AcDbLine
 10
5.407015013217147
 20
6.997626443787904
 30
0.0
 11
5.431228850202268
 21
6.99762644378791
 31
0.0
  0
LINE
  5
9E5E
330
1F
100
AcDbEntity
  8
0
100
AcDbLine
 10
5.431228850202275
 20
6.964306086671722
 30
0.0
 11
5.407015013217147
 21
6.964306086671722
 31
0.0
  0
LINE
  5
9E60
330
1F
100
AcDbEntity
  8
0
100
AcDbLine
 10
5.407015013217133
 20
6.95869672980832
 30
0.0
 11
5.431228850202277
 21
6.958696729808323
 31
0.0
  0
LINE
  5
9E6B
330
1F
100
AcDbEntity
  8
0
100
AcDbLine
 10
5.431228850202268
 20
6.483957178711943
 30
0.0
 11
5.407015013217147
 21
6.483957178711943
 31
0.0
  0
LINE
  5
9E6C
330
1F
100
AcDbEntity
  8
0
100
AcDbLine
 10
5.407015013217147
 20
6.477617357270034
 30
0.0
 11
5.431228850202268
 21
6.47761735727004
 31
0.0
  0
LINE
  5
9E6D
330
1F
100
AcDbEntity
  8
0
100
AcDbLine
 10
5.431228850202275
 20
6.444297000153852
 30
0.0
 11
5.407015013217147
 21
6.444297000153852
 31
0.0
  0
LINE
  5
9E6E
330
1F
100
AcDbEntity
  8
0
100
AcDbLine
 10
5.407015013217133
 20
6.43868764329045
 30
0.0
 11
5.431228850202277
 21
6.438687643290453
 31
0.0
  0
LINE
  5
9E71
330
1F
100
AcDbEntity
  8
0
100
AcDbLine
 10
6.731228850202333
 20
7.025146697159493
 30
0.0
 11
6.755565082660878
 21
7.025146697159493
 31
0.0
  0
LINE
  5
9E74
330
1F
100
AcDbEntity
  8
0
100
AcDbLine
 10
6.731228850202331
 20
6.424185289830569
 30
0.0
 11
6.755565082660869
 21
6.42418528983057
 31
0.0
  0
VIEWPORT
  5
7CA
330
1B
100
AcDbEntity
 67
     1
  8
0
100
AcDbViewport
 10
227.5469376790073
 20
225.4028465150061
 30
0.0
 40
1064.159005702636
 41
526.7851794398622
 68
     2
 69
     1
 12
227.5469376790073
 22
225.4028465150061
 13
0.0
 23
0.0
 14
10.0
 24
10.0
 15
10.0
 25
10.0
 16
0.0
 26
0.0
 36
1.0
 17
0.0
 27
0.0
 37
0.0
 42
50.0
 43
0.0
 44
0.0
 45
526.7851794398622
 50
0.0
 51
0.0
 72
   100
 90
   819232
  1

281
     0
 71
     1
 74
     0
110
0.0
120
0.0
130
0.0
111
1.0
121
0.0
131
0.0
112
0.0
122
1.0
132
0.0
 79
     0
146
0.0
170
     0
  0
VIEWPORT
  5
99A
330
1B
100
AcDbEntity
 67
     1
  8
Defpoints
100
AcDbViewport
 10
211.6374382675827
 20
146.9348621411756
 30
0.0
 40
410.1517866444555
 41
287.3053455326816
 68
     1
 69
     2
 12
6.723315891245686
 22
5.803809306072883
 13
0.0
 23
0.0
 14
0.5
 24
0.5
 15
0.5
 25
0.5
 16
0.0
 26
0.0
 36
1.0
 17
0.0
 27
0.0
 37
-1000.0
 42
50.0
 43
4.148984367261674
 44
9.217858496371269
 45
7.920172554520639
 50
0.0
 51
0.0
 72
   100
 90
   819296
  1

281
     0
 71
     1
 74
     0
110
0.0
120
0.0
130
0.0
111
1.0
121
0.0
131
0.0
112
0.0
122
1.0
132
0.0
 79
     0
146
0.0
170
     0
  0
ENDSEC
  0
SECTION
  2
OBJECTS
  0
DICTIONARY
  5
C
330
0
100
AcDbDictionary
281
     1
  3
ACAD_COLOR
350
4B9
  3
ACAD_GROUP
350
D
  3
ACAD_LAYOUT
350
1A
  3
ACAD_MATERIAL
350
3B
  3
ACAD_MLEADERSTYLE
350
489
  3
ACAD_MLINESTYLE
350
17
  3
ACAD_PLOTSETTINGS
350
19
  3
ACAD_PLOTSTYLENAME
350
E
  3
ACAD_SCALELIST
350
8C69
  3
ACAD_TABLESTYLE
350
4BA
  3
ACAD_VISUALSTYLE
350
2A
  3
ACDB_RECOMPOSE_DATA
350
8CA2
  3
AcDbVariableDictionary
350
487
  0
DICTIONARY
  5
84C
330
8
100
AcDbDictionary
280
     1
281
     1
  0
DICTIONARY
  5
7D1
330
2
100
AcDbDictionary
280
     1
281
     1
  3
ACAD_LAYERFILTERS
360
9C0E
  3
ACAD_LAYERSTATES
360
7D2
  3
ACLYDICTIONARY
360
9C0D
  0
DICTIONARY
  5
8C9A
330
10
100
AcDbDictionary
280
     1
281
     1
  3
ADSK_XREC_LAYER_RECONCILED
360
8C9B
  0
DICTIONARY
  5
8C9C
330
87B
100
AcDbDictionary
280
     1
281
     1
  3
ADSK_XREC_LAYER_RECONCILED
360
8C9D
  0
DICTIONARY
  5
8C9E
330
87D
100
AcDbDictionary
280
     1
281
     1
  3
ADSK_XREC_LAYER_RECONCILED
360
8C9F
  0
DICTIONARY
  5
5F8
330
1F
100
AcDbDictionary
280
     1
281
     1
  3
ACAD_SORTENTS
360
5F9
  0
DICTIONARY
  5
8D7B
330
8D3F
100
AcDbDictionary
280
     1
281
     1
  3
ACAD_SORTENTS
360
8D7C
  0
DICTIONARY
  5
91DA
330
91D8
100
AcDbDictionary
280
     1
281
     1
  3
ACAD_SORTENTS
360
91DB
  0
DICTIONARY
  5
4B9
102
{ACAD_REACTORS
330
C
102
}
330
C
100
AcDbDictionary
281
     1
  0
DICTIONARY
  5
D
102
{ACAD_REACTORS
330
C
102
}
330
C
100
AcDbDictionary
281
     1
  0
DICTIONARY
  5
1A
102
{ACAD_REACTORS
330
C
102
}
330
C
100
AcDbDictionary
281
     1
  3
Layout1
350
1E
  3
Model
350
22
  0
DICTIONARY
  5
3B
102
{ACAD_REACTORS
330
C
102
}
330
C
100
AcDbDictionary
281
     1
  3
ByBlock
350
3D
  3
ByLayer
350
3C
  3
Global
350
3E
  0
DICTIONARY
  5
489
102
{ACAD_REACTORS
330
C
102
}
330
C
100
AcDbDictionary
281
     1
  3
Standard
350
8C8B
  0
DICTIONARY
  5
17
102
{ACAD_REACTORS
330
C
102
}
330
C
100
AcDbDictionary
281
     1
  3
Standard
350
18
  0
DICTIONARY
  5
19
102
{ACAD_REACTORS
330
C
102
}
330
C
100
AcDbDictionary
281
     1
  0
ACDBDICTIONARYWDFLT
  5
E
102
{ACAD_REACTORS
330
C
102
}
330
C
100
AcDbDictionary
281
     1
  3
Normal
350
F
100
AcDbDictionaryWithDefault
340
F
  0
DICTIONARY
  5
8C69
102
{ACAD_REACTORS
330
C
102
}
330
C
100
AcDbDictionary
281
     1
  3
A0
350
8C6A
  3
A1
350
8C6B
  3
A2
350
8C6C
  3
A3
350
8C6D
  3
A4
350
8C6E
  3
A5
350
8C6F
  3
A6
350
8C70
  3
A7
350
8C71
  3
A8
350
8C72
  3
A9
350
8C73
  3
B0
350
8C74
  3
B1
350
8C75
  3
B2
350
8C76
  3
B3
350
8C77
  3
B4
350
8C78
  3
B5
350
8C79
  3
B6
350
8C7A
  3
B7
350
8C7B
  3
B8
350
8C7C
  3
B9
350
8C7D
  3
C0
350
8C7E
  3
C1
350
8C7F
  3
C2
350
8C80
  3
C3
350
8C81
  3
C4
350
8C82
  3
C5
350
8C83
  3
C6
350
8C84
  3
C7
350
8C85
  3
C8
350
8C86
  3
C9
350
8C87
  3
D0
350
8C88
  3
D1
350
8C89
  3
D2
350
8C8A
  0
DICTIONARY
  5
4BA
102
{ACAD_REACTORS
330
C
102
}
330
C
100
AcDbDictionary
281
     1
  3
Standard
350
4BB
  0
DICTIONARY
  5
2A
102
{ACAD_REACTORS
330
C
102
}
330
C
100
AcDbDictionary
281
     1
  3
2dWireframe
350
2F
  3
3D Hidden
350
A47
  3
3dWireframe
350
A48
  3
Basic
350
32
  3
Brighten
350
36
  3
ColorChange
350
3A
  3
Conceptual
350
A4B
  3
Dim
350
35
  3
Facepattern
350
39
  3
Flat
350
2B
  3
FlatWithEdges
350
2C
  3
Gouraud
350
2D
  3
GouraudWithEdges
350
2E
  3
Linepattern
350
38
  3
Realistic
350
A4C
  3
Thicken
350
37
  0
XRECORD
  5
8CA2
102
{ACAD_REACTORS
330
C
102
}
330
C
100
AcDbXrecord
280
     1
 90
        1
330
4BB
  0
DICTIONARY
  5
487
102
{ACAD_REACTORS
330
C
102
}
330
C
100
AcDbDictionary
281
     1
  3
CANNOSCALE
350
8CA5
  3
CMLEADERSTYLE
350
8CA3
  3
CTABLESTYLE
350
5FE
  3
DIMASSOC
350
48A
  3
HIDETEXT
350
48B
  3
INDEXCTL
350
86B
  3
LIGHTINGUNITS
350
8CA6
  3
MSLTSCALE
350
8CA4
  3
SORTENTS
350
86A
  0
DICTIONARY
  5
9C0E
102
{ACAD_REACTORS
330
7D1
102
}
330
7D1
100
AcDbDictionary
281
     1
  0
DICTIONARY
  5
7D2
102
{ACAD_REACTORS
330
7D1
102
}
330
7D1
100
AcDbDictionary
281
     1
  0
DICTIONARY
  5
9C0D
102
{ACAD_REACTORS
330
7D1
102
}
330
7D1
100
AcDbDictionary
281
     1
1001
ACAD
1000
<All
  0
XRECORD
  5
8C9B
102
{ACAD_REACTORS
330
8C9A
102
}
330
8C9A
100
AcDbXrecord
280
     1
290
     1
  0
XRECORD
  5
8C9D
102
{ACAD_REACTORS
330
8C9C
102
}
330
8C9C
100
AcDbXrecord
280
     1
290
     1
  0
XRECORD
  5
8C9F
102
{ACAD_REACTORS
330
8C9E
102
}
330
8C9E
100
AcDbXrecord
280
     1
290
     1
  0
SORTENTSTABLE
  5
5F9
102
{ACAD_REACTORS
330
5F8
102
}
330
5F8
100
AcDbSortentsTable
330
1F
  0
SORTENTSTABLE
  5
8D7C
102
{ACAD_REACTORS
330
8D7B
102
}
330
8D7B
100
AcDbSortentsTable
330
8D3F
  0
SORTENTSTABLE
  5
91DB
102
{ACAD_REACTORS
330
91DA
102
}
330
91DA
100
AcDbSortentsTable
330
91D8
  0
LAYOUT
  5
1E
102
{ACAD_XDICTIONARY
360
7D4
102
}
102
{ACAD_REACTORS
330
1A
102
}
330
1A
100
AcDbPlotSettings
  1

  2
Bullzip PDF Printer
  4
A3
  6

 40
3.174999952316284
 41
3.174999952316284
 42
3.17498779296875
 43
3.17498779296875
 44
297.0530090332031
 45
420.1583251953125
 46
0.0
 47
0.0
 48
6.561544945354853
 49
3.282189374834842
140
416.7133315898103
141
290.5875349075164
142
1.0
143
1.0
 70
   672
 72
     1
 73
     1
 74
     4
  7
RINTAL 1.10.ctb
 75
    16
147
25.4
 76
     0
 77
     2
 78
   300
148
-6.561544945354853
149
-3.282189374834842
100
AcDbLayout
  1
Layout1
 70
     0
 71
     1
 10
3.386557152386103
 20
0.1071894225185588
 11
423.5448823476986
 21
297.1601984557217
 12
0.0
 22
0.0
 32
0.0
 14
6.561544945354853
 24
3.282189374834842
 34
0.0
 15
416.7133315898103
 25
290.5875349075164
 35
0.0
146
0.0
 13
0.0
 23
0.0
 33
0.0
 16
1.0
 26
0.0
 36
0.0
 17
0.0
 27
1.0
 37
0.0
 76
     0
330
1B
331
99A
1001
ACAD_PSEXT
1000
Bullzip PDF Printer
1000
Bullzip PDF Printer
1000
BULLZIP
1000
Bullzip PDF Printer 7.2.0.1338
1070
     0
  0
LAYOUT
  5
22
102
{ACAD_REACTORS
330
1A
102
}
330
1A
100
AcDbPlotSettings
  1

  2
none_device
  4
Letter_(8.50_x_11.00_Inches)
  6

 40
6.349999904632568
 41
6.349999904632568
 42
6.350006103515625
 43
6.350006103515625
 44
215.8999938964844
 45
279.3999938964844
 46
0.0
 47
0.0
 48
0.0
 49
0.0
140
0.0
141
0.0
142
1.0
143
2.050455223854111
 70
 11952
 72
     0
 73
     1
 74
     0
  7

 75
     0
147
0.4876965799430446
 76
     0
 77
     2
 78
   300
148
136.3415314746824
149
-20.12355438569978
100
AcDbLayout
  1
Model
 70
     1
 71
     0
 10
0.0
 20
0.0
 11
12.0
 21
9.0
 12
0.0
 22
0.0
 32
0.0
 14
1.000000000000000E+20
 24
1.000000000000000E+20
 34
1.000000000000000E+20
 15
-1.000000000000000E+20
 25
-1.000000000000000E+20
 35
-1.000000000000000E+20
146
0.0
 13
0.0
 23
0.0
 33
0.0
 16
1.0
 26
0.0
 36
0.0
 17
0.0
 27
1.0
 37
0.0
 76
     0
330
1F
331
29
1001
ACAD_PSEXT
1000
Brak
1000
Brak
1000
Nie można zastosować.
1000
Arkusz nie zostanie wydrukowany dopóki nie wybrano konfiguracji plotera.
1070
     0
  0
MATERIAL
  5
3D
102
{ACAD_XDICTIONARY
360
9E8C
102
}
102
{ACAD_REACTORS
330
3B
102
}
330
3B
100
AcDbMaterial
  1
ByBlock
 73
     1
 78
     1
172
     1
176
     1
270
     1
274
     1
  0
MATERIAL
  5
3C
102
{ACAD_XDICTIONARY
360
9E8A
102
}
102
{ACAD_REACTORS
330
3B
102
}
330
3B
100
AcDbMaterial
  1
ByLayer
 73
     1
 78
     1
172
     1
176
     1
270
     1
274
     1
  0
MATERIAL
  5
3E
102
{ACAD_XDICTIONARY
360
9E8E
102
}
102
{ACAD_REACTORS
330
3B
102
}
330
3B
100
AcDbMaterial
  1
Global
 73
     1
 78
     1
172
     1
176
     1
270
     1
274
     1
  0
MLEADERSTYLE
  5
8C8B
102
{ACAD_REACTORS
330
489
102
}
330
489
100
AcDbMLeaderStyle
170
     2
171
     1
172
     0
 90
        2
 40
0.0
 41
0.0
173
     1
 91
-1056964608
340
14
 92
       -2
290
     1
 42
0.09
291
     1
 43
0.36
  3
Standard
 44
0.18
300

342
11
174
     1
178
     6
175
     1
176
     0
 93
-1056964608
 45
0.18
292
     0
297
     0
 46
0.18
 94
-1056964608
 47
1.0
 49
1.0
140
1.0
293
     1
141
0.0
294
     1
177
     0
142
1.0
295
     0
296
     0
143
0.125
1001
ACAD_MLEADERVER
1070
     2
  0
MLINESTYLE
  5
18
102
{ACAD_REACTORS
330
17
102
}
330
17
100
AcDbMlineStyle
  2
STANDARD
 70
     0
  3

 62
   256
 51
90.0
 52
90.0
 71
     2
 49
0.5
 62
   256
  6
BYLAYER
 49
-0.5
 62
   256
  6
BYLAYER
  0
ACDBPLACEHOLDER
  5
F
102
{ACAD_REACTORS
330
E
102
}
330
E
  0
SCALE
  5
8C6A
102
{ACAD_REACTORS
330
8C69
102
}
330
8C69
100
AcDbScale
 70
     0
300
1:1
140
1.0
141
1.0
290
     1
  0
SCALE
  5
8C6B
102
{ACAD_REACTORS
330
8C69
102
}
330
8C69
100
AcDbScale
 70
     0
300
1:2
140
1.0
141
2.0
290
     0
  0
SCALE
  5
8C6C
102
{ACAD_REACTORS
330
8C69
102
}
330
8C69
100
AcDbScale
 70
     0
300
1:4
140
1.0
141
4.0
290
     0
  0
SCALE
  5
8C6D
102
{ACAD_REACTORS
330
8C69
102
}
330
8C69
100
AcDbScale
 70
     0
300
1:5
140
1.0
141
5.0
290
     0
  0
SCALE
  5
8C6E
102
{ACAD_REACTORS
330
8C69
102
}
330
8C69
100
AcDbScale
 70
     0
300
1:8
140
1.0
141
8.0
290
     0
  0
SCALE
  5
8C6F
102
{ACAD_REACTORS
330
8C69
102
}
330
8C69
100
AcDbScale
 70
     0
300
1:10
140
1.0
141
10.0
290
     0
  0
SCALE
  5
8C70
102
{ACAD_REACTORS
330
8C69
102
}
330
8C69
100
AcDbScale
 70
     0
300
1:16
140
1.0
141
16.0
290
     0
  0
SCALE
  5
8C71
102
{ACAD_REACTORS
330
8C69
102
}
330
8C69
100
AcDbScale
 70
     0
300
1:20
140
1.0
141
20.0
290
     0
  0
SCALE
  5
8C72
102
{ACAD_REACTORS
330
8C69
102
}
330
8C69
100
AcDbScale
 70
     0
300
1:30
140
1.0
141
30.0
290
     0
  0
SCALE
  5
8C73
102
{ACAD_REACTORS
330
8C69
102
}
330
8C69
100
AcDbScale
 70
     0
300
1:40
140
1.0
141
40.0
290
     0
  0
SCALE
  5
8C74
102
{ACAD_REACTORS
330
8C69
102
}
330
8C69
100
AcDbScale
 70
     0
300
1:50
140
1.0
141
50.0
290
     0
  0
SCALE
  5
8C75
102
{ACAD_REACTORS
330
8C69
102
}
330
8C69
100
AcDbScale
 70
     0
300
1:100
140
1.0
141
100.0
290
     0
  0
SCALE
  5
8C76
102
{ACAD_REACTORS
330
8C69
102
}
330
8C69
100
AcDbScale
 70
     0
300
2:1
140
2.0
141
1.0
290
     0
  0
SCALE
  5
8C77
102
{ACAD_REACTORS
330
8C69
102
}
330
8C69
100
AcDbScale
 70
     0
300
4:1
140
4.0
141
1.0
290
     0
  0
SCALE
  5
8C78
102
{ACAD_REACTORS
330
8C69
102
}
330
8C69
100
AcDbScale
 70
     0
300
8:1
140
8.0
141
1.0
290
     0
  0
SCALE
  5
8C79
102
{ACAD_REACTORS
330
8C69
102
}
330
8C69
100
AcDbScale
 70
     0
300
10:1
140
10.0
141
1.0
290
     0
  0
SCALE
  5
8C7A
102
{ACAD_REACTORS
330
8C69
102
}
330
8C69
100
AcDbScale
 70
     0
300
100:1
140
100.0
141
1.0
290
     0
  0
SCALE
  5
8C7B
102
{ACAD_REACTORS
330
8C69
102
}
330
8C69
100
AcDbScale
 70
     0
300
1/128" = 1'-0"
140
0.0078125
141
12.0
290
     0
  0
SCALE
  5
8C7C
102
{ACAD_REACTORS
330
8C69
102
}
330
8C69
100
AcDbScale
 70
     0
300
1/64" = 1'-0"
140
0.015625
141
12.0
290
     0
  0
SCALE
  5
8C7D
102
{ACAD_REACTORS
330
8C69
102
}
330
8C69
100
AcDbScale
 70
     0
300
1/32" = 1'-0"
140
0.03125
141
12.0
290
     0
  0
SCALE
  5
8C7E
102
{ACAD_REACTORS
330
8C69
102
}
330
8C69
100
AcDbScale
 70
     0
300
1/16" = 1'-0"
140
0.0625
141
12.0
290
     0
  0
SCALE
  5
8C7F
102
{ACAD_REACTORS
330
8C69
102
}
330
8C69
100
AcDbScale
 70
     0
300
3/32" = 1'-0"
140
0.09375
141
12.0
290
     0
  0
SCALE
  5
8C80
102
{ACAD_REACTORS
330
8C69
102
}
330
8C69
100
AcDbScale
 70
     0
300
1/8" = 1'-0"
140
0.125
141
12.0
290
     0
  0
SCALE
  5
8C81
102
{ACAD_REACTORS
330
8C69
102
}
330
8C69
100
AcDbScale
 70
     0
300
3/16" = 1'-0"
140
0.1875
141
12.0
290
     0
  0
SCALE
  5
8C82
102
{ACAD_REACTORS
330
8C69
102
}
330
8C69
100
AcDbScale
 70
     0
300
1/4" = 1'-0"
140
0.25
141
12.0
290
     0
  0
SCALE
  5
8C83
102
{ACAD_REACTORS
330
8C69
102
}
330
8C69
100
AcDbScale
 70
     0
300
3/8" = 1'-0"
140
0.375
141
12.0
290
     0
  0
SCALE
  5
8C84
102
{ACAD_REACTORS
330
8C69
102
}
330
8C69
100
AcDbScale
 70
     0
300
1/2" = 1'-0"
140
0.5
141
12.0
290
     0
  0
SCALE
  5
8C85
102
{ACAD_REACTORS
330
8C69
102
}
330
8C69
100
AcDbScale
 70
     0
300
3/4" = 1'-0"
140
0.75
141
12.0
290
     0
  0
SCALE
  5
8C86
102
{ACAD_REACTORS
330
8C69
102
}
330
8C69
100
AcDbScale
 70
     0
300
1" = 1'-0"
140
1.0
141
12.0
290
     0
  0
SCALE
  5
8C87
102
{ACAD_REACTORS
330
8C69
102
}
330
8C69
100
AcDbScale
 70
     0
300
1-1/2" = 1'-0"
140
1.5
141
12.0
290
     0
  0
SCALE
  5
8C88
102
{ACAD_REACTORS
330
8C69
102
}
330
8C69
100
AcDbScale
 70
     0
300
3" = 1'-0"
140
3.0
141
12.0
290
     0
  0
SCALE
  5
8C89
102
{ACAD_REACTORS
330
8C69
102
}
330
8C69
100
AcDbScale
 70
     0
300
6" = 1'-0"
140
6.0
141
12.0
290
     0
  0
SCALE
  5
8C8A
102
{ACAD_REACTORS
330
8C69
102
}
330
8C69
100
AcDbScale
 70
     0
300
1'-0" = 1'-0"
140
12.0
141
12.0
290
     0
  0
TABLESTYLE
  5
4BB
102
{ACAD_XDICTIONARY
360
8CA0
102
}
102
{ACAD_REACTORS
330
4BA
102
}
330
4BA
100
AcDbTableStyle
  3
Standard
 70
     0
 71
     0
 40
0.06
 41
0.06
280
     0
281
     0
  7
Standard
140
0.18
170
     2
 62
     0
 63
     7
283
     0
274
    -2
284
     1
 64
     0
275
    -2
285
     1
 65
     0
276
    -2
286
     1
 66
     0
277
    -2
287
     1
 67
     0
278
    -2
288
     1
 68
     0
279
    -2
289
     1
 69
     0
  7
Standard
140
0.25
170
     5
 62
     0
 63
     7
283
     0
274
    -2
284
     1
 64
     0
275
    -2
285
     1
 65
     0
276
    -2
286
     1
 66
     0
277
    -2
287
     1
 67
     0
278
    -2
288
     1
 68
     0
279
    -2
289
     1
 69
     0
  7
Standard
140
0.18
170
     5
 62
     0
 63
     7
283
     0
274
    -2
284
     1
 64
     0
275
    -2
285
     1
 65
     0
276
    -2
286
     1
 66
     0
277
    -2
287
     1
 67
     0
278
    -2
288
     1
 68
     0
279
    -2
289
     1
 69
     0
  0
VISUALSTYLE
  5
2F
102
{ACAD_XDICTIONARY
360
49A
102
}
102
{ACAD_REACTORS
330
2A
102
}
330
2A
100
AcDbVisualStyle
  2
2dWireframe
 70
     4
 71
     0
 72
     2
 73
     0
 90
        0
 40
-0.6
 41
-30.0
 62
     5
 63
     7
 74
     1
 91
        4
 64
     7
 65
   257
 75
     1
175
     1
 42
1.0
 92
        0
 66
   257
 43
1.0
 76
     1
 77
     6
 78
     2
 67
     7
 79
     5
170
     0
171
     0
290
     0
174
     0
 93
        1
 44
0.0
173
     0
291
     0
 45
0.0
1001
ACAD
1000
AcDbSavedByObjectVersion
1070
     0
  0
VISUALSTYLE
  5
A47
102
{ACAD_REACTORS
330
2A
102
}
330
2A
100
AcDbVisualStyle
  2
3D Hidden
 70
     6
 71
     1
 72
     2
 73
     2
 90
        0
 40
-0.6
 41
-30.0
 62
     5
 63
     7
 74
     2
 91
        2
 64
     7
 65
   257
 75
     2
175
     1
 42
40.0
 92
        0
 66
   257
 43
1.0
 76
     1
 77
     6
 78
     2
 67
     7
 79
     3
170
     0
171
     0
290
     0
174
     0
 93
        1
 44
0.0
173
     0
291
     0
 45
0.0
1001
ACAD
1000
AcDbSavedByObjectVersion
1070
     0
  0
VISUALSTYLE
  5
A48
102
{ACAD_XDICTIONARY
360
A49
102
}
102
{ACAD_REACTORS
330
2A
102
}
330
2A
100
AcDbVisualStyle
  2
3dWireframe
 70
     5
 71
     0
 72
     2
 73
     0
 90
        0
 40
-0.6
 41
-30.0
 62
     5
 63
     7
 74
     1
 91
        4
 64
     7
 65
   257
 75
     1
175
     1
 42
1.0
 92
        0
 66
   257
 43
1.0
 76
     1
 77
     6
 78
     2
 67
     7
 79
     5
170
     0
171
     0
290
     0
174
     0
 93
        1
 44
0.0
173
     0
291
     0
 45
0.0
1001
ACAD
1000
AcDbSavedByObjectVersion
1070
     0
  0
VISUALSTYLE
  5
32
102
{ACAD_XDICTIONARY
360
4A0
102
}
102
{ACAD_REACTORS
330
2A
102
}
330
2A
100
AcDbVisualStyle
  2
Basic
 70
     7
 71
     1
 72
     0
 73
     1
 90
        0
 40
-0.6
 41
-30.0
 62
     5
 63
     7
 74
     0
 91
        4
 64
     7
 65
   257
 75
     1
175
     1
 42
1.0
 92
        8
 66
     7
 43
1.0
 76
     1
 77
     6
 78
     2
 67
     7
 79
     5
170
     0
171
     0
290
     0
174
     0
 93
        1
 44
0.0
173
     0
291
     1
 45
0.0
1001
ACAD
1000
AcDbSavedByObjectVersion
1070
     0
  0
VISUALSTYLE
  5
36
102
{ACAD_XDICTIONARY
360
4A8
102
}
102
{ACAD_REACTORS
330
2A
102
}
330
2A
100
AcDbVisualStyle
  2
Brighten
 70
    12
 71
     2
 72
     2
 73
     0
 90
        0
 40
-0.6
 41
-30.0
 62
     5
 63
     7
 74
     1
 91
        4
 64
     7
 65
   257
 75
     1
175
     1
 42
1.0
 92
        8
 66
     7
 43
1.0
 76
     1
 77
     6
 78
     2
 67
     7
 79
     5
170
     0
171
     0
290
     0
174
     0
 93
        1
 44
50.0
173
     0
291
     1
 45
0.0
1001
ACAD
1000
AcDbSavedByObjectVersion
1070
     0
  0
VISUALSTYLE
  5
3A
102
{ACAD_XDICTIONARY
360
4B0
102
}
102
{ACAD_REACTORS
330
2A
102
}
330
2A
100
AcDbVisualStyle
  2
ColorChange
 70
    16
 71
     2
 72
     2
 73
     3
 90
        0
 40
-0.6
 41
-30.0
 62
     5
 63
     8
 74
     1
 91
        4
 64
     7
 65
   257
 75
     1
175
     1
 42
1.0
 92
        8
 66
     8
 43
1.0
 76
     1
 77
     6
 78
     2
 67
     7
 79
     5
170
     0
171
     0
290
     0
174
     0
 93
        1
 44
0.0
173
     0
291
     1
 45
0.0
1001
ACAD
1000
AcDbSavedByObjectVersion
1070
     0
  0
VISUALSTYLE
  5
A4B
102
{ACAD_REACTORS
330
2A
102
}
330
2A
100
AcDbVisualStyle
  2
Conceptual
 70
     9
 71
     3
 72
     2
 73
     0
 90
        0
 40
-0.6
 41
-30.0
 62
     5
 63
     7
 74
     2
 91
        2
 64
     7
 65
   257
 75
     1
175
     1
 42
40.0
 92
        8
 66
     7
 43
1.0
 76
     1
 77
     6
 78
     2
 67
     7
 79
     3
170
     0
171
     0
290
     0
174
     0
 93
        1
 44
0.0
173
     0
291
     0
 45
0.0
1001
ACAD
1000
AcDbSavedByObjectVersion
1070
     0
  0
VISUALSTYLE
  5
35
102
{ACAD_XDICTIONARY
360
4A6
102
}
102
{ACAD_REACTORS
330
2A
102
}
330
2A
100
AcDbVisualStyle
  2
Dim
 70
    11
 71
     2
 72
     2
 73
     0
 90
        0
 40
-0.6
 41
-30.0
 62
     5
 63
     7
 74
     1
 91
        4
 64
     7
 65
   257
 75
     1
175
     1
 42
1.0
 92
        8
 66
     7
 43
1.0
 76
     1
 77
     6
 78
     2
 67
     7
 79
     5
170
     0
171
     0
290
     0
174
     0
 93
        1
 44
-50.0
173
     0
291
     1
 45
0.0
1001
ACAD
1000
AcDbSavedByObjectVersion
1070
     0
  0
VISUALSTYLE
  5
39
102
{ACAD_XDICTIONARY
360
4AE
102
}
102
{ACAD_REACTORS
330
2A
102
}
330
2A
100
AcDbVisualStyle
  2
Facepattern
 70
    15
 71
     2
 72
     2
 73
     0
 90
        0
 40
-0.6
 41
-30.0
 62
     5
 63
     7
 74
     1
 91
        4
 64
     7
 65
   257
 75
     1
175
     1
 42
1.0
 92
        8
 66
     7
 43
1.0
 76
     1
 77
     6
 78
     2
 67
     7
 79
     5
170
     0
171
     0
290
     0
174
     0
 93
        1
 44
0.0
173
     0
291
     1
 45
0.0
1001
ACAD
1000
AcDbSavedByObjectVersion
1070
     0
  0
VISUALSTYLE
  5
2B
102
{ACAD_XDICTIONARY
360
492
102
}
102
{ACAD_REACTORS
330
2A
102
}
330
2A
100
AcDbVisualStyle
  2
Flat
 70
     0
 71
     2
 72
     1
 73
     1
 90
        2
 40
-0.6
 41
30.0
 62
     5
 63
     7
 74
     0
 91
        4
 64
     7
 65
   257
 75
     1
175
     1
 42
1.0
 92
        8
 66
     7
 43
1.0
 76
     1
 77
     6
 78
     2
 67
     7
 79
     5
170
     0
171
     0
290
     0
174
     0
 93
       13
 44
0.0
173
     0
291
     1
 45
0.0
1001
ACAD
1000
AcDbSavedByObjectVersion
1070
     0
  0
VISUALSTYLE
  5
2C
102
{ACAD_XDICTIONARY
360
494
102
}
102
{ACAD_REACTORS
330
2A
102
}
330
2A
100
AcDbVisualStyle
  2
FlatWithEdges
 70
     1
 71
     2
 72
     1
 73
     1
 90
        2
 40
-0.6
 41
30.0
 62
     5
 63
     7
 74
     1
 91
        4
 64
     7
 65
   257
 75
     1
175
     1
 42
1.0
 92
        0
 66
   257
 43
1.0
 76
     1
 77
     6
 78
     2
 67
     7
 79
     5
170
     0
171
     0
290
     0
174
     0
 93
       13
 44
0.0
173
     0
291
     1
 45
0.0
1001
ACAD
1000
AcDbSavedByObjectVersion
1070
     0
  0
VISUALSTYLE
  5
2D
102
{ACAD_XDICTIONARY
360
496
102
}
102
{ACAD_REACTORS
330
2A
102
}
330
2A
100
AcDbVisualStyle
  2
Gouraud
 70
     2
 71
     2
 72
     2
 73
     1
 90
        2
 40
-0.6
 41
30.0
 62
     5
 63
     7
 74
     0
 91
        4
 64
     7
 65
   257
 75
     1
175
     1
 42
1.0
 92
        0
 66
     7
 43
1.0
 76
     1
 77
     6
 78
     2
 67
     7
 79
     5
170
     0
171
     0
290
     0
174
     0
 93
       13
 44
0.0
173
     0
291
     1
 45
0.0
1001
ACAD
1000
AcDbSavedByObjectVersion
1070
     0
  0
VISUALSTYLE
  5
2E
102
{ACAD_XDICTIONARY
360
498
102
}
102
{ACAD_REACTORS
330
2A
102
}
330
2A
100
AcDbVisualStyle
  2
GouraudWithEdges
 70
     3
 71
     2
 72
     2
 73
     1
 90
        2
 40
-0.6
 41
30.0
 62
     5
 63
     7
 74
     1
 91
        4
 64
     7
 65
   257
 75
     1
175
     1
 42
1.0
 92
        0
 66
   257
 43
1.0
 76
     1
 77
     6
 78
     2
 67
     7
 79
     5
170
     0
171
     0
290
     0
174
     0
 93
       13
 44
0.0
173
     0
291
     1
 45
0.0
1001
ACAD
1000
AcDbSavedByObjectVersion
1070
     0
  0
VISUALSTYLE
  5
38
102
{ACAD_XDICTIONARY
360
4AC
102
}
102
{ACAD_REACTORS
330
2A
102
}
330
2A
100
AcDbVisualStyle
  2
Linepattern
 70
    14
 71
     2
 72
     2
 73
     0
 90
        0
 40
-0.6
 41
-30.0
 62
     5
 63
     7
 74
     1
 91
        4
 64
     7
 65
   257
 75
     7
175
     7
 42
1.0
 92
        8
 66
     7
 43
1.0
 76
     1
 77
     6
 78
     2
 67
     7
 79
     5
170
     0
171
     0
290
     0
174
     0
 93
        1
 44
0.0
173
     0
291
     1
 45
0.0
1001
ACAD
1000
AcDbSavedByObjectVersion
1070
     0
  0
VISUALSTYLE
  5
A4C
102
{ACAD_XDICTIONARY
360
A4D
102
}
102
{ACAD_REACTORS
330
2A
102
}
330
2A
100
AcDbVisualStyle
  2
Realistic
 70
     8
 71
     2
 72
     2
 73
     0
 90
        0
 40
-0.6
 41
-30.0
 62
     5
 63
     7
 74
     1
 91
        0
 64
     7
 65
   257
 75
     1
175
     1
 42
1.0
 92
        8
 66
     8
 43
1.0
 76
     1
 77
     6
 78
     2
 67
     7
 79
     5
170
     0
171
     0
290
     0
174
     0
 93
       13
 44
0.0
173
     0
291
     0
 45
0.0
1001
ACAD
1000
AcDbSavedByObjectVersion
1070
     0
  0
VISUALSTYLE
  5
37
102
{ACAD_XDICTIONARY
360
4AA
102
}
102
{ACAD_REACTORS
330
2A
102
}
330
2A
100
AcDbVisualStyle
  2
Thicken
 70
    13
 71
     2
 72
     2
 73
     0
 90
        0
 40
-0.6
 41
-30.0
 62
     5
 63
     7
 74
     1
 91
        4
 64
     7
 65
   257
 75
     1
175
     1
 42
1.0
 92
       12
 66
     7
 43
1.0
 76
     1
 77
     6
 78
     2
 67
     7
 79
     5
170
     0
171
     0
290
     0
174
     0
 93
        1
 44
0.0
173
     0
291
     1
 45
0.0
1001
ACAD
1000
AcDbSavedByObjectVersion
1070
     0
  0
DICTIONARYVAR
  5
8CA5
102
{ACAD_REACTORS
330
487
102
}
330
487
100
DictionaryVariables
280
     0
  1
1:1
  0
DICTIONARYVAR
  5
8CA3
102
{ACAD_REACTORS
330
487
102
}
330
487
100
DictionaryVariables
280
     0
  1
STANDARD
  0
DICTIONARYVAR
  5
5FE
102
{ACAD_REACTORS
330
487
102
}
330
487
100
DictionaryVariables
280
     0
  1
STANDARD
  0
DICTIONARYVAR
  5
48A
102
{ACAD_REACTORS
330
487
102
}
330
487
100
DictionaryVariables
280
     0
  1
2
  0
DICTIONARYVAR
  5
48B
102
{ACAD_REACTORS
330
487
102
}
330
487
100
DictionaryVariables
280
     0
  1
1
  0
DICTIONARYVAR
  5
86B
102
{ACAD_REACTORS
330
487
102
}
330
487
100
DictionaryVariables
280
     0
  1
0
  0
DICTIONARYVAR
  5
8CA6
102
{ACAD_REACTORS
330
487
102
}
330
487
100
DictionaryVariables
280
     0
  1
0
  0
DICTIONARYVAR
  5
8CA4
102
{ACAD_REACTORS
330
487
102
}
330
487
100
DictionaryVariables
280
     0
  1
0
  0
DICTIONARYVAR
  5
86A
102
{ACAD_REACTORS
330
487
102
}
330
487
100
DictionaryVariables
280
     0
  1
127
  0
DICTIONARY
  5
7D4
330
1E
100
AcDbDictionary
280
     1
281
     1
  3
ADSK_XREC_LAYOUTTHUMBNAIL
360
7D5
  0
DICTIONARY
  5
9E8C
330
3D
100
AcDbDictionary
280
     1
281
     1
  3
ACAD_XREC_ROUNDTRIP
360
9E8D
  0
DICTIONARY
  5
9E8A
330
3C
100
AcDbDictionary
280
     1
281
     1
  3
ACAD_XREC_ROUNDTRIP
360
9E8B
  0
DICTIONARY
  5
9E8E
330
3E
100
AcDbDictionary
280
     1
281
     1
  3
ACAD_XREC_ROUNDTRIP
360
9E8F
  0
DICTIONARY
  5
8CA0
330
4BB
100
AcDbDictionary
280
     1
281
     1
  3
ACAD_ROUNDTRIP_2008_TABLESTYLE_CELLSTYLEMAP
360
9E89
  3
ACAD_XREC_ROUNDTRIP
360
9E90
  0
DICTIONARY
  5
49A
330
2F
100
AcDbDictionary
280
     1
281
     1
  3
ACAD_XREC_ROUNDTRIP
360
49B
  0
DICTIONARY
  5
A49
330
A48
100
AcDbDictionary
280
     1
281
     1
  3
ACAD_XREC_ROUNDTRIP
360
A4A
  0
DICTIONARY
  5
4A0
330
32
100
AcDbDictionary
280
     1
281
     1
  3
ACAD_XREC_ROUNDTRIP
360
4A1
  0
DICTIONARY
  5
4A8
330
36
100
AcDbDictionary
280
     1
281
     1
  3
ACAD_XREC_ROUNDTRIP
360
4A9
  0
DICTIONARY
  5
4B0
330
3A
100
AcDbDictionary
280
     1
281
     1
  3
ACAD_XREC_ROUNDTRIP
360
4B1
  0
DICTIONARY
  5
4A6
330
35
100
AcDbDictionary
280
     1
281
     1
  3
ACAD_XREC_ROUNDTRIP
360
4A7
  0
DICTIONARY
  5
4AE
330
39
100
AcDbDictionary
280
     1
281
     1
  3
ACAD_XREC_ROUNDTRIP
360
4AF
  0
DICTIONARY
  5
492
330
2B
100
AcDbDictionary
280
     1
281
     1
  3
ACAD_XREC_ROUNDTRIP
360
493
  0
DICTIONARY
  5
494
330
2C
100
AcDbDictionary
280
     1
281
     1
  3
ACAD_XREC_ROUNDTRIP
360
495
  0
DICTIONARY
  5
496
330
2D
100
AcDbDictionary
280
     1
281
     1
  3
ACAD_XREC_ROUNDTRIP
360
497
  0
DICTIONARY
  5
498
330
2E
100
AcDbDictionary
280
     1
281
     1
  3
ACAD_XREC_ROUNDTRIP
360
499
  0
DICTIONARY
  5
4AC
330
38
100
AcDbDictionary
280
     1
281
     1
  3
ACAD_XREC_ROUNDTRIP
360
4AD
  0
DICTIONARY
  5
A4D
330
A4C
100
AcDbDictionary
280
     1
281
     1
  3
ACAD_XREC_ROUNDTRIP
360
A4E
  0
DICTIONARY
  5
4AA
330
37
100
AcDbDictionary
280
     1
281
     1
  3
ACAD_XREC_ROUNDTRIP
360
4AB
  0
XRECORD
  5
7D5
102
{ACAD_REACTORS
330
7D4
102
}
330
7D4
100
AcDbXrecord
280
     1
310
28000000B40000007F00000001000800000000004C59000000000000000000000001000000000000FFFFFF0000000000FFFFFF000000000000000000000000000000000000000000000000000000000000000000330000006600000099000000CC000000FF00000000330000333300006633000099330000CC330000FF3300
310
0000660000336600006666000099660000CC660000FF66000000990000339900006699000099990000CC990000FF99000000CC000033CC000066CC000099CC0000CCCC0000FFCC000000FF000033FF000066FF000099FF0000CCFF0000FFFF000000003300330033006600330099003300CC003300FF003300003333003333
310
33006633330099333300CC333300FF33330000663300336633006666330099663300CC663300FF66330000993300339933006699330099993300CC993300FF99330000CC330033CC330066CC330099CC3300CCCC3300FFCC330000FF330033FF330066FF330099FF3300CCFF3300FFFF330000006600330066006600660099
310
006600CC006600FF00660000336600333366006633660099336600CC336600FF33660000666600336666006666660099666600CC666600FF66660000996600339966006699660099996600CC996600FF99660000CC660033CC660066CC660099CC6600CCCC6600FFCC660000FF660033FF660066FF660099FF6600CCFF6600
310
FFFF660000009900330099006600990099009900CC009900FF00990000339900333399006633990099339900CC339900FF33990000669900336699006666990099669900CC669900FF66990000999900339999006699990099999900CC999900FF99990000CC990033CC990066CC990099CC9900CCCC9900FFCC990000FF99
310
0033FF990066FF990099FF9900CCFF9900FFFF99000000CC003300CC006600CC009900CC00CC00CC00FF00CC000033CC003333CC006633CC009933CC00CC33CC00FF33CC000066CC003366CC006666CC009966CC00CC66CC00FF66CC000099CC003399CC006699CC009999CC00CC99CC00FF99CC0000CCCC0033CCCC0066CC
310
CC0099CCCC00CCCCCC00FFCCCC0000FFCC0033FFCC0066FFCC0099FFCC00CCFFCC00FFFFCC000000FF003300FF006600FF009900FF00CC00FF00FF00FF000033FF003333FF006633FF009933FF00CC33FF00FF33FF000066FF003366FF006666FF009966FF00CC66FF00FF66FF000099FF003399FF006699FF009999FF00CC
310
99FF00FF99FF0000CCFF0033CCFF0066CCFF0099CCFF00CCCCFF00FFCCFF0000FFFF0033FFFF0066FFFF0099FFFF00CCFFFF00FFFFFF00000000000D0D0D001A1A1A00282828003535350043434300505050005D5D5D006B6B6B00787878008686860093939300A1A1A100AEAEAE00BBBBBB00C9C9C900D6D6D600E4E4E400
310
F1F1F100FFFFFF0000000000000000000000000000000000000000000000000000000000000000000000000000000000E2E2E2E2E2E2E2E2E2E2E2E2E2E2E2E2E2E2E2E2E2E2E2E2E2E2E2E2E2E2E2E2E2E2E2E2E2E2E2E2E2E2E2E2E2E2E2E2E2E2E2E2E2E2E2E2E2E2E2E2E2E2E2E2E2E2E2E2E2E2E2E2E2E2E2E2E2E2E2
310
E2E2E2E2E2E2E2E2E2E2E2E2E2E2E2E2E2E2E2E2E2E2E2E2E2E2E2E2E2E2E2E2E2E2E2E2E2E2E2E2E2E2E2E2E2E2E2E2E2E2E2E2E2E2E2E2E2E2E2E2E2E2E2E2E2E2E2E2E2E2E2E2E2E2E2E2E2E2E2E2E2E2E2E2E2E2E2E2E2E2E2E2E2E2E2E2E2E2E2E2E2E2F5E2E2E2E2E2E2E2E2E2E2E2E2E2E2E2E2E2E2E2E2E2E2E2E2
310
E2E2E2E2E2E2E2E2E2E2E2E2E2E2E2E2E2E2E2E2E2E2E2E2E2E2E2E2E2E2E2E2E2E2E2E2E2E2E2E2E2E2E2E2E2E2E2E2E2E2E2E2E2E2E2E2E2E2E2E2E2E2E2E2E2E2E2E2E2E2E2E2E2E2E2E2E2E2E2E2E2E2E2E2E2E2E2E2E2E2E2E2E2E2E2E2E2E2E2E2E2E2E2E2E2E2E2E2E2E2E2E2E2E2E2E2E2E2E2E2E2E2E2E2E2E2E2
310
E2E2E2E2E2E2E2E2E2E2E2E2E2E2E2E2E2E2E2E2E2E2E2E2E2F5E2E2F5E2F5F5F5F5F5F5F5F5F5F5F5F5F5F5F5F5F5F5F5F5F5F5F5F5F5F5F5F5F5F5E2F5F5F5F5F5F5F5F5F5F5F5F5F5F5F5F5F5F5F5F5F5F5F5F5F5F5F5F5F5F5F5F5F5F5F5F5F5F5F5F5F5F5F5F5F5F5F5F5F5F5F5F5F5F5F5F5F5F5F5F5F5F5F5F5F5F5
310
F5F5F5F5F5F5F5F5F5F5F5F5F5F5F5F5F5F5F5F5F5F5F5F5F5F5F5F5F5F5F5F5F5F5F5F5F5F5F5F5F5F5F5F5F5F5F5F5F5F5F5F5F5F5F5F5F5F5F5F5F5F5F5F5F5F5F5F5F5F5F5F5F5F5F5F5E2E2F5E2E2F5E2F5F5F5F5F5F5F5F5F5F5F5F5F5F5F5F5F5F5F5F5F5F5F5F5F5F5F5F5E2E2E2E2E2F5F5F5F5F5F5F5F5F5F5F5
310
F5F5F5F5E2E2E2E2F5F5F5E2E2E2E2E2E2E2E2E2F5F5F5E2E2E2E2E2E2E2E2E2E2E2E2E2F5F5F5E2E2E2E2E2E2E2E2F5F5F5E2E2E2E2E2E2E2E2E2F5F5F5E2E2E2E2E2E2E2E2E2F5F5F5F5F5F5F5F5F5F5F5F5F5F5F5F5F5F5F5F5F5F5F5F5F5F5F5F5F5F5F5F5F5F5F5F5F5F5F5F5F5F5F5F5F5F5F5F5F5F5F5F5F5F5F5F5
310
F5F5E2E2F5E2E2F5E2F5F5F5F5F5F5F5F5F5F5F5F5F5F5F5F5F5F5F5F5F5F5F5F5F5F5F5F5F5BEE2F5F5F5F5F5F5F5F5F5F5F5F5F5F5F5F5F5E2F5F5F5F5F5F5F5F5F5F5F5F5F5F5F5F5F5F5F5F5F5F5F5F5F5F5F5F5F5F5F5F5F5F5F5F5F5F5F5F5F5F5F5F5F5F5F5F5F5F5F5F5F5F5F5F5F5F5F5F5F5F5F5F5F5E2F5F5F5
310
F5F5F5F5F5F5F5F5F5F5F5F5F5F5F5F5F5F5F5F5F5F5F5F5F5F5F5F5F5F5F5F5F5F5F5F5F5F5F5F5F5F5F5F5F5F5F5F5F5F5F5F5F5F5F5E2E2F5E2E2F5E2F5F5F5F5F5F5F5F5F5F5F5F5F5F5F5F5F5F5F5F5F5F5F5F5F5F5F5F5F5F5E2F5F5F5F5F5F5F5F5F5F5F5F5F5F5F5F5F5E2F5F5F5F5F5F5F5F5F5F5F5F5F5F5F5F5
310
F5F5F5F5F5F5F5F5F5F5F5F5F5F5F5F5F5F5F5F5F5F5F5F5F5F5F5F5F5F5F5F5F5F5F5F5F5F5F5F5F5F5F5F5F5F5F5F5F5E2F5F5F5F5F5F5F5F5F5F5F5F5F5F5F5F5F5F5F5F5F5F5F5F5F5F5F5F5F5F5F5F5F5F5F5F5F5F5F5F5F5F5F5F5F5F5F5F5F5F5F5F5F5F5F5F5F5F5E2E2F5E2E2F5E2F5F5F5F5F5F5F5F5F5F5F5F5
310
F5F5F5F5F5F5F5F5F5F5F5F5F5F5F5F5F5F5E2F5F5F5F5F5F5F5F5F5F5F5F5F5F5F5F5F5E2F5F5F5F5F5F5F5F5F5F5F5F5F5F5F5F5F5F5F5F5F5F5F5F5F5F5F5F5F5F5F5F5F5F5F5F5F5F5F5F5F5F5F5F5F5F5F5F5F5F5F5F5F5F5F5F5F5F5F5F5F5F5F5F5F5E2F5F5F5F5F5F5F5F5F5F5F5F5F5F5F5F5F5F5F5F5F5F5F5F5
310
F5F5F5F5F5F5F5F5F5F5F5F5F5F5F5F5F5F5F5F5F5F5F5F5F5F5F5F5F5F5F5F5F5F5E2E2F5E2E2F5E2F5F5F5F5F5F5F5F5F5F5F5F5F5F5F5F5F5F5F5F5F5F5F5F5F5F5F5F5F5F5E2F5F5F5F5F5F5F5F5F5F5F5F5F5F5F5F5F5E2F5F5F5F5F5F5F5F5F5F5F5F5F5F5F5F5F5F5F5F5F5F5F5F5F5F5F5F5F5F5F5F5F5F5F5F5F5
310
F5F5F5F5F5F5F5F5F5F5F5F5F5F5F5F5F5F5F5F5F5F5F5F5F5F5F5F5E2F5F5F5F5F5F5F5F5F5F5F5F5F5F5F5F5F5F5F5F5F5F5F5F5F5F5F5F5F5F5F5F5F5F5F5F5F5F5F5F5F5F5F5F5F5F5F5F5F5F5F5F5F5F5F5F5F5F5E2E2F5E2E2F5E2F5F5F5F5F5F5F5F5F5F5F5F5F5F5F5F5F5F5F5F5F5F5F5F5F5F5F5F5F5F5E2F5F5
310
F5F5F5F5F5F5F5F5F5F5F5F5F5F5F5E2F5F5F5F5F5F5F5F5F5F5F5F5F5F5F5F5F5F5F5F5F5F5F5F5F5F5F5F5F5F5F5F5F5F5F5F5F5F5F5F5F5F5F5F5F5F5F5F5F5F5F5F5F5F5F5F5F5F5F5F5F5F5F5F5F5E2F5F5F5F5F5F5F5F5F5F5F5F5F5F5F5F5F5F5F5F5F5F5F5F5F5F5F5F5F5F5F5F5F5F5F5F5F5F5F5F5F5F5F5F5F5
310
F5F5F5F5F5F5F5F5F5F5F5F5F5E2E2F5E2E2F5E2F5F5F5F5F5F5F5F5F5F5F5F5F5F5F5F5F5F5F5F5F5F5F5F5F5F5F5F5F5F5E2F5F5F5F5F5F5F5F5F5F5F5F5F5F5F5F5F5E2F5F5F5F5F5F5F5F5F5F5F5F5F5F5F5F5F5F5F5F5F5F5F5F5F5F5F5F5F5F5F5F5F5F5F5F5F5F5F5F5F5F5F5F5F5F5F5F5F5F5F5F5F5F5F5F5F5F5
310
F5F5F5F5F5F5F5E2F5F5F5F5F5F5F5F5F5F5F5F5F5F5F5F5F5F5F5F5F5F5F5F5F5F5F5F5F5F5F5F5F5F5F5F5F5F5F5F5F5F5F5F5F5F5F5F5F5F5F5F5F5F5F5F5F5F5E2F5F5E2E2F5E2F5F5F5F5F5F5F5F5F5F5F5F5F5F5F5F5F5F5F5F5F5F5F5F5F5F5F5F5F5F5E2F5F5F5F5F5F5F5F5F5F5F5F5F5F5F5F5F5E2F5F5F5F5F5
310
F5F5F5F5F5F5F5F5F5F5F5F5F5F5F5F5F5F5F5F5F5F5F5F5F5F5F5F5F5F5F5F5F5F5F5F5F5F5F5F5F5F5F5F5F5F5F5F5F5F5F5F5F5F5F5F5F5F5F5F5E2F5F5F5F5F5F5F5F5F5F5F5F5F5F5F5F5F5F5F5F5F5F5F5F5F5F5F5F5F5F5F5F5F5F5F5F5F5F5F5F5F5F5F5F5F5F5F5F5F5F5F5F5F5F5F5F5F5F5E2F5F5E2E2F5E2F5
310
F5F5F5F5F5F5F5F5F5F5F5F5F5F5F5F5F5F5F5F5F5F5F5F5F5F5F5F5F5E2F5F5F5F5F5F5F5F5F5F5F5F5F5F5F5F5F5E2F5F5F5F5F5F5F5F5F5F5F5F5F5F5F5F5F5F5F5F5F5F5F5F5F5F5F5F5F5F5F5F5F5F5F5F5F5F5F5F5F5F5F5F5F5F5F5F5F5F5F5F5F5F5F5F5F5F5F5F5F5F5F5F5F5E2F5F5F5F5F5F5F5F5F5F5F5F5F5
310
F5F5F5F5F5F5F5F5F5F5F5F5F5F5F5F5F5F5F5F5F5F5F5F5F5F5F5F5F5F5F5F5F5F5F5F5F5F5F5F5F5F5F5F5F5E2F5F5E2E2F5E2F5F5F5F5F5F5F5F5F5F5F5F5F5F5F5F5F5F5F5F5F5F5F5F5F5F5F5F5F5F5E2F5F5F5F5F5F5F5F5F5F5F5F5E2E2E2E2E2E2F5F5F5F5F5F5F5F5F5F5F5F5F5F5F5F5F5F5F5F5F5F5F5F5F5F5
310
F5F5F5F5F5F5F5F5F5F5F5F5F5F5F5F5F5F5F5F5F5F5F5F5F5F5F5F5F5F5F5F5F5F5F5F5F5F5F5E2F5F5F5F5F5F5F5F5F5F5F5F5F5F5F5F5F5F5F5F5F5F5F5F5F5F5F5F5F5F5F5F5F5F5F5F5F5F5F5F5F5F5F5F5F5F5F5F5F5F5F5F5F5F5F5F5F5F5E2F5F5E2E2F5E2F5F5F5F5F5F5F5F5F5F5F5F5F5F5F5F5F5F5F5F5F5F5
310
F5F5F5F5F5F5F5F5E2F5F5F5F5F5F5F5F5F5F5F5F5E2F5F5F5F5F5F5F5F5F5F5F5F5F5F5F5F5F5F5F5F5F5F5F5F5F5F5F5F5F5F5F5F5F5F5F5F5F5F5F5F5F5F5F5F5F5F5F5F5F5F5F5F5F5F5F5F5F5F5F5F5F5F5F5F5F5F5F5F5F5F5E2E2E2E2E2E2F5F5F5E2E2E2E2E2E2E2E2E2F5F5F5E2E2E2E2E2E2E2E2F5F5F5E2E2E2
310
E2E2E2E2F5F5F5F5F5F5F5F5F5F5F5F5F5F5F5F5F5F5F5F5E2F5F5E2E2F5E2F5F5F5F5F5F5F5F5F5F5F5F5F5F5F5F5F5F5F5F5F5F5F5F5F5F5F5F5F5F5E2F5F5F5F5F5F5F5F5F5F5F5F5E2F5F5F5F5F5F5F5F5F5F5F5F5F5F5F5F5F5F5F5F5F5F5F5F5F5F5F5F5F5F5F5F5F5F5F5F5F5F5F5F5F5F5F5F5F5F5F5F5F5F5F5F5
310
F5F5F5F5F5F5F5F5F5F5F5F5F5F5F5F5F5F5F5F5F5F5F5F5F5F5F5F5F5F5F5F5F5F5F5F5F5F5F5F5F5F5F5F5F5F5F5F5F5F5F5F5F5F5F5F5E2F5F5F5F5F5F5F5F5F5F5F5F5F5F5F5F5F5F5F5F5E2F5F5E2E2F5E2F5F5F5F5F5F5F5F5F5F5F5F5F5F5F5F5F5F5F5F5F5F5F5F5F5F5F5F5F5F5E2F5F5F5F5F5F5F5F5F5F5F5F5
310
E2F5F5F5F5F5F5F5F5F5F5F5F5F5F5F5F5F5F5F5F5F5F5F5F5F5F5F5F5F5F5F5F5F5F5F5F5F5F5F5F5F5F5F5F5F5F5F5F5F5F5F5F5F5F5F5F5F5F5F5F5F5F5F5F5F5F5F5F5F5F5F5F5F5F5F5F5F5F5F5F5F5F5F5F5F5F5F5F5F5F5F5F5F5F5F5F5F5F5F5F5F5F5F5F5F5F5F5F5E2F5F5F5F5F5F5F5F5F5F5F5F5F5F5F5F5F5
310
F5F5F5E2F5F5E2E2F5E2F5F5F5F5F5F5F5F5F5F5F5F5F5F5F5F5F5F5F5F5F5F5F5F5F5F5F5F5F5F5E2F5F5F5F5F5F5F5F5F5F5F5F5E2F5F5F5F5F5F5F5F5F5F5F5F5F5F5F5F5F5F5F5F5F5F5F5F5F5F5F5F5F5F5F5F5F5F5F5F5F5F5F5F5F5F5F5F5F5F5F5F5F5F5F5F5F5F5F5F5F5F5F5F5F5F5F5F5F5F5F5F5F5F5F5F5F5
310
F5F5F5F5F5F5F5F5F5F5F5F5F5F5F5F5F5F5F5F5F5F5F5F5F5F5F5F5F5F5F5F5F5F5F5E2F5F5F5F5F5F5F5F5F5F5F5F5F5F5F5F5F5F5F5F5E2F5F5E2E2F5E2F5F5F5F5F5F5F5F5F5F5F5F5F5F5F5F5F5F5F5F5F5F5F5F5F5F5F5F5F5F5E2F5F5F5F5F5F5F5F5F5F5F5F5E2F5F5F5F5F5F5F5F5F5F5F5F5F5F5F5F5F5F5F5F5
310
F5F5F5F5F5F5F5F5F5F5F5F5F5F5F5F5F5F5F5F5F5F5F5F5F5F5F5F5F5F5F5F5F5F5F5F5F5F5F5F5F5F5F5F5F5F5F5F5F5F5F5F5F5F5F5F5F5F5F5F5F5F5F5F5F5F5F5F5F5F5F5F5F5F5F5F5F5F5F5F5F5F5F5F5F5F5F5F5E2F5F5F5F5F5F5F5F5F5F5F5F5F5F5F5F5F5F5F5F5E2F5F5E2E2F5E2F5F5F5F5F5F5F5F5F5F5F5
310
F5F5F5F5F5F5F5F5F5F5F5F5F5F5F5F5F5F5F5E2F5F5F5F5F5F5F5F5F5F5F5F5E2F5F5F5F5F5F5F5F5F5F5F5F5F5F5F5F5F5F5F5F5F5F5F5F5F5F5F5F5F5F5F5F5F5F5F5F5F5F5F5F5F5F5F5F5F5F5F5F5F5F5F5F5F5F5F5F5F5F5F5F5F5F5F5F5F5F5F5F5F5F5F5F5F5F5F5F5F5F5F5F5F5F5F5F5F5F5F5F5F5F5F5F5F5F5
310
F5F5F5F5F5F5F5F5F5F5F5F5F5F5E2F5F5F5F5F5F5F5F5F5F5F5F5F5F5F5F5F5F5F5F5E2E2F5E2E2F5E2F5F5F5F5F5F5F5F5F5F5F5F5F5F5F5F5F5F5F5F5F5F5F5F5F5F5F5F5F5F5E2F5F5F5F5F5F5F5F5F5F5F5F5E2F5F5F5F5F5F5F5F5F5F5F5F5F5F5F5F5F5F5F5F5F5F5F5F5F5F5F5F5F5F5F5F5F5F5F5F5F5F5F5F5F5
310
F5F5F5F5F5F5F5F5F5F5F5F5F5F5F5F5F5F5F5F5F5F5F5F5F5F5F5F5F5F5F5F5F5F5F5F5F5F5F5F5F5F5F5F5F5F5F5F5F5F5F5F5F5F5F5F5F5F5F5F5F5F5F5F5F5F5F5E2F5F5F5F5F5F5F5F5F5F5F5F5F5F5F5F5F5F5F5F5E2E2F5E2E2F5E2F5F5F5F5F5F5F5F5F5F5F5F5F5F5F5F5F5F5F5F5F5F5F5F5F5F5F5F5F5F5E2F5
310
F5F5F5F5F5F5F5F5F5F5F5E2F5F5F5F5F5F5F5F5F5F5F5F5F5F5F5F5F5F5F5F5F5F5F5F5F5F5F5F5F5F5F5F5F5F5F5F5F5F5F5F5F5F5F5F5F5F5F5F5F5F5F5F5F5F5F5F5F5F5F5F5F5F5F5F5F5F5F5F5F5F5F5F5F5F5F5F5F5F5F5F5F5F5F5F5F5F5F5F5F5F5F5F5F5F5F5F5F5F5F5F5F5F5F5F5F5F5F5F5E2F5F5F5F5F5F5
310
F5F5F5F5F5F5F5F5F5F5F5F5F5F5E2E2F5E2E2F5E2F5F5F5F5F5F5F5F5F5F5F5F5F5F5F5F5F5F5F5F5F5F5F5F5F5F5F5F5F5F5E2F5F5F5F5F5F5F5F5F5F5F5F5E2F5F5F5F5F5F5F5F5F5F5F5F5F5F5F5F5F5F5F5F5F5F5F5F5F5F5F5F5F5F5F5F5F5F5F5F5F5F5F5F5F5F5F5F5F5F5F5F5F5F5F5F5F5F5F5F5F5F5F5F5F5F5
310
F5F5F5F5F5F5F5F5F5F5F5F5F5F5F5F5F5F5F5F5F5F5F5F5F5F5F5F5F5F5F5F5F5F5F5F5F5F5F5F5F5F5F5F5F5F5F5F5F5F5F5F5F5F5F5F5F5F5F5F5F5F5F5F5F5F5F5E2E2F5E2E2F5E2F5F5F5F5F5F5F5F5F5F5F5F5F5F5F5F5F5F5F5F5F5F5F5F5F5F5F5F5F5F5E2F5F5F5F5F5F5F5F5F5F5F5F5E2F5F5F5F5F5F5F5F5F5
310
F5F5F5F5F5F5F5F5F5F5F5F5F5F5F5F5F5F5F5F5F5F5F5F5F5F5F5F5F5F5F5F5F5F5F5F5F5F5F5F5F5F5F5F5F5F5F5F5F5F5F5F5F5F5F5F5F5F5F5F5F5F5F5F5F5F5F5F5F5F5F5F5F5F5F5F5F5F5F5F5F5F5F5F5F5F5F5F5F5F5F5F5F5F5F5F5F5F5F5F5F5F5F5F5F5F5F5F5F5F5F5F5F5F5F5F5F5F5F5F5E2E2F5E2E2F5E2
310
F5F5F5F5F5F5F5F5F5F5F5F5F5F5F5F5F5F5F5F5F5F5F5F5F5F5F5F5F5F5E2F5F5F5F5F5F5F5F5F5F5F5F5F5F5F5F5F5F5F5F5F5F5F5F5F5F5F5F5F5F5F5F5F5F5F5F5F5F5F5F5F5F5F5F5F5F5F5F5F5F5F5F5F5F5F5F5F5F5F5F5F5F5F5F5F5F5F5F5F5F5F5F5F5F5F5F5F5F5F5F5F5F5F5F5F5F5F5F5F5F5F5F5F5F5F5F5
310
F5F5F5F5F5F5F5F5F5F5F5F5F5F5F5F5F5F5F5F5F5F5F5F5F5F5F5F5F5F5F5F5F5F5F5F5F5F5F5F5F5F5F5F5F5F5E2E2F5E2E2F5E2F5F5F5F5F5F5F5F5F5F5F5F5F5F5F5F5F5F5F5F5F5F5F5F5F5F5F5F5F5F5E2F5F5F5F5F5F5F5F5F5F5F5F5F5F5F5F5F5F5F5F5F5F5F5F5F5F5F5F5F5F5F5F5F5F5F5F5F5F5F5F5F5F5F5
310
F5F5F5F5F5F5F5F5F5F5F5F5F5F5F5F5F5F5F5F5F5F5F5F5F5F5F5F5F5F5F5F5F5F5F5F5F5F5F5F5F5F5F5F5F5F5F5F5F5F5F5F5F5F5F5F5F5F5F5F5F5F5F5F5F5F5F5F5F5F5F5F5F5F5F5F5F5F5E2F5F5F5F5F5F5F5F5F5F5F5F5F5F5F5F5F5F5F5F5E2E2F5E2E2F5E2F5F5F5F5F5F5F5F5F5F5F5F5F5F5F5F5F5F5F5F5F5
310
F5F5F5F5F5F5F5F5F5E2F5F5F5F5F5F5F5F5F5F5F5F5F5F5F5F5F5F5F5F5F5F5F5F5F5F5F5F5F5F5F5F5F5F5F5F5F5F5F5F5E2E2E2E2E2E2E2E2E2E2E2E2E2E2E2E2E2E2E2E2F5F5F5F5F5F5F5F5F5F5F5F5F5F5F5F5F5F5F5F5F5F5F5F5F5F5F5F5F5F5F5F5F5F5F5F5F5F5F5F5F5F5F5F5F5F5F5F5F5F5F5F5F5F5F5F5F5
310
F5F5F5F5E2F5F5F5F5F5F5F5F5F5F5F5F5F5F5F5F5F5F5F5F5E2E2F5E2E2F5E2F5F5F5F5F5F5F5F5F5F5F5F5F5F5F5F5F5F5F5F5F5F5F5F5F5F5F5F5F5F5E2F5F5F5F5F5F5F5F5F5F5F5F5E2F5F5F5F5F5F5F5F5F5F5F5F5F5F5F5F5F5F5F5F5F5F5F5F5F5F5F5E2E2F5E2E2F5E2E2F5E2E2F5E2E2F5E2F5E2E2F5E2F5F5F5
310
F5F5F5F5F5F5F5F5F5F5F5F5F5F5F5F5F5F5F5F5F5F5F5F5F5F5F5F5F5F5F5F5F5F5F5F5F5F5F5F5F5F5F5F5F5F5F5F5F5F5F5F5F5F5F5F5F5E2F5F5F5F5F5F5F5F5F5F5F5F5F5F5F5F5F5F5F5F5E2E2F5E2E2F5E2F5F5F5F5F5F5F5F5F5F5F5F5F5F5F5F5F5F5F5F5F5F5F5F5F5F5F5F5F5F5E2F5F5F5F5F5F5F5F5F5F5F5
310
F5E2F5F5F5F5F5F5F5F5F5F5F5F5F5F5F5F5F5F5F5F5F5F5F5F5F5F5F5E2E2F5E2E2F5E2E2F5E2E2F5E2E2F5E2F5E2E2E2E2F5F5F5F5F5F5F5F5F5F5F5F5F5F5F5F5F5F5F5F5F5F5F5F5F5F5F5F5F5F5F5F5F5F5F5F5F5F5F5F5F5F5F5F5F5F5F5F5F5F5F5F5F5F5F5F5F5F5F5F5E2F5F5F5F5F5F5F5F5F5F5F5F5F5F5F5F5
310
F5F5F5F5E2E2F5E2E2F5E2F5F5F5F5F5F5F5F5F5F5F5F5F5F5F5F5F5F5F5F5F5F5F5F5F5F5F5F5F5F5E2F5F5F5F5F5F5F5F5F5F5F5F5E2F5F5F5F5F5F5F5F5F5F5F5F5F5F5F5F5F5F5F5F5F5F5F5F5F5F5F5E2E2E2E2E2E2E2E2E2E2E2E2E2E2E2E2E2E2E2E2E2F5F5F5F5F5F5F5F5F5F5F5F5F5F5F5F5F5F5F5F5F5F5F5F5
310
F5F5F5F5F5F5F5F5F5F5F5F5F5F5F5F5F5F5F5F5F5F5F5F5F5F5F5F5F5F5F5F5F5F5F5F5E2F5F5F5F5F5F5F5F5F5F5F5F5F5F5F5F5F5F5F5F5E2E2F5E2E2F5E2F5F5F5F5F5F5F5F5F5F5F5F5F5F5F5F5F5F5F5F5F5F5F5F5F5F5F5F5F5F5E2F5F5F5F5F5F5F5F5F5F5F5F5E2F5F5F5F5F5F5F5F5F5F5F5F5F5F5F5F5F5F5F5
310
F5F5F5F5F5F5F5F5E2E2F5E2E2F5E2E2F5E2E2F5E2E2F5E2F5E2E2F5E2F5F5F5F5F5F5F5F5F5F5F5F5F5F5F5F5F5F5F5F5F5F5F5F5F5F5F5F5F5F5F5F5F5F5F5F5F5F5F5F5F5F5F5F5F5F5F5F5F5F5F5F5F5F5F5F5F5F5F5F5E2F5F5F5F5F5F5F5F5F5F5F5F5F5F5F5F5F5F5F5F5E2E2F5E2E2F5E2F5F5F5F5F5F5F5F5F5F5
310
F5F5F5F5F5F5F5F5F5F5F5F5F5F5F5F5F5F5F5F5E2F5F5F5F5F5F5F5F5F5F5F5F5E2F5F5F5F5F5F5F5F5F5F5F5F5F5F5F5F5F5F5F5F5F5F5F5F5F5F5F5E2E2F5E2E2F5E2E2F5E2E2F5E2E2F5E2F5E2E2F5E2F5F5F5F5F5F5F5F5F5F5F5F5F5F5F5F5F5F5F5F5F5F5F5F5F5F5F5F5F5F5F5F5F5F5F5F5F5F5F5F5F5F5F5F5F5
310
F5F5F5F5F5F5F5F5F5F5F5F5F5F5F5E2F5F5F5F5F5F5F5F5F5F5F5F5F5F5F5F5F5F5F5F5E2E2F5E2E2F5E2F5F5F5F5F5F5F5F5F5F5F5F5F5F5F5F5F5F5F5F5F5F5F5F5F5F5F5F5F5F5E2F5F5F5F5F5F5F5F5F5F5F5F5E2F5F5F5F5F5F5F5F5F5F5F5F5F5F5F5F5F5F5F5F5F5F5F5F5F5F5F5E2E2F5E2E2F5E2E2F5E2E2F5E2
310
E2F5E2F5E2E2F5E2E2E2E2E2E2E2E2E2E2E2E2E2E2E2E2E2E2E2E2E2E2E2E2E2E2E2E2E2E2F5F5F5F5F5F5F5F5F5F5F5F5F5F5F5F5F5F5F5F5F5F5F5F5F5F5F5F5F5F5F5E2F5F5F5F5F5F5F5F5F5F5F5F5F5F5F5F5F5F5F5F5E2E2F5E2E2F5E2F5F5F5F5F5F5F5F5F5F5F5F5F5F5F5F5F5F5F5F5F5F5F5F5F5F5F5F5F5F5E2
310
F5F5F5F5F5F5F5F5F5F5F5F5E2F5F5F5F5F5F5F5F5F5F5F5F5F5F5F5F5F5F5F5F5F5F5F5F5F5F5F5E2E2F5E2E2F5E2E2F5E2E2F5E2E2F5E2F5E2E2F5E2F5F5F5F5F5F5F5F5F5F5F5F5F5F5F5F5F5F5F5F5F5F5F5E2F5F5F5F5E2F5F5F5F5F5F5F5F5F5F5F5F5F5F5F5F5F5F5F5F5F5F5F5F5F5F5F5F5F5F5F5E2F5F5F5F5F5
310
F5F5F5F5F5F5F5F5F5F5F5F5F5F5F5E2E2F5E2E2F5E2F5F5F5F5F5F5F5F5F5F5F5F5F5F5F5F5F5F5F5F5F5F5F5F5F5F5F5F5F5F5E2F5F5F5F5F5F5F5F5F5F5F5F5E2F5F5F5F5F5F5F5F5F5F5F5F5F5F5F5F5F5F5F5F5F5F5F5F5F5F5F5E2E2E2E2E2E2E2E2E2E2E2E2E2E2E2E2E2E2E2E2E2F5F5F5F5F5F5F5F5F5F5F5F5F5
310
F5F5F5F5F5F5F5F5F5F5E2F5F5F5F5E2F5F5F5F5F5F5F5F5F5F5F5F5F5F5F5F5F5F5F5F5F5F5F5F5F5F5F5F5F5F5F5E2F5F5F5F5F5F5F5F5F5F5F5F5F5F5F5F5F5F5F5F5E2E2F5E2E2F5E2F5F5F5F5F5F5F5F5F5F5F5F5F5F5F5F5F5F5F5F5F5F5F5F5F5F5F5F5F5F5E2F5F5F5F5F5F5F5F5F5F5F5F5F5F5F5F5F5F5F5F5F5
310
F5F5F5F5F5F5F5F5F5F5F5F5F5F5F5F5F5F5F5E2E2E2E2E2E2E2E2E2E2E2E2E2E2E2E2E2E2E2F5E2F5F5F5F5F5F5F5F5F5F5F5F5F5F5F5F5F5F5F5F5F5F5F5E2F5F5F5F5E2F5F5F5F5F5F5F5F5F5F5F5F5F5F5F5F5F5F5F5F5F5F5F5F5F5F5F5F5F5F5F5E2F5F5F5F5F5F5F5F5F5F5F5F5F5F5F5F5F5F5F5F5E2F5F5E2E2F5
310
E2F5F5F5F5F5F5F5F5F5F5F5F5F5F5F5F5F5F5F5F5F5F5F5F5F5F5F5F5F5F5E2F5F5F5F5F5F5F5F5F5F5F5F5F5F5F5F5F5F5F5F5F5F5F5F5F5F5F5F5F5F5F5F5F5F5F5E2E2E2E2E2E2E2E2E2E2E2E2E2E2E2E2E2E2E2E2E2E2E2E2E2E2F5F5F5F5F5F5F5F5F5F5F5F5F5F5F5F5F5F5F5F5F5F5F5E2F5F5F5F5E2F5F5F5F5F5
310
F5F5F5F5F5F5F5F5F5F5F5F5F5F5F5F5F5F5F5F5F5F5F5F5F5F5E2F5F5F5F5F5F5F5F5F5F5F5F5F5F5F5F5F5F5F5F5E2F5F5E2E2F5E2F5F5F5F5F5F5F5F5F5F5F5F5F5F5F5F5F5F5F5F5F5F5F5F5F5F5F5F5F5F5E2F5F5F5F5F5F5F5F5F5F5F5F5F5F5F5F5F5F5F5F5F5F5F5F5F5F5F5F5F5F5F5F5F5F5F5F5F5F5F5F5E2E2
310
F5E2E2F5E2E2F5E2E2F5E2E2F5E2F5E2E2F5E2F5F5F5F5F5F5F5F5F5F5F5F5F5F5F5F5F5F5F5F5F5F5F5E2F5F5F5F5E2F5F5F5F5F5F5F5F5F5F5F5F5F5F5F5F5F5F5F5F5F5F5F5F5F5F5F5F5F5F5F5E2F5F5F5F5F5F5F5F5F5F5F5F5F5F5F5F5F5F5F5F5E2F5F5E2E2F5E2F5F5F5F5F5F5F5F5F5F5F5F5F5F5F5F5F5F5F5F5
310
F5F5F5F5F5F5F5F5F5F5E2F5F5F5F5F5F5F5F5F5F5F5F5E2F5F5F5F5F5F5F5F5F5F5F5F5F5F5F5F5F5F5F5F5F5F5F5F5F5F5F5E2E2E2E2E2E2E2E2E2E2E2E2E2E2E2E2E2E2E2E2E2F5F5F5F5F5F5F5F5F5F5F5F5F5F5F5F5F5F5F5F5F5F5F5E2F5F5F5F5E2F5F5F5F5F5F5F5F5F5F5F5F5F5F5F5F5F5F5F5F5F5F5F5F5F5F5
310
F5F5F5F5F5E2F5F5F5F5F5F5F5F5F5F5F5F5F5F5F5F5F5F5F5F5E2F5F5E2E2F5E2F5F5F5F5F5F5F5F5F5F5F5F5F5F5F5F5F5F5F5F5F5F5F5F5F5F5F5F5F5F5E2F5F5F5F5F5F5F5F5F5F5F5F5E2F5F5F5F5F5F5F5F5F5F5F5F5F5F5F5F5F5F5F5F5F5F5F5F5F5F5F5E2E2F5E2E2F5E2E2F5E2E2F5E2E2F5E2F5E2E2F5E2F5F5
310
F5F5F5F5F5F5F5F5F5F5F5F5F5F5F5F5F5F5F5F5F5E2F5F5F5F5E2F5F5F5F5F5F5F5F5F5F5F5F5F5F5F5F5F5F5F5F5F5F5F5F5F5F5F5F5F5F5F5F5F5F5F5F5F5F5F5F5F5F5F5F5F5F5F5F5F5F5F5F5E2F5F5E2E2F5E2F5F5F5F5F5F5F5F5F5F5F5F5F5F5F5F5F5F5F5F5F5F5F5F5F5F5F5F5F5F5E2F5F5F5F5F5F5F5F5F5F5
310
F5F5E2F5F5F5F5F5F5F5F5F5F5F5F5F5F5F5F5F5F5F5F5F5F5F5F5F5F5F5E2E2F5E2E2F5E2E2F5E2E2F5E2E2F5E2F5E2E2F5E2E2E2E2E2E2E2E2E2E2E2E2E2E2E2E2E2E2E2E2E2E2E2E2E2E2E2E2E2E2F5F5F5F5F5F5F5F5F5F5F5F5F5F5F5F5F5F5F5F5F5F5F5F5F5F5F5F5F5F5F5F5F5F5F5F5F5F5F5F5F5F5F5F5F5F5F5
310
F5F5F5F5F5E2F5F5E2E2F5E2F5F5F5F5F5F5F5F5F5F5F5F5F5F5F5F5F5F5F5F5F5F5F5F5F5F5F5F5F5F5E2F5F5F5F5F5F5F5F5F5F5F5F5E2F5F5F5F5F5F5F5F5F5F5F5F5F5F5F5F5F5F5F5F5F5F5F5F5F5F5F5E2E2F5E2E2F5E2E2F5E2E2F5E2E2F5E2F5E2E2F5E2F5F5F5F5F5F5F5F5F5F5F5F5F5F5F5F5F5F5F5F5F5F5F5
310
F5F5F5F5F5F5F5F5F5F5F5F5F5F5F5F5F5F5F5F5F5F5F5F5F5F5F5F5F5F5F5F5F5F5F5F5F5F5F5F5F5F5F5F5F5F5F5F5F5F5F5F5F5F5F5F5F5F5E2F5F5E2E2F5E2F5F5F5F5F5F5F5F5F5F5F5F5F5F5F5F5F5F5F5F5F5F5F5F5F5F5F5F5F5F5E2F5F5F5F5F5F5F5F5F5F5F5F5E2F5F5F5F5F5F5F5F5F5F5F5F5F5F5F5F5F5F5
310
F5F5F5F5F5F5F5F5F5E2E2F5E2E2F5E2E2F5E2E2F5E2E2F5E2F5E2E2F5E2F5F5F5F5F5F5F5F5F5F5F5F5F5F5F5F5F5F5F5F5F5F5F5F5F5F5F5F5F5F5F5F5F5F5F5F5F5F5F5F5F5F5F5F5F5F5F5F5F5F5F5F5F5F5F5F5F5F5F5F5E2F5F5F5F5F5F5F5F5F5F5F5F5F5F5F5F5F5F5F5F5E2F5F5E2E2F5E2F5F5F5F5F5F5F5F5F5
310
F5F5F5F5F5F5F5F5F5F5F5F5F5F5F5F5F5F5F5F5F5E2F5F5F5F5F5F5F5F5F5F5F5F5E2F5F5F5F5F5F5F5F5F5F5F5F5F5F5F5F5F5F5F5F5F5F5F5F5F5F5F5E2E2E2E2E2E2E2E2E2E2E2E2E2E2E2E2E2E2E2E2E2F5F5F5F5F5F5F5F5F5F5F5F5F5F5F5F5F5F5F5F5F5F5F5F5F5F5F5F5F5F5F5F5F5F5F5F5F5F5F5F5F5F5F5F5
310
F5F5F5F5F5F5F5F5F5F5F5F5F5F5F5F5E2F5F5F5F5F5F5F5F5F5F5F5F5F5F5F5F5F5F5F5F5E2F5F5E2E2F5E2F5F5F5F5F5F5F5F5F5F5F5F5F5F5F5F5F5F5F5F5F5F5F5F5F5F5F5F5F5F5E2F5F5F5F5F5F5F5F5F5F5F5F5E2F5F5F5F5F5F5F5F5F5F5F5F5F5F5F5F5F5F5F5F5F5F5F5F5F5F5F5E2E2E2E2E2E2E2E2E2E2E2E2
310
E2E2E2E2E2E2E2E2E2F5F5F5F5F5F5F5F5F5F5F5F5F5F5F5F5F5F5F5F5F5F5F5F5F5F5F5F5F5F5F5F5F5F5F5F5F5F5F5F5F5F5F5F5F5F5F5F5F5F5F5F5F5F5F5F5F5F5F5F5E2F5F5F5F5F5F5F5F5F5F5F5F5F5F5F5F5F5F5F5F5E2E2F5E2E2F5E2F5F5F5F5F5F5F5F5F5F5F5F5F5F5F5F5F5F5F5F5F5F5F5F5F5F5F5F5F5F5
310
E2F5F5F5F5F5F5F5F5F5F5F5F5E2F5F5F5F5F5F5F5F5F5F5F5F5F5F5F5F5F5F5F5F5F5F5F5F5F5F5F5E2E2F5E2E2F5E2E2F5E2E2F5E2E2F5E2F5E2E2F5E2F5F5F5F5F5F5F5F5F5F5F5F5F5F5F5F5F5F5F5F5F5F5F5F5F5F5F5F5F5F5F5F5F5F5F5F5F5F5F5F5F5F5F5F5F5F5F5F5F5F5F5F5F5F5F5F5F5F5F5F5E2F5F5F5F5
310
F5F5F5F5F5F5F5F5F5F5F5F5F5F5F5F5E2E2F5E2E2F5E2F5F5F5F5F5F5F5F5F5F5F5F5F5F5F5F5F5F5F5F5F5F5F5F5F5F5F5F5F5F5E2F5F5F5F5F5F5F5F5F5F5F5F5E2F5F5F5F5F5F5F5F5F5F5F5F5F5F5F5F5F5F5F5F5F5F5F5F5F5F5F5E2E2E2E2E2E2E2E2E2E2E2E2E2E2E2E2E2E2E2E2F5F5F5F5F5F5F5F5F5F5F5F5F5
310
F5F5F5F5F5F5F5F5F5F5F5F5F5F5F5F5F5F5F5F5F5F5F5F5F5F5F5F5F5F5F5F5F5F5F5F5F5F5F5F5F5F5F5F5F5F5F5F5E2F5F5F5F5F5F5F5F5F5F5F5F5F5F5F5F5F5F5F5F5E2E2F5E2E2F5E2F5F5F5F5F5F5F5F5F5F5F5F5F5F5F5F5F5F5F5F5F5F5F5F5F5F5F5F5F5F5E2F5F5F5F5F5F5F5F5F5F5F5F5F5F5F5F5F5F5F5F5
310
F5F5F5F5F5F5F5F5F5F5F5F5F5F5F5F5F5F5F5F5F5F5F5E2E2E2E2E2E2E2E2E2E2E2E2E2E2E2E2F5F5F5F5F5F5F5F5F5F5F5F5F5F5F5F5F5F5F5F5F5F5F5F5F5F5F5F5F5F5F5F5F5F5F5F5F5F5F5F5F5F5F5F5F5F5F5F5F5F5F5F5F5F5F5F5F5F5F5F5F5F5E2F5F5F5F5F5F5F5F5F5F5F5F5F5F5F5F5F5F5F5F5E2E2F5E2E2
310
F5E2F5F5F5F5F5F5F5F5F5F5F5F5F5F5F5F5F5F5F5F5F5F5F5F5F5F5F5F5F5F5E2F5F5F5F5F5F5F5F5F5F5F5F5F5F5F5F5F5F5F5F5F5F5F5F5F5F5F5F5F5F5F5F5F5F5F5F5F5F5F5F5F5F5F5E2E2F5F5F5F5F5F5F5F5F5F5F5F5E2E2F5F5F5F5F5F5F5F5F5F5F5F5F5F5F5F5F5F5F5F5F5F5F5F5F5F5F5F5F5F5F5F5F5F5F5
310
F5F5F5F5F5F5F5F5F5F5F5F5F5F5F5F5F5F5F5F5F5F5F5F5F5F5F5E2F5F5F5F5F5F5F5F5F5F5F5F5F5F5F5F5F5F5F5F5E2E2F5E2E2F5E2F5F5F5F5F5F5F5F5F5F5F5F5F5F5F5F5F5F5F5F5F5F5F5F5F5F5F5F5F5F5E2F5F5F5F5F5F5F5F5F5F5F5F5F5F5F5F5F5F5F5F5F5F5F5F5F5F5F5F5F5F5F5F5F5F5F5F5F5F5F5F5F5
310
F5F5E2E2E2E2E2E2E2E2E2E2E2E2E2E2E2E2F5F5F5F5F5F5F5F5F5F5F5F5F5F5F5F5F5F5F5F5F5F5F5F5F5F5F5F5F5F5F5F5F5F5F5F5F5F5F5F5F5F5F5F5F5F5F5F5F5F5F5F5F5F5F5F5F5F5F5F5F5F5E2F5F5F5F5F5F5F5F5F5F5F5F5F5F5F5F5F5F5F5F5E2E2F5E2E2F5E2F5F5F5F5F5F5F5F5F5F5F5F5F5F5F5F5F5F5F5
310
F5F5F5F5F5F5F5F5F5F5F5E2F5F5F5F5F5F5F5F5F5F5F5F5E2F5F5F5F5F5F5F5F5F5F5F5F5F5F5F5F5F5F5F5F5F5F5F5F5F5F5F5F5F5F5E2E2F5F5F5F5F5F5F5F5F5F5F5F5E2E2F5F5F5F5F5F5F5F5F5F5F5F5F5F5F5F5F5F5F5F5F5F5F5F5F5F5F5F5F5F5F5F5F5F5F5F5F5F5F5F5F5F5F5F5F5F5F5F5F5F5F5F5F5F5F5F5
310
F5F5F5F5F5F5F5F5F5F5F5F5F5F5F5F5F5F5F5F5F5F5F5F5F5F5F5E2E2F5E2E2F5E2F5F5F5F5F5F5F5F5F5F5F5F5F5F5F5F5F5F5F5F5F5F5F5F5F5F5F5F5F5F5E2F5F5F5F5F5F5F5F5F5F5F5F5E2F5F5F5F5F5F5F5F5F5F5F5F5F5F5F5F5F5F5F5F5F5F5F5F5F5F5F5F5F5F5E2E2E2E2E2E2E2E2E2E2E2E2E2E2E2E2F5F5F5
310
F5F5F5F5F5F5F5F5F5F5F5F5F5F5F5F5F5F5F5F5F5F5F5F5F5F5F5F5F5F5F5F5F5F5F5F5F5F5F5F5F5F5F5F5F5F5F5F5F5F5F5F5F5F5F5F5F5F5F5F5F5F5F5F5F5F5F5F5F5F5F5F5F5F5F5F5F5F5F5F5E2E2F5E2E2F5E2F5F5F5F5F5F5F5F5F5F5F5F5F5F5F5F5F5F5F5F5F5F5F5F5F5F5F5F5F5F5E2F5F5F5F5F5F5F5F5F5
310
F5F5F5E2F5F5F5F5F5F5F5F5F5F5F5F5F5F5F5F5F5F5F5F5F5F5F5F5F5F5F5F5F5F5E2E2E2E2E2E2E2E2E2E2E2E2E2E2E2E2F5F5F5F5F5F5F5F5F5F5F5F5F5F5F5F5F5F5F5F5F5F5F5F5F5F5F5F5F5F5F5F5F5F5F5F5F5F5F5F5F5F5F5F5F5F5F5F5F5F5F5F5F5F5F5F5F5F5F5F5F5F5F5F5F5F5F5F5F5F5F5F5F5F5F5F5F5
310
F5F5F5F5F5F5E2E2F5E2E2F5E2F5F5F5F5F5F5F5F5F5F5F5F5F5F5F5F5F5F5F5F5F5F5F5F5F5E2E2E2E2F5E2F5F5F5F5F5F5F5F5F5F5F5F5E2F5F5F5F5F5F5F5F5F5F5F5F5F5F5F5F5F5F5F5F5F5F5F5F5F5F5F5F5F5F5E2E2F5F5F5F5F5F5F5F5F5F5F5F5E2E2F5F5F5F5F5F5F5F5F5F5F5F5F5F5F5F5F5F5F5F5F5F5F5F5
310
F5F5F5F5F5F5F5F5F5F5F5F5F5F5F5F5F5F5F5F5F5F5F5F5F5F5F5F5F5F5F5F5F5F5F5F5F5F5E2F5F5F5F5F5F5F5F5F5F5F5F5F5F5F5F5F5F5F5F5E2E2F5E2E2F5E2F5F5F5F5F5F5F5F5F5F5F5F5F5F5F5F5F5F5F5F5F5F5F5F5F5E2E2E2E2F5E2F5F5F5F5F5F5F5F5F5F5F5F5E2F5F5F5F5F5F5F5F5F5F5F5F5F5F5F5F5F5
310
F5F5F5F5F5F5F5F5F5F5F5F5F5E2E2E2E2E2E2E2E2E2E2E2E2E2E2E2E2F5F5F5F5F5F5F5F5F5F5F5F5F5F5F5F5F5F5F5F5F5F5F5F5F5F5F5F5F5F5F5F5F5F5F5F5F5F5F5F5F5F5F5F5F5F5F5F5F5F5F5F5F5F5F5F5F5F5F5F5F5F5E2F5F5F5F5F5F5F5F5F5F5F5F5F5F5F5F5F5F5F5F5E2E2F5E2E2F5E2F5F5F5F5F5F5F5F5
310
F5F5F5F5F5F5F5F5F5F5F5F5F5F5F5F5F5E2E2E2E2F5E2F5F5F5F5F5F5F5F5F5F5F5F5E2F5F5F5F5F5F5F5F5F5F5F5F5F5F5F5F5F5F5F5F5F5F5F5F5F5F5F5F5F5F5E2E2F5F5F5F5F5F5F5F5F5F5F5F5E2E2F5F5F5F5F5F5F5F5F5F5F5F5F5F5F5F5F5F5F5F5F5F5F5F5F5F5F5F5F5F5F5F5F5F5F5F5F5F5F5F5F5F5F5F5F5
310
F5F5F5F5F5F5F5F5F5F5F5F5F5F5F5F5F5E2F5F5F5F5F5F5F5F5F5F5F5F5F5F5F5F5F5F5F5F5E2E2F5E2E2F5E2F5F5F5F5F5F5F5F5F5F5F5F5F5F5F5F5F5F5F5F5F5F5F5F5F5E2E2E2E2F5E2F5F5F5F5F5F5F5F5F5F5F5F5E2F5F5F5F5F5F5F5F5F5F5F5F5F5F5F5F5F5F5F5F5F5F5F5F5F5F5F5F5F5F5E2E2E2E2E2E2E2E2
310
E2E2E2E2E2E2E2E2F5F5F5F5F5F5F5F5F5F5F5F5F5F5F5F5F5F5F5F5F5F5F5F5F5F5F5F5F5F5F5F5F5F5F5F5F5F5F5F5F5F5F5F5F5F5F5F5F5F5F5F5F5F5F5F5F5F5F5F5F5F5E2F5F5F5F5F5F5F5F5F5F5F5F5F5F5F5F5F5F5F5F5E2E2F5E2E2F5E2F5F5F5F5F5F5F5F5F5F5F5F5F5F5F5F5F5F5F5F5F5F5F5F5F5E2E2E2E2
310
F5E2F5F5F5F5F5F5F5F5F5F5F5F5E2F5F5F5F5F5F5F5F5F5F5F5F5F5F5F5F5F5F5F5F5F5F5F5F5F5F5F5F5F5F5E2E2F5F5F5F5F5F5F5F5F5F5F5F5E2E2F5F5F5F5F5F5F5F5F5F5F5F5F5F5F5F5F5F5F5F5F5F5F5F5F5F5F5F5F5F5F5F5F5F5F5F5F5F5F5F5F5F5F5F5F5F5F5F5F5F5F5F5F5F5F5F5F5F5F5F5F5F5E2F5F5F5
310
F5F5F5F5F5F5F5F5F5F5F5F5F5F5F5F5F5E2E2F5E2E2F5E2F5F5F5F5F5F5F5F5F5F5F5F5F5F5F5F5F5F5F5F5F5F5F5F5F5E2E2E2E2F5E2F5F5F5F5F5F5F5F5F5F5F5F5E2F5F5F5F5F5F5F5F5F5F5F5F5F5F5F5F5F5F5F5F5F5F5F5F5F5F5F5F5F5F5E2E2E2E2E2E2E2E2E2E2E2E2E2E2E2E2F5F5F5F5F5F5F5F5F5F5F5F5F5
310
F5F5F5F5F5F5F5F5F5F5F5F5F5F5F5F5F5F5F5F5F5F5F5F5F5F5F5F5F5F5F5F5F5F5F5F5F5F5F5F5F5F5F5F5F5F5F5F5F5E2F5F5F5F5F5F5F5F5F5F5F5F5F5F5F5F5F5F5F5F5E2E2F5E2E2F5E2F5F5F5F5F5F5F5F5F5F5F5F5F5F5F5F5F5F5F5F5F5F5F5F5F5F5F5F5F5F5E2F5F5F5F5F5F5F5F5F5F5F5F5E2E2E2E2E2E2F5
310
F5F5F5F5F5F5F5F5F5F5F5F5F5F5F5F5F5F5F5F5F5F5F5F5E2E2F5F5F5F5F5F5F5F5F5F5F5F5E2E2F5F5F5F5F5F5F5F5F5F5F5F5F5F5F5F5F5F5F5F5F5F5F5F5F5F5F5F5F5F5F5E2E2E2E2E2E2E2E2E2F5F5F5E2E2E2E2E2E2E2E2E2F5F5E2E2E2E2E2E2E2E2E2F5F5F5F5F5F5F5F5F5F5F5F5F5F5F5F5F5F5F5F5E2E2F5E2
310
E2F5E2F5F5F5F5F5F5F5F5F5F5F5F5F5F5F5F5F5F5F5F5F5F5F5F5F5F5F5F5F5F5E2F5F5F5F5F5F5F5F5F5F5F5F5F5F5F5F5F5E2F5F5F5F5F5F5F5F5F5F5F5F5F5F5F5F5F5F5F5F5F5F5F5F5F5E2E2E2E2E2E2E2E2E2E2E2E2E2E2E2E2F5F5F5F5F5F5F5F5F5F5F5F5F5F5F5F5F5F5F5F5F5F5F5F5F5F5F5F5F5F5F5E2F5F5
310
F5F5F5F5F5F5F5F5F5F5F5F5F5F5F5F5F5F5F5F5F5F5F5F5F5F5F5F5F5F5F5F5F5F5F5F5F5F5F5F5F5F5F5F5F5F5F5F5F5E2F5F5E2E2F5E2F5F5F5F5F5F5F5F5F5F5F5F5F5F5F5F5F5F5F5F5F5F5F5F5F5F5F5F5F5F5E2F5F5F5F5F5F5F5F5F5F5F5F5F5F5F5F5F5E2F5F5F5F5F5F5F5F5F5F5F5F5F5F5F5F5F5F5F5F5F5F5
310
F5F5F5E2E2F5F5F5F5F5F5F5F5F5F5F5F5E2E2F5F5F5F5F5F5F5F5F5F5F5F5F5F5F5F5F5F5F5F5F5F5F5F5F5F5F5F5F5F5F5E2F5F5F5F5F5F5F5F5F5F5F5F5F5F5F5F5F5F5F5F5F5F5F5F5F5F5F5F5F5F5F5F5F5F5F5F5F5F5F5F5F5F5F5F5F5F5F5F5F5F5F5E2F5F5E2E2F5E2F5F5F5F5F5F5F5F5F5F5F5F5F5F5F5F5F5F5
310
F5F5F5F5F5F5F5F5F5F5F5F5E2F5F5F5F5F5F5F5F5F5F5F5F5F5F5F5F5F5E2F5F5F5F5F5F5F5F5F5F5F5F5F5F5F5F5F5F5F5F5F5F5F5F5F5E2E2E2E2E2E2E2E2E2E2E2E2E2E2E2E2F5F5F5F5F5F5F5F5F5F5F5F5F5F5F5F5F5F5F5F5F5F5F5F5F5F5F5F5F5F5F5E2F5F5F5F5F5F5F5F5F5F5F5F5F5F5F5F5F5F5F5F5F5F5F5
310
F5F5F5F5F5F5F5F5F5F5F5F5F5F5F5F5F5F5F5F5F5F5F5F5F5F5F5F5E2F5F5E2E2F5E2F5F5F5F5F5F5F5F5F5F5F5F5F5F5F5F5F5F5F5F5F5F5F5F5F5F5F5F5F5F5E2F5F5F5F5F5F5F5F5F5F5F5F5F5F5F5F5F5E2F5F5F5F5F5F5F5F5F5F5F5F5F5F5F5F5F5F5F5F5F5F5F5F5F5E2E2E2E2E2E2E2E2E2E2E2E2E2E2E2E2F5F5
310
F5F5F5F5F5F5F5F5F5F5F5F5F5F5F5F5F5F5F5F5F5F5F5F5F5F5F5F5F5E2F5F5F5F5F5F5F5F5F5F5F5F5F5F5F5F5F5F5F5F5F5F5F5F5F5F5F5F5F5F5F5F5F5F5F5F5F5F5F5F5F5F5F5F5F5F5F5F5F5F5F5E2F5F5E2E2F5E2F5F5F5F5F5F5F5F5F5F5F5F5F5F5F5F5F5F5F5F5F5F5F5F5F5F5F5F5F5F5E2F5F5F5F5F5F5F5F5
310
F5F5F5F5F5F5F5F5F5E2F5F5F5F5F5F5F5F5F5F5F5F5F5F5F5F5F5F5F5F5F5F5F5F5F5E2E2F5F5F5F5F5F5F5F5F5F5F5F5E2E2F5F5F5F5F5F5F5F5F5F5F5F5F5F5F5F5F5F5F5F5F5F5F5F5F5F5F5F5F5F5F5E2F5F5F5F5F5F5F5F5F5F5F5F5F5F5F5F5F5F5F5F5F5F5F5F5F5F5F5F5F5F5F5F5F5F5F5F5F5F5F5F5F5F5F5F5
310
F5F5F5F5F5F5F5E2F5F5E2E2F5E2F5F5F5F5F5F5F5F5F5F5F5F5F5F5F5F5F5F5F5F5F5F5F5F5F5F5F5F5F5F5E2F5F5F5F5F5F5F5F5F5F5F5F5F5F5F5F5F5F5F5F5F5F5F5F5F5F5F5F5F5F5F5F5F5F5F5F5F5F5F5F5F5F5F5E2E2E2E2E2E2E2E2E2E2E2E2E2E2E2E2F5F5F5F5F5F5F5F5F5F5F5F5F5F5F5F5F5F5F5F5F5F5F5
310
F5F5F5F5F5F5F5F5F5F5F5F5F5F5F5F5F5F5F5F5F5F5F5F5F5F5F5F5F5F5F5F5F5F5F5F5F5F5F5F5F5F5F5F5F5F5F5F5F5F5F5F5F5F5F5F5F5F5F5F5E2F5F5E2E2F5E2F5F5F5F5F5F5F5F5F5F5F5F5F5F5F5F5F5F5F5F5F5F5F5F5F5F5F5F5F5F5E2F5F5F5F5F5F5F5F5F5F5F5F5F5F5F5F5F5F5F5F5F5F5F5F5F5F5F5F5F5
310
F5F5F5F5F5F5F5F5F5F5F5F5F5F5E2E2F5F5F5F5F5F5F5F5F5F5F5F5E2E2F5F5F5F5F5F5F5F5F5F5F5F5F5F5F5F5F5F5F5F5F5F5F5F5F5F5F5F5F5F5F5F5F5F5F5F5F5F5F5F5F5F5F5F5F5F5F5F5F5F5F5F5F5F5F5F5F5F5F5F5F5F5F5F5F5F5F5F5F5F5F5F5F5F5F5F5F5F5F5F5F5F5F5E2F5F5E2E2F5E2F5F5F5F5F5F5F5
310
F5F5F5F5F5F5F5F5F5F5F5F5F5F5F5F5F5F5F5F5F5F5F5E2F5F5F5F5F5F5F5F5F5F5F5F5F5F5F5F5F5F5F5F5F5F5F5F5F5F5F5F5F5F5F5F5F5F5F5F5F5F5F5F5F5F5F5E2E2E2E2E2E2E2E2E2E2E2E2E2E2E2E2F5F5F5F5F5F5F5F5F5F5F5F5F5F5F5F5F5F5F5F5F5F5F5F5F5F5F5F5F5F5F5F5F5F5F5F5F5F5F5F5F5F5F5F5
310
F5F5F5F5F5F5F5F5F5F5F5F5F5F5F5F5F5F5F5F5F5F5F5F5F5F5F5F5F5F5F5F5F5F5F5F5F5F5F5E2F5F5E2E2F5E2F5F5F5F5F5F5F5F5F5F5F5F5F5F5F5F5F5F5F5F5F5F5F5F5F5F5F5F5F5F5E2F5F5F5F5F5F5F5F5F5F5F5F5F5F5F5F5F5E2F5F5F5F5F5F5F5F5F5F5F5F5F5F5F5F5F5F5F5F5F5F5F5F5F5E2E2F5F5F5F5F5
310
F5F5F5F5F5F5F5E2E2F5F5F5F5F5F5F5F5F5F5F5F5F5F5F5F5F5F5F5F5F5F5F5F5F5F5F5F5F5F5F5E2F5F5F5F5F5F5F5F5F5F5F5F5F5F5F5F5F5F5F5F5F5F5F5F5F5F5F5F5F5F5F5F5F5F5F5F5F5F5F5F5F5F5F5F5F5F5F5F5F5F5F5E2F5F5E2E2F5E2F5F5F5F5F5F5F5F5F5F5F5F5F5F5F5F5F5F5F5F5F5F5F5F5F5F5F5F5
310
F5F5E2F5F5F5F5F5F5F5F5F5F5F5F5F5F5F5F5F5E2F5F5F5F5F5F5F5F5F5F5F5F5F5F5F5F5F5F5F5F5F5F5F5F5F5E2E2E2E2E2E2E2E2E2E2E2E2E2E2E2E2F5F5F5F5F5F5F5F5F5F5F5F5F5F5F5F5F5F5F5F5F5F5F5F5F5F5F5F5F5F5F5E2F5F5F5F5F5F5F5F5F5F5F5F5F5F5F5F5F5F5F5F5F5F5F5F5F5F5F5F5F5F5F5F5F5
310
F5F5F5F5F5F5F5F5F5F5F5F5F5F5F5F5F5F5E2E2F5E2E2F5E2F5F5F5F5F5F5F5F5F5F5F5F5F5F5F5F5F5F5F5F5F5F5F5F5F5F5F5F5F5F5E2F5F5F5F5F5F5F5F5F5F5F5F5F5F5F5F5F5E2F5F5F5F5F5F5F5F5F5F5F5F5F5F5F5F5F5F5F5F5F5F5F5F5F5E2E2F5F5F5F5F5F5F5F5F5F5F5F5E2E2E2E2E2E2E2E2E2E2E2F5F5F5
310
F5F5F5F5F5F5F5F5F5F5F5F5F5F5F5F5F5F5F5E2F5F5F5F5F5F5F5F5F5F5F5F5F5F5F5F5F5F5F5F5F5F5F5F5F5F5F5F5F5F5F5F5F5F5F5F5F5F5F5F5F5F5F5F5F5F5F5F5F5F5F5E2E2F5E2E2F5E2F5F5F5F5F5F5F5F5F5F5F5F5F5F5F5F5F5F5F5F5F5F5F5F5F5F5F5F5F5F5E2F5F5F5F5F5F5F5F5F5F5F5F5F5F5F5F5F5E2
310
F5F5F5F5F5F5F5F5F5F5F5F5F5F5F5F5F5F5F5F5F5F5F5F5F5E2E2E2E2E2E2E2E2E2E2E2E2E2E2E2E2E2E2E2E2E2E2E2E2E2F5F5F5F5F5F5F5F5F5F5F5F5F5F5F5F5F5F5F5F5F5F5E2F5F5F5F5F5F5F5F5F5F5F5F5F5F5F5F5F5F5F5F5F5F5F5F5F5F5F5F5F5F5F5F5F5F5F5F5F5F5F5F5F5F5F5F5F5F5F5F5F5F5F5E2E2F5
310
E2E2F5E2F5F5F5F5F5F5F5F5F5F5F5F5F5F5F5F5F5F5F5F5F5F5F5F5F5F5F5F5F5F5E2F5F5F5F5F5F5F5F5F5F5F5F5F5F5F5F5F5E2F5F5F5F5F5F5F5F5F5F5F5F5F5F5F5F5F5F5F5F5F5F5F5F5F5E2E2E2E2E2E2E2E2E2E2E2E2E2E2E2E2F5E2F5F5E2F5F5E2F5F5F5F5F5F5F5F5F5F5F5F5F5F5F5F5F5F5F5F5F5F5F5E2F5
310
F5F5F5F5F5F5F5F5F5F5F5F5F5F5F5F5F5F5F5F5F5F5F5F5F5F5F5F5F5F5F5F5F5F5F5F5F5F5F5F5F5F5F5F5F5F5F5F5F5F5E2E2F5E2E2F5E2F5F5F5F5F5F5F5F5F5F5F5F5F5F5F5F5F5F5F5F5F5F5F5F5F5F5F5F5F5F5E2F5F5F5F5F5F5F5F5F5F5F5F5F5F5F5F5F5E2F5F5F5F5F5F5F5F5F5F5F5F5F5F5F5F5F5F5F5F5F5
310
F5F5F5F5E2E2E2E2E2E2E2E2E2E2E2E2E2E2E2E2F5E2F5F5E2F5F5E2F5F5F5F5F5F5F5F5F5F5F5F5F5F5F5F5F5F5F5F5F5F5F5E2F5F5F5F5F5F5F5F5F5F5F5F5F5F5F5F5F5F5F5F5F5F5F5F5F5F5F5F5F5F5F5F5F5F5F5F5F5F5F5F5F5F5F5F5F5F5F5F5F5F5F5E2E2F5E2E2F5E2F5F5F5F5F5F5F5F5F5F5F5F5F5F5F5F5F5
310
F5F5F5F5F5F5F5F5F5F5F5F5F5E2F5F5F5F5F5F5F5F5F5F5F5F5F5F5F5F5F5E2F5F5F5F5F5F5F5F5F5F5F5F5F5F5F5F5F5F5F5F5F5F5F5F5F5E2E2F5F5F5F5F5F5F5F5F5F5F5F5E2E2F5E2F5F5E2F5F5E2F5F5F5F5F5F5F5F5F5F5F5F5F5F5F5F5F5F5F5F5F5F5F5E2F5F5F5F5F5F5F5F5F5F5F5F5F5F5F5F5F5F5F5F5F5F5
310
F5F5F5F5F5F5F5F5F5F5F5F5F5F5F5F5F5F5F5F5F5F5F5F5F5F5F5F5F5E2E2F5E2E2F5E2F5F5F5F5F5F5F5F5F5F5F5F5F5F5F5F5F5F5F5F5F5F5F5F5F5F5F5F5F5F5E2F5F5F5F5F5F5F5F5F5F5F5F5F5F5F5F5F5E2F5F5F5F5F5F5F5F5F5F5F5F5F5F5F5F5F5F5F5F5F5F5F5F5F5E2E2E2E2E2E2E2E2E2E2E2E2E2E2E2E2F5
310
E2F5F5E2F5F5E2F5F5F5F5F5F5F5F5F5F5F5F5F5F5F5F5F5F5F5F5F5F5F5E2F5F5F5F5F5F5F5F5F5F5F5F5F5F5F5F5F5F5F5F5F5F5F5F5F5F5F5F5F5F5F5F5F5F5F5F5F5F5F5F5F5F5F5F5F5F5F5F5F5F5F5E2E2F5E2E2F5E2F5F5F5F5F5F5F5F5F5F5F5F5F5F5F5F5F5F5F5F5F5F5F5F5F5F5F5F5F5F5E2F5F5F5F5F5F5F5
310
F5F5F5F5F5F5F5F5F5F5E2F5F5F5F5F5F5F5F5F5F5F5F5F5F5F5F5F5F5F5F5F5F5F5F5F5E2E2E2E2E2E2E2E2E2E2E2E2E2E2E2E2F5E2F5F5E2F5F5E2F5F5F5F5F5F5F5F5F5F5F5F5F5F5F5F5F5F5F5F5F5F5F5E2F5F5F5F5F5F5F5F5F5F5F5F5F5F5F5F5F5F5F5F5F5F5F5F5F5F5F5F5F5F5F5F5F5F5F5F5F5F5F5F5F5F5F5
310
F5F5F5F5F5F5F5F5E2E2F5E2E2F5E2F5F5F5F5F5F5F5F5F5F5F5F5F5F5F5F5F5F5F5F5F5F5F5F5F5F5F5F5F5F5E2F5F5F5F5F5F5F5F5F5F5F5F5F5F5F5F5F5F5F5F5F5F5F5F5F5F5F5F5F5F5F5F5F5F5F5F5F5F5F5F5F5F5F5E2E2F5F5F5F5F5F5F5F5F5F5F5F5E2E2F5E2F5F5E2F5F5E2F5F5F5F5F5F5F5F5F5F5F5F5F5F5
310
F5F5F5F5F5F5F5F5F5F5F5F5F5F5F5F5F5F5F5F5F5F5F5F5F5F5F5F5F5F5F5F5F5F5F5F5F5F5F5F5F5F5F5F5F5F5F5F5F5F5F5F5F5F5F5F5F5F5F5F5F5E2E2F5E2E2F5E2F5F5F5F5F5F5F5F5F5F5F5F5F5F5F5F5F5F5F5F5F5F5F5F5F5F5F5F5F5F5E2F5F5F5F5F5F5F5F5F5F5F5F5F5F5F5F5F5F5F5F5F5F5F5F5F5F5F5F5
310
F5F5F5F5F5F5F5F5F5F5F5F5F5F5F5E2E2E2E2E2E2E2E2E2E2E2E2E2E2E2E2F5E2F5F5E2F5F5E2F5F5F5F5F5F5F5F5F5F5F5F5F5F5F5F5F5F5F5F5F5F5F5F5F5F5F5F5F5F5F5F5F5F5F5F5F5F5F5F5F5F5F5F5F5F5F5F5F5F5F5F5F5F5F5F5F5F5F5F5F5F5F5F5F5F5F5F5F5F5F5F5F5F5F5E2E2F5E2E2F5E2F5F5F5F5F5F5
310
F5F5F5F5F5F5F5F5F5F5F5F5F5F5F5F5F5F5F5F5F5F5F5F5E2F5F5F5F5F5F5F5F5F5F5F5F5F5F5F5F5F5F5F5F5F5F5F5F5F5F5F5F5F5F5F5F5F5F5F5F5F5F5F5F5F5F5F5E2E2F5F5F5F5F5F5F5F5F5F5F5F5E2E2F5E2F5F5E2F5F5E2F5F5F5F5F5F5F5F5F5F5F5F5F5F5F5F5F5F5F5F5F5F5F5E2F5F5F5F5F5F5F5F5F5F5F5
310
F5F5F5F5F5F5F5F5F5F5F5F5F5F5F5F5F5F5F5F5F5F5F5F5F5F5F5F5F5F5F5F5F5F5F5F5F5F5F5F5E2E2F5E2E2F5E2F5F5F5F5F5F5F5F5F5F5F5F5F5F5F5F5F5F5F5F5F5F5F5F5F5F5F5F5F5F5E2F5F5F5F5F5F5F5F5F5F5F5F5F5F5F5F5F5E2F5F5F5F5F5F5F5F5F5F5F5F5F5F5F5F5F5F5F5F5F5F5F5F5F5E2E2E2E2E2E2
310
E2E2E2E2E2E2E2E2E2E2F5E2F5F5E2F5F5E2F5F5F5F5F5F5F5F5F5F5F5F5F5F5F5F5F5F5F5F5F5F5F5E2F5F5F5F5F5F5F5F5F5F5F5F5F5F5F5F5F5F5F5F5F5F5F5F5F5F5F5F5F5F5F5F5F5F5F5F5F5F5F5F5F5F5F5F5F5F5F5F5F5F5F5E2E2F5E2E2F5E2F5F5F5F5F5F5F5F5F5F5F5F5F5F5F5F5F5F5F5F5F5F5F5F5F5F5F5
310
F5F5F5E2F5F5F5F5F5F5F5F5F5F5F5F5F5F5F5F5F5E2F5F5F5F5F5F5F5F5F5F5F5F5F5F5F5F5F5F5F5F5F5F5F5F5F5E2E2E2E2E2E2E2E2E2E2E2E2E2E2E2E2F5E2F5F5E2F5F5E2F5F5F5F5F5F5F5F5F5F5F5F5F5F5F5F5F5F5F5F5F5F5F5E2F5F5F5F5F5F5F5F5F5F5F5F5F5F5F5F5F5F5F5F5F5F5F5F5F5F5F5F5F5F5F5F5
310
F5F5F5F5F5F5F5F5F5F5F5F5F5F5F5F5F5F5F5E2E2F5E2E2F5E2F5F5F5F5F5F5F5F5F5F5F5F5F5F5F5F5F5F5F5F5F5F5F5F5F5F5F5F5F5F5E2F5F5F5F5F5F5F5F5F5F5F5F5F5F5F5F5F5E2F5F5F5F5F5F5F5F5F5F5F5F5F5F5F5F5F5F5F5F5F5F5F5F5F5E2E2F5F5F5F5F5F5F5F5F5F5F5F5E2E2F5E2F5F5E2F5F5E2F5F5F5
310
F5F5F5F5F5F5F5F5F5F5F5F5F5F5F5F5F5F5F5F5E2F5F5F5F5F5F5F5F5F5F5F5F5F5F5F5F5F5F5F5F5F5F5F5F5F5F5F5F5F5F5F5F5F5F5F5F5F5F5F5F5F5F5F5F5F5F5F5F5F5F5F5E2E2F5E2E2F5E2F5F5F5F5F5F5F5F5F5F5F5F5F5F5F5F5F5F5F5F5F5F5F5F5F5F5F5F5F5F5E2F5F5F5F5F5F5F5F5F5F5F5F5F5F5F5F5F5
310
E2F5F5F5F5F5F5F5F5F5F5F5F5F5F5F5F5F5F5F5F5F5F5F5F5F5E2E2E2E2E2E2E2E2E2E2E2E2E2E2E2E2E2E2E2E2E2E2E2E2E2F5F5F5F5F5F5F5F5F5F5F5F5F5F5F5F5F5F5F5F5F5F5E2F5F5F5F5F5F5F5F5F5F5F5F5F5F5F5F5F5F5F5F5F5F5F5F5F5F5F5F5F5F5F5F5F5F5F5F5F5F5F5F5F5F5F5F5F5F5F5F5F5F5F5E2E2
310
F5E2E2F5E2F5F5F5F5F5F5F5F5F5F5F5F5F5F5F5F5F5F5F5F5F5F5F5F5F5F5F5F5F5F5E2F5F5F5F5F5F5F5F5F5F5F5F5F5F5F5F5F5E2F5F5F5F5F5F5F5F5F5F5F5F5F5F5F5F5F5F5F5F5F5F5F5F5F5E2F5E2E2E2E2E2E2E2E2E2E2E2E2E2E2E2E2E2E2E2E2E2E2E2F5F5F5F5F5F5F5F5F5F5F5F5F5F5F5F5F5F5F5F5F5F5E2
310
F5F5F5F5F5F5F5F5F5F5F5F5F5F5F5F5F5F5F5F5F5F5F5F5F5F5F5F5F5F5F5F5F5F5F5F5F5F5F5F5F5F5F5F5F5F5F5F5F5F5F5E2E2F5E2E2F5E2F5F5F5F5F5F5F5F5F5F5F5F5F5F5F5F5F5F5F5F5F5F5F5F5F5F5F5F5F5F5E2F5F5F5F5F5F5F5F5F5F5F5F5F5F5F5F5F5E2F5F5F5F5F5F5F5F5F5F5F5F5F5F5F5F5F5F5F5F5
310
F5F5F5F5F5E2E2E2F5F5F5F5F5F5F5F5F5F5F5E2E2F5F5F5F5F5F5F5F5F5F5F5F5F5F5F5F5F5F5F5F5F5F5F5F5F5F5F5F5F5F5F5E2F5F5F5F5F5F5F5F5F5F5F5F5F5F5F5F5F5F5F5F5F5F5F5F5F5F5F5F5F5F5F5F5F5F5F5F5F5F5F5F5F5F5F5F5F5F5F5F5F5F5F5E2F5F5E2E2F5E2F5F5F5F5F5F5F5F5F5F5F5F5F5F5F5F5
310
F5F5F5F5F5F5F5F5F5F5F5F5F5F5E2F5F5F5F5F5F5F5F5F5F5F5F5F5F5F5F5F5E2F5F5F5F5F5F5F5F5F5F5F5F5F5F5F5F5F5F5F5F5F5F5F5F5F5F5F5F5F5F5F5F5F5F5F5F5F5F5F5F5F5F5F5F5F5F5F5F5F5F5F5F5F5F5F5F5F5F5F5F5F5F5F5F5F5F5F5F5F5F5F5F5E2F5F5F5F5F5F5F5F5F5F5F5F5F5F5F5F5F5F5F5F5F5
310
F5F5F5F5F5F5F5F5F5F5F5F5F5F5F5F5F5F5F5F5F5F5F5F5F5F5F5F5F5F5E2F5F5E2E2F5E2F5F5F5F5F5F5F5F5F5F5F5F5F5F5F5F5F5F5F5F5F5F5F5F5F5F5F5F5F5F5E2F5F5F5F5F5F5F5F5F5F5F5F5F5F5F5F5F5E2F5F5F5F5F5F5F5F5F5F5F5F5F5F5F5F5F5F5F5F5F5F5F5F5F5F5F5F5F5F5F5F5F5F5F5F5F5F5F5F5F5
310
F5F5F5F5F5F5F5F5F5F5F5F5F5F5F5F5F5F5F5F5F5F5F5F5F5F5F5F5F5F5F5E2F5F5F5F5F5F5F5F5F5F5F5F5F5F5F5F5F5F5F5F5F5F5F5F5F5F5F5F5F5F5F5F5F5F5F5F5F5F5F5F5F5F5F5F5F5F5F5F5F5F5F5E2F5F5E2E2F5E2F5F5F5F5F5F5F5F5F5F5F5F5F5F5F5F5F5F5F5F5F5F5F5F5F5F5F5F5F5F5E2F5F5F5F5F5F5
310
F5F5F5F5F5F5F5F5F5F5F5F5F5F5F5F5F5F5F5F5F5F5F5F5F5F5F5F5F5F5F5F5F5F5F5F5F5F5F5F5F5F5F5F5F5F5F5F5F5F5F5F5F5F5F5F5F5F5F5F5F5F5F5F5F5F5F5F5F5F5F5F5F5F5F5F5F5F5F5F5F5F5F5F5F5F5F5F5F5F5F5F5F5F5F5F5F5F5F5F5F5F5F5F5F5F5F5F5F5F5F5F5F5F5F5F5F5F5F5F5F5F5F5F5F5F5F5
310
F5F5F5F5F5F5F5F5F5E2F5F5E2E2F5E2F5F5F5F5F5F5F5F5F5F5F5F5F5F5F5F5F5F5F5F5F5F5F5F5F5F5F5F5F5F5E2F5F5F5F5F5F5F5F5F5F5F5F5F5F5F5F5F5F5F5F5F5F5F5F5F5F5F5F5F5F5F5F5F5F5F5F5F5F5F5F5F5F5F5F5F5F5F5F5F5F5F5F5F5F5F5F5F5F5F5F5F5F5F5F5F5F5F5F5F5F5F5F5F5F5F5F5F5F5F5F5
310
F5F5F5F5F5F5F5F5F5F5F5F5F5F5F5F5F5F5F5F5F5F5F5F5F5F5F5F5F5F5F5F5F5F5F5F5F5F5F5F5F5F5F5F5F5F5F5F5F5F5F5F5F5F5F5F5F5F5F5F5F5F5E2F5F5E2E2F5E2F5F5F5F5F5F5F5F5F5F5F5F5F5F5F5F5F5F5F5F5F5F5F5F5F5F5F5F5F5F5E2F5F5F5F5F5F5F5F5F5F5F5F5F5F5F5F5F5F5F5F5F5F5F5F5F5F5F5
310
F5F5F5F5F5F5F5F5F5F5F5F5F5F5F5F5F5F5F5F5F5F5F5F5F5F5F5F5F5F5F5F5F5F5F5F5F5F5F5F5F5F5F5F5F5F5F5F5F5F5F5F5F5F5F5F5F5F5F5F5F5F5F5F5F5F5F5F5F5F5F5F5F5F5F5F5F5F5F5F5F5F5F5F5F5F5F5F5F5F5F5F5F5F5F5F5F5F5F5F5F5F5F5F5F5F5F5F5F5F5F5F5F5F5F5E2F5F5E2E2F5E2F5F5F5F5F5
310
F5F5F5F5F5F5F5F5F5F5F5F5F5F5F5F5F5F5F5F5F5F5F5F5F5E2F5F5F5F5F5F5F5F5F5F5F5F5F5F5F5F5F5E2F5F5F5F5F5F5F5F5F5F5F5F5F5F5F5F5F5F5F5F5F5F5F5F5F5F5F5F5F5F5F5F5F5F5F5F5F5F5F5F5F5F5F5F5F5F5F5F5F5F5F5F5F5F5F5F5F5F5F5F5F5F5F5F5F5F5F5F5F5F5F5F5E2F5F5F5F5F5F5F5F5F5F5
310
F5F5F5F5F5F5F5F5F5F5F5F5F5F5F5F5F5F5F5F5F5F5F5F5F5F5F5F5F5F5F5F5F5F5F5F5F5F5F5F5F5E2F5F5E2E2F5E2F5F5F5F5F5F5F5F5F5F5F5F5F5F5F5F5F5F5F5F5F5F5F5F5F5F5F5F5F5F5E2F5F5F5F5F5F5F5F5F5F5F5F5F5F5F5F5F5E2F5F5F5F5F5F5F5F5F5F5F5F5F5F5F5F5F5F5F5F5F5F5F5F5F5F5F5F5F5F5
310
F5F5F5F5F5F5F5F5F5F5F5F5F5F5F5F5F5F5F5F5F5F5F5F5F5F5F5F5F5F5F5F5F5F5F5F5F5F5F5F5F5F5E2F5F5F5F5F5F5F5F5F5F5F5F5F5F5F5F5F5F5F5F5F5F5F5F5F5F5F5F5F5F5F5F5F5F5F5F5F5F5F5F5F5F5F5F5F5F5F5F5F5F5F5E2F5F5E2E2F5E2F5F5F5F5F5F5F5F5F5F5F5F5F5F5F5F5F5F5F5F5F5F5F5F5F5F5
310
F5F5F5F5E2F5F5F5F5F5F5F5F5F5F5F5F5F5F5F5F5F5E2F5F5F5F5F5F5F5F5F5F5F5F5F5F5F5F5F5F5F5F5F5F5F5F5F5F5F5F5F5F5F5F5F5F5F5F5F5F5F5F5F5F5F5F5F5F5F5F5F5F5F5F5F5F5F5F5F5F5F5F5F5F5F5F5F5F5F5F5F5F5F5F5E2F5F5F5F5F5F5F5F5F5F5F5F5F5F5F5F5F5F5F5F5F5F5F5F5F5F5F5F5F5F5F5
310
F5F5F5F5F5F5F5F5F5F5F5F5F5F5F5F5F5F5F5F5E2F5F5E2E2F5E2F5F5F5F5F5F5F5F5F5F5F5F5F5F5F5F5F5F5F5F5F5F5F5F5F5F5F5F5F5F5E2F5F5F5F5F5F5F5F5F5F5F5F5F5F5F5F5F5E2F5F5F5F5F5F5F5F5F5F5F5F5F5F5F5F5F5F5F5F5F5F5F5F5F5F5F5F5F5F5F5F5F5F5F5F5F5F5F5F5F5F5F5F5F5F5F5F5F5F5F5
310
F5F5F5F5F5F5F5F5F5F5F5F5F5F5F5F5F5F5F5F5F5E2F5F5F5F5F5F5F5F5F5F5F5F5F5F5F5F5F5F5F5F5F5F5F5F5F5F5F5F5F5F5F5F5F5F5F5F5F5F5F5F5F5F5F5F5F5F5F5F5F5F5F5E2E2F5E2E2F5E2F5F5F5F5F5F5F5F5F5F5F5F5F5F5F5F5F5F5F5F5F5F5F5F5F5F5F5F5F5F5E2F5F5F5F5F5F5F5F5F5F5F5F5F5F5F5F5
310
F5E2F5F5F5F5F5F5F5F5F5F5F5F5F5F5F5F5F5F5F5F5F5F5F5F5F5F5F5F5F5F5F5F5F5F5F5F5F5F5F5F5F5F5F5F5F5F5F5F5F5F5F5F5F5F5F5F5F5F5F5F5F5F5F5F5F5F5F5F5F5F5F5F5E2F5F5F5F5F5F5F5F5F5F5F5F5F5F5F5F5F5F5F5F5F5F5F5F5F5F5F5F5F5F5F5F5F5F5F5F5F5F5F5F5F5F5F5F5F5F5F5F5F5F5F5E2
310
E2F5E2E2F5E2F5F5F5F5F5F5F5F5F5F5F5F5F5F5F5F5F5F5F5F5F5F5F5F5F5F5F5F5F5F5E2F5F5F5F5F5F5F5F5F5F5F5F5F5F5F5F5F5E2F5F5F5F5F5F5F5F5F5F5F5F5F5F5F5F5F5F5F5F5F5F5F5F5F5F5F5F5F5F5F5F5F5F5F5F5F5F5F5F5F5F5F5F5F5F5F5F5F5F5F5F5F5F5F5F5F5F5F5F5F5F5F5F5F5F5F5F5F5F5F5F5
310
E2F5F5F5F5F5F5F5F5F5F5F5F5F5F5F5F5F5F5F5F5F5F5F5F5F5F5F5F5F5F5F5F5F5F5F5F5F5F5F5F5F5F5F5F5F5F5F5F5F5F5F5E2E2F5E2E2F5E2F5F5F5F5F5F5F5F5F5F5F5F5F5F5F5F5F5F5F5F5F5F5F5F5F5F5F5F5F5F5E2F5F5F5F5F5F5F5F5F5F5F5F5F5F5F5F5F5E2F5F5F5F5F5F5F5F5F5F5F5F5F5F5F5F5F5F5F5
310
F5F5F5F5F5F5F5F5F5F5F5F5F5F5F5F5F5F5F5F5F5F5F5F5F5F5F5F5F5F5F5F5F5F5F5F5F5F5F5F5F5F5F5F5F5F5F5F5F5F5F5F5F5E2F5F5F5F5F5F5F5F5F5F5F5F5F5F5F5F5F5F5F5F5F5F5F5F5F5F5F5F5F5F5F5F5F5F5F5F5F5F5F5F5F5F5F5F5F5F5F5F5F5F5F5E2E2F5E2E2F5E2F5F5F5F5F5F5F5F5F5F5F5F5F5F5F5
310
F5F5F5F5F5F5F5F5F5F5F5F5F5F5F5E2F5F5F5F5F5F5F5F5F5F5F5F5F5F5F5F5F5E2F5F5F5F5F5F5F5F5F5F5F5F5F5F5F5F5F5F5F5F5F5F5F5F5F5F5F5F5F5F5F5F5F5F5F5F5F5F5F5F5F5F5F5F5F5F5F5F5F5F5F5F5F5F5F5F5F5F5F5F5F5F5F5F5F5F5F5F5F5F5F5F5E2F5F5F5F5F5F5F5F5F5F5F5F5F5F5F5F5F5F5F5F5
310
F5F5F5F5F5F5F5F5F5F5F5F5F5F5F5F5F5F5F5F5F5F5F5F5F5F5F5F5F5F5F5E2E2F5E2E2F5E2F5F5F5F5F5F5F5F5F5F5F5F5F5F5F5F5F5F5F5F5F5F5F5F5F5F5F5F5F5F5E2F5F5F5F5F5F5F5F5F5F5F5F5F5F5F5F5F5E2F5F5F5F5F5F5F5F5F5F5F5F5F5F5F5F5F5F5F5F5F5F5F5F5F5F5F5F5F5F5F5F5F5F5F5F5F5F5F5F5
310
F5F5F5F5F5F5F5F5F5F5F5F5F5F5F5F5F5F5F5F5F5F5F5F5F5F5F5F5F5F5F5F5E2F5F5F5F5F5F5F5F5F5F5F5F5F5F5F5F5F5F5F5F5F5F5F5F5F5F5F5F5F5F5F5F5F5F5F5F5F5F5F5F5F5F5F5F5F5F5F5F5F5F5F5E2E2F5E2E2F5E2F5F5F5F5F5F5F5F5F5F5F5F5F5F5F5F5F5F5F5F5F5F5F5F5F5F5F5F5F5F5E2F5F5F5F5F5
310
F5F5F5F5F5F5F5F5F5F5F5F5F5F5F5F5F5F5F5F5F5F5F5F5F5F5F5F5F5F5F5F5F5F5F5F5F5F5F5F5F5F5F5F5F5F5F5F5F5F5F5F5F5F5F5F5F5F5F5F5F5F5F5F5F5F5F5F5F5F5F5F5F5F5F5F5F5F5F5F5F5F5F5F5F5F5F5F5F5F5F5F5F5F5F5F5F5F5F5F5F5F5F5F5F5F5F5F5F5F5F5F5F5F5F5F5F5F5F5F5F5F5F5F5F5F5F5
310
F5F5F5F5F5F5F5F5F5F5E2E2F5E2E2F5E2F5F5F5F5F5F5F5F5F5F5F5F5F5F5F5F5F5F5F5F5F5F5F5F5F5F5F5F5F5F5E2F5F5F5F5F5F5F5F5F5F5F5F5F5F5F5F5F5F5F5F5F5F5F5F5F5F5F5F5F5F5F5F5F5F5F5F5F5F5F5F5F5F5F5F5F5F5F5F5F5F5F5F5F5F5F5F5F5F5F5F5F5F5F5F5F5F5F5F5F5F5F5F5F5F5F5F5F5F5F5
310
F5F5F5F5F5F5F5F5F5F5F5F5F5F5F5F5F5F5F5F5F5F5F5F5F5F5F5F5F5F5F5F5F5F5F5F5F5F5F5F5F5F5F5F5F5F5F5F5F5F5F5F5F5F5F5F5F5F5F5F5F5F5F5E2E2F5E2E2F5E2F5F5F5F5F5F5F5F5F5F5F5F5F5F5F5F5F5F5F5F5F5F5F5F5F5F5F5F5F5F5E2F5F5F5F5F5F5F5F5F5F5F5F5F5F5F5F5F5F5F5F5F5F5F5F5F5F5
310
F5F5F5F5F5F5F5F5F5F5F5F5F5F5F5F5F5F5F5F5F5F5F5F5F5F5F5F5F5F5F5F5F5F5F5F5F5F5F5F5F5F5F5F5F5F5F5F5F5F5F5F5F5F5F5F5F5F5F5F5F5F5F5F5E2F5F5F5F5F5F5F5F5F5F5F5F5F5F5F5F5F5F5F5F5F5F5F5F5F5F5F5F5F5F5F5F5F5F5F5F5F5F5F5F5F5F5F5F5F5F5F5F5F5F5F5E2E2F5E2E2F5E2F5F5F5F5
310
F5F5F5F5F5F5F5F5F5F5F5F5F5F5F5F5F5F5F5F5F5F5F5F5F5F5E2F5F5F5F5F5F5F5F5F5F5F5F5F5F5F5F5F5E2F5F5F5F5F5F5F5F5F5F5F5F5F5F5F5F5F5F5F5F5F5F5F5F5F5F5F5F5F5F5F5F5F5F5F5F5F5F5F5F5F5F5F5F5F5F5F5F5F5F5F5F5F5F5F5F5F5F5F5F5F5F5F5F5F5F5F5F5F5F5F5F5E2F5F5F5F5F5F5F5F5F5
310
F5F5F5F5F5F5F5F5F5F5F5F5F5F5F5F5F5F5F5F5F5F5F5F5F5F5F5F5F5F5F5F5F5F5F5F5F5F5F5F5F5F5E2E2F5E2E2F5E2F5F5F5F5F5F5F5F5F5F5F5F5F5F5F5F5F5F5F5F5F5F5F5F5F5F5F5F5F5F5E2F5F5F5F5F5F5F5F5F5F5F5F5F5F5F5F5F5E2F5F5F5F5F5F5F5F5F5F5F5F5F5F5F5F5F5F5F5F5F5F5F5F5F5F5F5F5F5
310
F5F5F5F5F5F5F5F5F5F5F5F5F5F5F5F5F5F5F5F5F5F5F5F5F5F5F5F5F5F5F5F5F5F5F5F5F5F5F5F5F5F5F5E2F5F5F5F5F5F5F5F5F5F5F5F5F5F5F5F5F5F5F5F5F5F5F5F5F5F5F5F5F5F5F5F5F5F5F5F5F5F5F5F5F5F5F5F5F5F5F5F5F5F5F5E2E2F5E2E2F5E2F5F5F5F5F5F5F5F5F5F5F5F5F5F5F5F5F5F5F5F5F5F5F5F5F5
310
F5F5F5F5F5E2F5F5F5F5F5F5F5F5F5F5F5F5F5F5F5F5F5E2F5F5F5F5F5F5F5F5F5F5F5F5F5F5F5F5F5F5F5F5F5F5F5F5F5F5F5F5F5F5F5F5F5F5F5F5F5F5F5F5F5F5F5F5F5F5F5F5F5F5F5F5F5F5F5F5F5F5F5F5F5F5F5F5F5F5F5F5F5F5F5F5E2F5F5F5F5F5F5F5F5F5F5F5F5F5F5F5F5F5F5F5F5F5F5F5F5F5F5F5F5F5F5
310
F5F5F5F5F5F5F5F5F5F5F5F5F5F5F5F5F5F5F5F5F5E2E2F5E2E2F5E2F5F5F5F5F5F5F5F5F5F5F5F5F5F5F5F5F5F5F5F5F5F5F5F5F5F5F5F5F5F5E2BEF5F5F5F5F5F5F5F5F5F5F5F5F5F5F5F5E2F5F5F5F5F5F5F5F5F5F5F5F5F5F5F5F5F5F5F5F5F5F5F5F5F5F5F5F5F5F5F5F5F5F5F5F5F5F5F5F5F5F5F5F5F5F5F5F5F5F5
310
F5F5F5F5F5F5F5F5F5F5F5F5F5F5F5F5F5F5F5F5F5F5E2F5F5F5F5F5F5F5F5F5F5F5F5F5F5F5F5F5F5F5F5F5F5F5F5F5F5F5F5F5F5F5F5F5F5F5F5F5F5F5F5F5F5F5F5F5F5F5F5F5F5F5E2E2F5E2E2F5E2F5F5F5F5F5F5F5F5F5F5F5F5F5F5F5F5F5F5F5F5F5F5F5F5F5F5F5F5F5F5E2F5F5F5F5F5F5F5F5F5F5F5F5F5F5F5
310
F5F5E2F5F5F5F5F5F5F5F5F5F5F5F5F5F5F5F5F5F5F5F5F5F5F5F5F5F5F5F5F5F5F5F5F5F5F5F5F5F5F5F5F5F5F5F5F5F5F5F5F5F5F5F5F5F5F5F5F5F5F5F5F5F5F5F5F5F5F5F5F5F5F5F5E2F5F5F5F5F5F5F5F5F5F5F5F5F5F5F5F5F5F5F5F5F5F5F5F5F5F5F5F5F5F5F5F5F5F5F5F5F5F5F5F5F5F5F5F5F5F5F5F5F5F5F5
310
E2E2F5E2E2F5E2F5F5F5F5F5F5F5F5F5F5F5F5F5F5F5F5F5F5F5F5F5F5F5F5F5F5F5F5E2E2E2E2E2F5F5F5F5F5F5F5F5F5F5F5F5F5F5F5E2E2E2E2E2E2E2F5F5F5E2E2E2E2E2E2E2E2F5F5F5E2E2E2E2E2E2E2E2E2F5F5F5E2E2E2E2E2E2E2E2F5F5F5E2E2E2E2E2E2E2E2E2F5F5F5E2E2E2E2E2E2E2E2F5F5F5E2E2E2E2E2
310
E2E2F5F5F5F5F5F5F5F5F5F5F5F5F5F5F5F5F5F5F5F5F5F5F5F5F5F5F5F5F5F5F5F5F5F5F5F5F5F5F5F5F5F5F5F5F5F5F5F5F5F5F5E2E2F5E2E2F5E2F5F5F5F5F5F5F5F5F5F5F5F5F5F5F5F5F5F5F5F5F5F5F5F5F5F5F5F5F5BEE2F5F5F5F5F5F5F5F5F5F5F5F5F5F5F5F5F5F5F5F5F5F5F5F5F5F5F5F5F5F5F5F5F5F5F5F5
310
F5F5F5F5F5F5F5F5F5F5F5F5F5F5F5F5F5F5F5F5F5F5F5F5F5F5F5F5F5F5F5F5F5F5F5F5F5F5F5F5F5F5F5F5F5F5F5F5F5F5F5F5F5F5F5F5F5F5F5F5F5F5F5F5F5F5F5F5F5F5F5F5F5F5F5F5F5F5F5F5F5F5F5F5F5F5F5F5F5F5F5F5F5F5F5F5F5F5F5F5F5F5F5F5F5F5E2E2F5E2E2F5E2F5F5F5F5F5F5F5F5F5F5F5F5F5F5
310
F5F5F5F5F5F5F5F5F5F5F5F5F5F5F5F5F5F5F5F5F5F5F5F5F5F5F5F5F5F5F5F5F5F5F5F5F5F5F5F5F5F5F5F5F5F5F5F5F5F5F5F5F5F5F5F5F5F5F5F5F5F5F5F5F5F5F5F5F5F5F5F5F5F5F5F5F5F5F5F5F5F5F5F5F5F5F5F5F5F5F5F5F5F5F5F5F5F5F5F5F5F5F5F5F5F5F5F5F5F5F5F5F5F5F5F5F5F5F5F5F5F5F5F5F5F5F5
310
F5F5F5F5F5F5F5F5F5F5F5F5F5F5F5F5F5F5F5F5F5F5F5F5F5F5F5F5F5F5F5F5E2F5F5E2E2F5E2F5F5F5F5F5F5F5F5F5F5F5F5F5F5F5F5F5F5F5F5F5F5F5F5F5F5F5F5F5F5F5F5F5F5F5F5F5F5F5F5F5F5F5F5F5F5F5F5F5F5F5F5F5F5F5F5F5F5F5F5F5F5F5F5F5F5F5F5F5F5F5F5F5F5F5F5F5F5F5F5F5F5F5F5F5F5F5F5
310
F5F5F5F5F5F5F5F5F5F5F5F5F5F5F5F5F5F5F5F5F5F5F5F5F5F5F5F5F5F5F5F5F5F5F5F5F5F5F5F5F5F5F5F5F5F5F5F5F5F5F5F5F5F5F5F5F5F5F5F5F5F5F5F5F5F5F5F5F5F5F5F5F5F5F5F5F5F5F5F5F5F5F5F5F5E2F5F5E2E2F5E2F5F5F5F5F5F5F5F5F5F5F5F5F5F5F5F5F5F5F5F5F5F5F5F5F5F5F5F5F5F5F5F5F5F5F5
310
F5F5F5F5F5F5F5F5F5F5F5F5F5F5F5F5F5F5F5F5F5F5F5F5F5F5F5F5F5F5F5F5F5F5F5F5F5F5F5F5F5F5F5F5F5F5F5F5F5F5F5F5F5F5F5F5F5F5F5F5F5F5F5F5F5F5F5F5F5F5F5F5F5F5F5F5F5F5F5F5F5F5F5F5F5F5F5F5F5F5F5F5F5F5F5F5F5F5F5F5F5F5F5F5F5F5F5F5F5F5F5F5F5F5F5F5F5F5F5F5F5F5F5F5F5F5F5
310
F5F5F5F5F5F5F5F5F5F5F5E2F5F5E2E2F5E2F5F5F5F5F5F5F5F5F5F5F5F5F5F5F5F5F5F5F5F5F5F5F5F5F5F5F5F5F5F5F5F5F5F5F5F5F5F5F5F5F5F5F5F5F5F5F5F5F5F5F5F5F5F5F5F5F5F5F5F5F5F5F5F5F5F5F5F5F5F5F5F5F5F5F5F5F5F5F5F5F5F5F5F5F5F5F5F5F5F5F5F5F5F5F5F5F5F5F5F5F5F5F5F5F5F5F5F5F5
310
F5F5F5F5F5F5F5F5F5F5F5F5F5F5F5F5F5F5F5F5F5F5F5F5F5F5F5F5F5F5F5F5F5F5F5F5F5F5F5F5F5F5F5F5F5F5F5F5F5F5F5F5F5F5F5F5F5F5F5F5F5F5F5F5E2F5F5E2E2F5E2F5F5F5F5F5F5F5F5F5F5F5F5F5F5F5F5F5F5F5F5F5F5F5F5F5F5F5F5F5F5F5F5F5F5F5F5F5F5F5F5F5F5F5E2F5F5F5F5F5F5F5F5F5F5F5F5
310
F5F5F5F5F5F5F5F5F5F5F5F5F5F5F5F5F5F5F5F5F5F5F5F5F5F5F5F5F5F5F5F5F5F5F5F5F5F5F5F5F5F5F5F5F5F5F5F5F5F5F5F5F5F5F5F5F5F5F5F5F5F5F5F5F5F5F5F5F5F5F5F5F5F5F5F5F5F5F5F5F5F5F5F5F5F5F5F5F5F5F5F5F5F5F5F5E2F5F5F5F5F5F5F5F5F5F5F5F5F5F5F5F5F5F5F5F5E2F5F5E2E2F5E2F5F5F5
310
F5F5F5F5F5F5F5F5F5F5F5F5F5F5F5F5F5F5F5F5F5F5F5F5F5F5F5F5F5F5F5F5F5F5F5F5F5F5F5BEE2F5F5F5F5F5F5F5F5F5F5F5F5F5F5F5F5F5F5F5F5F5F5F5F5F5F5F5F5F5F5F5F5F5F5F5F5F5F5F5F5F5F5F5F5F5F5F5F5F5F5F5F5F5F5F5F5F5F5F5F5F5F5F5F5F5F5F5F5F5F5F5F5F5F5F5F5F5F5F5F5F5F5F5F5F5F5
310
F5F5F5F5F5F5F5F5F5F5F5F5F5F5F5F5F5F5F5F5F5BEE2F5F5F5F5F5F5F5F5F5F5F5F5F5F5F5F5F5F5F5F5E2F5F5E2E2F5E2F5F5F5F5F5F5F5F5F5F5F5F5F5F5F5F5F5F5F5F5F5F5F5F5F5F5F5F5F5F5F5F5F5F5F5F5F5F5F5F5F5F5E2E2E2E2E2E2E2E2E2E2E2E2E2E2E2E2E2E2E2E2E2E2E2E2E2E2E2E2E2E2E2E2E2E2E2
310
E2E2E2E2E2E2E2E2E2E2E2E2E2E2E2E2E2E2E2E2E2E2E2E2E2E2E2E2E2E2E2E2E2E2E2E2E2E2E2E2E2E2E2E2E2E2E2E2E2E2E2E2E2E2E2E2E2E2E2E2E2E2E2E2E2E2E2E2E2E2E2E2E2E2E2E2E2F5F5F5F5F5F5F5F5F5F5F5F5F5F5F5F5F5F5F5E2F5F5E2E2F5E2F5F5F5F5F5F5F5F5F5F5F5F5F5F5F5F5F5F5F5F5F5F5F5F5
310
F5F5F5F5F5F5F5F5F5F5F5F5F5F5F5F5F5F5F5E2BEF5F5F5F5F5F5F5F5F5F5F5F5F5F5F5F5F5F5F5F5F5F5F5F5F5F5F5F5F5F5F5F5F5F5F5F5F5F5F5F5F5F5F5F5F5F5F5F5F5F5F5F5F5F5F5F5F5F5F5F5F5F5F5F5F5F5F5F5F5F5F5F5F5F5F5F5F5F5F5F5F5F5F5F5F5F5F5F5F5F5F5F5F5F5F5F5F5F5F5F5F5F5F5F5F5F5
310
F5BEF5F5F5F5F5F5F5F5F5F5F5F5F5F5F5F5F5F5F5F5E2F5F5E2E2F5E2F5F5F5F5F5F5F5F5F5F5F5F5F5F5F5F5F5F5F5F5F5F5F5F5F5F5F5F5F5F5F5F5F5F5F5F5F5F5F5F5F5F5F5E2F5BEF5F5F5F5F5F5F5F5F5F5F5F5F5F5F5F5F5F5F5F5F5F5F5F5F5F5F5F5F5F5F5F5F5F5F5F5F5F5F5F5F5F5F5F5F5F5F5F5E2E2E2E2
310
E2E2E2F5F5F5F5F5F5F5F5F5F5F5F5F5F5F5F5F5F5F5F5F5F5F5F5F5F5F5F5F5F5F5F5F5F5F5F5F5F5F5F5F5F5F5F5F5F5F5F5F5F5F5E2BEF5F5F5F5F5F5F5F5F5F5F5F5F5F5F5F5F5F5F5E2F5F5E2E2F5E2F5F5F5F5F5F5F5F5F5F5F5F5F5F5F5F5F5F5F5F5F5F5F5F5F5F5F5F5F5F5F5F5F5F5F5F5F5F5F5F5F5F5F5E2F5
310
F5F5F5F5F5F5F5F5F5F5F5F5F5F5F5F5F5F5F5F5F5F5F5F5F5F5F5F5F5F5F5F5F5F5F5F5F5F5F5F5F5F5F5F5F5F5F5F5F5E2E2E2E2E2E2E2F5F5F5F5F5F5F5F5F5F5F5F5F5F5F5F5F5F5F5F5F5F5F5F5F5F5F5F5F5F5F5F5F5F5F5F5F5F5F5F5F5F5F5F5F5F5F5F5F5F5F5E2F5F5F5F5F5F5F5F5F5F5F5F5F5F5F5F5F5F5F5
310
F5E2E2F5E2E2F5E2F5F5F5F5F5F5F5F5F5F5F5F5F5F5F5F5F5F5F5F5F5F5F5F5F5F5F5F5F5F5F5F5F5F5F5F5F5F5F5F5F5F5F5F5F5F5F5F5F5F5F5F5F5F5F5F5F5F5F5F5F5F5F5F5F5F5F5F5F5F5F5F5F5F5F5F5F5F5F5F5F5F5F5F5F5F5F5F5F5F5F5F5F5F5E2E2E2E2E2E2E2F5F5F5F5F5F5F5F5F5F5F5F5F5F5F5F5F5F5
310
F5F5F5F5F5F5F5F5F5F5F5F5F5F5F5F5F5F5F5F5F5F5F5F5F5F5F5F5F5F5F5F5F5F5F5F5F5F5F5F5F5F5F5F5F5F5F5F5F5F5F5F5F5F5E2E2F5E2E2F5E2F5F5F5F5F5F5F5F5F5F5F5F5F5F5F5F5F5F5F5F5F5F5F5F5F5F5F5F5F5F5F5F5F5F5F5F5F5F5F5F5F5F5F5F5F5F5F5F5F5F5F5F5F5F5F5F5F5F5F5F5F5F5F5F5F5F5
310
F5F5F5F5F5F5F5F5F5F5F5F5F5F5F5F5F5F5F5F5F5F5F5F5F5F5F5F5E2E2E2E2E2E2E2F5F5F5F5F5F5F5F5F5F5F5F5F5F5F5F5F5F5F5F5F5F5F5F5F5F5F5F5F5F5F5F5F5F5F5F5F5F5F5F5F5F5F5F5F5F5F5F5F5F5F5F5F5F5F5F5F5F5F5F5F5F5F5F5F5F5F5F5F5F5F5F5E2E2F5E2E2F5E2F5F5F5F5F5F5F5F5F5F5F5F5F5
310
F5F5F5F5F5F5F5F5F5F5F5F5F5F5F5F5F5F5F5F5F5F5F5F5F5F5F5F5F5F5F5F5F5F5F5F5F5F5F5F5F5F5F5F5F5F5F5F5F5F5F5F5F5F5F5F5F5F5F5F5F5F5F5F5F5F5F5F5F5F5F5F5F5F5F5F5F5F5F5F5F5F5F5F5F5F5F5F5F5F5F5F5F5F5F5F5F5F5F5F5F5F5F5F5F5F5F5F5F5F5F5F5F5F5F5F5F5F5F5F5F5F5F5F5F5F5F5
310
F5F5F5F5F5F5F5F5F5F5F5F5F5F5F5F5F5F5F5F5F5F5F5F5F5F5F5F5F5F5F5F5F5E2E2F5E2E2F5E2F5F5F5F5F5F5F5F5F5F5F5F5F5F5F5F5F5F5F5F5F5F5F5F5F5F5F5F5F5F5F5F5F5F5F5F5F5F5F5F5F5F5F5F5F5F5F5F5F5F5F5F5F5F5F5F5F5F5F5F5F5F5F5F5F5F5F5F5F5F5F5F5F5F5F5F5F5F5F5F5F5F5F5F5F5F5F5
310
F5F5F5F5F5F5F5F5F5F5F5F5F5F5F5F5F5F5F5F5F5F5F5F5F5F5F5F5F5F5F5F5F5F5F5F5F5F5F5F5F5F5F5F5F5F5F5F5F5F5F5F5F5F5F5F5F5F5F5F5F5F5F5F5F5F5F5F5F5F5F5F5F5F5F5F5F5F5F5F5F5F5F5F5F5F5E2E2F5E2E2F5E2E2E2E2E2E2E2E2E2E2E2E2E2E2E2E2E2E2E2E2E2E2E2E2E2E2E2E2E2E2E2E2E2E2E2
310
E2E2E2E2E2E2E2E2E2E2E2E2E2E2E2E2E2E2E2E2E2E2E2E2E2E2E2E2E2E2E2E2E2E2E2E2E2E2E2E2E2E2E2E2E2E2E2E2E2E2E2E2E2E2E2E2E2E2E2E2E2E2E2E2E2E2E2E2E2E2E2E2E2E2E2E2E2E2E2E2E2E2E2E2E2E2E2E2E2E2E2E2E2E2E2E2E2E2E2E2E2E2E2E2E2E2E2E2E2E2E2E2E2E2E2E2E2E2E2E2E2E2E2E2E2E2E2
310
E2E2E2E2E2E2E2E2E2E2E2E2E2E2F5E2E2F5E2F5F5F5F5F5F5F5F5F5F5F5F5F5F5F5F5F5F5F5F5F5F5F5F5F5F5F5F5F5F5F5F5F5F5F5F5F5F5F5F5F5F5F5F5F5F5F5F5F5F5F5F5F5F5F5F5F5F5F5F5F5F5F5F5F5F5F5F5F5F5F5F5F5F5F5F5F5F5F5F5F5F5F5F5F5F5F5F5F5F5F5F5F5F5F5F5F5F5F5F5F5F5F5F5F5F5F5F5
310
F5F5F5F5F5F5F5F5F5F5F5F5F5F5F5F5F5F5F5F5F5F5F5F5F5F5F5F5F5F5F5F5F5F5F5F5F5F5F5F5F5F5F5F5F5F5F5F5F5F5F5F5F5F5F5F5F5F5F5F5F5F5F5F5F5F5E2F5E2E2F5E2E2E2E2E2E2E2E2E2F5F5F5F5F5F5F5F5F5E2E2E2E2E2E2E2E2E2E2E2E2E2E2E2E2F5F5F5F5F5F5F5F5F5E2E2E2E2E2E2E2E2E2E2E2E2E2
310
E2E2E2F5F5F5F5F5F5F5F5F5E2E2E2E2E2E2E2E2E2E2E2E2E2E2E2E2F5F5F5F5F5F5F5F5F5E2E2E2E2E2E2E2E2E2E2E2E2E2E2E2E2F5F5F5F5F5F5F5F5F5E2E2E2E2E2E2E2E2E2E2E2E2E2E2E2E2F5F5F5F5F5F5F5F5F5E2E2E2E2E2E2E2E2E2E2E2E2E2E2E2E2F5F5F5F5F5F5F5F5F5E2E2E2E2E2E2E2E2F5E2E2E2E2E2E2
310
E2E2E2E2E2E2E2E2E2E2E2E2E2E2E2E2E2E2E2E2E2E2E2E2E2E2E2E2E2E2E2E2E2E2E2E2E2E2E2E2E2E2E2E2E2E2E2E2E2E2E2E2E2E2E2E2E2E2E2E2E2E2E2E2E2E2E2E2E2E2E2E2E2E2E2E2E2E2E2E2E2E2E2E2E2E2E2E2E2E2E2E2E2E2E2E2E2E2E2E2E2E2E2E2E2E2E2E2E2E2E2E2E2E2E2E2E2E2E2E2E2E2E2E2E2E2E2
310
E2E2E2E2E2E2E2E2E2E2E2E2E2E2E2E2E2E2E2E2E2E2E2E2E2E2E2E2E2E2E2E2E2E2E2E2E2E2E2E2E2E2E2E2E2E2E2E2
  0
XRECORD
  5
9E8D
102
{ACAD_REACTORS
330
9E8C
102
}
330
9E8C
100
AcDbXrecord
280
     1
102
MATERIAL
148
0.0
149
0.0
149
0.0
 93
        0
 94
      127
282
     0
 72
     1
 77
     1
171
     1
175
     1
179
     1
273
     0
  0
XRECORD
  5
9E8B
102
{ACAD_REACTORS
330
9E8A
102
}
330
9E8A
100
AcDbXrecord
280
     1
102
MATERIAL
148
0.0
149
0.0
149
0.0
 93
        0
 94
      127
282
     0
 72
     1
 77
     1
171
     1
175
     1
179
     1
273
     0
  0
XRECORD
  5
9E8F
102
{ACAD_REACTORS
330
9E8E
102
}
330
9E8E
100
AcDbXrecord
280
     1
102
MATERIAL
148
0.0
149
0.0
149
0.0
 93
        0
 94
      127
282
     0
 72
     1
 77
     1
171
     1
175
     1
179
     1
273
     0
  0
CELLSTYLEMAP
  5
9E89
102
{ACAD_REACTORS
330
8CA0
102
}
330
8CA0
100
AcDbCellStyleMap
 90
        3
300
CELLSTYLE
  1
TABLEFORMAT_BEGIN
 90
        5
170
     1
 91
        0
 92
    32768
 62
   257
 93
        1
300
CONTENTFORMAT
  1
CONTENTFORMAT_BEGIN
 90
        0
 91
        0
 92
      512
 93
        0
300

 40
0.0
140
1.0
 94
        5
 62
     0
340
11
144
0.25
309
CONTENTFORMAT_END
171
     0
 94
        6
 95
        1
302
GRIDFORMAT
  1
GRIDFORMAT_BEGIN
 90
        0
 91
        1
 62
     0
 92
       -2
340
0
 93
        0
 40
0.045
309
GRIDFORMAT_END
 95
        2
302
GRIDFORMAT
  1
GRIDFORMAT_BEGIN
 90
        0
 91
        1
 62
     0
 92
       -2
340
0
 93
        0
 40
0.045
309
GRIDFORMAT_END
 95
        4
302
GRIDFORMAT
  1
GRIDFORMAT_BEGIN
 90
        0
 91
        1
 62
     0
 92
       -2
340
0
 93
        0
 40
0.045
309
GRIDFORMAT_END
 95
        8
302
GRIDFORMAT
  1
GRIDFORMAT_BEGIN
 90
        0
 91
        1
 62
     0
 92
       -2
340
0
 93
        0
 40
0.045
309
GRIDFORMAT_END
 95
       16
302
GRIDFORMAT
  1
GRIDFORMAT_BEGIN
 90
        0
 91
        1
 62
     0
 92
       -2
340
0
 93
        0
 40
0.045
309
GRIDFORMAT_END
 95
       32
302
GRIDFORMAT
  1
GRIDFORMAT_BEGIN
 90
        0
 91
        1
 62
     0
 92
       -2
340
0
 93
        0
 40
0.045
309
GRIDFORMAT_END
309
TABLEFORMAT_END
  1
CELLSTYLE_BEGIN
 90
        1
 91
        1
300
_TITLE
309
CELLSTYLE_END
300
CELLSTYLE
  1
TABLEFORMAT_BEGIN
 90
        5
170
     1
 91
        0
 92
        0
 62
   257
 93
        1
300
CONTENTFORMAT
  1
CONTENTFORMAT_BEGIN
 90
        0
 91
        0
 92
      512
 93
        0
300

 40
0.0
140
1.0
 94
        5
 62
     0
340
11
144
0.18
309
CONTENTFORMAT_END
171
     0
 94
        6
 95
        1
302
GRIDFORMAT
  1
GRIDFORMAT_BEGIN
 90
        0
 91
        1
 62
     0
 92
       -2
340
0
 93
        0
 40
0.045
309
GRIDFORMAT_END
 95
        2
302
GRIDFORMAT
  1
GRIDFORMAT_BEGIN
 90
        0
 91
        1
 62
     0
 92
       -2
340
0
 93
        0
 40
0.045
309
GRIDFORMAT_END
 95
        4
302
GRIDFORMAT
  1
GRIDFORMAT_BEGIN
 90
        0
 91
        1
 62
     0
 92
       -2
340
0
 93
        0
 40
0.045
309
GRIDFORMAT_END
 95
        8
302
GRIDFORMAT
  1
GRIDFORMAT_BEGIN
 90
        0
 91
        1
 62
     0
 92
       -2
340
0
 93
        0
 40
0.045
309
GRIDFORMAT_END
 95
       16
302
GRIDFORMAT
  1
GRIDFORMAT_BEGIN
 90
        0
 91
        1
 62
     0
 92
       -2
340
0
 93
        0
 40
0.045
309
GRIDFORMAT_END
 95
       32
302
GRIDFORMAT
  1
GRIDFORMAT_BEGIN
 90
        0
 91
        1
 62
     0
 92
       -2
340
0
 93
        0
 40
0.045
309
GRIDFORMAT_END
309
TABLEFORMAT_END
  1
CELLSTYLE_BEGIN
 90
        2
 91
        1
300
_HEADER
309
CELLSTYLE_END
300
CELLSTYLE
  1
TABLEFORMAT_BEGIN
 90
        5
170
     1
 91
        0
 92
        0
 62
   257
 93
        1
300
CONTENTFORMAT
  1
CONTENTFORMAT_BEGIN
 90
        0
 91
        0
 92
      512
 93
        0
300

 40
0.0
140
1.0
 94
        2
 62
     0
340
11
144
0.18
309
CONTENTFORMAT_END
171
     0
 94
        6
 95
        1
302
GRIDFORMAT
  1
GRIDFORMAT_BEGIN
 90
        0
 91
        1
 62
     0
 92
       -2
340
0
 93
        0
 40
0.045
309
GRIDFORMAT_END
 95
        2
302
GRIDFORMAT
  1
GRIDFORMAT_BEGIN
 90
        0
 91
        1
 62
     0
 92
       -2
340
0
 93
        0
 40
0.045
309
GRIDFORMAT_END
 95
        4
302
GRIDFORMAT
  1
GRIDFORMAT_BEGIN
 90
        0
 91
        1
 62
     0
 92
       -2
340
0
 93
        0
 40
0.045
309
GRIDFORMAT_END
 95
        8
302
GRIDFORMAT
  1
GRIDFORMAT_BEGIN
 90
        0
 91
        1
 62
     0
 92
       -2
340
0
 93
        0
 40
0.045
309
GRIDFORMAT_END
 95
       16
302
GRIDFORMAT
  1
GRIDFORMAT_BEGIN
 90
        0
 91
        1
 62
     0
 92
       -2
340
0
 93
        0
 40
0.045
309
GRIDFORMAT_END
 95
       32
302
GRIDFORMAT
  1
GRIDFORMAT_BEGIN
 90
        0
 91
        1
 62
     0
 92
       -2
340
0
 93
        0
 40
0.045
309
GRIDFORMAT_END
309
TABLEFORMAT_END
  1
CELLSTYLE_BEGIN
 90
        3
 91
        2
300
_DATA
309
CELLSTYLE_END
  0
XRECORD
  5
9E90
102
{ACAD_REACTORS
330
8CA0
102
}
330
8CA0
100
AcDbXrecord
280
     1
102
ACAD_ROUNDTRIP_PRE2007_TABLESTYLE
 90
      512
 91
        0
  1

 92
      512
 93
        0
  2

 94
      512
 95
        0
  3

  0
XRECORD
  5
49B
102
{ACAD_REACTORS
330
49A
102
}
330
49A
100
AcDbXrecord
280
     1
102
RTVSPropertyOp0
 70
     1
102
RTVSPropertyOp1
 70
     1
102
RTVSPropertyOp2
 70
     1
102
RTVSPropertyOp3
 70
     1
102
RTVSPropertyOp4
 70
     1
102
RTVSPropertyOp5
 70
     1
102
RTVSPropertyOp6
 70
     1
102
RTVSPropertyOp7
 70
     1
102
RTVSPropertyOp8
 70
     1
102
RTVSPropertyOp9
 70
     1
102
RTVSPropertyOp10
 70
     1
102
RTVSPropertyOp11
 70
     1
102
RTVSPropertyOp12
 70
     1
102
RTVSPropertyOp13
 70
     1
102
RTVSPropertyOp14
 70
     1
102
RTVSPropertyOp15
 70
     1
102
RTVSPropertyOp16
 70
     1
102
RTVSPropertyOp17
 70
     1
102
RTVSPropertyOp18
 70
     1
102
RTVSPropertyOp19
 70
     1
102
RTVSPropertyOp20
 70
     1
102
RTVSPropertyOp21
 70
     1
102
RTVSPropertyOp22
 70
     1
102
RTVSPropertyOp23
 70
     1
102
RTVSPropertyOp24
 70
     1
102
RTVSPropertyOp25
 70
     1
102
RTVSPropertyOp26
 70
     1
102
RTVSPropertyOp27
 70
     1
  0
XRECORD
  5
A4A
102
{ACAD_REACTORS
330
A49
102
}
330
A49
100
AcDbXrecord
280
     1
102
RTVSPropertyOp0
 70
     1
102
RTVSPropertyOp1
 70
     1
102
RTVSPropertyOp2
 70
     1
102
RTVSPropertyOp3
 70
     1
102
RTVSPropertyOp4
 70
     1
102
RTVSPropertyOp5
 70
     1
102
RTVSPropertyOp6
 70
     1
102
RTVSPropertyOp7
 70
     1
102
RTVSPropertyOp8
 70
     1
102
RTVSPropertyOp9
 70
     1
102
RTVSPropertyOp10
 70
     1
102
RTVSPropertyOp11
 70
     1
102
RTVSPropertyOp12
 70
     1
102
RTVSPropertyOp13
 70
     1
102
RTVSPropertyOp14
 70
     1
102
RTVSPropertyOp15
 70
     1
102
RTVSPropertyOp16
 70
     1
102
RTVSPropertyOp17
 70
     1
102
RTVSPropertyOp18
 70
     1
102
RTVSPropertyOp19
 70
     1
102
RTVSPropertyOp20
 70
     1
102
RTVSPropertyOp21
 70
     1
102
RTVSPropertyOp22
 70
     1
102
RTVSPropertyOp23
 70
     1
102
RTVSPropertyOp24
 70
     1
102
RTVSPropertyOp25
 70
     1
102
RTVSPropertyOp26
 70
     1
102
RTVSPropertyOp27
 70
     1
  0
XRECORD
  5
4A1
102
{ACAD_REACTORS
330
4A0
102
}
330
4A0
100
AcDbXrecord
280
     1
102
RTVSPropertyOp0
 70
     1
102
RTVSPropertyOp1
 70
     1
102
RTVSPropertyOp2
 70
     1
102
RTVSPropertyOp3
 70
     1
102
RTVSPropertyOp4
 70
     1
102
RTVSPropertyOp5
 70
     1
102
RTVSPropertyOp6
 70
     1
102
RTVSPropertyOp7
 70
     1
102
RTVSPropertyOp8
 70
     1
102
RTVSPropertyOp9
 70
     1
102
RTVSPropertyOp10
 70
     1
102
RTVSPropertyOp11
 70
     1
102
RTVSPropertyOp12
 70
     1
102
RTVSPropertyOp13
 70
     1
102
RTVSPropertyOp14
 70
     1
102
RTVSPropertyOp15
 70
     1
102
RTVSPropertyOp16
 70
     1
102
RTVSPropertyOp17
 70
     1
102
RTVSPropertyOp18
 70
     1
102
RTVSPropertyOp19
 70
     1
102
RTVSPropertyOp20
 70
     1
102
RTVSPropertyOp21
 70
     1
102
RTVSPropertyOp22
 70
     1
102
RTVSPropertyOp23
 70
     1
102
RTVSPropertyOp24
 70
     1
102
RTVSPropertyOp25
 70
     1
102
RTVSPropertyOp26
 70
     1
102
RTVSPropertyOp27
 70
     1
  0
XRECORD
  5
4A9
102
{ACAD_REACTORS
330
4A8
102
}
330
4A8
100
AcDbXrecord
280
     1
102
RTVSPropertyOp0
 70
     1
102
RTVSPropertyOp1
 70
     1
102
RTVSPropertyOp2
 70
     1
102
RTVSPropertyOp3
 70
     1
102
RTVSPropertyOp4
 70
     1
102
RTVSPropertyOp5
 70
     1
102
RTVSPropertyOp6
 70
     1
102
RTVSPropertyOp7
 70
     1
102
RTVSPropertyOp8
 70
     1
102
RTVSPropertyOp9
 70
     1
102
RTVSPropertyOp10
 70
     1
102
RTVSPropertyOp11
 70
     1
102
RTVSPropertyOp12
 70
     1
102
RTVSPropertyOp13
 70
     1
102
RTVSPropertyOp14
 70
     1
102
RTVSPropertyOp15
 70
     1
102
RTVSPropertyOp16
 70
     1
102
RTVSPropertyOp17
 70
     1
102
RTVSPropertyOp18
 70
     1
102
RTVSPropertyOp19
 70
     1
102
RTVSPropertyOp20
 70
     1
102
RTVSPropertyOp21
 70
     1
102
RTVSPropertyOp22
 70
     1
102
RTVSPropertyOp23
 70
     1
102
RTVSPropertyOp24
 70
     1
102
RTVSPropertyOp25
 70
     1
102
RTVSPropertyOp26
 70
     1
102
RTVSPropertyOp27
 70
     1
  0
XRECORD
  5
4B1
102
{ACAD_REACTORS
330
4B0
102
}
330
4B0
100
AcDbXrecord
280
     1
102
RTVSPropertyOp0
 70
     1
102
RTVSPropertyOp1
 70
     1
102
RTVSPropertyOp2
 70
     1
102
RTVSPropertyOp3
 70
     1
102
RTVSPropertyOp4
 70
     1
102
RTVSPropertyOp5
 70
     1
102
RTVSPropertyOp6
 70
     1
102
RTVSPropertyOp7
 70
     1
102
RTVSPropertyOp8
 70
     1
102
RTVSPropertyOp9
 70
     1
102
RTVSPropertyOp10
 70
     1
102
RTVSPropertyOp11
 70
     1
102
RTVSPropertyOp12
 70
     1
102
RTVSPropertyOp13
 70
     1
102
RTVSPropertyOp14
 70
     1
102
RTVSPropertyOp15
 70
     1
102
RTVSPropertyOp16
 70
     1
102
RTVSPropertyOp17
 70
     1
102
RTVSPropertyOp18
 70
     1
102
RTVSPropertyOp19
 70
     1
102
RTVSPropertyOp20
 70
     1
102
RTVSPropertyOp21
 70
     1
102
RTVSPropertyOp22
 70
     1
102
RTVSPropertyOp23
 70
     1
102
RTVSPropertyOp24
 70
     1
102
RTVSPropertyOp25
 70
     1
102
RTVSPropertyOp26
 70
     1
102
RTVSPropertyOp27
 70
     1
  0
XRECORD
  5
4A7
102
{ACAD_REACTORS
330
4A6
102
}
330
4A6
100
AcDbXrecord
280
     1
102
RTVSPropertyOp0
 70
     1
102
RTVSPropertyOp1
 70
     1
102
RTVSPropertyOp2
 70
     1
102
RTVSPropertyOp3
 70
     1
102
RTVSPropertyOp4
 70
     1
102
RTVSPropertyOp5
 70
     1
102
RTVSPropertyOp6
 70
     1
102
RTVSPropertyOp7
 70
     1
102
RTVSPropertyOp8
 70
     1
102
RTVSPropertyOp9
 70
     1
102
RTVSPropertyOp10
 70
     1
102
RTVSPropertyOp11
 70
     1
102
RTVSPropertyOp12
 70
     1
102
RTVSPropertyOp13
 70
     1
102
RTVSPropertyOp14
 70
     1
102
RTVSPropertyOp15
 70
     1
102
RTVSPropertyOp16
 70
     1
102
RTVSPropertyOp17
 70
     1
102
RTVSPropertyOp18
 70
     1
102
RTVSPropertyOp19
 70
     1
102
RTVSPropertyOp20
 70
     1
102
RTVSPropertyOp21
 70
     1
102
RTVSPropertyOp22
 70
     1
102
RTVSPropertyOp23
 70
     1
102
RTVSPropertyOp24
 70
     1
102
RTVSPropertyOp25
 70
     1
102
RTVSPropertyOp26
 70
     1
102
RTVSPropertyOp27
 70
     1
  0
XRECORD
  5
4AF
102
{ACAD_REACTORS
330
4AE
102
}
330
4AE
100
AcDbXrecord
280
     1
102
RTVSPropertyOp0
 70
     1
102
RTVSPropertyOp1
 70
     1
102
RTVSPropertyOp2
 70
     1
102
RTVSPropertyOp3
 70
     1
102
RTVSPropertyOp4
 70
     1
102
RTVSPropertyOp5
 70
     1
102
RTVSPropertyOp6
 70
     1
102
RTVSPropertyOp7
 70
     1
102
RTVSPropertyOp8
 70
     1
102
RTVSPropertyOp9
 70
     1
102
RTVSPropertyOp10
 70
     1
102
RTVSPropertyOp11
 70
     1
102
RTVSPropertyOp12
 70
     1
102
RTVSPropertyOp13
 70
     1
102
RTVSPropertyOp14
 70
     1
102
RTVSPropertyOp15
 70
     1
102
RTVSPropertyOp16
 70
     1
102
RTVSPropertyOp17
 70
     1
102
RTVSPropertyOp18
 70
     1
102
RTVSPropertyOp19
 70
     1
102
RTVSPropertyOp20
 70
     1
102
RTVSPropertyOp21
 70
     1
102
RTVSPropertyOp22
 70
     1
102
RTVSPropertyOp23
 70
     1
102
RTVSPropertyOp24
 70
     1
102
RTVSPropertyOp25
 70
     1
102
RTVSPropertyOp26
 70
     1
102
RTVSPropertyOp27
 70
     1
  0
XRECORD
  5
493
102
{ACAD_REACTORS
330
492
102
}
330
492
100
AcDbXrecord
280
     1
102
RTVSPropertyOp0
 70
     1
102
RTVSPropertyOp1
 70
     1
102
RTVSPropertyOp2
 70
     1
102
RTVSPropertyOp3
 70
     1
102
RTVSPropertyOp4
 70
     1
102
RTVSPropertyOp5
 70
     1
102
RTVSPropertyOp6
 70
     1
102
RTVSPropertyOp7
 70
     1
102
RTVSPropertyOp8
 70
     1
102
RTVSPropertyOp9
 70
     1
102
RTVSPropertyOp10
 70
     1
102
RTVSPropertyOp11
 70
     1
102
RTVSPropertyOp12
 70
     1
102
RTVSPropertyOp13
 70
     1
102
RTVSPropertyOp14
 70
     1
102
RTVSPropertyOp15
 70
     1
102
RTVSPropertyOp16
 70
     1
102
RTVSPropertyOp17
 70
     1
102
RTVSPropertyOp18
 70
     1
102
RTVSPropertyOp19
 70
     1
102
RTVSPropertyOp20
 70
     1
102
RTVSPropertyOp21
 70
     1
102
RTVSPropertyOp22
 70
     1
102
RTVSPropertyOp23
 70
     1
102
RTVSPropertyOp24
 70
     1
102
RTVSPropertyOp25
 70
     1
102
RTVSPropertyOp26
 70
     1
102
RTVSPropertyOp27
 70
     1
  0
XRECORD
  5
495
102
{ACAD_REACTORS
330
494
102
}
330
494
100
AcDbXrecord
280
     1
102
RTVSPropertyOp0
 70
     1
102
RTVSPropertyOp1
 70
     1
102
RTVSPropertyOp2
 70
     1
102
RTVSPropertyOp3
 70
     1
102
RTVSPropertyOp4
 70
     1
102
RTVSPropertyOp5
 70
     1
102
RTVSPropertyOp6
 70
     1
102
RTVSPropertyOp7
 70
     1
102
RTVSPropertyOp8
 70
     1
102
RTVSPropertyOp9
 70
     1
102
RTVSPropertyOp10
 70
     1
102
RTVSPropertyOp11
 70
     1
102
RTVSPropertyOp12
 70
     1
102
RTVSPropertyOp13
 70
     1
102
RTVSPropertyOp14
 70
     1
102
RTVSPropertyOp15
 70
     1
102
RTVSPropertyOp16
 70
     1
102
RTVSPropertyOp17
 70
     1
102
RTVSPropertyOp18
 70
     1
102
RTVSPropertyOp19
 70
     1
102
RTVSPropertyOp20
 70
     1
102
RTVSPropertyOp21
 70
     1
102
RTVSPropertyOp22
 70
     1
102
RTVSPropertyOp23
 70
     1
102
RTVSPropertyOp24
 70
     1
102
RTVSPropertyOp25
 70
     1
102
RTVSPropertyOp26
 70
     1
102
RTVSPropertyOp27
 70
     1
  0
XRECORD
  5
497
102
{ACAD_REACTORS
330
496
102
}
330
496
100
AcDbXrecord
280
     1
102
RTVSPropertyOp0
 70
     1
102
RTVSPropertyOp1
 70
     1
102
RTVSPropertyOp2
 70
     1
102
RTVSPropertyOp3
 70
     1
102
RTVSPropertyOp4
 70
     1
102
RTVSPropertyOp5
 70
     1
102
RTVSPropertyOp6
 70
     1
102
RTVSPropertyOp7
 70
     1
102
RTVSPropertyOp8
 70
     1
102
RTVSPropertyOp9
 70
     1
102
RTVSPropertyOp10
 70
     1
102
RTVSPropertyOp11
 70
     1
102
RTVSPropertyOp12
 70
     1
102
RTVSPropertyOp13
 70
     1
102
RTVSPropertyOp14
 70
     1
102
RTVSPropertyOp15
 70
     1
102
RTVSPropertyOp16
 70
     1
102
RTVSPropertyOp17
 70
     1
102
RTVSPropertyOp18
 70
     1
102
RTVSPropertyOp19
 70
     1
102
RTVSPropertyOp20
 70
     1
102
RTVSPropertyOp21
 70
     1
102
RTVSPropertyOp22
 70
     1
102
RTVSPropertyOp23
 70
     1
102
RTVSPropertyOp24
 70
     1
102
RTVSPropertyOp25
 70
     1
102
RTVSPropertyOp26
 70
     1
102
RTVSPropertyOp27
 70
     1
  0
XRECORD
  5
499
102
{ACAD_REACTORS
330
498
102
}
330
498
100
AcDbXrecord
280
     1
102
RTVSPropertyOp0
 70
     1
102
RTVSPropertyOp1
 70
     1
102
RTVSPropertyOp2
 70
     1
102
RTVSPropertyOp3
 70
     1
102
RTVSPropertyOp4
 70
     1
102
RTVSPropertyOp5
 70
     1
102
RTVSPropertyOp6
 70
     1
102
RTVSPropertyOp7
 70
     1
102
RTVSPropertyOp8
 70
     1
102
RTVSPropertyOp9
 70
     1
102
RTVSPropertyOp10
 70
     1
102
RTVSPropertyOp11
 70
     1
102
RTVSPropertyOp12
 70
     1
102
RTVSPropertyOp13
 70
     1
102
RTVSPropertyOp14
 70
     1
102
RTVSPropertyOp15
 70
     1
102
RTVSPropertyOp16
 70
     1
102
RTVSPropertyOp17
 70
     1
102
RTVSPropertyOp18
 70
     1
102
RTVSPropertyOp19
 70
     1
102
RTVSPropertyOp20
 70
     1
102
RTVSPropertyOp21
 70
     1
102
RTVSPropertyOp22
 70
     1
102
RTVSPropertyOp23
 70
     1
102
RTVSPropertyOp24
 70
     1
102
RTVSPropertyOp25
 70
     1
102
RTVSPropertyOp26
 70
     1
102
RTVSPropertyOp27
 70
     1
  0
XRECORD
  5
4AD
102
{ACAD_REACTORS
330
4AC
102
}
330
4AC
100
AcDbXrecord
280
     1
102
RTVSPropertyOp0
 70
     1
102
RTVSPropertyOp1
 70
     1
102
RTVSPropertyOp2
 70
     1
102
RTVSPropertyOp3
 70
     1
102
RTVSPropertyOp4
 70
     1
102
RTVSPropertyOp5
 70
     1
102
RTVSPropertyOp6
 70
     1
102
RTVSPropertyOp7
 70
     1
102
RTVSPropertyOp8
 70
     1
102
RTVSPropertyOp9
 70
     1
102
RTVSPropertyOp10
 70
     1
102
RTVSPropertyOp11
 70
     1
102
RTVSPropertyOp12
 70
     1
102
RTVSPropertyOp13
 70
     1
102
RTVSPropertyOp14
 70
     1
102
RTVSPropertyOp15
 70
     1
102
RTVSPropertyOp16
 70
     1
102
RTVSPropertyOp17
 70
     1
102
RTVSPropertyOp18
 70
     1
102
RTVSPropertyOp19
 70
     1
102
RTVSPropertyOp20
 70
     1
102
RTVSPropertyOp21
 70
     1
102
RTVSPropertyOp22
 70
     1
102
RTVSPropertyOp23
 70
     1
102
RTVSPropertyOp24
 70
     1
102
RTVSPropertyOp25
 70
     1
102
RTVSPropertyOp26
 70
     1
102
RTVSPropertyOp27
 70
     1
  0
XRECORD
  5
A4E
102
{ACAD_REACTORS
330
A4D
102
}
330
A4D
100
AcDbXrecord
280
     1
102
RTVSPropertyOp0
 70
     1
102
RTVSPropertyOp1
 70
     1
102
RTVSPropertyOp2
 70
     1
102
RTVSPropertyOp3
 70
     1
102
RTVSPropertyOp4
 70
     1
102
RTVSPropertyOp5
 70
     1
102
RTVSPropertyOp6
 70
     1
102
RTVSPropertyOp7
 70
     1
102
RTVSPropertyOp8
 70
     1
102
RTVSPropertyOp9
 70
     1
102
RTVSPropertyOp10
 70
     1
102
RTVSPropertyOp11
 70
     1
102
RTVSPropertyOp12
 70
     1
102
RTVSPropertyOp13
 70
     1
102
RTVSPropertyOp14
 70
     1
102
RTVSPropertyOp15
 70
     1
102
RTVSPropertyOp16
 70
     1
102
RTVSPropertyOp17
 70
     1
102
RTVSPropertyOp18
 70
     1
102
RTVSPropertyOp19
 70
     1
102
RTVSPropertyOp20
 70
     1
102
RTVSPropertyOp21
 70
     1
102
RTVSPropertyOp22
 70
     1
102
RTVSPropertyOp23
 70
     1
102
RTVSPropertyOp24
 70
     1
102
RTVSPropertyOp25
 70
     1
102
RTVSPropertyOp26
 70
     1
102
RTVSPropertyOp27
 70
     1
  0
XRECORD
  5
4AB
102
{ACAD_REACTORS
330
4AA
102
}
330
4AA
100
AcDbXrecord
280
     1
102
RTVSPropertyOp0
 70
     1
102
RTVSPropertyOp1
 70
     1
102
RTVSPropertyOp2
 70
     1
102
RTVSPropertyOp3
 70
     1
102
RTVSPropertyOp4
 70
     1
102
RTVSPropertyOp5
 70
     1
102
RTVSPropertyOp6
 70
     1
102
RTVSPropertyOp7
 70
     1
102
RTVSPropertyOp8
 70
     1
102
RTVSPropertyOp9
 70
     1
102
RTVSPropertyOp10
 70
     1
102
RTVSPropertyOp11
 70
     1
102
RTVSPropertyOp12
 70
     1
102
RTVSPropertyOp13
 70
     1
102
RTVSPropertyOp14
 70
     1
102
RTVSPropertyOp15
 70
     1
102
RTVSPropertyOp16
 70
     1
102
RTVSPropertyOp17
 70
     1
102
RTVSPropertyOp18
 70
     1
102
RTVSPropertyOp19
 70
     1
102
RTVSPropertyOp20
 70
     1
102
RTVSPropertyOp21
 70
     1
102
RTVSPropertyOp22
 70
     1
102
RTVSPropertyOp23
 70
     1
102
RTVSPropertyOp24
 70
     1
102
RTVSPropertyOp25
 70
     1
102
RTVSPropertyOp26
 70
     1
102
RTVSPropertyOp27
 70
     1
  0
ENDSEC
  0
EOF
