  0
SECTION
  2
HEADER
  9
$ACADVER
  1
AC1018
  9
$ACADMAINTVER
 70
   104
  9
$DWGCODEPAGE
  3
ANSI_1250
  9
$LASTSAVEDBY
  1
bonzo
  9
$INSBASE
 10
0.0
 20
0.0
 30
0.0
  9
$EXTMIN
 10
2.872709297531216
 20
5.558810199798069
 30
0.0
  9
$EXTMAX
 10
11.00540590614225
 20
16.2799586969933
 30
0.0
  9
$LIMMIN
 10
0.0
 20
0.0
  9
$LIMMAX
 10
12.0
 20
9.0
  9
$ORTHOMODE
 70
     1
  9
$REGENMODE
 70
     1
  9
$FILLMODE
 70
     1
  9
$QTEXTMODE
 70
     0
  9
$MIRRTEXT
 70
     1
  9
$LTSCALE
 40
1.0
  9
$ATTMODE
 70
     1
  9
$TEXTSIZE
 40
0.2
  9
$TRACEWID
 40
0.05
  9
$TEXTSTYLE
  7
Standard
  9
$CLAYER
  8
STREFA BEZPIECZEŃSTWA
  9
$CELTYPE
  6
ByLayer
  9
$CECOLOR
 62
   256
  9
$CELTSCALE
 40
1.0
  9
$DISPSILH
 70
     0
  9
$DIMSCALE
 40
0.02
  9
$DIMASZ
 40
3.0
  9
$DIMEXO
 40
20.0
  9
$DIMDLI
 40
0.0
  9
$DIMRND
 40
0.05
  9
$DIMDLE
 40
0.0
  9
$DIMEXE
 40
5.0
  9
$DIMTP
 40
0.0
  9
$DIMTM
 40
0.0
  9
$DIMTXT
 40
9.0
  9
$DIMCEN
 40
12.0
  9
$DIMTSZ
 40
0.0
  9
$DIMTOL
 70
     0
  9
$DIMLIM
 70
     0
  9
$DIMTIH
 70
     0
  9
$DIMTOH
 70
     0
  9
$DIMSE1
 70
     1
  9
$DIMSE2
 70
     1
  9
$DIMTAD
 70
     1
  9
$DIMZIN
 70
     1
  9
$DIMBLK
  1

  9
$DIMASO
 70
     1
  9
$DIMSHO
 70
     1
  9
$DIMPOST
  1

  9
$DIMAPOST
  1

  9
$DIMALT
 70
     0
  9
$DIMALTD
 70
     4
  9
$DIMALTF
 40
1.0
  9
$DIMLFAC
 40
1.0
  9
$DIMTOFL
 70
     1
  9
$DIMTVP
 40
0.0
  9
$DIMTIX
 70
     1
  9
$DIMSOXD
 70
     0
  9
$DIMSAH
 70
     1
  9
$DIMBLK1
  1
MAR-STRZ
  9
$DIMBLK2
  1
MAR-STRZ
  9
$DIMSTYLE
  2
AR SKALA 1-50
  9
$DIMCLRD
 70
   256
  9
$DIMCLRE
 70
   256
  9
$DIMCLRT
 70
   256
  9
$DIMTFAC
 40
0.01
  9
$DIMGAP
 40
6.0
  9
$DIMJUST
 70
     0
  9
$DIMSD1
 70
     0
  9
$DIMSD2
 70
     0
  9
$DIMTOLJ
 70
     1
  9
$DIMTZIN
 70
     0
  9
$DIMALTZ
 70
     0
  9
$DIMALTTZ
 70
     0
  9
$DIMUPT
 70
     0
  9
$DIMDEC
 70
     2
  9
$DIMTDEC
 70
     2
  9
$DIMALTU
 70
     2
  9
$DIMALTTD
 70
     4
  9
$DIMTXSTY
  7
AR 01 SWIS
  9
$DIMAUNIT
 70
     0
  9
$DIMADEC
 70
     1
  9
$DIMALTRND
 40
0.0
  9
$DIMAZIN
 70
     0
  9
$DIMDSEP
 70
    46
  9
$DIMATFIT
 70
     3
  9
$DIMFRAC
 70
     0
  9
$DIMLDRBLK
  1
MAR-STRZ
  9
$DIMLUNIT
 70
     2
  9
$DIMLWD
 70
    -2
  9
$DIMLWE
 70
    -2
  9
$DIMTMOVE
 70
     2
  9
$LUNITS
 70
     2
  9
$LUPREC
 70
     4
  9
$SKETCHINC
 40
0.1
  9
$FILLETRAD
 40
0.5
  9
$AUNITS
 70
     0
  9
$AUPREC
 70
     0
  9
$MENU
  1
.
  9
$ELEVATION
 40
0.0
  9
$PELEVATION
 40
0.0
  9
$THICKNESS
 40
0.0
  9
$LIMCHECK
 70
     0
  9
$CHAMFERA
 40
0.5
  9
$CHAMFERB
 40
0.5
  9
$CHAMFERC
 40
1.0
  9
$CHAMFERD
 40
0.0
  9
$SKPOLY
 70
     0
  9
$TDCREATE
 40
2455956.499359827
  9
$TDUCREATE
 40
2455956.416026493
  9
$TDUPDATE
 40
2459311.321727558
  9
$TDUUPDATE
 40
2459311.238394225
  9
$TDINDWG
 40
0.2804683681
  9
$TDUSRTIMER
 40
0.2804683681
  9
$USRTIMER
 70
     1
  9
$ANGBASE
 50
0.0
  9
$ANGDIR
 70
     0
  9
$PDMODE
 70
     0
  9
$PDSIZE
 40
0.0
  9
$PLINEWID
 40
0.0
  9
$SPLFRAME
 70
     0
  9
$SPLINETYPE
 70
     6
  9
$SPLINESEGS
 70
     8
  9
$HANDSEED
  5
1C8E9
  9
$SURFTAB1
 70
     6
  9
$SURFTAB2
 70
     6
  9
$SURFTYPE
 70
     6
  9
$SURFU
 70
     6
  9
$SURFV
 70
     6
  9
$UCSBASE
  2

  9
$UCSNAME
  2

  9
$UCSORG
 10
0.0
 20
0.0
 30
0.0
  9
$UCSXDIR
 10
1.0
 20
0.0
 30
0.0
  9
$UCSYDIR
 10
0.0
 20
1.0
 30
0.0
  9
$UCSORTHOREF
  2

  9
$UCSORTHOVIEW
 70
     0
  9
$UCSORGTOP
 10
0.0
 20
0.0
 30
0.0
  9
$UCSORGBOTTOM
 10
0.0
 20
0.0
 30
0.0
  9
$UCSORGLEFT
 10
0.0
 20
0.0
 30
0.0
  9
$UCSORGRIGHT
 10
0.0
 20
0.0
 30
0.0
  9
$UCSORGFRONT
 10
0.0
 20
0.0
 30
0.0
  9
$UCSORGBACK
 10
0.0
 20
0.0
 30
0.0
  9
$PUCSBASE
  2

  9
$PUCSNAME
  2

  9
$PUCSORG
 10
0.0
 20
0.0
 30
0.0
  9
$PUCSXDIR
 10
1.0
 20
0.0
 30
0.0
  9
$PUCSYDIR
 10
0.0
 20
1.0
 30
0.0
  9
$PUCSORTHOREF
  2

  9
$PUCSORTHOVIEW
 70
     0
  9
$PUCSORGTOP
 10
0.0
 20
0.0
 30
0.0
  9
$PUCSORGBOTTOM
 10
0.0
 20
0.0
 30
0.0
  9
$PUCSORGLEFT
 10
0.0
 20
0.0
 30
0.0
  9
$PUCSORGRIGHT
 10
0.0
 20
0.0
 30
0.0
  9
$PUCSORGFRONT
 10
0.0
 20
0.0
 30
0.0
  9
$PUCSORGBACK
 10
0.0
 20
0.0
 30
0.0
  9
$USERI1
 70
     0
  9
$USERI2
 70
     0
  9
$USERI3
 70
     0
  9
$USERI4
 70
     0
  9
$USERI5
 70
     0
  9
$USERR1
 40
0.0
  9
$USERR2
 40
0.0
  9
$USERR3
 40
0.0
  9
$USERR4
 40
0.0
  9
$USERR5
 40
0.0
  9
$WORLDVIEW
 70
     1
  9
$SHADEDGE
 70
     3
  9
$SHADEDIF
 70
    70
  9
$TILEMODE
 70
     1
  9
$MAXACTVP
 70
    64
  9
$PINSBASE
 10
0.0
 20
0.0
 30
0.0
  9
$PLIMCHECK
 70
     0
  9
$PEXTMIN
 10
6.561544945354853
 20
3.282189374834842
 30
0.0
  9
$PEXTMAX
 10
416.7133315898103
 20
290.5875349075164
 30
0.0
  9
$PLIMMIN
 10
3.386557152386103
 20
0.1071894225185588
  9
$PLIMMAX
 10
423.5448823476986
 20
297.1601984557217
  9
$UNITMODE
 70
     0
  9
$VISRETAIN
 70
     1
  9
$PLINEGEN
 70
     0
  9
$PSLTSCALE
 70
     0
  9
$TREEDEPTH
 70
  3020
  9
$CMLSTYLE
  2
Standard
  9
$CMLJUST
 70
     0
  9
$CMLSCALE
 40
1.0
  9
$PROXYGRAPHICS
 70
     1
  9
$MEASUREMENT
 70
     0
  9
$CELWEIGHT
370
    -1
  9
$ENDCAPS
280
     0
  9
$JOINSTYLE
280
     0
  9
$LWDISPLAY
290
     0
  9
$INSUNITS
 70
     1
  9
$HYPERLINKBASE
  1

  9
$STYLESHEET
  1

  9
$XEDIT
290
     1
  9
$CEPSNTYPE
380
     0
  9
$PSTYLEMODE
290
     1
  9
$FINGERPRINTGUID
  2
{1B330B5B-CE04-4EC8-B886-8C8BFC3A02BF}
  9
$VERSIONGUID
  2
{2F21D35C-5B43-4088-B68C-975E53B198D7}
  9
$EXTNAMES
290
     1
  9
$PSVPSCALE
 40
0.0
  9
$OLESTARTUP
290
     0
  9
$SORTENTS
280
   127
  9
$INDEXCTL
280
     0
  9
$HIDETEXT
280
     1
  9
$XCLIPFRAME
290
     0
  9
$HALOGAP
280
     0
  9
$OBSCOLOR
 70
   257
  9
$OBSLTYPE
280
     0
  9
$INTERSECTIONDISPLAY
280
     0
  9
$INTERSECTIONCOLOR
 70
   257
  9
$DIMASSOC
280
     2
  9
$PROJECTNAME
  1

  0
ENDSEC
  0
SECTION
  2
CLASSES
  0
CLASS
  1
ACDBDICTIONARYWDFLT
  2
AcDbDictionaryWithDefault
  3
ObjectDBX Classes
 90
        0
 91
        1
280
     0
281
     0
  0
CLASS
  1
VISUALSTYLE
  2
AcDbVisualStyle
  3
ObjectDBX Classes
 90
     4095
 91
       16
280
     0
281
     0
  0
CLASS
  1
MATERIAL
  2
AcDbMaterial
  3
ObjectDBX Classes
 90
     1153
 91
        3
280
     0
281
     0
  0
CLASS
  1
DICTIONARYVAR
  2
AcDbDictionaryVar
  3
ObjectDBX Classes
 90
        0
 91
        9
280
     0
281
     0
  0
CLASS
  1
TABLESTYLE
  2
AcDbTableStyle
  3
ObjectDBX Classes
 90
     4095
 91
        1
280
     0
281
     0
  0
CLASS
  1
SORTENTSTABLE
  2
AcDbSortentsTable
  3
ObjectDBX Classes
 90
        0
 91
        7
280
     0
281
     0
  0
CLASS
  1
DIMASSOC
  2
AcDbDimAssoc
  3
"AcDbDimAssoc|Product Desc:     AcDim ARX App For Dimension|Company:          Autodesk, Inc.|WEB Address:      www.autodesk.com"
 90
        0
 91
        2
280
     0
281
     0
  0
CLASS
  1
SCALE
  2
AcDbScale
  3
ObjectDBX Classes
 90
     1153
 91
       33
280
     0
281
     0
  0
CLASS
  1
MLEADERSTYLE
  2
AcDbMLeaderStyle
  3
ACDB_MLEADERSTYLE_CLASS
 90
     4095
 91
        1
280
     0
281
     0
  0
CLASS
  1
CELLSTYLEMAP
  2
AcDbCellStyleMap
  3
ObjectDBX Classes
 90
     1152
 91
        2
280
     0
281
     0
  0
ENDSEC
  0
SECTION
  2
TABLES
  0
TABLE
  2
VPORT
  5
8
102
{ACAD_XDICTIONARY
360
84C
102
}
330
0
100
AcDbSymbolTable
 70
     1
  0
VPORT
  5
29
330
8
100
AcDbSymbolTableRecord
100
AcDbViewportTableRecord
  2
*Active
 70
     0
 10
0.0
 20
0.0
 11
1.0
 21
1.0
 12
6.271432129443013
 22
13.02749437308145
 13
0.0
 23
0.0
 14
0.5
 24
0.5
 15
0.5
 25
0.5
 16
0.0
 26
0.0
 36
1.0
 17
0.0
 27
0.0
 37
-1000.0
 40
9.67093916650387
 41
2.060556464811783
 42
50.0
 43
4.148984367261674
 44
9.217858496371269
 50
0.0
 51
0.0
 71
     0
 72
   100
 73
     1
 74
     3
 75
     0
 76
     0
 77
     0
 78
     0
281
     0
 65
     1
110
0.0
120
0.0
130
0.0
111
1.0
121
0.0
131
0.0
112
0.0
122
1.0
132
0.0
 79
     0
146
0.0
  0
ENDTAB
  0
TABLE
  2
LTYPE
  5
5
330
0
100
AcDbSymbolTable
 70
     2
  0
LTYPE
  5
14
330
5
100
AcDbSymbolTableRecord
100
AcDbLinetypeTableRecord
  2
ByBlock
 70
     0
  3

 72
    65
 73
     0
 40
0.0
  0
LTYPE
  5
15
330
5
100
AcDbSymbolTableRecord
100
AcDbLinetypeTableRecord
  2
ByLayer
 70
     0
  3

 72
    65
 73
     0
 40
0.0
  0
LTYPE
  5
16
330
5
100
AcDbSymbolTableRecord
100
AcDbLinetypeTableRecord
  2
Continuous
 70
     0
  3
Solid line
 72
    65
 73
     0
 40
0.0
  0
LTYPE
  5
886
330
5
100
AcDbSymbolTableRecord
100
AcDbLinetypeTableRecord
  2
DASHED
 70
     0
  3
Dashed __ __ __ __ __ __ __ __ __ __ __ __ __ _
 72
    65
 73
     2
 40
0.75
 49
0.5
 74
     0
 49
-0.25
 74
     0
  0
ENDTAB
  0
TABLE
  2
LAYER
  5
2
102
{ACAD_XDICTIONARY
360
7D1
102
}
330
0
100
AcDbSymbolTable
 70
     4
  0
LAYER
  5
10
102
{ACAD_XDICTIONARY
360
10554
102
}
330
2
100
AcDbSymbolTableRecord
100
AcDbLayerTableRecord
  2
0
 70
     0
 62
     7
  6
Continuous
370
    80
390
F
  0
LAYER
  5
87B
102
{ACAD_XDICTIONARY
360
10556
102
}
330
2
100
AcDbSymbolTableRecord
100
AcDbLayerTableRecord
  2
STREFA BEZPIECZEŃSTWA
 70
     0
 62
     7
  6
DASHED
370
    80
390
F
1001
AcAecLayerStandard
1000

1000

  0
LAYER
  5
87D
102
{ACAD_XDICTIONARY
360
10558
102
}
330
2
100
AcDbSymbolTableRecord
100
AcDbLayerTableRecord
  2
WYMIAR
 70
     0
 62
     7
  6
Continuous
370
    80
390
F
1001
AcAecLayerStandard
1000

1000

  0
LAYER
  5
8CC
330
2
100
AcDbSymbolTableRecord
100
AcDbLayerTableRecord
  2
Defpoints
 70
     0
 62
     7
  6
Continuous
290
     0
370
    80
390
F
1001
RAK
1000
{ACET-LAYISO
1070
     0
1070
     7
1000
Continuous
1071
        5
1071
        0
1005
F
1000
ACET-LAYISO}
  0
ENDTAB
  0
TABLE
  2
STYLE
  5
3
330
0
100
AcDbSymbolTable
 70
     2
  0
STYLE
  5
11
330
3
100
AcDbSymbolTableRecord
100
AcDbTextStyleTableRecord
  2
Standard
 70
     0
 40
0.0
 41
1.0
 50
0.0
 71
     0
 42
0.2
  3
txt
  4

  0
STYLE
  5
8CE
330
3
100
AcDbSymbolTableRecord
100
AcDbTextStyleTableRecord
  2
AR 01 SWIS
 70
     0
 40
0.0
 41
1.0
 50
0.0
 71
     0
 42
55.0
  3

  4

1001
ACAD
1000
Swis721 Cn BT
1071
       34
  0
ENDTAB
  0
TABLE
  2
VIEW
  5
6
330
0
100
AcDbSymbolTable
 70
     0
  0
ENDTAB
  0
TABLE
  2
UCS
  5
7
330
0
100
AcDbSymbolTable
 70
     0
  0
ENDTAB
  0
TABLE
  2
APPID
  5
9
330
0
100
AcDbSymbolTable
 70
     9
  0
APPID
  5
12
330
9
100
AcDbSymbolTableRecord
100
AcDbRegAppTableRecord
  2
ACAD
 70
     0
  0
APPID
  5
7CB
330
9
100
AcDbSymbolTableRecord
100
AcDbRegAppTableRecord
  2
ACAD_PSEXT
 70
     0
  0
APPID
  5
875
330
9
100
AcDbSymbolTableRecord
100
AcDbRegAppTableRecord
  2
ACAD_EXEMPT_FROM_CAD_STANDARDS
 70
     0
  0
APPID
  5
87C
330
9
100
AcDbSymbolTableRecord
100
AcDbRegAppTableRecord
  2
AcAecLayerStandard
 70
     0
  0
APPID
  5
8D4
330
9
100
AcDbSymbolTableRecord
100
AcDbRegAppTableRecord
  2
RAK
 70
     0
  0
APPID
  5
8D5
330
9
100
AcDbSymbolTableRecord
100
AcDbRegAppTableRecord
  2
ACAD_DSTYLE_DIMJOGGED_JOGANGLE_SYMBOL
 70
     0
  0
APPID
  5
8D6
330
9
100
AcDbSymbolTableRecord
100
AcDbRegAppTableRecord
  2
ACAD_DSTYLE_DIMJAG
 70
     0
  0
APPID
  5
8D7
330
9
100
AcDbSymbolTableRecord
100
AcDbRegAppTableRecord
  2
ACAD_DSTYLE_DIMTALN
 70
     0
  0
APPID
  5
10546
330
9
100
AcDbSymbolTableRecord
100
AcDbRegAppTableRecord
  2
ACAD_MLEADERVER
 70
     0
  0
ENDTAB
  0
TABLE
  2
DIMSTYLE
  5
A
330
0
100
AcDbSymbolTable
 70
     2
100
AcDbDimStyleTable
 71
     1
340
8CF
  0
DIMSTYLE
105
8CF
102
{ACAD_REACTORS
330
1C871
330
1C88C
102
}
330
A
100
AcDbSymbolTableRecord
100
AcDbDimStyleTableRecord
  2
AR SKALA 1-50
 70
     0
 40
0.02
 41
3.0
 42
20.0
 43
0.0
 44
5.0
 45
0.05
 73
     0
 74
     0
 75
     1
 76
     1
 77
     1
 78
     1
140
9.0
141
12.0
143
1.0
146
0.01
147
6.0
171
     4
172
     1
173
     1
174
     1
176
   256
177
   256
178
   256
179
     1
271
     2
272
     2
274
     4
279
     2
340
8CE
341
8BC
343
8BC
344
8BC
  0
DIMSTYLE
105
A46
330
A
100
AcDbSymbolTableRecord
100
AcDbDimStyleTableRecord
  2
Standard
 70
     0
340
11
  0
ENDTAB
  0
TABLE
  2
BLOCK_RECORD
  5
1
330
0
100
AcDbSymbolTable
 70
     5
  0
BLOCK_RECORD
  5
1F
102
{ACAD_XDICTIONARY
360
5F8
102
}
330
1
100
AcDbSymbolTableRecord
100
AcDbBlockTableRecord
  2
*Model_Space
340
22
  0
BLOCK_RECORD
  5
1B
330
1
100
AcDbSymbolTableRecord
100
AcDbBlockTableRecord
  2
*Paper_Space
340
1E
  0
BLOCK_RECORD
  5
8BC
330
1
100
AcDbSymbolTableRecord
100
AcDbBlockTableRecord
  2
MAR-STRZ
340
0
310
2800000020000000200000000100080000000000000400000000000000000000000000000000000000000000000080000080000000808000800000008000800080800000C0C0C000C0DCC000F0CAA6000020400000206000002080000020A0000020C0000020E00000400000004020000040400000406000004080000040A0
310
000040C0000040E00000600000006020000060400000606000006080000060A0000060C0000060E00000800000008020000080400000806000008080000080A0000080C0000080E00000A0000000A0200000A0400000A0600000A0800000A0A00000A0C00000A0E00000C0000000C0200000C0400000C0600000C0800000C0
310
A00000C0C00000C0E00000E0000000E0200000E0400000E0600000E0800000E0A00000E0C00000E0E00040000000400020004000400040006000400080004000A0004000C0004000E00040200000402020004020400040206000402080004020A0004020C0004020E000404000004040200040404000404060004040800040
310
40A0004040C0004040E00040600000406020004060400040606000406080004060A0004060C0004060E00040800000408020004080400040806000408080004080A0004080C0004080E00040A0000040A0200040A0400040A0600040A0800040A0A00040A0C00040A0E00040C0000040C0200040C0400040C0600040C08000
310
40C0A00040C0C00040C0E00040E0000040E0200040E0400040E0600040E0800040E0A00040E0C00040E0E00080000000800020008000400080006000800080008000A0008000C0008000E00080200000802020008020400080206000802080008020A0008020C0008020E00080400000804020008040400080406000804080
310
008040A0008040C0008040E00080600000806020008060400080606000806080008060A0008060C0008060E00080800000808020008080400080806000808080008080A0008080C0008080E00080A0000080A0200080A0400080A0600080A0800080A0A00080A0C00080A0E00080C0000080C0200080C0400080C0600080C0
310
800080C0A00080C0C00080C0E00080E0000080E0200080E0400080E0600080E0800080E0A00080E0C00080E0E000C0000000C0002000C0004000C0006000C0008000C000A000C000C000C000E000C0200000C0202000C0204000C0206000C0208000C020A000C020C000C020E000C0400000C0402000C0404000C0406000C0
310
408000C040A000C040C000C040E000C0600000C0602000C0604000C0606000C0608000C060A000C060C000C060E000C0800000C0802000C0804000C0806000C0808000C080A000C080C000C080E000C0A00000C0A02000C0A04000C0A06000C0A08000C0A0A000C0A0C000C0A0E000C0C00000C0C02000C0C04000C0C06000
310
C0C08000C0C0A000F0FBFF00A4A0A000808080000000FF0000FF000000FFFF00FF000000FF00FF00FFFF0000FFFFFF00000000000000000000000000000000000000000000000000000000000000000000000000000000000000000000000000FF000000000000000000000000000000000000000000000000000000000000
310
00FF00000000000000000000000000000000000000000000000000000000000000FF00000000000000000000000000000000000000000000000000000000000000FF00000000000000000000000000000000000000000000000000000000000000FF000000000000000000000000000000000000000000F900000000000000
310
0000FF00000000000000000000000000000000000000000000F90000000000000000FF0000000000000000000000000000000000000000000000F900000000000000FF000000000000000000000000000000000000000000000000F9000000000000FF00000000000000000000000000000000000000000000000000F90000
310
000000FF0000000000000000000000000000000000000000000000000000F900000000FF000000000000000000000000000000000000000000000000000000F9000000FF00000000000000000000000000000000000000000000000000000000F90000FF000000000000000000000000000000000000000000000000000000
310
0000F900FF000000000000000000000000000000000000000000000000000000000000F9FF00000000000000000000000000000000000000000000FFFFFFFFFFFFFFFFFFFFFFFFFFFFFFFFFFFF0000000000000000000000000000000000000000000000FFF900000000000000000000000000000000000000000000000000
310
0000000000FF00F90000000000000000000000000000000000000000000000000000000000FF0000F900000000000000000000000000000000000000000000000000000000FF000000F9000000000000000000000000000000000000000000000000000000FF00000000F90000000000000000000000000000000000000000
310
000000000000FF0000000000F900000000000000000000000000000000000000000000000000FF000000000000F9000000000000000000000000000000000000000000000000FF00000000000000F90000000000000000000000000000000000000000000000FF0000000000000000F9000000000000000000000000000000
310
00000000000000FF00000000000000000000000000000000000000000000000000000000000000FF00000000000000000000000000000000000000000000000000000000000000FF00000000000000000000000000000000000000000000000000000000000000FF0000000000000000000000000000000000000000000000
310
0000000000000000FF0000000000000000000000000000000000000000000000000000000000000000000000000000000000000000000000
102
{BLKREFS
331
1BFF5
331
1BFF6
331
1C01E
331
1C01F
331
1C886
331
1C887
331
1C8A1
331
1C8A2
102
}
  0
BLOCK_RECORD
  5
1C872
330
1
100
AcDbSymbolTableRecord
100
AcDbBlockTableRecord
  2
*D3
340
0
  0
BLOCK_RECORD
  5
1C88D
330
1
100
AcDbSymbolTableRecord
100
AcDbBlockTableRecord
  2
*D4
340
0
  0
ENDTAB
  0
ENDSEC
  0
SECTION
  2
BLOCKS
  0
BLOCK
  5
20
330
1F
100
AcDbEntity
  8
0
100
AcDbBlockBegin
  2
*Model_Space
 70
     0
 10
0.0
 20
0.0
 30
0.0
  3
*Model_Space
  1

  0
ENDBLK
  5
21
330
1F
100
AcDbEntity
  8
0
100
AcDbBlockEnd
  0
BLOCK
  5
1C
330
1B
100
AcDbEntity
 67
     1
  8
0
100
AcDbBlockBegin
  2
*Paper_Space
 70
     0
 10
0.0
 20
0.0
 30
0.0
  3
*Paper_Space
  1

  0
ENDBLK
  5
1D
330
1B
100
AcDbEntity
 67
     1
  8
0
100
AcDbBlockEnd
  0
BLOCK
  5
8BD
330
8BC
100
AcDbEntity
  8
0
100
AcDbBlockBegin
  2
MAR-STRZ
 70
     0
 10
0.0
 20
0.0
 30
0.0
  3
MAR-STRZ
  1

  0
LINE
  5
8BE
330
8BC
100
AcDbEntity
  8
0
100
AcDbLine
 10
0.0
 20
2.299999999999272
 30
0.0
 11
0.0
 21
-2.299999999999272
 31
0.0
  0
LINE
  5
8BF
330
8BC
100
AcDbEntity
  8
0
 62
    10
100
AcDbLine
 10
1.5
 20
1.5
 30
0.0
 11
-1.5
 21
-1.5
 31
0.0
  0
LINE
  5
8C0
330
8BC
100
AcDbEntity
  8
0
100
AcDbLine
 10
1.399999999999636
 20
0.0
 30
0.0
 11
-1.399999999999636
 21
0.0
 31
0.0
  0
ENDBLK
  5
8C1
330
8BC
100
AcDbEntity
  8
0
100
AcDbBlockEnd
  0
BLOCK
  5
1C873
330
1C872
100
AcDbEntity
  8
0
100
AcDbBlockBegin
  2
*D3
 70
     1
 10
0.0
 20
0.0
 30
0.0
  3
*D3
  1

  0
LINE
  5
1C885
330
1C872
100
AcDbEntity
  8
WYMIAR
370
    -2
100
AcDbLine
 10
3.225014492336414
 20
15.31472064664987
 30
0.0
 11
3.225014492336412
 21
10.44840385756715
 31
0.0
  0
INSERT
  5
1C886
330
1C872
100
AcDbEntity
  8
WYMIAR
370
    -2
100
AcDbBlockReference
  2
MAR-STRZ
 10
3.225014492336414
 20
15.37472064664987
 30
0.0
 41
0.06
 42
0.06
 43
0.06
 50
90.0
  0
INSERT
  5
1C887
330
1C872
100
AcDbEntity
  8
WYMIAR
370
    -2
100
AcDbBlockReference
  2
MAR-STRZ
 10
3.225014492336412
 20
10.38840385756715
 30
0.0
 41
0.06
 42
0.06
 43
0.06
 50
270.0
  0
MTEXT
  5
1C888
330
1C872
100
AcDbEntity
  8
WYMIAR
100
AcDbMText
 10
3.015014492336411
 20
12.88156225210851
 30
0.0
 40
0.18
 41
0.0
 71
     5
 72
     1
  1
\A1;5.00
  7
AR 01 SWIS
 11
0.0000000000000001
 21
1.0
 31
0.0
 73
     1
 44
1.0
  0
POINT
  5
1C889
330
1C872
100
AcDbEntity
  8
Defpoints
 62
     0
100
AcDbPoint
 10
6.466784829494413
 20
15.37472064664987
 30
0.0
  0
POINT
  5
1C88A
330
1C872
100
AcDbEntity
  8
Defpoints
 62
     0
100
AcDbPoint
 10
6.466784829494409
 20
10.38840385756715
 30
0.0
  0
POINT
  5
1C88B
330
1C872
100
AcDbEntity
  8
Defpoints
 62
     0
100
AcDbPoint
 10
3.225014492336412
 20
10.38840385756715
 30
0.0
  0
ENDBLK
  5
1C874
330
1C872
100
AcDbEntity
  8
0
100
AcDbBlockEnd
  0
BLOCK
  5
1C88E
330
1C88D
100
AcDbEntity
  8
0
100
AcDbBlockBegin
  2
*D4
 70
     1
 10
0.0
 20
0.0
 30
0.0
  3
*D4
  1

  0
LINE
  5
1C8A0
330
1C88D
100
AcDbEntity
  8
WYMIAR
370
    -2
100
AcDbLine
 10
3.871778591475555
 20
15.92765350218811
 30
0.0
 11
10.85540590614225
 21
15.92765350218811
 31
0.0
  0
INSERT
  5
1C8A1
330
1C88D
100
AcDbEntity
  8
WYMIAR
370
    -2
100
AcDbBlockReference
  2
MAR-STRZ
 10
3.811778591475555
 20
15.92765350218811
 30
0.0
 41
0.06
 42
0.06
 43
0.06
 50
180.0
  0
INSERT
  5
1C8A2
330
1C88D
100
AcDbEntity
  8
WYMIAR
370
    -2
100
AcDbBlockReference
  2
MAR-STRZ
 10
10.91540590614225
 20
15.92765350218811
 30
0.0
 41
0.06
 42
0.06
 43
0.06
  0
MTEXT
  5
1C8A3
330
1C88D
100
AcDbEntity
  8
WYMIAR
100
AcDbMText
 10
7.363592248808904
 20
16.13765350218811
 30
0.0
 40
0.18
 41
0.0
 71
     5
 72
     1
  1
\A1;7.10
  7
AR 01 SWIS
 73
     1
 44
1.0
  0
POINT
  5
1C8A4
330
1C88D
100
AcDbEntity
  8
Defpoints
 62
     0
100
AcDbPoint
 10
3.811778591475555
 20
14.61463368632467
 30
0.0
  0
POINT
  5
1C8A5
330
1C88D
100
AcDbEntity
  8
Defpoints
 62
     0
100
AcDbPoint
 10
10.91540590614225
 20
14.4077853993073
 30
0.0
  0
POINT
  5
1C8A6
330
1C88D
100
AcDbEntity
  8
Defpoints
 62
     0
100
AcDbPoint
 10
10.91540590614225
 20
15.92765350218811
 30
0.0
  0
ENDBLK
  5
1C88F
330
1C88D
100
AcDbEntity
  8
0
100
AcDbBlockEnd
  0
ENDSEC
  0
SECTION
  2
ENTITIES
  0
MTEXT
  5
1C02D
102
{ACAD_XDICTIONARY
360
1C8E7
102
}
330
1F
100
AcDbEntity
  8
STREFA BEZPIECZEŃSTWA
100
AcDbMText
 10
8.219731784836863
 20
5.819110336223717
 30
0.0
 40
0.2
 41
4.357323168243354
 71
     1
 72
     5
  1
{\fArial|b0|i0|c238|p34;Picu\U+015B nr kat. 13.3.03}
 73
     1
 44
1.0
  0
LINE
  5
1C1F0
330
1F
100
AcDbEntity
  8
0
100
AcDbLine
 10
8.760836946843905
 20
12.86072064664988
 30
0.0
 11
8.741929547413786
 21
12.86072064664988
 31
0.0
  0
LINE
  5
1C1F1
330
1F
100
AcDbEntity
  8
0
100
AcDbLine
 10
8.741929547413786
 20
12.86072064664988
 30
0.0
 11
8.160836946843915
 21
12.86072064664988
 31
0.0
  0
LINE
  5
1C1F2
330
1F
100
AcDbEntity
  8
0
100
AcDbLine
 10
8.062709838224106
 20
12.86072064664988
 30
0.0
 11
8.041929547413786
 21
12.86072064664988
 31
0.0
  0
LINE
  5
1C1F3
330
1F
100
AcDbEntity
  8
0
100
AcDbLine
 10
8.041929547413786
 20
12.86072064664988
 30
0.0
 11
7.962709838224107
 21
12.86072064664988
 31
0.0
  0
LINE
  5
1C1F4
330
1F
100
AcDbEntity
  8
0
100
AcDbLine
 10
7.962709838224107
 20
12.86072064664988
 30
0.0
 11
8.062709838224106
 21
12.86072064664988
 31
0.0
  0
LINE
  5
1C1F5
330
1F
100
AcDbEntity
  8
0
100
AcDbLine
 10
8.062709838224106
 20
12.86072064664988
 30
0.0
 11
8.062709838224106
 21
12.96072064664988
 31
0.0
  0
LINE
  5
1C1F7
330
1F
100
AcDbEntity
  8
0
100
AcDbLine
 10
8.062709838224106
 20
12.96072064664988
 30
0.0
 11
8.162709838224106
 21
12.96072064664988
 31
0.0
  0
LINE
  5
1C1F8
330
1F
100
AcDbEntity
  8
0
100
AcDbLine
 10
8.860836946843914
 20
12.86072064664988
 30
0.0
 11
8.860836946843914
 21
12.96072064664988
 31
0.0
  0
LINE
  5
1C1F9
330
1F
100
AcDbEntity
  8
0
100
AcDbLine
 10
8.860836946843914
 20
12.96072064664988
 30
0.0
 11
8.760836946843904
 21
12.96072064664987
 31
0.0
  0
LINE
  5
1C1FC
330
1F
100
AcDbEntity
  8
0
100
AcDbLine
 10
8.862250326383501
 20
13.71662228599414
 30
0.0
 11
8.066871402312946
 21
13.71662228599414
 31
0.0
  0
LINE
  5
1C1FD
330
1F
100
AcDbEntity
  8
0
100
AcDbLine
 10
8.066871402312946
 20
13.61810168212963
 30
0.0
 11
8.862250326383501
 21
13.61810168212963
 31
0.0
  0
LINE
  5
1C1FE
330
1F
100
AcDbEntity
  8
0
100
AcDbLine
 10
8.862250326383501
 20
13.52109672039853
 30
0.0
 11
8.066871402312946
 21
13.52109672039853
 31
0.0
  0
LINE
  5
1C1FF
330
1F
100
AcDbEntity
  8
0
100
AcDbLine
 10
8.066871402312953
 20
13.41503761314395
 30
0.0
 11
8.862250326383508
 21
13.41503761314395
 31
0.0
  0
LINE
  5
1C200
330
1F
100
AcDbEntity
  8
0
100
AcDbLine
 10
8.862250326383508
 20
13.31480471885281
 30
0.0
 11
8.066871402312953
 21
13.31480471885281
 31
0.0
  0
LINE
  5
1C201
330
1F
100
AcDbEntity
  8
0
100
AcDbLine
 10
8.066871402312953
 20
13.21249937404166
 30
0.0
 11
8.862250326383508
 21
13.21249937404166
 31
0.0
  0
LINE
  5
1C202
330
1F
100
AcDbEntity
  8
0
100
AcDbLine
 10
8.862250326383508
 20
13.10881342318975
 30
0.0
 11
8.066871402312953
 21
13.10881342318975
 31
0.0
  0
LINE
  5
1C203
330
1F
100
AcDbEntity
  8
0
100
AcDbLine
 10
8.066871402312953
 20
13.01369082015689
 30
0.0
 11
8.862250326383508
 21
13.01369082015689
 31
0.0
  0
LINE
  5
1C21B
330
1F
100
AcDbEntity
  8
0
100
AcDbLine
 10
8.862796626668368
 20
13.86272064664987
 30
0.0
 11
8.862796626668368
 21
13.85652531663636
 31
0.0
  0
LINE
  5
1C21C
330
1F
100
AcDbEntity
  8
0
100
AcDbLine
 10
8.96083694684391
 20
13.74381324721974
 30
0.0
 11
8.981704026098496
 21
13.74381324721974
 31
0.0
  0
LINE
  5
1C21D
330
1F
100
AcDbEntity
  8
0
100
AcDbLine
 10
8.862796626668368
 20
13.83639627786197
 30
0.0
 11
8.862796626668368
 21
13.85652531663636
 31
0.0
  0
LINE
  5
1C21E
330
1F
100
AcDbEntity
  8
0
100
AcDbLine
 10
8.043250824270961
 20
13.74381324721974
 30
0.0
 11
8.043250824270961
 21
13.74156323824928
 31
0.0
  0
LINE
  5
1C21F
330
1F
100
AcDbEntity
  8
0
100
AcDbLine
 10
8.07570402609849
 20
13.86272064664987
 30
0.0
 11
8.055331718011649
 21
13.86272064664987
 31
0.0
  0
LINE
  5
1C220
330
1F
100
AcDbEntity
  8
0
100
AcDbLine
 10
8.07570402609849
 20
13.85652531663636
 30
0.0
 11
8.07570402609849
 21
13.86272064664987
 31
0.0
  0
LINE
  5
1C221
330
1F
100
AcDbEntity
  8
0
100
AcDbLine
 10
8.043250824270961
 20
13.74156323824928
 30
0.0
 11
8.066871402312946
 21
13.74156323824928
 31
0.0
  0
LINE
  5
1C222
330
1F
100
AcDbEntity
  8
0
100
AcDbLine
 10
8.869179258571639
 20
13.74381324721974
 30
0.0
 11
8.869179258571639
 21
13.74156323824929
 31
0.0
  0
LINE
  5
1C223
330
1F
100
AcDbEntity
  8
0
100
AcDbLine
 10
8.869179258571639
 20
13.74156323824929
 30
0.0
 11
8.869179258571646
 21
12.96072064664988
 31
0.0
  0
LINE
  5
1C224
330
1F
100
AcDbEntity
  8
0
100
AcDbLine
 10
8.862250326383501
 20
13.74156323824929
 30
0.0
 11
8.862250326383501
 21
13.71662228599414
 31
0.0
  0
LINE
  5
1C225
330
1F
100
AcDbEntity
  8
0
100
AcDbLine
 10
8.066871402312946
 20
13.74156323824928
 30
0.0
 11
8.066871402312946
 21
13.71662228599414
 31
0.0
  0
LINE
  5
1C228
330
1F
100
AcDbEntity
  8
0
100
AcDbLine
 10
8.862796626668368
 20
13.85652531663636
 30
0.0
 11
8.862796626668368
 21
13.80252432086141
 31
0.0
  0
LINE
  5
1C229
330
1F
100
AcDbEntity
  8
0
100
AcDbLine
 10
8.862796626668368
 20
13.80252432086141
 30
0.0
 11
8.862796626668368
 21
13.74381324721974
 31
0.0
  0
LINE
  5
1C22A
330
1F
100
AcDbEntity
  8
0
100
AcDbLine
 10
8.862796626668368
 20
13.74381324721974
 30
0.0
 11
8.869179258571639
 21
13.74381324721974
 31
0.0
  0
LINE
  5
1C22B
330
1F
100
AcDbEntity
  8
0
100
AcDbLine
 10
8.869179258571639
 20
13.74381324721974
 30
0.0
 11
8.96083694684391
 21
13.74381324721974
 31
0.0
  0
LINE
  5
1C22C
330
1F
100
AcDbEntity
  8
0
100
AcDbLine
 10
8.981704026098496
 20
13.74381324721974
 30
0.0
 11
8.981704026098496
 21
13.75691160787548
 31
0.0
  0
LINE
  5
1C22D
330
1F
100
AcDbEntity
  8
0
100
AcDbLine
 10
8.981704026098496
 20
13.75691160787548
 30
0.0
 11
8.981704026098496
 21
13.84259160787548
 31
0.0
  0
LINE
  5
1C22E
330
1F
100
AcDbEntity
  8
0
100
AcDbLine
 10
8.055331718011649
 20
13.86272064664987
 30
0.0
 11
8.050331718011646
 21
13.86272064664987
 31
0.0
  0
LINE
  5
1C22F
330
1F
100
AcDbEntity
  8
0
100
AcDbLine
 10
8.050331718011646
 20
13.86272064664987
 30
0.0
 11
7.956796626668362
 21
13.86272064664987
 31
0.0
  0
LINE
  5
1C230
330
1F
100
AcDbEntity
  8
0
100
AcDbLine
 10
7.989249828496012
 20
13.74381324721974
 30
0.0
 11
8.043250824270961
 21
13.74381324721974
 31
0.0
  0
LINE
  5
1C231
330
1F
100
AcDbEntity
  8
0
100
AcDbLine
 10
8.043250824270961
 20
13.74381324721974
 30
0.0
 11
8.07570402609849
 21
13.74381324721974
 31
0.0
  0
LINE
  5
1C232
330
1F
100
AcDbEntity
  8
0
100
AcDbLine
 10
8.07570402609849
 20
13.74381324721974
 30
0.0
 11
8.07570402609849
 21
13.8025243208614
 31
0.0
  0
LINE
  5
1C233
330
1F
100
AcDbEntity
  8
0
100
AcDbLine
 10
8.07570402609849
 20
13.8025243208614
 30
0.0
 11
8.07570402609849
 21
13.85652531663636
 31
0.0
  0
LINE
  5
1C234
330
1F
100
AcDbEntity
  8
0
100
AcDbLine
 10
8.96083694684391
 20
12.96072064664988
 30
0.0
 11
8.869179258571646
 21
12.96072064664988
 31
0.0
  0
LINE
  5
1C235
330
1F
100
AcDbEntity
  8
0
100
AcDbLine
 10
8.869179258571646
 20
12.96072064664988
 30
0.0
 11
8.862796626668368
 21
12.96072064664988
 31
0.0
  0
LINE
  5
1C236
330
1F
100
AcDbEntity
  8
0
100
AcDbLine
 10
8.066871402312946
 20
13.74156323824928
 30
0.0
 11
8.862250326383501
 21
13.74156323824929
 31
0.0
  0
LINE
  5
1C237
330
1F
100
AcDbEntity
  8
0
100
AcDbLine
 10
8.862250326383501
 20
13.74156323824929
 30
0.0
 11
8.869179258571639
 21
13.74156323824929
 31
0.0
  0
LINE
  5
1C239
330
1F
100
AcDbEntity
  8
0
100
AcDbLine
 10
8.862250326383501
 20
13.71662228599414
 30
0.0
 11
8.862250326383501
 21
13.61810168212963
 31
0.0
  0
LINE
  5
1C23A
330
1F
100
AcDbEntity
  8
0
100
AcDbLine
 10
8.066871402312946
 20
13.71662228599414
 30
0.0
 11
8.066871402312946
 21
13.61810168212963
 31
0.0
  0
LINE
  5
1C241
330
1F
100
AcDbEntity
  8
0
100
AcDbLine
 10
8.862250326383501
 20
13.61810168212963
 30
0.0
 11
8.862250326383501
 21
13.52109672039853
 31
0.0
  0
LINE
  5
1C242
330
1F
100
AcDbEntity
  8
0
100
AcDbLine
 10
8.066871402312946
 20
13.61810168212963
 30
0.0
 11
8.066871402312946
 21
13.52109672039853
 31
0.0
  0
LINE
  5
1C243
330
1F
100
AcDbEntity
  8
0
100
AcDbLine
 10
8.862250326383501
 20
13.52109672039853
 30
0.0
 11
8.862250326383508
 21
13.41503761314395
 31
0.0
  0
LINE
  5
1C244
330
1F
100
AcDbEntity
  8
0
100
AcDbLine
 10
8.066871402312946
 20
13.52109672039853
 30
0.0
 11
8.066871402312953
 21
13.41503761314395
 31
0.0
  0
LINE
  5
1C245
330
1F
100
AcDbEntity
  8
0
100
AcDbLine
 10
8.862250326383508
 20
13.41503761314395
 30
0.0
 11
8.862250326383508
 21
13.31480471885281
 31
0.0
  0
LINE
  5
1C246
330
1F
100
AcDbEntity
  8
0
100
AcDbLine
 10
8.066871402312953
 20
13.41503761314395
 30
0.0
 11
8.066871402312953
 21
13.31480471885281
 31
0.0
  0
LINE
  5
1C247
330
1F
100
AcDbEntity
  8
0
100
AcDbLine
 10
8.862250326383508
 20
13.31480471885281
 30
0.0
 11
8.862250326383508
 21
13.21249937404166
 31
0.0
  0
LINE
  5
1C248
330
1F
100
AcDbEntity
  8
0
100
AcDbLine
 10
8.066871402312953
 20
13.31480471885281
 30
0.0
 11
8.066871402312953
 21
13.21249937404166
 31
0.0
  0
LINE
  5
1C249
330
1F
100
AcDbEntity
  8
0
100
AcDbLine
 10
8.862250326383508
 20
13.21249937404166
 30
0.0
 11
8.862250326383508
 21
13.10881342318975
 31
0.0
  0
LINE
  5
1C24A
330
1F
100
AcDbEntity
  8
0
100
AcDbLine
 10
8.066871402312953
 20
13.21249937404166
 30
0.0
 11
8.066871402312953
 21
13.10881342318975
 31
0.0
  0
LINE
  5
1C24B
330
1F
100
AcDbEntity
  8
0
100
AcDbLine
 10
8.862250326383508
 20
13.10881342318975
 30
0.0
 11
8.862250326383508
 21
13.01369082015689
 31
0.0
  0
LINE
  5
1C24C
330
1F
100
AcDbEntity
  8
0
100
AcDbLine
 10
8.862250326383508
 20
13.01369082015689
 30
0.0
 11
8.862250326383508
 21
12.95722092652155
 31
0.0
  0
LINE
  5
1C24D
330
1F
100
AcDbEntity
  8
0
100
AcDbLine
 10
8.066871402312953
 20
13.10881342318975
 30
0.0
 11
8.066871402312953
 21
13.01369082015689
 31
0.0
  0
LINE
  5
1C24E
330
1F
100
AcDbEntity
  8
0
100
AcDbLine
 10
8.066871402312953
 20
13.01369082015689
 30
0.0
 11
8.066871402312953
 21
12.95722092652155
 31
0.0
  0
LINE
  5
1C25B
330
1F
100
AcDbEntity
  8
0
100
AcDbLine
 10
8.062709838224106
 20
12.86072064664988
 30
0.0
 11
8.062709838224106
 21
12.96072064664988
 31
0.0
  0
LINE
  5
1C25C
330
1F
100
AcDbEntity
  8
0
100
AcDbLine
 10
8.062709838224106
 20
12.96072064664988
 30
0.0
 11
8.162709838224104
 21
12.96072064664988
 31
0.0
  0
LINE
  5
1C25D
330
1F
100
AcDbEntity
  8
0
100
AcDbLine
 10
8.760836946843914
 20
12.96072064664988
 30
0.0
 11
8.860836946843912
 21
12.96072064664988
 31
0.0
  0
LINE
  5
1C25E
330
1F
100
AcDbEntity
  8
0
100
AcDbLine
 10
8.860836946843912
 20
12.96072064664988
 30
0.0
 11
8.96083694684391
 21
12.96072064664988
 31
0.0
  0
LINE
  5
1C260
330
1F
100
AcDbEntity
  8
0
100
AcDbLine
 10
8.062709838224106
 20
12.96072064664988
 30
0.0
 11
7.962709838224105
 21
12.96072064664988
 31
0.0
  0
LINE
  5
1C282
330
1F
100
AcDbEntity
  8
0
100
AcDbLine
 10
8.962507031859169
 20
12.96072064664988
 30
0.0
 11
8.96083694684391
 21
12.96072064664988
 31
0.0
  0
LINE
  5
1C283
330
1F
100
AcDbEntity
  8
0
100
AcDbLine
 10
8.96083694684391
 20
12.96072064664988
 30
0.0
 11
8.908111026415118
 21
12.96072064664988
 31
0.0
  0
LINE
  5
1C284
330
1F
100
AcDbEntity
  8
0
100
AcDbLine
 10
8.908111026415118
 20
12.96072064664988
 30
0.0
 11
8.899949506679488
 21
12.96072064664988
 31
0.0
  0
LINE
  5
1C286
330
1F
100
AcDbEntity
  8
0
100
AcDbLine
 10
7.956796626668362
 20
13.86272064664987
 30
0.0
 11
7.956796626668362
 21
13.74381324721974
 31
0.0
  0
LINE
  5
1C287
330
1F
100
AcDbEntity
  8
0
100
AcDbLine
 10
8.96083694684391
 20
12.86072064664988
 30
0.0
 11
8.860836946843914
 21
12.86072064664988
 31
0.0
  0
LINE
  5
1C2AD
330
1F
100
AcDbEntity
  8
0
100
AcDbLine
 10
8.869179231735804
 20
12.97973685071287
 30
0.0
 11
8.869179231735804
 21
12.99173685071287
 31
0.0
  0
LINE
  5
1C2AF
330
1F
100
AcDbEntity
  8
0
100
AcDbLine
 10
8.869179231735804
 20
13.73865904239838
 30
0.0
 11
8.869179231735804
 21
13.72665904239838
 31
0.0
  0
LINE
  5
1C2D0
330
1F
100
AcDbEntity
  8
0
100
AcDbLine
 10
5.827333995235386
 20
13.61384998032926
 30
0.0
 11
5.833027668177605
 21
13.61463368632462
 31
0.0
  0
LINE
  5
1C2D1
330
1F
100
AcDbEntity
  8
0
100
AcDbLine
 10
5.822028336694934
 20
13.61155227061165
 30
0.0
 11
5.827333995235386
 21
13.61384998032926
 31
0.0
  0
LINE
  5
1C2D2
330
1F
100
AcDbEntity
  8
0
100
AcDbLine
 10
5.817472264417778
 20
13.60789714229191
 30
0.0
 11
5.822028336694934
 21
13.61155227061165
 31
0.0
  0
LINE
  5
1C2D3
330
1F
100
AcDbEntity
  8
0
100
AcDbLine
 10
5.813976267200333
 20
13.60313368632462
 30
0.0
 11
5.817472264417778
 21
13.60789714229191
 31
0.0
  0
LINE
  5
1C2D4
330
1F
100
AcDbEntity
  8
0
100
AcDbLine
 10
5.811778591475556
 20
13.59758652436197
 30
0.0
 11
5.813976267200333
 21
13.60313368632462
 31
0.0
  0
LINE
  5
1C2D5
330
1F
100
AcDbEntity
  8
0
100
AcDbLine
 10
5.811029005212272
 20
13.59163368632462
 30
0.0
 11
5.811778591475556
 21
13.59758652436197
 31
0.0
  0
LINE
  5
1C2D6
330
1F
100
AcDbEntity
  8
0
100
AcDbLine
 10
5.811778591475555
 20
13.58568084828726
 30
0.0
 11
5.811029005212272
 21
13.59163368632462
 31
0.0
  0
LINE
  5
1C2D7
330
1F
100
AcDbEntity
  8
0
100
AcDbLine
 10
5.813976267200331
 20
13.58013368632462
 30
0.0
 11
5.811778591475555
 21
13.58568084828726
 31
0.0
  0
LINE
  5
1C2D8
330
1F
100
AcDbEntity
  8
0
100
AcDbLine
 10
5.81747226441778
 20
13.57537023035733
 30
0.0
 11
5.813976267200331
 21
13.58013368632462
 31
0.0
  0
LINE
  5
1C2D9
330
1F
100
AcDbEntity
  8
0
100
AcDbLine
 10
5.822028336694936
 20
13.57171510203757
 30
0.0
 11
5.81747226441778
 21
13.57537023035733
 31
0.0
  0
LINE
  5
1C2DA
330
1F
100
AcDbEntity
  8
0
100
AcDbLine
 10
5.827333995235388
 20
13.56941739231997
 30
0.0
 11
5.822028336694936
 21
13.57171510203757
 31
0.0
  0
LINE
  5
1C2DB
330
1F
100
AcDbEntity
  8
0
100
AcDbLine
 10
5.833027668177606
 20
13.56863368632462
 30
0.0
 11
5.827333995235388
 21
13.56941739231997
 31
0.0
  0
LINE
  5
1C2DC
330
1F
100
AcDbEntity
  8
0
100
AcDbLine
 10
5.851769365541809
 20
13.09462459980675
 30
0.0
 11
5.852071733367251
 21
13.56863368632462
 31
0.0
  0
LINE
  5
1C2DD
330
1F
100
AcDbEntity
  8
0
100
AcDbLine
 10
5.826739007222245
 20
13.09367388992434
 30
0.0
 11
5.832409362533997
 21
13.09462459980674
 31
0.0
  0
LINE
  5
1C2DE
330
1F
100
AcDbEntity
  8
0
100
AcDbLine
 10
5.821497213762102
 20
13.09122117658979
 30
0.0
 11
5.826739007222245
 21
13.09367388992434
 31
0.0
  0
LINE
  5
1C2DF
330
1F
100
AcDbEntity
  8
0
100
AcDbLine
 10
5.817041201715394
 20
13.08743360816351
 30
0.0
 11
5.821497213762102
 21
13.09122117658979
 31
0.0
  0
LINE
  5
1C2E0
330
1F
100
AcDbEntity
  8
0
100
AcDbLine
 10
5.813674640939201
 20
13.08256930117452
 30
0.0
 11
5.817041201715394
 21
13.08743360816351
 31
0.0
  0
LINE
  5
1C2E1
330
1F
100
AcDbEntity
  8
0
100
AcDbLine
 10
5.811626956986916
 20
13.07695975010547
 30
0.0
 11
5.813674640939201
 21
13.08256930117452
 31
0.0
  0
LINE
  5
1C2E2
330
1F
100
AcDbEntity
  8
0
100
AcDbLine
 10
5.811037696135933
 20
13.0709872365915
 30
0.0
 11
5.811626956986916
 21
13.07695975010547
 31
0.0
  0
LINE
  5
1C2E3
330
1F
100
AcDbEntity
  8
0
100
AcDbLine
 10
5.811947015539441
 20
13.06505877755852
 30
0.0
 11
5.811037696135933
 21
13.0709872365915
 31
0.0
  0
LINE
  5
1C2E4
330
1F
100
AcDbEntity
  8
0
100
AcDbLine
 10
5.814292946582813
 20
13.0595783876924
 30
0.0
 11
5.811947015539441
 21
13.06505877755852
 31
0.0
  0
LINE
  5
1C2E5
330
1F
100
AcDbEntity
  8
0
100
AcDbLine
 10
5.817915617942277
 20
13.05491954650574
 30
0.0
 11
5.814292946582813
 21
13.0595783876924
 31
0.0
  0
LINE
  5
1C2E6
330
1F
100
AcDbEntity
  8
0
100
AcDbLine
 10
5.822568150551436
 20
13.05139974632633
 30
0.0
 11
5.817915617942277
 21
13.05491954650574
 31
0.0
  0
LINE
  5
1C2E7
330
1F
100
AcDbEntity
  8
0
100
AcDbLine
 10
5.827933482001647
 20
13.04925885571962
 30
0.0
 11
5.822568150551436
 21
13.05139974632633
 31
0.0
  0
LINE
  5
1C2E8
330
1F
100
AcDbEntity
  8
0
100
AcDbLine
 10
5.833645973821212
 20
13.04864277284249
 30
0.0
 11
5.827933482001647
 21
13.04925885571962
 31
0.0
  0
LINE
  5
1C2E9
330
1F
100
AcDbEntity
  8
0
100
AcDbLine
 10
6.132276696027345
 20
13.61384998032926
 30
0.0
 11
6.132868042110752
 21
13.61463368632462
 31
0.0
  0
LINE
  5
1C2EA
330
1F
100
AcDbEntity
  8
0
100
AcDbLine
 10
6.131725649202277
 20
13.61155227061165
 30
0.0
 11
6.132276696027345
 21
13.61384998032926
 31
0.0
  0
LINE
  5
1C2EB
330
1F
100
AcDbEntity
  8
0
100
AcDbLine
 10
6.131303814459752
 20
13.60829386488271
 30
0.0
 11
6.131725649202277
 21
13.61155227061165
 31
0.0
  0
LINE
  5
1C2EC
330
1F
100
AcDbEntity
  8
0
100
AcDbLine
 10
6.131725649202277
 20
13.57171510203757
 30
0.0
 11
6.131303814459752
 21
13.57497350776653
 31
0.0
  0
LINE
  5
1C2ED
330
1F
100
AcDbEntity
  8
0
100
AcDbLine
 10
6.132276696027346
 20
13.56941739231996
 30
0.0
 11
6.131725649202277
 21
13.57171510203757
 31
0.0
  0
LINE
  5
1C2EE
330
1F
100
AcDbEntity
  8
0
100
AcDbLine
 10
6.13286804211075
 20
13.56863368632462
 30
0.0
 11
6.132276696027346
 21
13.56941739231996
 31
0.0
  0
LINE
  5
1C2EF
330
1F
100
AcDbEntity
  8
0
100
AcDbLine
 10
6.134814558787276
 20
13.09462459980675
 30
0.0
 11
6.134845962773972
 21
13.56863368632462
 31
0.0
  0
LINE
  5
1C2F0
330
1F
100
AcDbEntity
  8
0
100
AcDbLine
 10
6.132214900445685
 20
13.09367388992435
 30
0.0
 11
6.132803824755029
 21
13.09462459980675
 31
0.0
  0
LINE
  5
1C2F1
330
1F
100
AcDbEntity
  8
0
100
AcDbLine
 10
6.131670486661453
 20
13.09122117658979
 30
0.0
 11
6.132214900445685
 21
13.09367388992435
 31
0.0
  0
LINE
  5
1C2F2
330
1F
100
AcDbEntity
  8
0
100
AcDbLine
 10
6.13156817555291
 20
13.09038386382229
 30
0.0
 11
6.131670486661453
 21
13.09122117658979
 31
0.0
  0
LINE
  5
1C2F3
330
1F
100
AcDbEntity
  8
0
100
AcDbLine
 10
6.131781714384288
 20
13.05139974632633
 30
0.0
 11
6.131578017204757
 21
13.05288350882694
 31
0.0
  0
LINE
  5
1C2F4
330
1F
100
AcDbEntity
  8
0
100
AcDbLine
 10
6.132338958850461
 20
13.04925885571962
 30
0.0
 11
6.131781714384288
 21
13.05139974632633
 31
0.0
  0
LINE
  5
1C2F5
330
1F
100
AcDbEntity
  8
0
100
AcDbLine
 10
6.132932259466471
 20
13.04864277284249
 30
0.0
 11
6.132338958850461
 21
13.04925885571962
 31
0.0
  0
LINE
  5
1C2FC
330
1F
100
AcDbEntity
  8
0
100
AcDbLine
 10
7.600256601751727
 20
13.09463368632461
 30
0.0
 11
7.600362576333036
 21
13.56863368632462
 31
0.0
  0
LINE
  5
1C2FD
330
1F
100
AcDbEntity
  8
0
100
AcDbLine
 10
7.593415050789008
 20
13.09459777294928
 30
0.0
 11
7.593471130597869
 21
13.09462459980674
 31
0.0
  0
LINE
  5
1C2FE
330
1F
100
AcDbEntity
  8
0
100
AcDbLine
 10
8.014663156877645
 20
13.61155227061165
 30
0.0
 11
8.010633760757917
 21
13.61330109036152
 31
0.0
  0
LINE
  5
1C2FF
330
1F
100
AcDbEntity
  8
0
100
AcDbLine
 10
8.019209281997337
 20
13.60789714229191
 30
0.0
 11
8.014663156877645
 21
13.61155227061165
 31
0.0
  0
LINE
  5
1C300
330
1F
100
AcDbEntity
  8
0
100
AcDbLine
 10
8.02269764649241
 20
13.60313368632461
 30
0.0
 11
8.019209281997337
 21
13.60789714229191
 31
0.0
  0
LINE
  5
1C301
330
1F
100
AcDbEntity
  8
0
100
AcDbLine
 10
8.024890524087318
 20
13.59758652436197
 30
0.0
 11
8.02269764649241
 21
13.60313368632461
 31
0.0
  0
LINE
  5
1C302
330
1F
100
AcDbEntity
  8
0
100
AcDbLine
 10
8.02563847379786
 20
13.59163368632462
 30
0.0
 11
8.024890524087318
 21
13.59758652436197
 31
0.0
  0
LINE
  5
1C303
330
1F
100
AcDbEntity
  8
0
100
AcDbLine
 10
8.024890524087318
 20
13.58568084828726
 30
0.0
 11
8.02563847379786
 21
13.59163368632462
 31
0.0
  0
LINE
  5
1C304
330
1F
100
AcDbEntity
  8
0
100
AcDbLine
 10
8.022697646492412
 20
13.58013368632462
 30
0.0
 11
8.024890524087318
 21
13.58568084828726
 31
0.0
  0
LINE
  5
1C305
330
1F
100
AcDbEntity
  8
0
100
AcDbLine
 10
8.019209281997341
 20
13.57537023035732
 30
0.0
 11
8.022697646492412
 21
13.58013368632462
 31
0.0
  0
LINE
  5
1C306
330
1F
100
AcDbEntity
  8
0
100
AcDbLine
 10
8.014663156877645
 20
13.57171510203757
 30
0.0
 11
8.019209281997341
 21
13.57537023035732
 31
0.0
  0
LINE
  5
1C307
330
1F
100
AcDbEntity
  8
0
100
AcDbLine
 10
8.01063376075843
 20
13.56996628228793
 30
0.0
 11
8.014663156877645
 21
13.57171510203757
 31
0.0
  0
LINE
  5
1C308
330
1F
100
AcDbEntity
  8
0
100
AcDbLine
 10
7.984987060867453
 20
13.09462459980674
 30
0.0
 11
7.984685353194031
 21
13.56863368632462
 31
0.0
  0
LINE
  5
1C309
330
1F
100
AcDbEntity
  8
0
100
AcDbLine
 10
8.015193120223202
 20
13.09122117658979
 30
0.0
 11
8.010633760764077
 21
13.09335923685058
 31
0.0
  0
LINE
  5
1C30A
330
1F
100
AcDbEntity
  8
0
100
AcDbLine
 10
8.019639403571417
 20
13.08743360816351
 30
0.0
 11
8.015193120223202
 21
13.09122117658979
 31
0.0
  0
LINE
  5
1C30B
330
1F
100
AcDbEntity
  8
0
100
AcDbLine
 10
8.022998614220545
 20
13.08256930117452
 30
0.0
 11
8.019639403571417
 21
13.08743360816351
 31
0.0
  0
LINE
  5
1C30C
330
1F
100
AcDbEntity
  8
0
100
AcDbLine
 10
8.025041827516208
 20
13.07695975010547
 30
0.0
 11
8.022998614220545
 21
13.08256930117452
 31
0.0
  0
LINE
  5
1C30D
330
1F
100
AcDbEntity
  8
0
100
AcDbLine
 10
8.025629801848868
 20
13.07098723659149
 30
0.0
 11
8.025041827516208
 21
13.07695975010547
 31
0.0
  0
LINE
  5
1C30E
330
1F
100
AcDbEntity
  8
0
100
AcDbLine
 10
8.024722467739437
 20
13.06505877755852
 30
0.0
 11
8.025629801848868
 21
13.07098723659149
 31
0.0
  0
LINE
  5
1C30F
330
1F
100
AcDbEntity
  8
0
100
AcDbLine
 10
8.022381658508024
 20
13.0595783876924
 30
0.0
 11
8.024722467739437
 21
13.06505877755852
 31
0.0
  0
LINE
  5
1C310
330
1F
100
AcDbEntity
  8
0
100
AcDbLine
 10
8.018766896435387
 20
13.05491954650574
 30
0.0
 11
8.022381658508024
 21
13.0595783876924
 31
0.0
  0
LINE
  5
1C311
330
1F
100
AcDbEntity
  8
0
100
AcDbLine
 10
8.014124521583093
 20
13.05139974632632
 30
0.0
 11
8.018766896435387
 21
13.05491954650574
 31
0.0
  0
LINE
  5
1C312
330
1F
100
AcDbEntity
  8
0
100
AcDbLine
 10
8.010633760764591
 20
13.05000380477732
 30
0.0
 11
8.014124521583093
 21
13.05139974632632
 31
0.0
  0
LINE
  5
1C31D
330
1F
100
AcDbEntity
  8
0
100
AcDbLine
 10
7.582187839957425
 20
13.09155227061166
 30
0.0
 11
7.587735001920069
 21
13.09384998032926
 31
0.0
  0
LINE
  5
1C327
330
1F
100
AcDbEntity
  8
0
100
AcDbLine
 10
7.587735001920068
 20
13.04941739231997
 30
0.0
 11
7.582187839957423
 21
13.05171510203757
 31
0.0
  0
LINE
  5
1C328
330
1F
100
AcDbEntity
  8
0
100
AcDbLine
 10
7.571471545952782
 20
13.07758652436197
 30
0.0
 11
7.573769255670384
 21
13.08313368632461
 31
0.0
  0
LINE
  5
1C329
330
1F
100
AcDbEntity
  8
0
100
AcDbLine
 10
7.570687839957427
 20
13.07163368632461
 30
0.0
 11
7.571471545952782
 21
13.07758652436197
 31
0.0
  0
LINE
  5
1C32A
330
1F
100
AcDbEntity
  8
0
100
AcDbLine
 10
7.571471545952778
 20
13.06568084828725
 30
0.0
 11
7.570687839957427
 21
13.07163368632461
 31
0.0
  0
LINE
  5
1C32B
330
1F
100
AcDbEntity
  8
0
100
AcDbLine
 10
7.573769255670388
 20
13.06013368632461
 30
0.0
 11
7.571471545952778
 21
13.06568084828725
 31
0.0
  0
LINE
  5
1C32C
330
1F
100
AcDbEntity
  8
0
100
AcDbLine
 10
7.577424383990138
 20
13.05537023035732
 30
0.0
 11
7.573769255670388
 21
13.06013368632461
 31
0.0
  0
LINE
  5
1C32D
330
1F
100
AcDbEntity
  8
0
100
AcDbLine
 10
7.573769255670384
 20
13.08313368632461
 30
0.0
 11
7.577424383990141
 21
13.08789714229191
 31
0.0
  0
LINE
  5
1C32F
330
1F
100
AcDbEntity
  8
0
100
AcDbLine
 10
7.959833760764144
 20
13.08798733019265
 30
0.0
 11
7.956796626668362
 21
13.09031780515045
 31
0.0
  0
LINE
  5
1C330
330
1F
100
AcDbEntity
  8
0
100
AcDbLine
 10
7.95679662666836
 20
13.05294956749877
 30
0.0
 11
7.95983376076453
 21
13.05528004245687
 31
0.0
  0
LINE
  5
1C33D
330
1F
100
AcDbEntity
  8
0
100
AcDbLine
 10
8.01063376075843
 20
13.56996628228793
 30
0.0
 11
8.010633760758445
 21
13.5686336863253
 31
0.0
  0
LINE
  5
1C33E
330
1F
100
AcDbEntity
  8
0
100
AcDbLine
 10
8.01063376076407
 20
13.09400851693034
 30
0.0
 11
8.010633760764077
 21
13.09335923685058
 31
0.0
  0
LINE
  5
1C33F
330
1F
100
AcDbEntity
  8
0
100
AcDbLine
 10
6.13286804211075
 20
13.56863368632462
 30
0.0
 11
6.134845962773972
 21
13.56863368632462
 31
0.0
  0
LINE
  5
1C340
330
1F
100
AcDbEntity
  8
0
100
AcDbLine
 10
6.132803824755029
 20
13.09462459980675
 30
0.0
 11
6.134814558787276
 21
13.09462459980675
 31
0.0
  0
LINE
  5
1C341
330
1F
100
AcDbEntity
  8
0
100
AcDbLine
 10
7.593687839957425
 20
13.61463368632461
 30
0.0
 11
7.878381239015084
 21
13.61463368632462
 31
0.0
  0
LINE
  5
1C342
330
1F
100
AcDbEntity
  8
0
100
AcDbLine
 10
7.593687839957429
 20
13.56863368632462
 30
0.0
 11
7.600362576333036
 21
13.56863368632462
 31
0.0
  0
LINE
  5
1C348
330
1F
100
AcDbEntity
  8
0
100
AcDbLine
 10
7.593471130597869
 20
13.09462459980674
 30
0.0
 11
7.593618821001903
 21
13.09462459980674
 31
0.0
  0
LINE
  5
1C349
330
1F
100
AcDbEntity
  8
0
100
AcDbLine
 10
7.593618821001903
 20
13.09462459980674
 30
0.0
 11
7.593687839957429
 21
13.09463368632461
 31
0.0
  0
LINE
  5
1C34A
330
1F
100
AcDbEntity
  8
0
100
AcDbLine
 10
7.577424383990141
 20
13.08789714229191
 30
0.0
 11
7.580665142583727
 21
13.09038386382229
 31
0.0
  0
LINE
  5
1C34B
330
1F
100
AcDbEntity
  8
0
100
AcDbLine
 10
7.580665142583727
 20
13.09038386382229
 30
0.0
 11
7.582187839957425
 21
13.09155227061166
 31
0.0
  0
LINE
  5
1C34D
330
1F
100
AcDbEntity
  8
0
100
AcDbLine
 10
7.582187839957423
 20
13.05171510203757
 30
0.0
 11
7.580665142583724
 21
13.05288350882694
 31
0.0
  0
LINE
  5
1C34E
330
1F
100
AcDbEntity
  8
0
100
AcDbLine
 10
7.580665142583724
 20
13.05288350882694
 30
0.0
 11
7.577424383990138
 21
13.05537023035732
 31
0.0
  0
LINE
  5
1C34F
330
1F
100
AcDbEntity
  8
0
100
AcDbLine
 10
7.593687839957429
 20
13.09463368632461
 30
0.0
 11
7.600256601751727
 21
13.09463368632461
 31
0.0
  0
LINE
  5
1C350
330
1F
100
AcDbEntity
  8
0
100
AcDbLine
 10
7.593618821001884
 20
13.04864277284249
 30
0.0
 11
7.587735001920068
 21
13.04941739231997
 31
0.0
  0
LINE
  5
1C352
330
1F
100
AcDbEntity
  8
0
100
AcDbLine
 10
7.580665142583724
 20
13.05288350882694
 30
0.0
 11
6.131578017204757
 21
13.05288350882694
 31
0.0
  0
LINE
  5
1C353
330
1F
100
AcDbEntity
  8
0
100
AcDbLine
 10
6.131578017204757
 20
13.05288350882694
 30
0.0
 11
6.070566717317138
 21
13.05288350882694
 31
0.0
  0
LINE
  5
1C355
330
1F
100
AcDbEntity
  8
0
100
AcDbLine
 10
7.580665142583727
 20
13.09038386382229
 30
0.0
 11
6.13156817555291
 21
13.09038386382229
 31
0.0
  0
LINE
  5
1C356
330
1F
100
AcDbEntity
  8
0
100
AcDbLine
 10
6.13156817555291
 20
13.09038386382229
 30
0.0
 11
6.070566717317142
 21
13.09038386382229
 31
0.0
  0
LINE
  5
1C357
330
1F
100
AcDbEntity
  8
0
100
AcDbLine
 10
7.959833760764144
 20
13.08798733019265
 30
0.0
 11
7.95983376076407
 21
13.09400851692974
 31
0.0
  0
LINE
  5
1C358
330
1F
100
AcDbEntity
  8
0
100
AcDbLine
 10
7.95983376076407
 20
13.09400851692974
 30
0.0
 11
7.984987060867453
 21
13.09400851693004
 31
0.0
  0
LINE
  5
1C35A
330
1F
100
AcDbEntity
  8
0
100
AcDbLine
 10
7.959833760758446
 20
13.56863368632462
 30
0.0
 11
7.984685353194031
 21
13.56863368632462
 31
0.0
  0
LINE
  5
1C35B
330
1F
100
AcDbEntity
  8
0
100
AcDbLine
 10
7.587735001920069
 20
13.09384998032926
 30
0.0
 11
7.593415050789008
 21
13.09459777294928
 31
0.0
  0
LINE
  5
1C35C
330
1F
100
AcDbEntity
  8
0
100
AcDbLine
 10
7.577153306758805
 20
13.60829386488271
 30
0.0
 11
6.131303814459752
 21
13.60829386488271
 31
0.0
  0
LINE
  5
1C35D
330
1F
100
AcDbEntity
  8
0
100
AcDbLine
 10
6.131303814459752
 20
13.60829386488271
 30
0.0
 11
6.075596516477133
 21
13.60829386488271
 31
0.0
  0
LINE
  5
1C35E
330
1F
100
AcDbEntity
  8
0
100
AcDbLine
 10
6.07559651647713
 20
13.57497350776652
 30
0.0
 11
6.131303814459752
 21
13.57497350776653
 31
0.0
  0
LINE
  5
1C35F
330
1F
100
AcDbEntity
  8
0
100
AcDbLine
 10
6.131303814459752
 20
13.57497350776653
 30
0.0
 11
7.577828555303669
 21
13.57497350776652
 31
0.0
  0
LINE
  5
1C360
330
1F
100
AcDbEntity
  8
0
100
AcDbLine
 10
7.95983376076453
 20
13.05528004245687
 30
0.0
 11
7.959833760764144
 21
13.08798733019265
 31
0.0
  0
LINE
  5
1C361
330
1F
100
AcDbEntity
  8
0
100
AcDbLine
 10
8.010633760764591
 20
13.05000380477732
 30
0.0
 11
8.010633760764077
 21
13.09335923685058
 31
0.0
  0
LINE
  5
1C362
330
1F
100
AcDbEntity
  8
0
100
AcDbLine
 10
7.95983376076461
 20
13.04864277284249
 30
0.0
 11
7.95983376076453
 21
13.05528004245687
 31
0.0
  0
LINE
  5
1C363
330
1F
100
AcDbEntity
  8
0
100
AcDbLine
 10
5.852071733367251
 20
13.56863368632462
 30
0.0
 11
5.833027668177606
 21
13.56863368632462
 31
0.0
  0
LINE
  5
1C364
330
1F
100
AcDbEntity
  8
0
100
AcDbLine
 10
5.851769365541809
 20
13.09462459980675
 30
0.0
 11
5.832409362533997
 21
13.09462459980674
 31
0.0
  0
LINE
  5
1C365
330
1F
100
AcDbEntity
  8
0
100
AcDbLine
 10
6.132868042110752
 20
13.61463368632462
 30
0.0
 11
5.833027668177605
 21
13.61463368632462
 31
0.0
  0
LINE
  5
1C366
330
1F
100
AcDbEntity
  8
0
100
AcDbLine
 10
6.13286804211075
 20
13.56863368632462
 30
0.0
 11
5.852071733367251
 21
13.56863368632462
 31
0.0
  0
LINE
  5
1C367
330
1F
100
AcDbEntity
  8
0
100
AcDbLine
 10
6.132803824755029
 20
13.09462459980675
 30
0.0
 11
5.851769365541809
 21
13.09462459980675
 31
0.0
  0
LINE
  5
1C368
330
1F
100
AcDbEntity
  8
0
100
AcDbLine
 10
6.132932259466471
 20
13.04864277284249
 30
0.0
 11
5.833645973821212
 21
13.04864277284249
 31
0.0
  0
LINE
  5
1C369
330
1F
100
AcDbEntity
  8
0
100
AcDbLine
 10
7.959833760758446
 20
13.56863368632462
 30
0.0
 11
7.956796626668361
 21
13.56863368632461
 31
0.0
  0
LINE
  5
1C36A
330
1F
100
AcDbEntity
  8
0
100
AcDbLine
 10
7.593687839957429
 20
13.56863368632462
 30
0.0
 11
6.134845962773972
 21
13.56863368632462
 31
0.0
  0
LINE
  5
1C36B
330
1F
100
AcDbEntity
  8
0
100
AcDbLine
 10
7.593687839957425
 20
13.61463368632461
 30
0.0
 11
6.132868042110752
 21
13.61463368632462
 31
0.0
  0
LINE
  5
1C36C
330
1F
100
AcDbEntity
  8
0
100
AcDbLine
 10
7.593471130597869
 20
13.09462459980674
 30
0.0
 11
6.134814558787276
 21
13.09462459980675
 31
0.0
  0
LINE
  5
1C36D
330
1F
100
AcDbEntity
  8
0
100
AcDbLine
 10
7.593618821001884
 20
13.04864277284249
 30
0.0
 11
6.132932259466471
 21
13.04864277284249
 31
0.0
  0
LINE
  5
1C36E
330
1F
100
AcDbEntity
  8
0
100
AcDbLine
 10
7.959833760757902
 20
13.61463368632462
 30
0.0
 11
7.956796626668362
 21
13.61463368632462
 31
0.0
  0
LINE
  5
1C36F
330
1F
100
AcDbEntity
  8
0
100
AcDbLine
 10
7.95983376076461
 20
13.04864277284249
 30
0.0
 11
7.956796626668363
 21
13.0486427728425
 31
0.0
  0
LINE
  5
1C370
330
1F
100
AcDbEntity
  8
0
100
AcDbLine
 10
7.984987060867453
 20
13.09462459980674
 30
0.0
 11
7.956796626668361
 21
13.09462459980674
 31
0.0
  0
LINE
  5
1C373
330
1F
100
AcDbEntity
  8
0
100
AcDbLine
 10
7.878381239015084
 20
13.04863368632461
 30
0.0
 11
7.593618821001884
 21
13.04864277284249
 31
0.0
  0
LINE
  5
1C374
330
1F
100
AcDbEntity
  8
0
100
AcDbLine
 10
7.943703198664101
 20
13.09462459980674
 30
0.0
 11
7.600256601751727
 21
13.09463368632461
 31
0.0
  0
LINE
  5
1C375
330
1F
100
AcDbEntity
  8
0
100
AcDbLine
 10
8.01063376075843
 20
13.56996628228793
 30
0.0
 11
8.010633760757917
 21
13.61330109036152
 31
0.0
  0
LINE
  5
1C376
330
1F
100
AcDbEntity
  8
0
100
AcDbLine
 10
8.010633760758445
 20
13.5686336863253
 30
0.0
 11
8.01063376076407
 21
13.09400851693034
 31
0.0
  0
ARC
  5
1C377
330
1F
100
AcDbEntity
  8
0
100
AcDbCircle
 10
6.079219198324627
 20
13.59163368632462
 30
0.0
 40
0.0170494977449672
100
AcDbArc
 50
102.2677420048598
 51
257.7322579951261
  0
ARC
  5
1C378
330
1F
100
AcDbEntity
  8
0
100
AcDbCircle
 10
6.076782698706804
 20
13.07163368632462
 30
0.0
 40
0.0197536725909634
100
AcDbArc
 50
108.3411780541485
 51
251.6588219458415
  0
LINE
  5
1C379
330
1F
100
AcDbEntity
  8
0
100
AcDbLine
 10
7.943672481250754
 20
13.04864277284249
 30
0.0
 11
7.878381239015084
 21
13.04863368632461
 31
0.0
  0
LINE
  5
1C37A
330
1F
100
AcDbEntity
  8
0
100
AcDbLine
 10
7.878381239015084
 20
13.61463368632462
 30
0.0
 11
7.935209005743889
 21
13.61463368632461
 31
0.0
  0
LINE
  5
1C37B
330
1F
100
AcDbEntity
  8
0
100
AcDbLine
 10
7.984685353194031
 20
13.61398177428216
 30
0.0
 11
7.959833760757902
 21
13.61463368632462
 31
0.0
  0
LINE
  5
1C37C
330
1F
100
AcDbEntity
  8
0
100
AcDbLine
 10
7.95983376076461
 20
13.04864277284249
 30
0.0
 11
7.984987060867452
 21
13.04931667923435
 31
0.0
  0
LINE
  5
1C37D
330
1F
100
AcDbEntity
  8
0
100
AcDbLine
 10
7.984685353194031
 20
13.56863368632462
 30
0.0
 11
7.984685353194031
 21
13.74381324721974
 31
0.0
  0
LINE
  5
1C37E
330
1F
100
AcDbEntity
  8
0
100
AcDbLine
 10
7.984685353194031
 20
13.74381324721974
 30
0.0
 11
8.010633760756372
 21
13.74381324721975
 31
0.0
  0
LINE
  5
1C37F
330
1F
100
AcDbEntity
  8
0
100
AcDbLine
 10
8.010633760756372
 20
13.74381324721975
 30
0.0
 11
8.01063376075637
 21
12.96072064664988
 31
0.0
  0
LINE
  5
1C380
330
1F
100
AcDbEntity
  8
0
100
AcDbLine
 10
7.984987060867453
 20
13.09462459980674
 30
0.0
 11
7.984987060867451
 21
12.96072064664988
 31
0.0
  0
LINE
  5
1C381
330
1F
100
AcDbEntity
  8
0
100
AcDbLine
 10
7.984685353194031
 20
13.74381324721974
 30
0.0
 11
7.956796626668362
 21
13.74381324721974
 31
0.0
  0
LINE
  5
1C382
330
1F
100
AcDbEntity
  8
0
100
AcDbLine
 10
8.862796626668368
 20
13.86272064664987
 30
0.0
 11
8.981704026098496
 21
13.86272064664987
 31
0.0
  0
LINE
  5
1C383
330
1F
100
AcDbEntity
  8
0
100
AcDbLine
 10
8.981704026098496
 20
13.86272064664987
 30
0.0
 11
8.981704026098496
 21
13.84259160787548
 31
0.0
  0
LINE
  5
1C384
330
1F
100
AcDbEntity
  8
0
100
AcDbLine
 10
8.162709838224106
 20
12.96072064664988
 30
0.0
 11
8.760836946843914
 21
12.96072064664988
 31
0.0
  0
LINE
  5
1C385
330
1F
100
AcDbEntity
  8
0
100
AcDbLine
 10
8.860836946843914
 20
12.86072064664988
 30
0.0
 11
8.062709838224106
 21
12.86072064664988
 31
0.0
  0
LINE
  5
1C3FE
330
1F
100
AcDbEntity
  8
0
100
AcDbLine
 10
7.581737368052214
 20
13.61181133882769
 30
0.0
 11
7.587284530014859
 21
13.6141090485453
 31
0.0
  0
LINE
  5
1C3FF
330
1F
100
AcDbEntity
  8
0
100
AcDbLine
 10
7.587284530014857
 20
13.569676460536
 30
0.0
 11
7.581737368052213
 21
13.57197417025361
 31
0.0
  0
LINE
  5
1C400
330
1F
100
AcDbEntity
  8
0
100
AcDbLine
 10
7.571021074047571
 20
13.59784559257801
 30
0.0
 11
7.573318783765174
 21
13.60339275454065
 31
0.0
  0
LINE
  5
1C401
330
1F
100
AcDbEntity
  8
0
100
AcDbLine
 10
7.570237368052216
 20
13.59189275454065
 30
0.0
 11
7.571021074047571
 21
13.59784559257801
 31
0.0
  0
LINE
  5
1C402
330
1F
100
AcDbEntity
  8
0
100
AcDbLine
 10
7.571021074047568
 20
13.58593991650329
 30
0.0
 11
7.570237368052216
 21
13.59189275454065
 31
0.0
  0
LINE
  5
1C403
330
1F
100
AcDbEntity
  8
0
100
AcDbLine
 10
7.573318783765177
 20
13.58039275454065
 30
0.0
 11
7.571021074047568
 21
13.58593991650329
 31
0.0
  0
LINE
  5
1C404
330
1F
100
AcDbEntity
  8
0
100
AcDbLine
 10
7.576973912084927
 20
13.57562929857335
 30
0.0
 11
7.573318783765177
 21
13.58039275454065
 31
0.0
  0
LINE
  5
1C405
330
1F
100
AcDbEntity
  8
0
100
AcDbLine
 10
7.573318783765174
 20
13.60339275454065
 30
0.0
 11
7.57697391208493
 21
13.60815621050794
 31
0.0
  0
LINE
  5
1C406
330
1F
100
AcDbEntity
  8
0
100
AcDbLine
 10
7.57697391208493
 20
13.60815621050794
 30
0.0
 11
7.580214670678516
 21
13.61064293203833
 31
0.0
  0
LINE
  5
1C407
330
1F
100
AcDbEntity
  8
0
100
AcDbLine
 10
7.580214670678516
 20
13.61064293203833
 30
0.0
 11
7.581737368052214
 21
13.61181133882769
 31
0.0
  0
LINE
  5
1C408
330
1F
100
AcDbEntity
  8
0
100
AcDbLine
 10
7.581737368052213
 20
13.57197417025361
 30
0.0
 11
7.580214670678513
 21
13.57314257704297
 31
0.0
  0
LINE
  5
1C409
330
1F
100
AcDbEntity
  8
0
100
AcDbLine
 10
7.580214670678513
 20
13.57314257704297
 30
0.0
 11
7.576973912084927
 21
13.57562929857335
 31
0.0
  0
LINE
  5
1C40A
330
1F
100
AcDbEntity
  8
0
100
AcDbLine
 10
7.593168349096673
 20
13.56890184105853
 30
0.0
 11
7.587284530014857
 21
13.569676460536
 31
0.0
  0
LINE
  5
1C40B
330
1F
100
AcDbEntity
  8
0
100
AcDbLine
 10
7.587284530014859
 20
13.6141090485453
 30
0.0
 11
7.592964578883798
 21
13.61485684116531
 31
0.0
  0
LINE
  5
1C40C
330
1F
100
AcDbEntity
  8
0
100
AcDbLine
 10
7.956796626668362
 20
13.86272064664987
 30
0.0
 11
8.956796626668362
 21
13.86272064664987
 31
0.0
  0
LINE
  5
1C40E
330
1F
100
AcDbEntity
  8
0
100
AcDbLine
 10
8.966784829494413
 20
13.86272064664987
 30
0.0
 11
8.966784829494413
 21
13.87472064664987
 31
0.0
  0
LINE
  5
1C40F
330
1F
100
AcDbEntity
  8
0
100
AcDbLine
 10
8.966784829494413
 20
13.87472064664987
 30
0.0
 11
7.966784829494413
 21
13.87472064664987
 31
0.0
  0
LINE
  5
1C410
330
1F
100
AcDbEntity
  8
0
100
AcDbLine
 10
7.966784829494413
 20
13.87472064664987
 30
0.0
 11
7.966784829494413
 21
13.86272064664987
 31
0.0
  0
LINE
  5
1C411
330
1F
100
AcDbEntity
  8
0
100
AcDbLine
 10
7.966784829494413
 20
13.87472064664987
 30
0.0
 11
8.166784829494412
 21
13.87472064664987
 31
0.0
  0
LINE
  5
1C412
330
1F
100
AcDbEntity
  8
0
100
AcDbLine
 10
8.166784829494412
 20
13.87472064664987
 30
0.0
 11
8.166784829494405
 21
13.86272064664987
 31
0.0
  0
LINE
  5
1C413
330
1F
100
AcDbEntity
  8
0
100
AcDbLine
 10
8.156796626668354
 20
13.86272064664987
 30
0.0
 11
8.356796626668353
 21
13.86272064664987
 31
0.0
  0
LINE
  5
1C414
330
1F
100
AcDbEntity
  8
0
100
AcDbLine
 10
8.366784829494404
 20
13.86272064664987
 30
0.0
 11
8.366784829494408
 21
13.87472064664987
 31
0.0
  0
LINE
  5
1C415
330
1F
100
AcDbEntity
  8
0
100
AcDbLine
 10
8.366784829494408
 20
13.87472064664987
 30
0.0
 11
8.566784829494407
 21
13.87472064664987
 31
0.0
  0
LINE
  5
1C416
330
1F
100
AcDbEntity
  8
0
100
AcDbLine
 10
8.566784829494407
 20
13.87472064664987
 30
0.0
 11
8.566784829494409
 21
13.86272064664987
 31
0.0
  0
LINE
  5
1C417
330
1F
100
AcDbEntity
  8
0
100
AcDbLine
 10
8.556796626668358
 20
13.86272064664987
 30
0.0
 11
8.756796626668357
 21
13.86272064664987
 31
0.0
  0
LINE
  5
1C418
330
1F
100
AcDbEntity
  8
0
100
AcDbLine
 10
8.766784829494408
 20
13.86272064664987
 30
0.0
 11
8.766784829494415
 21
13.87472064664987
 31
0.0
  0
LINE
  5
1C45C
330
1F
100
AcDbEntity
  8
0
100
AcDbLine
 10
8.993704026098495
 20
13.66272064664987
 30
0.0
 11
8.981704026098496
 21
13.66272064664988
 31
0.0
  0
LINE
  5
1C45D
330
1F
100
AcDbEntity
  8
0
100
AcDbLine
 10
8.981704026098496
 20
13.46272064664988
 30
0.0
 11
8.993704026098493
 21
13.46272064664987
 31
0.0
  0
LINE
  5
1C45E
330
1F
100
AcDbEntity
  8
0
100
AcDbLine
 10
8.993704026098493
 20
13.46272064664987
 30
0.0
 11
8.993704026098493
 21
13.26272064664987
 31
0.0
  0
LINE
  5
1C45F
330
1F
100
AcDbEntity
  8
0
100
AcDbLine
 10
8.993704026098493
 20
13.26272064664987
 30
0.0
 11
8.981704026098496
 21
13.26272064664987
 31
0.0
  0
LINE
  5
1C460
330
1F
100
AcDbEntity
  8
0
100
AcDbLine
 10
8.981704026098496
 20
13.06272064664987
 30
0.0
 11
8.993704026098491
 21
13.06272064664987
 31
0.0
  0
LINE
  5
1C461
330
1F
100
AcDbEntity
  8
0
100
AcDbLine
 10
8.981704026098496
 20
13.74381324721974
 30
0.0
 11
8.981704026098496
 21
12.96072064664987
 31
0.0
  0
LINE
  5
1C462
330
1F
100
AcDbEntity
  8
0
100
AcDbLine
 10
8.981704026098496
 20
12.96072064664987
 30
0.0
 11
8.981704026098496
 21
12.86072064664988
 31
0.0
  0
LINE
  5
1C463
330
1F
100
AcDbEntity
  8
0
100
AcDbLine
 10
8.981704026098496
 20
12.86072064664988
 30
0.0
 11
8.96083694684391
 21
12.86072064664988
 31
0.0
  0
LINE
  5
1C465
330
1F
100
AcDbEntity
  8
0
100
AcDbLine
 10
8.96083694684391
 20
12.96072064664988
 30
0.0
 11
8.981704026098496
 21
12.96072064664987
 31
0.0
  0
LINE
  5
1C466
330
1F
100
AcDbEntity
  8
0
100
AcDbLine
 10
8.981704026098496
 20
13.86272064664987
 30
0.0
 11
8.981704026098496
 21
13.84259160787548
 31
0.0
  0
LINE
  5
1C467
330
1F
100
AcDbEntity
  8
0
100
AcDbLine
 10
8.981704026098496
 20
13.84259160787548
 30
0.0
 11
8.993704026098495
 21
13.84259160787549
 31
0.0
  0
LINE
  5
1C46B
330
1F
100
AcDbEntity
  8
0
100
AcDbLine
 10
8.993704026098496
 20
12.88272064664987
 30
0.0
 11
8.981704026098494
 21
12.88272064664987
 31
0.0
  0
LINE
  5
1C46C
330
1F
100
AcDbEntity
  8
0
100
AcDbLine
 10
8.981704026098494
 20
12.88272064664987
 30
0.0
 11
8.993704026098496
 21
12.88272064664987
 31
0.0
  0
LINE
  5
1C46D
330
1F
100
AcDbEntity
  8
0
100
AcDbLine
 10
8.993704026098496
 20
12.88272064664987
 30
0.0
 11
8.993704026098495
 21
13.84259160787549
 31
0.0
  0
LINE
  5
1C4AD
330
1F
100
AcDbEntity
  8
0
100
AcDbLine
 10
7.970600627375231
 20
12.86072064664988
 30
0.0
 11
7.970600627375231
 21
12.84872064664988
 31
0.0
  0
LINE
  5
1C4AE
330
1F
100
AcDbEntity
  8
0
100
AcDbLine
 10
7.970600627375231
 20
12.84872064664988
 30
0.0
 11
8.970600627375231
 21
12.84872064664988
 31
0.0
  0
LINE
  5
1C4AF
330
1F
100
AcDbEntity
  8
0
100
AcDbLine
 10
8.970600627375231
 20
12.84872064664988
 30
0.0
 11
8.970600627375231
 21
12.86072064664988
 31
0.0
  0
LINE
  5
1C4B0
330
1F
100
AcDbEntity
  8
0
100
AcDbLine
 10
8.970600627375231
 20
12.84872064664988
 30
0.0
 11
8.770600627375232
 21
12.84872064664988
 31
0.0
  0
LINE
  5
1C4B1
330
1F
100
AcDbEntity
  8
0
100
AcDbLine
 10
8.770600627375232
 20
12.84872064664988
 30
0.0
 11
8.770600627375239
 21
12.86072064664988
 31
0.0
  0
LINE
  5
1C4B2
330
1F
100
AcDbEntity
  8
0
100
AcDbLine
 10
8.57060062737524
 20
12.86072064664988
 30
0.0
 11
8.570600627375236
 21
12.84872064664988
 31
0.0
  0
LINE
  5
1C4B3
330
1F
100
AcDbEntity
  8
0
100
AcDbLine
 10
8.570600627375236
 20
12.84872064664988
 30
0.0
 11
8.370600627375237
 21
12.84872064664988
 31
0.0
  0
LINE
  5
1C4B4
330
1F
100
AcDbEntity
  8
0
100
AcDbLine
 10
8.370600627375237
 20
12.84872064664988
 30
0.0
 11
8.370600627375235
 21
12.86072064664988
 31
0.0
  0
LINE
  5
1C4B5
330
1F
100
AcDbEntity
  8
0
100
AcDbLine
 10
8.170600627375236
 20
12.86072064664988
 30
0.0
 11
8.170600627375229
 21
12.84872064664988
 31
0.0
  0
LINE
  5
1C4D7
330
1F
100
AcDbEntity
  8
0
100
AcDbLine
 10
7.95679662666836
 20
13.28272064664986
 30
0.0
 11
7.944796626668363
 21
13.28272064664986
 31
0.0
  0
LINE
  5
1C4D8
330
1F
100
AcDbEntity
  8
0
100
AcDbLine
 10
7.944796626668363
 20
13.25541897934219
 30
0.0
 11
7.944796626668363
 21
13.45541897934219
 31
0.0
  0
LINE
  5
1C4D9
330
1F
100
AcDbEntity
  8
0
100
AcDbLine
 10
7.944796626668363
 20
13.45541897934219
 30
0.0
 11
7.95679662666836
 21
13.4554189793422
 31
0.0
  0
LINE
  5
1C4DA
330
1F
100
AcDbEntity
  8
0
100
AcDbLine
 10
7.95679662666836
 20
13.65541897934219
 30
0.0
 11
7.944796626668365
 21
13.6554189793422
 31
0.0
  0
LINE
  5
1C4DB
330
1F
100
AcDbEntity
  8
0
100
AcDbLine
 10
7.94479662666836
 20
13.8354189793422
 30
0.0
 11
7.956796626668362
 21
13.8354189793422
 31
0.0
  0
LINE
  5
1C4DC
330
1F
100
AcDbEntity
  8
0
100
AcDbLine
 10
7.956796626668362
 20
13.8354189793422
 30
0.0
 11
7.94479662666836
 21
13.8354189793422
 31
0.0
  0
LINE
  5
1C4DD
330
1F
100
AcDbEntity
  8
0
100
AcDbLine
 10
7.94479662666836
 20
13.8354189793422
 30
0.0
 11
7.944796626668361
 21
12.87554801811658
 31
0.0
  0
LINE
  5
1C4DE
330
1F
100
AcDbEntity
  8
0
100
AcDbLine
 10
7.956796626668362
 20
13.71651157991207
 30
0.0
 11
7.956796626668362
 21
13.74381324721974
 31
0.0
  0
LINE
  5
1C4DF
330
1F
100
AcDbEntity
  8
0
100
AcDbLine
 10
7.944796626668361
 20
12.87554801811658
 30
0.0
 11
7.956796626668363
 21
12.87554801811659
 31
0.0
  0
LINE
  5
1C4E0
330
1F
100
AcDbEntity
  8
0
100
AcDbLine
 10
7.962709838224107
 20
12.86072064664988
 30
0.0
 11
7.956796626668362
 21
12.86072064664988
 31
0.0
  0
LINE
  5
1C4E1
330
1F
100
AcDbEntity
  8
0
100
AcDbLine
 10
7.956796626668362
 20
12.86072064664988
 30
0.0
 11
7.956796626668362
 21
13.74381324721974
 31
0.0
  0
LINE
  5
1C4E2
330
1F
100
AcDbEntity
  8
0
100
AcDbLine
 10
7.962709838224105
 20
12.96072064664988
 30
0.0
 11
7.956796626668362
 21
12.96072064664987
 31
0.0
  0
LINE
  5
1C4E3
330
1F
100
AcDbEntity
  8
0
100
AcDbLine
 10
7.94479662666836
 20
13.61463368632462
 30
0.0
 11
7.935209005743889
 21
13.61463368632461
 31
0.0
  0
LINE
  5
1C4E4
330
1F
100
AcDbEntity
  8
0
100
AcDbLine
 10
7.944796626668359
 20
13.56863368632462
 30
0.0
 11
7.600362576333036
 21
13.56863368632462
 31
0.0
  0
LINE
  5
1C4E5
330
1F
100
AcDbEntity
  8
0
100
AcDbLine
 10
7.94479662666836
 20
13.09462459980674
 30
0.0
 11
7.943703198664101
 21
13.09462459980674
 31
0.0
  0
LINE
  5
1C4E6
330
1F
100
AcDbEntity
  8
0
100
AcDbLine
 10
7.94479662666836
 20
13.04864277284249
 30
0.0
 11
7.943672481250754
 21
13.04864277284249
 31
0.0
  0
LINE
  5
1C6EB
330
1F
100
AcDbEntity
  8
0
100
AcDbLine
 10
8.761952142741119
 20
11.95872064664988
 30
0.0
 11
8.743044743310999
 21
11.95872064664988
 31
0.0
  0
LINE
  5
1C6EC
330
1F
100
AcDbEntity
  8
0
100
AcDbLine
 10
8.743044743310999
 20
11.95872064664988
 30
0.0
 11
8.161952142741128
 21
11.95872064664988
 31
0.0
  0
LINE
  5
1C6ED
330
1F
100
AcDbEntity
  8
0
100
AcDbLine
 10
8.06382503412132
 20
12.05872064664988
 30
0.0
 11
8.16382503412132
 21
12.05872064664988
 31
0.0
  0
LINE
  5
1C6EE
330
1F
100
AcDbEntity
  8
0
100
AcDbLine
 10
8.861952142741127
 20
11.95872064664988
 30
0.0
 11
8.861952142741127
 21
12.05872064664988
 31
0.0
  0
LINE
  5
1C6EF
330
1F
100
AcDbEntity
  8
0
100
AcDbLine
 10
8.861952142741127
 20
12.05872064664988
 30
0.0
 11
8.761952142741117
 21
12.05872064664987
 31
0.0
  0
LINE
  5
1C6F0
330
1F
100
AcDbEntity
  8
0
100
AcDbLine
 10
8.863365522280714
 20
12.81462228599415
 30
0.0
 11
8.067986598210159
 21
12.81462228599415
 31
0.0
  0
LINE
  5
1C6F1
330
1F
100
AcDbEntity
  8
0
100
AcDbLine
 10
8.067986598210159
 20
12.71610168212963
 30
0.0
 11
8.863365522280714
 21
12.71610168212963
 31
0.0
  0
LINE
  5
1C6F2
330
1F
100
AcDbEntity
  8
0
100
AcDbLine
 10
8.863365522280714
 20
12.61909672039853
 30
0.0
 11
8.067986598210159
 21
12.61909672039853
 31
0.0
  0
LINE
  5
1C6F3
330
1F
100
AcDbEntity
  8
0
100
AcDbLine
 10
8.067986598210167
 20
12.51303761314396
 30
0.0
 11
8.863365522280721
 21
12.51303761314396
 31
0.0
  0
LINE
  5
1C6F4
330
1F
100
AcDbEntity
  8
0
100
AcDbLine
 10
8.863365522280721
 20
12.41280471885281
 30
0.0
 11
8.067986598210167
 21
12.41280471885281
 31
0.0
  0
LINE
  5
1C6F5
330
1F
100
AcDbEntity
  8
0
100
AcDbLine
 10
8.067986598210167
 20
12.31049937404167
 30
0.0
 11
8.863365522280721
 21
12.31049937404167
 31
0.0
  0
LINE
  5
1C6F6
330
1F
100
AcDbEntity
  8
0
100
AcDbLine
 10
8.863365522280721
 20
12.20681342318975
 30
0.0
 11
8.067986598210167
 21
12.20681342318975
 31
0.0
  0
LINE
  5
1C6F7
330
1F
100
AcDbEntity
  8
0
100
AcDbLine
 10
8.067986598210167
 20
12.11169082015689
 30
0.0
 11
8.863365522280721
 21
12.11169082015689
 31
0.0
  0
LINE
  5
1C6F8
330
1F
100
AcDbEntity
  8
0
100
AcDbLine
 10
8.863911822565581
 20
12.96072064664987
 30
0.0
 11
8.863911822565581
 21
12.95452531663636
 31
0.0
  0
LINE
  5
1C6FA
330
1F
100
AcDbEntity
  8
0
100
AcDbLine
 10
8.863911822565581
 20
12.93439627786197
 30
0.0
 11
8.863911822565581
 21
12.95452531663636
 31
0.0
  0
LINE
  5
1C6FB
330
1F
100
AcDbEntity
  8
0
100
AcDbLine
 10
8.870294454468853
 20
12.84181324721975
 30
0.0
 11
8.870294454468853
 21
12.83956323824929
 31
0.0
  0
LINE
  5
1C6FC
330
1F
100
AcDbEntity
  8
0
100
AcDbLine
 10
8.870294454468853
 20
12.83956323824929
 30
0.0
 11
8.87029445446886
 21
12.05872064664988
 31
0.0
  0
LINE
  5
1C6FD
330
1F
100
AcDbEntity
  8
0
100
AcDbLine
 10
8.863365522280714
 20
12.83956323824929
 30
0.0
 11
8.863365522280714
 21
12.81462228599415
 31
0.0
  0
LINE
  5
1C6FE
330
1F
100
AcDbEntity
  8
0
100
AcDbLine
 10
8.863911822565581
 20
12.95452531663636
 30
0.0
 11
8.863911822565581
 21
12.90052432086141
 31
0.0
  0
LINE
  5
1C6FF
330
1F
100
AcDbEntity
  8
0
100
AcDbLine
 10
8.863911822565581
 20
12.90052432086141
 30
0.0
 11
8.863911822565581
 21
12.84181324721975
 31
0.0
  0
LINE
  5
1C700
330
1F
100
AcDbEntity
  8
0
100
AcDbLine
 10
8.863911822565581
 20
12.84181324721975
 30
0.0
 11
8.870294454468853
 21
12.84181324721975
 31
0.0
  0
LINE
  5
1C702
330
1F
100
AcDbEntity
  8
0
100
AcDbLine
 10
8.982819221995709
 20
12.84181324721975
 30
0.0
 11
8.982819221995709
 21
12.85491160787548
 31
0.0
  0
LINE
  5
1C703
330
1F
100
AcDbEntity
  8
0
100
AcDbLine
 10
8.982819221995709
 20
12.85491160787548
 30
0.0
 11
8.982819221995709
 21
12.94059160787548
 31
0.0
  0
LINE
  5
1C704
330
1F
100
AcDbEntity
  8
0
100
AcDbLine
 10
8.961952142741123
 20
12.05872064664988
 30
0.0
 11
8.87029445446886
 21
12.05872064664988
 31
0.0
  0
LINE
  5
1C705
330
1F
100
AcDbEntity
  8
0
100
AcDbLine
 10
8.87029445446886
 20
12.05872064664988
 30
0.0
 11
8.863911822565581
 21
12.05872064664988
 31
0.0
  0
LINE
  5
1C706
330
1F
100
AcDbEntity
  8
0
100
AcDbLine
 10
8.067986598210159
 20
12.83956323824928
 30
0.0
 11
8.863365522280714
 21
12.83956323824929
 31
0.0
  0
LINE
  5
1C707
330
1F
100
AcDbEntity
  8
0
100
AcDbLine
 10
8.863365522280714
 20
12.83956323824929
 30
0.0
 11
8.870294454468853
 21
12.83956323824929
 31
0.0
  0
LINE
  5
1C708
330
1F
100
AcDbEntity
  8
0
100
AcDbLine
 10
8.863365522280714
 20
12.81462228599415
 30
0.0
 11
8.863365522280714
 21
12.71610168212963
 31
0.0
  0
LINE
  5
1C709
330
1F
100
AcDbEntity
  8
0
100
AcDbLine
 10
8.863365522280714
 20
12.71610168212963
 30
0.0
 11
8.863365522280714
 21
12.61909672039853
 31
0.0
  0
LINE
  5
1C70A
330
1F
100
AcDbEntity
  8
0
100
AcDbLine
 10
8.863365522280714
 20
12.61909672039853
 30
0.0
 11
8.863365522280721
 21
12.51303761314396
 31
0.0
  0
LINE
  5
1C70B
330
1F
100
AcDbEntity
  8
0
100
AcDbLine
 10
8.863365522280721
 20
12.51303761314396
 30
0.0
 11
8.863365522280721
 21
12.41280471885281
 31
0.0
  0
LINE
  5
1C70C
330
1F
100
AcDbEntity
  8
0
100
AcDbLine
 10
8.863365522280721
 20
12.41280471885281
 30
0.0
 11
8.863365522280721
 21
12.31049937404167
 31
0.0
  0
LINE
  5
1C70D
330
1F
100
AcDbEntity
  8
0
100
AcDbLine
 10
8.863365522280721
 20
12.31049937404167
 30
0.0
 11
8.863365522280721
 21
12.20681342318975
 31
0.0
  0
LINE
  5
1C70E
330
1F
100
AcDbEntity
  8
0
100
AcDbLine
 10
8.863365522280721
 20
12.20681342318975
 30
0.0
 11
8.863365522280721
 21
12.11169082015689
 31
0.0
  0
LINE
  5
1C70F
330
1F
100
AcDbEntity
  8
0
100
AcDbLine
 10
8.863365522280721
 20
12.11169082015689
 30
0.0
 11
8.863365522280721
 21
12.05522092652155
 31
0.0
  0
LINE
  5
1C710
330
1F
100
AcDbEntity
  8
0
100
AcDbLine
 10
8.06382503412132
 20
12.05872064664988
 30
0.0
 11
8.163825034121318
 21
12.05872064664988
 31
0.0
  0
LINE
  5
1C711
330
1F
100
AcDbEntity
  8
0
100
AcDbLine
 10
8.761952142741128
 20
12.05872064664988
 30
0.0
 11
8.861952142741126
 21
12.05872064664988
 31
0.0
  0
LINE
  5
1C712
330
1F
100
AcDbEntity
  8
0
100
AcDbLine
 10
8.861952142741126
 20
12.05872064664988
 30
0.0
 11
8.961952142741123
 21
12.05872064664988
 31
0.0
  0
LINE
  5
1C713
330
1F
100
AcDbEntity
  8
0
100
AcDbLine
 10
8.963622227756383
 20
12.05872064664988
 30
0.0
 11
8.961952142741123
 21
12.05872064664988
 31
0.0
  0
LINE
  5
1C714
330
1F
100
AcDbEntity
  8
0
100
AcDbLine
 10
8.961952142741123
 20
12.05872064664988
 30
0.0
 11
8.909226222312332
 21
12.05872064664988
 31
0.0
  0
LINE
  5
1C715
330
1F
100
AcDbEntity
  8
0
100
AcDbLine
 10
8.909226222312332
 20
12.05872064664988
 30
0.0
 11
8.901064702576702
 21
12.05872064664988
 31
0.0
  0
LINE
  5
1C716
330
1F
100
AcDbEntity
  8
0
100
AcDbLine
 10
8.961952142741123
 20
11.95872064664988
 30
0.0
 11
8.861952142741127
 21
11.95872064664988
 31
0.0
  0
LINE
  5
1C717
330
1F
100
AcDbEntity
  8
0
100
AcDbLine
 10
8.870294427633018
 20
12.07773685071287
 30
0.0
 11
8.870294427633018
 21
12.08973685071287
 31
0.0
  0
LINE
  5
1C718
330
1F
100
AcDbEntity
  8
0
100
AcDbLine
 10
8.870294427633018
 20
12.83665904239839
 30
0.0
 11
8.870294427633018
 21
12.82465904239838
 31
0.0
  0
LINE
  5
1C719
330
1F
100
AcDbEntity
  8
0
100
AcDbLine
 10
8.863911822565581
 20
12.96072064664987
 30
0.0
 11
8.982819221995709
 21
12.96072064664987
 31
0.0
  0
LINE
  5
1C71A
330
1F
100
AcDbEntity
  8
0
100
AcDbLine
 10
8.982819221995709
 20
12.96072064664987
 30
0.0
 11
8.982819221995709
 21
12.94059160787548
 31
0.0
  0
LINE
  5
1C71B
330
1F
100
AcDbEntity
  8
0
100
AcDbLine
 10
8.16382503412132
 20
12.05872064664988
 30
0.0
 11
8.761952142741128
 21
12.05872064664988
 31
0.0
  0
LINE
  5
1C71C
330
1F
100
AcDbEntity
  8
0
100
AcDbLine
 10
8.861952142741127
 20
11.95872064664988
 30
0.0
 11
8.06382503412132
 21
11.95872064664988
 31
0.0
  0
LINE
  5
1C72E
330
1F
100
AcDbEntity
  8
0
100
AcDbLine
 10
8.982819221995709
 20
12.05872064664988
 30
0.0
 11
8.982819221995709
 21
11.95872064664988
 31
0.0
  0
LINE
  5
1C72F
330
1F
100
AcDbEntity
  8
0
100
AcDbLine
 10
8.982819221995709
 20
11.95872064664988
 30
0.0
 11
8.961952142741123
 21
11.95872064664988
 31
0.0
  0
LINE
  5
1C730
330
1F
100
AcDbEntity
  8
0
100
AcDbLine
 10
8.961952142741123
 20
12.05872064664988
 30
0.0
 11
8.982819221995709
 21
12.05872064664988
 31
0.0
  0
LINE
  5
1C731
330
1F
100
AcDbEntity
  8
0
100
AcDbLine
 10
8.982819221995709
 20
12.96072064664987
 30
0.0
 11
8.982819221995709
 21
12.94059160787548
 31
0.0
  0
LINE
  5
1C732
330
1F
100
AcDbEntity
  8
0
100
AcDbLine
 10
8.982819221995709
 20
12.94059160787548
 30
0.0
 11
8.994819221995708
 21
12.94059160787549
 31
0.0
  0
LINE
  5
1C736
330
1F
100
AcDbEntity
  8
0
100
AcDbLine
 10
7.971715823272445
 20
11.94672064664988
 30
0.0
 11
8.971715823272445
 21
11.94672064664988
 31
0.0
  0
LINE
  5
1C737
330
1F
100
AcDbEntity
  8
0
100
AcDbLine
 10
8.971715823272445
 20
11.94672064664988
 30
0.0
 11
8.971715823272445
 21
11.95872064664988
 31
0.0
  0
LINE
  5
1C738
330
1F
100
AcDbEntity
  8
0
100
AcDbLine
 10
8.971715823272445
 20
11.94672064664988
 30
0.0
 11
8.771715823272446
 21
11.94672064664988
 31
0.0
  0
LINE
  5
1C739
330
1F
100
AcDbEntity
  8
0
100
AcDbLine
 10
8.771715823272446
 20
11.94672064664988
 30
0.0
 11
8.771715823272453
 21
11.95872064664988
 31
0.0
  0
LINE
  5
1C73A
330
1F
100
AcDbEntity
  8
0
100
AcDbLine
 10
8.571715823272453
 20
11.95872064664988
 30
0.0
 11
8.57171582327245
 21
11.94672064664988
 31
0.0
  0
LINE
  5
1C73B
330
1F
100
AcDbEntity
  8
0
100
AcDbLine
 10
8.57171582327245
 20
11.94672064664988
 30
0.0
 11
8.371715823272451
 21
11.94672064664988
 31
0.0
  0
LINE
  5
1C73C
330
1F
100
AcDbEntity
  8
0
100
AcDbLine
 10
8.371715823272451
 20
11.94672064664988
 30
0.0
 11
8.371715823272449
 21
11.95872064664988
 31
0.0
  0
LINE
  5
1C73D
330
1F
100
AcDbEntity
  8
0
100
AcDbLine
 10
8.17171582327245
 20
11.95872064664988
 30
0.0
 11
8.171715823272442
 21
11.94672064664989
 31
0.0
  0
LINE
  5
1C740
330
1F
100
AcDbEntity
  8
0
100
AcDbLine
 10
8.875790814542751
 20
12.86072064664988
 30
0.0
 11
8.775790814542752
 21
12.86072064664988
 31
0.0
  0
LINE
  5
1C741
330
1F
100
AcDbEntity
  8
0
100
AcDbLine
 10
8.077663705922944
 20
12.96072064664988
 30
0.0
 11
8.077663705922944
 21
12.86072064664988
 31
0.0
  0
LINE
  5
1C742
330
1F
100
AcDbEntity
  8
0
100
AcDbLine
 10
8.077663705922944
 20
12.86072064664988
 30
0.0
 11
8.177663705922954
 21
12.86072064664988
 31
0.0
  0
LINE
  5
1C743
330
1F
100
AcDbEntity
  8
0
100
AcDbLine
 10
8.076250326383357
 20
12.10481900730561
 30
0.0
 11
8.871629250453912
 21
12.10481900730561
 31
0.0
  0
LINE
  5
1C744
330
1F
100
AcDbEntity
  8
0
100
AcDbLine
 10
8.871629250453912
 20
12.20333961117012
 30
0.0
 11
8.076250326383357
 21
12.20333961117012
 31
0.0
  0
LINE
  5
1C745
330
1F
100
AcDbEntity
  8
0
100
AcDbLine
 10
8.076250326383357
 20
12.30034457290123
 30
0.0
 11
8.871629250453912
 21
12.30034457290123
 31
0.0
  0
LINE
  5
1C746
330
1F
100
AcDbEntity
  8
0
100
AcDbLine
 10
8.871629250453905
 20
12.4064036801558
 30
0.0
 11
8.07625032638335
 21
12.4064036801558
 31
0.0
  0
LINE
  5
1C747
330
1F
100
AcDbEntity
  8
0
100
AcDbLine
 10
8.07625032638335
 20
12.50663657444694
 30
0.0
 11
8.871629250453905
 21
12.50663657444694
 31
0.0
  0
LINE
  5
1C748
330
1F
100
AcDbEntity
  8
0
100
AcDbLine
 10
8.871629250453905
 20
12.60894191925809
 30
0.0
 11
8.07625032638335
 21
12.60894191925809
 31
0.0
  0
LINE
  5
1C749
330
1F
100
AcDbEntity
  8
0
100
AcDbLine
 10
8.07625032638335
 20
12.71262787011001
 30
0.0
 11
8.871629250453905
 21
12.71262787011001
 31
0.0
  0
LINE
  5
1C74A
330
1F
100
AcDbEntity
  8
0
100
AcDbLine
 10
8.871629250453905
 20
12.80775047314286
 30
0.0
 11
8.07625032638335
 21
12.80775047314286
 31
0.0
  0
LINE
  5
1C74B
330
1F
100
AcDbEntity
  8
0
100
AcDbLine
 10
8.07570402609849
 20
11.95872064664988
 30
0.0
 11
8.07570402609849
 21
11.96491597666339
 31
0.0
  0
LINE
  5
1C74C
330
1F
100
AcDbEntity
  8
0
100
AcDbLine
 10
7.977663705922948
 20
12.07762804608001
 30
0.0
 11
7.956796626668362
 21
12.07762804608001
 31
0.0
  0
LINE
  5
1C74D
330
1F
100
AcDbEntity
  8
0
100
AcDbLine
 10
8.07570402609849
 20
11.98504501543778
 30
0.0
 11
8.07570402609849
 21
11.96491597666339
 31
0.0
  0
LINE
  5
1C74E
330
1F
100
AcDbEntity
  8
0
100
AcDbLine
 10
8.069321394195219
 20
12.07762804608001
 30
0.0
 11
8.069321394195219
 21
12.07987805505047
 31
0.0
  0
LINE
  5
1C74F
330
1F
100
AcDbEntity
  8
0
100
AcDbLine
 10
8.069321394195219
 20
12.07987805505047
 30
0.0
 11
8.069321394195211
 21
12.86072064664988
 31
0.0
  0
LINE
  5
1C750
330
1F
100
AcDbEntity
  8
0
100
AcDbLine
 10
8.076250326383357
 20
12.07987805505047
 30
0.0
 11
8.076250326383357
 21
12.10481900730561
 31
0.0
  0
LINE
  5
1C751
330
1F
100
AcDbEntity
  8
0
100
AcDbLine
 10
8.07570402609849
 20
11.96491597666339
 30
0.0
 11
8.07570402609849
 21
12.01891697243834
 31
0.0
  0
LINE
  5
1C752
330
1F
100
AcDbEntity
  8
0
100
AcDbLine
 10
8.07570402609849
 20
12.01891697243834
 30
0.0
 11
8.07570402609849
 21
12.07762804608001
 31
0.0
  0
LINE
  5
1C753
330
1F
100
AcDbEntity
  8
0
100
AcDbLine
 10
8.07570402609849
 20
12.07762804608001
 30
0.0
 11
8.069321394195219
 21
12.07762804608001
 31
0.0
  0
LINE
  5
1C754
330
1F
100
AcDbEntity
  8
0
100
AcDbLine
 10
8.069321394195219
 20
12.07762804608001
 30
0.0
 11
7.977663705922948
 21
12.07762804608001
 31
0.0
  0
LINE
  5
1C755
330
1F
100
AcDbEntity
  8
0
100
AcDbLine
 10
7.956796626668362
 20
12.07762804608001
 30
0.0
 11
7.956796626668362
 21
12.06452968542427
 31
0.0
  0
LINE
  5
1C756
330
1F
100
AcDbEntity
  8
0
100
AcDbLine
 10
7.956796626668362
 20
12.06452968542427
 30
0.0
 11
7.956796626668362
 21
11.97884968542427
 31
0.0
  0
LINE
  5
1C757
330
1F
100
AcDbEntity
  8
0
100
AcDbLine
 10
7.977663705922948
 20
12.86072064664988
 30
0.0
 11
8.069321394195211
 21
12.86072064664988
 31
0.0
  0
LINE
  5
1C758
330
1F
100
AcDbEntity
  8
0
100
AcDbLine
 10
8.069321394195211
 20
12.86072064664988
 30
0.0
 11
8.07570402609849
 21
12.86072064664988
 31
0.0
  0
LINE
  5
1C759
330
1F
100
AcDbEntity
  8
0
100
AcDbLine
 10
8.871629250453912
 20
12.07987805505047
 30
0.0
 11
8.076250326383357
 21
12.07987805505047
 31
0.0
  0
LINE
  5
1C75A
330
1F
100
AcDbEntity
  8
0
100
AcDbLine
 10
8.076250326383357
 20
12.07987805505047
 30
0.0
 11
8.069321394195219
 21
12.07987805505047
 31
0.0
  0
LINE
  5
1C75B
330
1F
100
AcDbEntity
  8
0
100
AcDbLine
 10
8.076250326383357
 20
12.10481900730561
 30
0.0
 11
8.076250326383357
 21
12.20333961117012
 31
0.0
  0
LINE
  5
1C75C
330
1F
100
AcDbEntity
  8
0
100
AcDbLine
 10
8.076250326383357
 20
12.20333961117012
 30
0.0
 11
8.076250326383357
 21
12.30034457290123
 31
0.0
  0
LINE
  5
1C75D
330
1F
100
AcDbEntity
  8
0
100
AcDbLine
 10
8.076250326383357
 20
12.30034457290123
 30
0.0
 11
8.07625032638335
 21
12.4064036801558
 31
0.0
  0
LINE
  5
1C75E
330
1F
100
AcDbEntity
  8
0
100
AcDbLine
 10
8.07625032638335
 20
12.4064036801558
 30
0.0
 11
8.07625032638335
 21
12.50663657444694
 31
0.0
  0
LINE
  5
1C75F
330
1F
100
AcDbEntity
  8
0
100
AcDbLine
 10
8.07625032638335
 20
12.50663657444694
 30
0.0
 11
8.07625032638335
 21
12.60894191925809
 31
0.0
  0
LINE
  5
1C760
330
1F
100
AcDbEntity
  8
0
100
AcDbLine
 10
8.07625032638335
 20
12.60894191925809
 30
0.0
 11
8.07625032638335
 21
12.71262787011001
 31
0.0
  0
LINE
  5
1C761
330
1F
100
AcDbEntity
  8
0
100
AcDbLine
 10
8.07625032638335
 20
12.71262787011001
 30
0.0
 11
8.07625032638335
 21
12.80775047314286
 31
0.0
  0
LINE
  5
1C762
330
1F
100
AcDbEntity
  8
0
100
AcDbLine
 10
8.07625032638335
 20
12.80775047314286
 30
0.0
 11
8.07625032638335
 21
12.8642203667782
 31
0.0
  0
LINE
  5
1C763
330
1F
100
AcDbEntity
  8
0
100
AcDbLine
 10
8.875790814542751
 20
12.86072064664988
 30
0.0
 11
8.775790814542753
 21
12.86072064664988
 31
0.0
  0
LINE
  5
1C764
330
1F
100
AcDbEntity
  8
0
100
AcDbLine
 10
8.177663705922944
 20
12.86072064664988
 30
0.0
 11
8.077663705922946
 21
12.86072064664988
 31
0.0
  0
LINE
  5
1C765
330
1F
100
AcDbEntity
  8
0
100
AcDbLine
 10
8.077663705922946
 20
12.86072064664988
 30
0.0
 11
7.977663705922948
 21
12.86072064664988
 31
0.0
  0
LINE
  5
1C766
330
1F
100
AcDbEntity
  8
0
100
AcDbLine
 10
7.975993620907688
 20
12.86072064664988
 30
0.0
 11
7.977663705922948
 21
12.86072064664988
 31
0.0
  0
LINE
  5
1C767
330
1F
100
AcDbEntity
  8
0
100
AcDbLine
 10
7.977663705922948
 20
12.86072064664988
 30
0.0
 11
8.030389626351739
 21
12.86072064664988
 31
0.0
  0
LINE
  5
1C768
330
1F
100
AcDbEntity
  8
0
100
AcDbLine
 10
8.030389626351739
 20
12.86072064664988
 30
0.0
 11
8.038551146087369
 21
12.86072064664988
 31
0.0
  0
LINE
  5
1C769
330
1F
100
AcDbEntity
  8
0
100
AcDbLine
 10
7.977663705922948
 20
12.96072064664987
 30
0.0
 11
8.077663705922944
 21
12.96072064664988
 31
0.0
  0
LINE
  5
1C76A
330
1F
100
AcDbEntity
  8
0
100
AcDbLine
 10
8.069321421031053
 20
12.84170444258688
 30
0.0
 11
8.069321421031053
 21
12.82970444258688
 31
0.0
  0
LINE
  5
1C76B
330
1F
100
AcDbEntity
  8
0
100
AcDbLine
 10
8.069321421031053
 20
12.08278225090137
 30
0.0
 11
8.069321421031053
 21
12.09478225090137
 31
0.0
  0
LINE
  5
1C76C
330
1F
100
AcDbEntity
  8
0
100
AcDbLine
 10
8.07570402609849
 20
11.95872064664988
 30
0.0
 11
7.956796626668362
 21
11.95872064664988
 31
0.0
  0
LINE
  5
1C76D
330
1F
100
AcDbEntity
  8
0
100
AcDbLine
 10
7.956796626668362
 20
11.95872064664988
 30
0.0
 11
7.956796626668362
 21
11.97884968542427
 31
0.0
  0
LINE
  5
1C76E
330
1F
100
AcDbEntity
  8
0
100
AcDbLine
 10
8.775790814542752
 20
12.86072064664988
 30
0.0
 11
8.177663705922944
 21
12.86072064664988
 31
0.0
  0
LINE
  5
1C770
330
1F
100
AcDbEntity
  8
0
100
AcDbLine
 10
8.981704026098496
 20
11.95872064664988
 30
0.0
 11
7.981704026098496
 21
11.95872064664988
 31
0.0
  0
LINE
  5
1C771
330
1F
100
AcDbEntity
  8
0
100
AcDbLine
 10
7.971715823272445
 20
11.95872064664988
 30
0.0
 11
7.971715823272445
 21
11.94672064664988
 31
0.0
  0
LINE
  5
1C772
330
1F
100
AcDbEntity
  8
0
100
AcDbLine
 10
7.971715823272445
 20
11.94672064664988
 30
0.0
 11
8.971715823272445
 21
11.94672064664988
 31
0.0
  0
LINE
  5
1C773
330
1F
100
AcDbEntity
  8
0
100
AcDbLine
 10
8.971715823272445
 20
11.94672064664988
 30
0.0
 11
8.771715823272446
 21
11.94672064664988
 31
0.0
  0
LINE
  5
1C774
330
1F
100
AcDbEntity
  8
0
100
AcDbLine
 10
8.771715823272446
 20
11.94672064664988
 30
0.0
 11
8.771715823272453
 21
11.95872064664988
 31
0.0
  0
LINE
  5
1C775
330
1F
100
AcDbEntity
  8
0
100
AcDbLine
 10
8.781704026098504
 20
11.95872064664988
 30
0.0
 11
8.581704026098504
 21
11.95872064664988
 31
0.0
  0
LINE
  5
1C776
330
1F
100
AcDbEntity
  8
0
100
AcDbLine
 10
8.571715823272453
 20
11.95872064664988
 30
0.0
 11
8.57171582327245
 21
11.94672064664988
 31
0.0
  0
LINE
  5
1C777
330
1F
100
AcDbEntity
  8
0
100
AcDbLine
 10
8.57171582327245
 20
11.94672064664988
 30
0.0
 11
8.371715823272451
 21
11.94672064664988
 31
0.0
  0
LINE
  5
1C778
330
1F
100
AcDbEntity
  8
0
100
AcDbLine
 10
8.371715823272451
 20
11.94672064664988
 30
0.0
 11
8.371715823272449
 21
11.95872064664988
 31
0.0
  0
LINE
  5
1C779
330
1F
100
AcDbEntity
  8
0
100
AcDbLine
 10
8.3817040260985
 20
11.95872064664988
 30
0.0
 11
8.181704026098501
 21
11.95872064664988
 31
0.0
  0
LINE
  5
1C77A
330
1F
100
AcDbEntity
  8
0
100
AcDbLine
 10
8.17171582327245
 20
11.95872064664988
 30
0.0
 11
8.171715823272442
 21
11.94672064664989
 31
0.0
  0
LINE
  5
1C77B
330
1F
100
AcDbEntity
  8
0
100
AcDbLine
 10
7.944796626668363
 20
12.15872064664988
 30
0.0
 11
7.956796626668362
 21
12.15872064664988
 31
0.0
  0
LINE
  5
1C77C
330
1F
100
AcDbEntity
  8
0
100
AcDbLine
 10
7.956796626668362
 20
12.35872064664987
 30
0.0
 11
7.944796626668365
 21
12.35872064664988
 31
0.0
  0
LINE
  5
1C77D
330
1F
100
AcDbEntity
  8
0
100
AcDbLine
 10
7.944796626668365
 20
12.35872064664988
 30
0.0
 11
7.944796626668365
 21
12.55872064664988
 31
0.0
  0
LINE
  5
1C77E
330
1F
100
AcDbEntity
  8
0
100
AcDbLine
 10
7.944796626668365
 20
12.55872064664988
 30
0.0
 11
7.956796626668362
 21
12.55872064664988
 31
0.0
  0
LINE
  5
1C77F
330
1F
100
AcDbEntity
  8
0
100
AcDbLine
 10
7.956796626668362
 20
12.75872064664988
 30
0.0
 11
7.944796626668367
 21
12.75872064664989
 31
0.0
  0
LINE
  5
1C780
330
1F
100
AcDbEntity
  8
0
100
AcDbLine
 10
7.956796626668362
 20
12.07762804608001
 30
0.0
 11
7.956796626668362
 21
12.86072064664988
 31
0.0
  0
LINE
  5
1C781
330
1F
100
AcDbEntity
  8
0
100
AcDbLine
 10
7.956796626668362
 20
12.86072064664988
 30
0.0
 11
7.956796626668362
 21
12.96072064664987
 31
0.0
  0
LINE
  5
1C782
330
1F
100
AcDbEntity
  8
0
100
AcDbLine
 10
7.956796626668362
 20
12.96072064664987
 30
0.0
 11
7.977663705922948
 21
12.96072064664987
 31
0.0
  0
LINE
  5
1C783
330
1F
100
AcDbEntity
  8
0
100
AcDbLine
 10
7.977663705922948
 20
12.86072064664988
 30
0.0
 11
7.956796626668362
 21
12.86072064664988
 31
0.0
  0
LINE
  5
1C784
330
1F
100
AcDbEntity
  8
0
100
AcDbLine
 10
7.956796626668362
 20
11.95872064664988
 30
0.0
 11
7.956796626668362
 21
11.97884968542427
 31
0.0
  0
LINE
  5
1C785
330
1F
100
AcDbEntity
  8
0
100
AcDbLine
 10
7.956796626668362
 20
11.97884968542427
 30
0.0
 11
7.944796626668363
 21
11.97884968542426
 31
0.0
  0
LINE
  5
1C786
330
1F
100
AcDbEntity
  8
0
100
AcDbLine
 10
7.944796626668361
 20
12.93872064664988
 30
0.0
 11
7.956796626668364
 21
12.93872064664989
 31
0.0
  0
LINE
  5
1C787
330
1F
100
AcDbEntity
  8
0
100
AcDbLine
 10
7.956796626668364
 20
12.93872064664989
 30
0.0
 11
7.944796626668361
 21
12.93872064664988
 31
0.0
  0
LINE
  5
1C788
330
1F
100
AcDbEntity
  8
0
100
AcDbLine
 10
7.944796626668361
 20
12.93872064664988
 30
0.0
 11
7.944796626668363
 21
11.97884968542426
 31
0.0
  0
LINE
  5
1C827
330
1F
100
AcDbEntity
  8
0
100
AcDbLine
 10
9.268999330094748
 20
12.81184627616189
 30
0.0
 11
9.269082784979046
 21
12.08875368562348
 31
0.0
  0
LINE
  5
1C828
330
1F
100
AcDbEntity
  8
0
100
AcDbLine
 10
9.469082783647015
 20
12.08877676838904
 30
0.0
 11
9.468999328762714
 21
12.81186935892745
 31
0.0
  0
LINE
  5
1C829
330
1F
100
AcDbEntity
  8
0
100
AcDbLine
 10
9.068999331426788
 20
12.81182319339632
 30
0.0
 11
9.069082786311083
 21
12.08873060285791
 31
0.0
  0
LINE
  5
1C82A
330
1F
100
AcDbEntity
  8
0
100
AcDbLine
 10
9.581629172700987
 20
12.05878975759889
 30
0.0
 11
9.154894914049725
 21
12.05874050656431
 31
0.0
  0
LINE
  5
1C82B
330
1F
100
AcDbEntity
  8
0
100
AcDbLine
 10
9.054894914715744
 20
12.05872896518153
 30
0.0
 11
9.051570768924795
 21
12.05872858152913
 31
0.0
  0
LINE
  5
1C82C
330
1F
100
AcDbEntity
  8
0
100
AcDbLine
 10
9.051570768924795
 20
12.05872858152913
 30
0.0
 11
8.982819221995709
 21
12.05872064664988
 31
0.0
  0
LINE
  5
1C82D
330
1F
100
AcDbEntity
  8
0
100
AcDbLine
 10
9.051567306509957
 20
12.08872858132933
 30
0.0
 11
8.982815759580878
 21
12.08872064645007
 31
0.0
  0
LINE
  5
1C82E
330
1F
100
AcDbEntity
  8
0
100
AcDbLine
 10
8.982819221995709
 20
12.05872064664988
 30
0.0
 11
8.982815759580878
 21
12.08872064645007
 31
0.0
  0
LINE
  5
1C82F
330
1F
100
AcDbEntity
  8
0
100
AcDbLine
 10
9.051570768924795
 20
12.05872858152913
 30
0.0
 11
9.051567306509957
 21
12.08872858132933
 31
0.0
  0
LINE
  5
1C830
330
1F
100
AcDbEntity
  8
0
100
AcDbLine
 10
9.051570768924781
 20
12.841821182099
 30
0.0
 11
8.982819221995709
 21
12.84181324721975
 31
0.0
  0
LINE
  5
1C831
330
1F
100
AcDbEntity
  8
0
100
AcDbLine
 10
9.051574231339619
 20
12.81182118229881
 30
0.0
 11
8.982822684410541
 21
12.81181324741955
 31
0.0
  0
LINE
  5
1C832
330
1F
100
AcDbEntity
  8
0
100
AcDbLine
 10
8.982822684410541
 20
12.81181324741955
 30
0.0
 11
8.982819221995709
 21
12.84181324721975
 31
0.0
  0
LINE
  5
1C833
330
1F
100
AcDbEntity
  8
0
100
AcDbLine
 10
9.051574231339619
 20
12.81182118229881
 30
0.0
 11
9.051570768924781
 21
12.841821182099
 31
0.0
  0
LINE
  5
1C834
330
1F
100
AcDbEntity
  8
0
100
AcDbLine
 10
9.054894914715744
 20
12.05872896518153
 30
0.0
 11
9.154894914049725
 21
12.05874050656431
 31
0.0
  0
LINE
  5
1C835
330
1F
100
AcDbEntity
  8
0
100
AcDbLine
 10
9.154894914049718
 20
12.84183310713417
 30
0.0
 11
9.054894914715736
 21
12.84182156575139
 31
0.0
  0
LINE
  5
1C836
330
1F
100
AcDbEntity
  8
0
100
AcDbLine
 10
9.051570768924781
 20
12.841821182099
 30
0.0
 11
9.054894914715736
 21
12.84182156575139
 31
0.0
  0
LINE
  5
1C837
330
1F
100
AcDbEntity
  8
0
100
AcDbLine
 10
9.051567306509957
 20
12.08872858132933
 30
0.0
 11
9.069082786311083
 21
12.08873060285791
 31
0.0
  0
LINE
  5
1C838
330
1F
100
AcDbEntity
  8
0
100
AcDbLine
 10
9.581746515172129
 20
12.84188237171171
 30
0.0
 11
9.154894914049718
 21
12.84183310713417
 31
0.0
  0
LINE
  5
1C839
330
1F
100
AcDbEntity
  8
0
100
AcDbLine
 10
9.581746515172129
 20
12.8118823715119
 30
0.0
 11
9.469089708476678
 21
12.81186936935852
 31
0.0
  0
LINE
  5
1C83A
330
1F
100
AcDbEntity
  8
0
100
AcDbLine
 10
9.469089708476678
 20
12.81186936935852
 30
0.0
 11
9.269089709808708
 21
12.81184628659296
 31
0.0
  0
LINE
  5
1C83B
330
1F
100
AcDbEntity
  8
0
100
AcDbLine
 10
9.469082783647015
 20
12.08877676838904
 30
0.0
 11
9.269082784979046
 21
12.08875368562348
 31
0.0
  0
LINE
  5
1C83C
330
1F
100
AcDbEntity
  8
0
100
AcDbLine
 10
9.269082784979046
 20
12.08875368562348
 30
0.0
 11
9.069082786311083
 21
12.08873060285791
 31
0.0
  0
LINE
  5
1C83D
330
1F
100
AcDbEntity
  8
0
100
AcDbLine
 10
9.583500147445166
 20
12.08878997373506
 30
0.0
 11
9.469082783647015
 21
12.08877676838904
 31
0.0
  0
LINE
  5
1C83E
330
1F
100
AcDbEntity
  8
0
100
AcDbLine
 10
9.069089711140746
 20
12.81182320382739
 30
0.0
 11
9.051574231339619
 21
12.81182118229881
 31
0.0
  0
LINE
  5
1C83F
330
1F
100
AcDbEntity
  8
0
100
AcDbLine
 10
9.069089711140746
 20
12.81182320382739
 30
0.0
 11
9.269089709808708
 21
12.81184628659296
 31
0.0
  0
LINE
  5
1C840
330
1F
100
AcDbEntity
  8
0
100
AcDbLine
 10
8.982819221995709
 20
12.84181324721975
 30
0.0
 11
8.982819221995709
 21
12.05872064664988
 31
0.0
  0
LINE
  5
1C841
330
1F
100
AcDbEntity
  8
0
100
AcDbLine
 10
8.982819221995709
 20
12.00118438682264
 30
0.0
 11
9.559568299895275
 21
12.00118438682264
 31
0.0
  0
LINE
  5
1C842
330
1F
100
AcDbEntity
  8
0
100
AcDbLine
 10
9.559568299895275
 20
12.00118438682264
 30
0.0
 11
9.559568299895275
 21
12.04118438682264
 31
0.0
  0
LINE
  5
1C843
330
1F
100
AcDbEntity
  8
0
100
AcDbLine
 10
9.559568299895275
 20
12.04118438682264
 30
0.0
 11
8.982819221995708
 21
12.04118438682264
 31
0.0
  0
LINE
  5
1C844
330
1F
100
AcDbEntity
  8
0
100
AcDbLine
 10
9.107880787583253
 20
12.04118438682264
 30
0.0
 11
9.107880787583246
 21
12.00118438682264
 31
0.0
  0
LINE
  5
1C84F
330
1F
100
AcDbEntity
  8
0
100
AcDbLine
 10
8.982819240936873
 20
12.8677853993073
 30
0.0
 11
9.559568318836438
 21
12.8677853993073
 31
0.0
  0
LINE
  5
1C850
330
1F
100
AcDbEntity
  8
0
100
AcDbLine
 10
9.559568318836438
 20
12.8677853993073
 30
0.0
 11
9.559568318836438
 21
12.9077853993073
 31
0.0
  0
LINE
  5
1C851
330
1F
100
AcDbEntity
  8
0
100
AcDbLine
 10
9.559568318836438
 20
12.9077853993073
 30
0.0
 11
8.982819240936871
 21
12.9077853993073
 31
0.0
  0
LINE
  5
1C852
330
1F
100
AcDbEntity
  8
0
100
AcDbLine
 10
9.107880806524416
 20
12.9077853993073
 30
0.0
 11
9.107880806524409
 21
12.8677853993073
 31
0.0
  0
LINE
  5
1C866
330
1F
100
AcDbEntity
  8
STREFA BEZPIECZEŃSTWA
100
AcDbLine
 10
6.466784829494413
 20
15.37472064664987
 30
0.0
 11
6.466784829494414
 21
14.61463368632462
 31
0.0
  0
LINE
  5
1C867
330
1F
100
AcDbEntity
  8
STREFA BEZPIECZEŃSTWA
100
AcDbLine
 10
6.466784829494414
 20
14.61463368632462
 30
0.0
 11
3.811778591475555
 21
14.61463368632467
 31
0.0
  0
LINE
  5
1C868
102
{ACAD_REACTORS
330
1C89F
102
}
330
1F
100
AcDbEntity
  8
STREFA BEZPIECZEŃSTWA
100
AcDbLine
 10
3.811778591475555
 20
14.61463368632467
 30
0.0
 11
3.811778591475546
 21
12.04864277284251
 31
0.0
  0
LINE
  5
1C869
330
1F
100
AcDbEntity
  8
STREFA BEZPIECZEŃSTWA
100
AcDbLine
 10
3.811778591475546
 20
12.04864277284251
 30
0.0
 11
6.466784829494414
 21
12.04864277284252
 31
0.0
  0
LINE
  5
1C86A
330
1F
100
AcDbEntity
  8
STREFA BEZPIECZEŃSTWA
100
AcDbLine
 10
6.466784829494414
 20
12.04864277284252
 30
0.0
 11
6.466784829494409
 21
10.44672064664989
 31
0.0
  0
LINE
  5
1C86C
330
1F
100
AcDbEntity
  8
STREFA BEZPIECZEŃSTWA
100
AcDbLine
 10
10.91540590614225
 20
10.44672064664989
 30
0.0
 11
10.91540590614225
 21
14.4077853993073
 31
0.0
  0
LINE
  5
1C86E
102
{ACAD_REACTORS
330
1C884
102
}
330
1F
100
AcDbEntity
  8
STREFA BEZPIECZEŃSTWA
100
AcDbLine
 10
6.466784829494413
 20
15.37472064664987
 30
0.0
 11
10.48170402609849
 21
15.37472064664986
 31
0.0
  0
LINE
  5
1C86F
330
1F
100
AcDbEntity
  8
STREFA BEZPIECZEŃSTWA
100
AcDbLine
 10
10.48170402609849
 20
15.37472064664986
 30
0.0
 11
10.48170402609849
 21
14.4077853993073
 31
0.0
  0
DIMENSION
  5
1C871
102
{ACAD_XDICTIONARY
360
1C87C
102
}
102
{ACAD_REACTORS
330
1C884
102
}
330
1F
100
AcDbEntity
  8
WYMIAR
100
AcDbDimension
  2
*D3
 10
3.225014492336412
 20
10.38840385756715
 30
0.0
 11
3.015014492336411
 21
12.88156225210851
 31
0.0
 70
    32
 71
     5
 42
4.986316789082717
  3
AR SKALA 1-50
100
AcDbAlignedDimension
 13
6.466784829494413
 23
15.37472064664987
 33
0.0
 14
6.466784829494409
 24
10.38840385756715
 34
0.0
 50
90.0
100
AcDbRotatedDimension
  0
DIMENSION
  5
1C88C
102
{ACAD_XDICTIONARY
360
1C897
102
}
102
{ACAD_REACTORS
330
1C89F
102
}
330
1F
100
AcDbEntity
  8
WYMIAR
100
AcDbDimension
  2
*D4
 10
10.91540590614225
 20
15.92765350218811
 30
0.0
 11
7.363592248808904
 21
16.13765350218811
 31
0.0
 70
    32
 71
     5
 42
7.103627314666699
  3
AR SKALA 1-50
100
AcDbAlignedDimension
 13
3.811778591475555
 23
14.61463368632467
 33
0.0
 14
10.91540590614225
 24
14.4077853993073
 34
0.0
100
AcDbRotatedDimension
  0
LINE
  5
1C8B5
330
1F
100
AcDbEntity
  8
STREFA BEZPIECZEŃSTWA
100
AcDbLine
 10
10.48170402609849
 20
14.4077853993073
 30
0.0
 11
10.91540590614225
 21
14.4077853993073
 31
0.0
  0
LINE
  5
1C8B6
330
1F
100
AcDbEntity
  8
STREFA BEZPIECZEŃSTWA
100
AcDbLine
 10
10.91540590614225
 20
10.44672064664989
 30
0.0
 11
6.466784829494409
 21
10.44672064664989
 31
0.0
  0
VIEWPORT
  5
7CA
330
1B
100
AcDbEntity
 67
     1
  8
0
100
AcDbViewport
 10
163.4989016524326
 20
195.3375876413696
 30
0.0
 40
698.2942801405966
 41
353.4951741932161
 68
     1
 69
     1
 12
163.4989016524326
 22
195.3375876413696
 13
0.0
 23
0.0
 14
10.0
 24
10.0
 15
10.0
 25
10.0
 16
0.0
 26
0.0
 36
1.0
 17
0.0
 27
0.0
 37
0.0
 42
50.0
 43
0.0
 44
0.0
 45
353.4951741932161
 50
0.0
 51
0.0
 72
   100
 90
   819232
  1

281
     0
 71
     1
 74
     0
110
0.0
120
0.0
130
0.0
111
1.0
121
0.0
131
0.0
112
0.0
122
1.0
132
0.0
 79
     0
146
0.0
170
     0
  0
VIEWPORT
  5
99A
330
1B
100
AcDbEntity
 67
     1
  8
Defpoints
100
AcDbViewport
 10
211.6374382675827
 20
146.9348621411756
 30
0.0
 40
410.1517866444555
 41
287.3053455326816
 68
     2
 69
     2
 12
11.12905232541961
 22
6.670544030772823
 13
0.0
 23
0.0
 14
0.5
 24
0.5
 15
0.5
 25
0.5
 16
0.0
 26
0.0
 36
1.0
 17
0.0
 27
0.0
 37
-1000.0
 42
50.0
 43
4.148984367261674
 44
9.217858496371269
 45
14.36526866548176
 50
0.0
 51
0.0
 72
   100
 90
   819296
  1

281
     0
 71
     1
 74
     0
110
0.0
120
0.0
130
0.0
111
1.0
121
0.0
131
0.0
112
0.0
122
1.0
132
0.0
 79
     0
146
0.0
170
     0
  0
ENDSEC
  0
SECTION
  2
OBJECTS
  0
DICTIONARY
  5
C
330
0
100
AcDbDictionary
281
     1
  3
ACAD_COLOR
350
4B9
  3
ACAD_GROUP
350
D
  3
ACAD_LAYOUT
350
1A
  3
ACAD_MATERIAL
350
3B
  3
ACAD_MLEADERSTYLE
350
489
  3
ACAD_MLINESTYLE
350
17
  3
ACAD_PLOTSETTINGS
350
19
  3
ACAD_PLOTSTYLENAME
350
E
  3
ACAD_SCALELIST
350
10523
  3
ACAD_TABLESTYLE
350
4BA
  3
ACAD_VISUALSTYLE
350
2A
  3
ACDB_RECOMPOSE_DATA
350
1055C
  3
AcDbVariableDictionary
350
487
  0
DICTIONARY
  5
84C
330
8
100
AcDbDictionary
280
     1
281
     1
  0
DICTIONARY
  5
7D1
330
2
100
AcDbDictionary
280
     1
281
     1
  3
ACAD_LAYERFILTERS
360
1C8CB
  3
ACAD_LAYERSTATES
360
7D2
  3
ACLYDICTIONARY
360
1C8CA
  0
DICTIONARY
  5
10554
330
10
100
AcDbDictionary
280
     1
281
     1
  3
ADSK_XREC_LAYER_RECONCILED
360
10555
  0
DICTIONARY
  5
10556
330
87B
100
AcDbDictionary
280
     1
281
     1
  3
ADSK_XREC_LAYER_RECONCILED
360
10557
  0
DICTIONARY
  5
10558
330
87D
100
AcDbDictionary
280
     1
281
     1
  3
ADSK_XREC_LAYER_RECONCILED
360
10559
  0
DICTIONARY
  5
5F8
330
1F
100
AcDbDictionary
280
     1
281
     1
  3
ACAD_SORTENTS
360
5F9
  0
DICTIONARY
  5
1C8E7
330
1C02D
100
AcDbDictionary
280
     1
281
     1
  3
ACAD_MTEXT_2008_RT
360
1C8E8
  0
DICTIONARY
  5
1C87C
330
1C871
100
AcDbDictionary
280
     1
281
     1
  3
ACAD_DIMASSOC
360
1C884
  0
DICTIONARY
  5
1C897
330
1C88C
100
AcDbDictionary
280
     1
281
     1
  3
ACAD_DIMASSOC
360
1C89F
  0
DICTIONARY
  5
4B9
102
{ACAD_REACTORS
330
C
102
}
330
C
100
AcDbDictionary
281
     1
  0
DICTIONARY
  5
D
102
{ACAD_REACTORS
330
C
102
}
330
C
100
AcDbDictionary
281
     1
  0
DICTIONARY
  5
1A
102
{ACAD_REACTORS
330
C
102
}
330
C
100
AcDbDictionary
281
     1
  3
Layout1
350
1E
  3
Model
350
22
  0
DICTIONARY
  5
3B
102
{ACAD_REACTORS
330
C
102
}
330
C
100
AcDbDictionary
281
     1
  3
ByBlock
350
3D
  3
ByLayer
350
3C
  3
Global
350
3E
  0
DICTIONARY
  5
489
102
{ACAD_REACTORS
330
C
102
}
330
C
100
AcDbDictionary
281
     1
  3
Standard
350
10545
  0
DICTIONARY
  5
17
102
{ACAD_REACTORS
330
C
102
}
330
C
100
AcDbDictionary
281
     1
  3
Standard
350
18
  0
DICTIONARY
  5
19
102
{ACAD_REACTORS
330
C
102
}
330
C
100
AcDbDictionary
281
     1
  0
ACDBDICTIONARYWDFLT
  5
E
102
{ACAD_REACTORS
330
C
102
}
330
C
100
AcDbDictionary
281
     1
  3
Normal
350
F
100
AcDbDictionaryWithDefault
340
F
  0
DICTIONARY
  5
10523
102
{ACAD_REACTORS
330
C
102
}
330
C
100
AcDbDictionary
281
     1
  3
A0
350
10524
  3
A1
350
10525
  3
A2
350
10526
  3
A3
350
10527
  3
A4
350
10528
  3
A5
350
10529
  3
A6
350
1052A
  3
A7
350
1052B
  3
A8
350
1052C
  3
A9
350
1052D
  3
B0
350
1052E
  3
B1
350
1052F
  3
B2
350
10530
  3
B3
350
10531
  3
B4
350
10532
  3
B5
350
10533
  3
B6
350
10534
  3
B7
350
10535
  3
B8
350
10536
  3
B9
350
10537
  3
C0
350
10538
  3
C1
350
10539
  3
C2
350
1053A
  3
C3
350
1053B
  3
C4
350
1053C
  3
C5
350
1053D
  3
C6
350
1053E
  3
C7
350
1053F
  3
C8
350
10540
  3
C9
350
10541
  3
D0
350
10542
  3
D1
350
10543
  3
D2
350
10544
  0
DICTIONARY
  5
4BA
102
{ACAD_REACTORS
330
C
102
}
330
C
100
AcDbDictionary
281
     1
  3
Standard
350
4BB
  0
DICTIONARY
  5
2A
102
{ACAD_REACTORS
330
C
102
}
330
C
100
AcDbDictionary
281
     1
  3
2dWireframe
350
2F
  3
3D Hidden
350
A47
  3
3dWireframe
350
A48
  3
Basic
350
32
  3
Brighten
350
36
  3
ColorChange
350
3A
  3
Conceptual
350
A4B
  3
Dim
350
35
  3
Facepattern
350
39
  3
Flat
350
2B
  3
FlatWithEdges
350
2C
  3
Gouraud
350
2D
  3
GouraudWithEdges
350
2E
  3
Linepattern
350
38
  3
Realistic
350
A4C
  3
Thicken
350
37
  0
XRECORD
  5
1055C
102
{ACAD_REACTORS
330
C
102
}
330
C
100
AcDbXrecord
280
     1
 90
        1
330
4BB
  0
DICTIONARY
  5
487
102
{ACAD_REACTORS
330
C
102
}
330
C
100
AcDbDictionary
281
     1
  3
CANNOSCALE
350
1055F
  3
CMLEADERSTYLE
350
1055D
  3
CTABLESTYLE
350
5FE
  3
DIMASSOC
350
48A
  3
HIDETEXT
350
48B
  3
INDEXCTL
350
86B
  3
LIGHTINGUNITS
350
10560
  3
MSLTSCALE
350
1055E
  3
SORTENTS
350
86A
  0
DICTIONARY
  5
1C8CB
102
{ACAD_REACTORS
330
7D1
102
}
330
7D1
100
AcDbDictionary
281
     1
  0
DICTIONARY
  5
7D2
102
{ACAD_REACTORS
330
7D1
102
}
330
7D1
100
AcDbDictionary
281
     1
  0
DICTIONARY
  5
1C8CA
102
{ACAD_REACTORS
330
7D1
102
}
330
7D1
100
AcDbDictionary
281
     1
1001
ACAD
1000
<All
  0
XRECORD
  5
10555
102
{ACAD_REACTORS
330
10554
102
}
330
10554
100
AcDbXrecord
280
     1
290
     1
  0
XRECORD
  5
10557
102
{ACAD_REACTORS
330
10556
102
}
330
10556
100
AcDbXrecord
280
     1
290
     1
  0
XRECORD
  5
10559
102
{ACAD_REACTORS
330
10558
102
}
330
10558
100
AcDbXrecord
280
     1
290
     1
  0
SORTENTSTABLE
  5
5F9
102
{ACAD_REACTORS
330
5F8
102
}
330
5F8
100
AcDbSortentsTable
330
1F
331
1C2D8
  5
1C2D8
331
1C239
  5
1C239
331
1C356
  5
1C356
331
1C241
  5
1C241
331
1C2E0
  5
1C2E0
331
1C1F4
  5
1C1F4
331
1C405
  5
1C409
331
1C35E
  5
1C35E
331
1C249
  5
1C249
331
1C2E8
  5
1C2E8
331
1C4B4
  5
1C4D8
331
1C1FC
  5
1C1FC
331
1C327
  5
1C327
331
1C366
  5
1C366
331
1C2F0
  5
1C2F0
331
1C4DC
  5
1C4E0
331
1C415
  5
1C45C
331
1C32F
  5
1C32F
331
1C36E
  5
1C36F
331
1C21C
  5
1C21C
331
1C376
  5
1C37A
331
1C4E4
  5
1C36A
331
1C300
  5
1C300
331
1C45D
  5
1C461
331
1C33F
  5
1C33F
331
1C37E
  5
1C382
331
1C224
  5
1C224
331
1C308
  5
1C308
331
1C2D1
  5
1C2D1
331
1C465
  5
1C46C
331
1C22C
  5
1C22C
331
1C234
  5
1C234
331
1C46D
  5
1C4B0
331
1C34F
  5
1C34F
331
1C02D
  5
1C02D
331
1C310
  5
1C310
331
1C23A
  5
1C23A
331
1C2D9
  5
1C2D9
331
1C4AD
  5
1C4B1
331
1C3FE
  5
1C402
331
1C2E1
  5
1C2E1
331
1C242
  5
1C242
331
1C357
  5
1C357
331
1C1F5
  5
1C1F5
331
1C4B5
  5
1C4D9
331
1C406
  5
1C40A
331
1C2E9
  5
1C2E9
331
1C24A
  5
1C24A
331
1C35F
  5
1C35F
331
1C1FD
  5
1C1FD
331
1C367
  5
1C367
331
1C40E
  5
1C412
331
1C2F1
  5
1C2F1
331
1C328
  5
1C328
331
1C416
  5
1C45D
331
1C36F
  5
1C373
331
1C4DD
  5
1C4E1
331
1C21D
  5
1C21D
331
1C330
  5
1C330
331
1C4E5
  5
1C376
331
1C301
  5
1C301
331
1C282
  5
1C282
331
1C377
  5
1C37B
331
1C45E
  5
1C462
331
1C37F
  5
1C383
331
1C225
  5
1C225
331
1C309
  5
1C309
331
1C340
  5
1C340
331
1C466
  5
1C46D
331
1C22D
  5
1C22D
331
1C2D2
  5
1C2D2
331
1C348
  5
1C348
331
1C235
  5
1C235
331
1C350
  5
1C350
331
1C2DA
  5
1C2DA
331
1C311
  5
1C311
331
1C4AE
  5
1C4B2
331
1C358
  5
1C358
331
1C243
  5
1C243
331
1C2E2
  5
1C2E2
331
1C3FF
  5
1C403
331
1C407
  5
1C40B
331
1C360
  5
1C360
331
1C24B
  5
1C24B
331
1C2EA
  5
1C2EA
331
1C1FE
  5
1C1FE
331
1C40F
  5
1C413
331
1C2F2
  5
1C2F2
331
1C329
  5
1C329
331
1C368
  5
1C368
331
1C25B
  5
1C25B
331
1C4DE
  5
1C4E2
331
1C417
  5
1C45E
331
1C21E
  5
1C21E
331
1C370
  5
1C375
331
1C378
  5
1C37C
331
1C4E6
  5
1C374
331
1C283
  5
1C283
331
1C302
  5
1C302
331
1C45F
  5
1C463
331
1C341
  5
1C341
331
1C380
  5
1C384
331
1C30A
  5
1C30A
331
1C22E
  5
1C22E
331
1C349
  5
1C349
331
1C2D3
  5
1C2D3
331
1C467
  5
1C4AD
331
1C236
  5
1C236
331
1C312
  5
1C312
331
1C2DB
  5
1C2DB
331
1C4AF
  5
1C4B3
331
1C2E3
  5
1C2E3
331
1C400
  5
1C404
331
1C244
  5
1C244
331
1C1F7
  5
1C1F7
331
1C361
  5
1C361
331
1C2EB
  5
1C2EB
331
1C408
  5
1C40C
331
1C24C
  5
1C24C
331
1C4D7
  5
1C4DB
331
1C1FF
  5
1C1FF
331
1C369
  5
1C369
331
1C410
  5
1C414
331
1C25C
  5
1C25C
331
1C2F3
  5
1C2F3
331
1C32A
  5
1C32A
331
1C4DF
  5
1C4E3
331
1C21F
  5
1C21F
331
1C418
  5
1C45F
331
1C303
  5
1C303
331
1C284
  5
1C284
331
1C379
  5
1C37D
331
1C460
  5
1C465
331
1C381
  5
1C385
331
1C30B
  5
1C30B
331
1C342
  5
1C342
331
1C22F
  5
1C22F
331
1C2D4
  5
1C2D4
331
1C34A
  5
1C34A
331
1C237
  5
1C237
331
1C352
  5
1C352
331
1C2DC
  5
1C2DC
331
1C1F0
  5
1C1F0
331
1C4B0
  5
1C4B4
331
1C35A
  5
1C35A
331
1C245
  5
1C245
331
1C2E4
  5
1C2E4
331
1C401
  5
1C405
331
1C1F8
  5
1C1F8
331
1C409
  5
1C40E
331
1C362
  5
1C362
331
1C24D
  5
1C24D
331
1C2EC
  5
1C2EC
331
1C200
  5
1C200
331
1C411
  5
1C415
331
1C2F4
  5
1C2F4
331
1C32B
  5
1C32B
331
1C36A
  5
1C36B
331
1C25D
  5
1C25D
331
1C4D8
  5
1C4DC
331
1C2FC
  5
1C2FC
331
1C4E0
  5
1C4E4
331
1C37A
  5
1C37E
331
1C220
  5
1C220
331
1C304
  5
1C304
331
1C461
  5
1C466
331
1C30C
  5
1C30C
331
1C2AD
  5
1C2AD
331
1C382
  5
1C3FE
331
1C228
  5
1C228
331
1C230
  5
1C230
331
1C34B
  5
1C34B
331
1C2D5
  5
1C2D5
331
1C353
  5
1C353
331
1C2DD
  5
1C2DD
331
1C1F1
  5
1C1F1
331
1C4B1
  5
1C4B5
331
1C402
  5
1C406
331
1C2E5
  5
1C2E5
331
1C246
  5
1C246
331
1C35B
  5
1C35B
331
1C1F9
  5
1C1F9
331
1C363
  5
1C363
331
1C2ED
  5
1C2ED
331
1C40A
  5
1C40F
331
1C24E
  5
1C24E
331
1C4D9
  5
1C4DD
331
1C201
  5
1C201
331
1C36B
  5
1C36C
331
1C412
  5
1C416
331
1C25E
  5
1C25E
331
1C2F5
  5
1C2F5
331
1C32C
  5
1C32C
331
1C373
  5
1C377
331
1C2FD
  5
1C2FD
331
1C4E1
  5
1C4E5
331
1C37B
  5
1C37F
331
1C221
  5
1C221
331
1C305
  5
1C305
331
1C286
  5
1C286
331
1C462
  5
1C467
331
1C383
  5
1C3FF
331
1C229
  5
1C229
331
1C30D
  5
1C30D
331
1C2D6
  5
1C2D6
331
1C231
  5
1C231
331
1C2DE
  5
1C2DE
331
1C1F2
  5
1C1F2
331
1C4B2
  5
1C4D6
331
1C31D
  5
1C31D
331
1C35C
  5
1C35C
331
1C247
  5
1C247
331
1C2E6
  5
1C2E6
331
1C403
  5
1C407
331
1C40B
  5
1C410
331
1C364
  5
1C364
331
1C2EE
  5
1C2EE
331
1C4DA
  5
1C4DE
331
1C202
  5
1C202
331
1C413
  5
1C417
331
1C32D
  5
1C32D
331
1C36C
  5
1C36D
331
1C374
  5
1C378
331
1C2FE
  5
1C2FE
331
1C4E2
  5
1C4E6
331
1C37C
  5
1C380
331
1C222
  5
1C222
331
1C287
  5
1C287
331
1C306
  5
1C306
331
1C33D
  5
1C33D
331
1C463
  5
1C46B
331
1C30E
  5
1C30E
331
1C2AF
  5
1C2AF
331
1C384
  5
1C400
331
1C22A
  5
1C22A
331
1C232
  5
1C232
331
1C46B
  5
1C4AE
331
1C34D
  5
1C34D
331
1C2D7
  5
1C2D7
331
1C355
  5
1C355
331
1C2DF
  5
1C2DF
331
1C1F3
  5
1C1F3
331
1C4B3
  5
1C4D7
331
1C404
  5
1C408
331
1C2E7
  5
1C2E7
331
1C248
  5
1C248
331
1C35D
  5
1C35D
331
1C365
  5
1C365
331
1C2EF
  5
1C2EF
331
1C40C
  5
1C411
331
1C4DB
  5
1C4DF
331
1C203
  5
1C203
331
1C36D
  5
1C36E
331
1C414
  5
1C418
331
1C21B
  5
1C21B
331
1C260
  5
1C260
331
1C4E3
  5
1C370
331
1C375
  5
1C379
331
1C2FF
  5
1C2FF
331
1C45C
  5
1C460
331
1C37D
  5
1C381
331
1C223
  5
1C223
331
1C307
  5
1C307
331
1C33E
  5
1C33E
331
1C385
  5
1C401
331
1C22B
  5
1C22B
331
1C2D0
  5
1C2D0
331
1C30F
  5
1C30F
331
1C233
  5
1C233
331
1C46C
  5
1C4AF
331
1C34E
  5
1C34E
  0
XRECORD
  5
1C8E8
102
{ACAD_REACTORS
330
1C8E7
102
}
330
1C8E7
100
AcDbXrecord
280
     1
 40
99335.0
  1
{\fArial|b0|i0|c238|p34;Picuś nr kat. 13.3.03}
  0
DIMASSOC
  5
1C884
102
{ACAD_REACTORS
330
1C87C
102
}
330
1C87C
100
AcDbDimAssoc
330
1C871
 90
        1
 70
     0
 71
     0
  1
AcDbOsnapPointRef
 72
    13
331
1C86E
 73
     2
 91
        0
 40
0.0
 10
0.0
 20
0.0
 30
2.000000000000000E+50
 75
     0
  0
DIMASSOC
  5
1C89F
102
{ACAD_REACTORS
330
1C897
102
}
330
1C897
100
AcDbDimAssoc
330
1C88C
 90
        1
 70
     0
 71
     0
  1
AcDbOsnapPointRef
 72
    13
331
1C868
 73
     2
 91
        0
 40
0.0
 10
0.0
 20
0.0
 30
2.000000000000000E+50
 75
     0
  0
LAYOUT
  5
1E
102
{ACAD_XDICTIONARY
360
7D4
102
}
102
{ACAD_REACTORS
330
1A
102
}
330
1A
100
AcDbPlotSettings
  1

  2
Bullzip PDF Printer
  4
A3
  6

 40
3.174999952316284
 41
3.174999952316284
 42
3.17498779296875
 43
3.17498779296875
 44
297.0530090332031
 45
420.1583251953125
 46
0.0
 47
0.0
 48
6.561544945354853
 49
3.282189374834842
140
416.7133315898103
141
290.5875349075164
142
1.0
143
1.0
 70
   672
 72
     1
 73
     1
 74
     4
  7
monochrome.ctb
 75
    16
147
25.4
 76
     0
 77
     2
 78
   300
148
-6.561544945354853
149
-3.282189374834842
100
AcDbLayout
  1
Layout1
 70
     0
 71
     1
 10
3.386557152386103
 20
0.1071894225185588
 11
423.5448823476986
 21
297.1601984557217
 12
0.0
 22
0.0
 32
0.0
 14
6.561544945354853
 24
3.282189374834842
 34
0.0
 15
416.7133315898103
 25
290.5875349075164
 35
0.0
146
0.0
 13
0.0
 23
0.0
 33
0.0
 16
1.0
 26
0.0
 36
0.0
 17
0.0
 27
1.0
 37
0.0
 76
     0
330
1B
331
7CA
1001
ACAD_PSEXT
1000
Bullzip PDF Printer
1000
Bullzip PDF Printer
1000
BULLZIP
1000
Bullzip PDF Printer 7.2.0.1338
1070
     0
  0
LAYOUT
  5
22
102
{ACAD_REACTORS
330
1A
102
}
330
1A
100
AcDbPlotSettings
  1

  2
none_device
  4
Letter_(8.50_x_11.00_Inches)
  6

 40
6.349999904632568
 41
6.349999904632568
 42
6.350006103515625
 43
6.350006103515625
 44
215.8999938964844
 45
279.3999938964844
 46
0.0
 47
0.0
 48
0.0
 49
0.0
140
0.0
141
0.0
142
1.0
143
3.48576433589338
 70
 11952
 72
     0
 73
     1
 74
     0
  7

 75
     0
147
0.2868811266736729
 76
     0
 77
     2
 78
   300
148
329.8100107178835
149
-97.75837968248415
100
AcDbLayout
  1
Model
 70
     1
 71
     0
 10
0.0
 20
0.0
 11
12.0
 21
9.0
 12
0.0
 22
0.0
 32
0.0
 14
1.000000000000000E+20
 24
1.000000000000000E+20
 34
1.000000000000000E+20
 15
-1.000000000000000E+20
 25
-1.000000000000000E+20
 35
-1.000000000000000E+20
146
0.0
 13
0.0
 23
0.0
 33
0.0
 16
1.0
 26
0.0
 36
0.0
 17
0.0
 27
1.0
 37
0.0
 76
     0
330
1F
331
29
1001
ACAD_PSEXT
1000
Brak
1000
Brak
1000
Nie można zastosować.
1000
Arkusz nie zostanie wydrukowany dopóki nie wybrano konfiguracji plotera.
1070
     0
  0
MATERIAL
  5
3D
102
{ACAD_XDICTIONARY
360
1C8E2
102
}
102
{ACAD_REACTORS
330
3B
102
}
330
3B
100
AcDbMaterial
  1
ByBlock
 73
     1
 78
     1
172
     1
176
     1
270
     1
274
     1
  0
MATERIAL
  5
3C
102
{ACAD_XDICTIONARY
360
1C8E0
102
}
102
{ACAD_REACTORS
330
3B
102
}
330
3B
100
AcDbMaterial
  1
ByLayer
 73
     1
 78
     1
172
     1
176
     1
270
     1
274
     1
  0
MATERIAL
  5
3E
102
{ACAD_XDICTIONARY
360
1C8E4
102
}
102
{ACAD_REACTORS
330
3B
102
}
330
3B
100
AcDbMaterial
  1
Global
 73
     1
 78
     1
172
     1
176
     1
270
     1
274
     1
  0
MLEADERSTYLE
  5
10545
102
{ACAD_REACTORS
330
489
102
}
330
489
100
AcDbMLeaderStyle
170
     2
171
     1
172
     0
 90
        2
 40
0.0
 41
0.0
173
     1
 91
-1056964608
340
14
 92
       -2
290
     1
 42
0.09
291
     1
 43
0.36
  3
Standard
 44
0.18
300

342
11
174
     1
178
     6
175
     1
176
     0
 93
-1056964608
 45
0.18
292
     0
297
     0
 46
0.18
 94
-1056964608
 47
1.0
 49
1.0
140
1.0
293
     1
141
0.0
294
     1
177
     0
142
1.0
295
     0
296
     0
143
0.125
1001
ACAD_MLEADERVER
1070
     2
  0
MLINESTYLE
  5
18
102
{ACAD_REACTORS
330
17
102
}
330
17
100
AcDbMlineStyle
  2
STANDARD
 70
     0
  3

 62
   256
 51
90.0
 52
90.0
 71
     2
 49
0.5
 62
   256
  6
BYLAYER
 49
-0.5
 62
   256
  6
BYLAYER
  0
ACDBPLACEHOLDER
  5
F
102
{ACAD_REACTORS
330
E
102
}
330
E
  0
SCALE
  5
10524
102
{ACAD_REACTORS
330
10523
102
}
330
10523
100
AcDbScale
 70
     0
300
1:1
140
1.0
141
1.0
290
     1
  0
SCALE
  5
10525
102
{ACAD_REACTORS
330
10523
102
}
330
10523
100
AcDbScale
 70
     0
300
1:2
140
1.0
141
2.0
290
     0
  0
SCALE
  5
10526
102
{ACAD_REACTORS
330
10523
102
}
330
10523
100
AcDbScale
 70
     0
300
1:4
140
1.0
141
4.0
290
     0
  0
SCALE
  5
10527
102
{ACAD_REACTORS
330
10523
102
}
330
10523
100
AcDbScale
 70
     0
300
1:5
140
1.0
141
5.0
290
     0
  0
SCALE
  5
10528
102
{ACAD_REACTORS
330
10523
102
}
330
10523
100
AcDbScale
 70
     0
300
1:8
140
1.0
141
8.0
290
     0
  0
SCALE
  5
10529
102
{ACAD_REACTORS
330
10523
102
}
330
10523
100
AcDbScale
 70
     0
300
1:10
140
1.0
141
10.0
290
     0
  0
SCALE
  5
1052A
102
{ACAD_REACTORS
330
10523
102
}
330
10523
100
AcDbScale
 70
     0
300
1:16
140
1.0
141
16.0
290
     0
  0
SCALE
  5
1052B
102
{ACAD_REACTORS
330
10523
102
}
330
10523
100
AcDbScale
 70
     0
300
1:20
140
1.0
141
20.0
290
     0
  0
SCALE
  5
1052C
102
{ACAD_REACTORS
330
10523
102
}
330
10523
100
AcDbScale
 70
     0
300
1:30
140
1.0
141
30.0
290
     0
  0
SCALE
  5
1052D
102
{ACAD_REACTORS
330
10523
102
}
330
10523
100
AcDbScale
 70
     0
300
1:40
140
1.0
141
40.0
290
     0
  0
SCALE
  5
1052E
102
{ACAD_REACTORS
330
10523
102
}
330
10523
100
AcDbScale
 70
     0
300
1:50
140
1.0
141
50.0
290
     0
  0
SCALE
  5
1052F
102
{ACAD_REACTORS
330
10523
102
}
330
10523
100
AcDbScale
 70
     0
300
1:100
140
1.0
141
100.0
290
     0
  0
SCALE
  5
10530
102
{ACAD_REACTORS
330
10523
102
}
330
10523
100
AcDbScale
 70
     0
300
2:1
140
2.0
141
1.0
290
     0
  0
SCALE
  5
10531
102
{ACAD_REACTORS
330
10523
102
}
330
10523
100
AcDbScale
 70
     0
300
4:1
140
4.0
141
1.0
290
     0
  0
SCALE
  5
10532
102
{ACAD_REACTORS
330
10523
102
}
330
10523
100
AcDbScale
 70
     0
300
8:1
140
8.0
141
1.0
290
     0
  0
SCALE
  5
10533
102
{ACAD_REACTORS
330
10523
102
}
330
10523
100
AcDbScale
 70
     0
300
10:1
140
10.0
141
1.0
290
     0
  0
SCALE
  5
10534
102
{ACAD_REACTORS
330
10523
102
}
330
10523
100
AcDbScale
 70
     0
300
100:1
140
100.0
141
1.0
290
     0
  0
SCALE
  5
10535
102
{ACAD_REACTORS
330
10523
102
}
330
10523
100
AcDbScale
 70
     0
300
1/128" = 1'-0"
140
0.0078125
141
12.0
290
     0
  0
SCALE
  5
10536
102
{ACAD_REACTORS
330
10523
102
}
330
10523
100
AcDbScale
 70
     0
300
1/64" = 1'-0"
140
0.015625
141
12.0
290
     0
  0
SCALE
  5
10537
102
{ACAD_REACTORS
330
10523
102
}
330
10523
100
AcDbScale
 70
     0
300
1/32" = 1'-0"
140
0.03125
141
12.0
290
     0
  0
SCALE
  5
10538
102
{ACAD_REACTORS
330
10523
102
}
330
10523
100
AcDbScale
 70
     0
300
1/16" = 1'-0"
140
0.0625
141
12.0
290
     0
  0
SCALE
  5
10539
102
{ACAD_REACTORS
330
10523
102
}
330
10523
100
AcDbScale
 70
     0
300
3/32" = 1'-0"
140
0.09375
141
12.0
290
     0
  0
SCALE
  5
1053A
102
{ACAD_REACTORS
330
10523
102
}
330
10523
100
AcDbScale
 70
     0
300
1/8" = 1'-0"
140
0.125
141
12.0
290
     0
  0
SCALE
  5
1053B
102
{ACAD_REACTORS
330
10523
102
}
330
10523
100
AcDbScale
 70
     0
300
3/16" = 1'-0"
140
0.1875
141
12.0
290
     0
  0
SCALE
  5
1053C
102
{ACAD_REACTORS
330
10523
102
}
330
10523
100
AcDbScale
 70
     0
300
1/4" = 1'-0"
140
0.25
141
12.0
290
     0
  0
SCALE
  5
1053D
102
{ACAD_REACTORS
330
10523
102
}
330
10523
100
AcDbScale
 70
     0
300
3/8" = 1'-0"
140
0.375
141
12.0
290
     0
  0
SCALE
  5
1053E
102
{ACAD_REACTORS
330
10523
102
}
330
10523
100
AcDbScale
 70
     0
300
1/2" = 1'-0"
140
0.5
141
12.0
290
     0
  0
SCALE
  5
1053F
102
{ACAD_REACTORS
330
10523
102
}
330
10523
100
AcDbScale
 70
     0
300
3/4" = 1'-0"
140
0.75
141
12.0
290
     0
  0
SCALE
  5
10540
102
{ACAD_REACTORS
330
10523
102
}
330
10523
100
AcDbScale
 70
     0
300
1" = 1'-0"
140
1.0
141
12.0
290
     0
  0
SCALE
  5
10541
102
{ACAD_REACTORS
330
10523
102
}
330
10523
100
AcDbScale
 70
     0
300
1-1/2" = 1'-0"
140
1.5
141
12.0
290
     0
  0
SCALE
  5
10542
102
{ACAD_REACTORS
330
10523
102
}
330
10523
100
AcDbScale
 70
     0
300
3" = 1'-0"
140
3.0
141
12.0
290
     0
  0
SCALE
  5
10543
102
{ACAD_REACTORS
330
10523
102
}
330
10523
100
AcDbScale
 70
     0
300
6" = 1'-0"
140
6.0
141
12.0
290
     0
  0
SCALE
  5
10544
102
{ACAD_REACTORS
330
10523
102
}
330
10523
100
AcDbScale
 70
     0
300
1'-0" = 1'-0"
140
12.0
141
12.0
290
     0
  0
TABLESTYLE
  5
4BB
102
{ACAD_XDICTIONARY
360
1055A
102
}
102
{ACAD_REACTORS
330
4BA
102
}
330
4BA
100
AcDbTableStyle
  3
Standard
 70
     0
 71
     0
 40
0.06
 41
0.06
280
     0
281
     0
  7
Standard
140
0.18
170
     2
 62
     0
 63
     7
283
     0
274
    -2
284
     1
 64
     0
275
    -2
285
     1
 65
     0
276
    -2
286
     1
 66
     0
277
    -2
287
     1
 67
     0
278
    -2
288
     1
 68
     0
279
    -2
289
     1
 69
     0
  7
Standard
140
0.25
170
     5
 62
     0
 63
     7
283
     0
274
    -2
284
     1
 64
     0
275
    -2
285
     1
 65
     0
276
    -2
286
     1
 66
     0
277
    -2
287
     1
 67
     0
278
    -2
288
     1
 68
     0
279
    -2
289
     1
 69
     0
  7
Standard
140
0.18
170
     5
 62
     0
 63
     7
283
     0
274
    -2
284
     1
 64
     0
275
    -2
285
     1
 65
     0
276
    -2
286
     1
 66
     0
277
    -2
287
     1
 67
     0
278
    -2
288
     1
 68
     0
279
    -2
289
     1
 69
     0
  0
VISUALSTYLE
  5
2F
102
{ACAD_XDICTIONARY
360
49A
102
}
102
{ACAD_REACTORS
330
2A
102
}
330
2A
100
AcDbVisualStyle
  2
2dWireframe
 70
     4
 71
     0
 72
     2
 73
     0
 90
        0
 40
-0.6
 41
-30.0
 62
     5
 63
     7
 74
     1
 91
        4
 64
     7
 65
   257
 75
     1
175
     1
 42
1.0
 92
        0
 66
   257
 43
1.0
 76
     1
 77
     6
 78
     2
 67
     7
 79
     5
170
     0
171
     0
290
     0
174
     0
 93
        1
 44
0.0
173
     0
291
     0
 45
0.0
1001
ACAD
1000
AcDbSavedByObjectVersion
1070
     0
  0
VISUALSTYLE
  5
A47
102
{ACAD_REACTORS
330
2A
102
}
330
2A
100
AcDbVisualStyle
  2
3D Hidden
 70
     6
 71
     1
 72
     2
 73
     2
 90
        0
 40
-0.6
 41
-30.0
 62
     5
 63
     7
 74
     2
 91
        2
 64
     7
 65
   257
 75
     2
175
     1
 42
40.0
 92
        0
 66
   257
 43
1.0
 76
     1
 77
     6
 78
     2
 67
     7
 79
     3
170
     0
171
     0
290
     0
174
     0
 93
        1
 44
0.0
173
     0
291
     0
 45
0.0
1001
ACAD
1000
AcDbSavedByObjectVersion
1070
     0
  0
VISUALSTYLE
  5
A48
102
{ACAD_XDICTIONARY
360
A49
102
}
102
{ACAD_REACTORS
330
2A
102
}
330
2A
100
AcDbVisualStyle
  2
3dWireframe
 70
     5
 71
     0
 72
     2
 73
     0
 90
        0
 40
-0.6
 41
-30.0
 62
     5
 63
     7
 74
     1
 91
        4
 64
     7
 65
   257
 75
     1
175
     1
 42
1.0
 92
        0
 66
   257
 43
1.0
 76
     1
 77
     6
 78
     2
 67
     7
 79
     5
170
     0
171
     0
290
     0
174
     0
 93
        1
 44
0.0
173
     0
291
     0
 45
0.0
1001
ACAD
1000
AcDbSavedByObjectVersion
1070
     0
  0
VISUALSTYLE
  5
32
102
{ACAD_XDICTIONARY
360
4A0
102
}
102
{ACAD_REACTORS
330
2A
102
}
330
2A
100
AcDbVisualStyle
  2
Basic
 70
     7
 71
     1
 72
     0
 73
     1
 90
        0
 40
-0.6
 41
-30.0
 62
     5
 63
     7
 74
     0
 91
        4
 64
     7
 65
   257
 75
     1
175
     1
 42
1.0
 92
        8
 66
     7
 43
1.0
 76
     1
 77
     6
 78
     2
 67
     7
 79
     5
170
     0
171
     0
290
     0
174
     0
 93
        1
 44
0.0
173
     0
291
     1
 45
0.0
1001
ACAD
1000
AcDbSavedByObjectVersion
1070
     0
  0
VISUALSTYLE
  5
36
102
{ACAD_XDICTIONARY
360
4A8
102
}
102
{ACAD_REACTORS
330
2A
102
}
330
2A
100
AcDbVisualStyle
  2
Brighten
 70
    12
 71
     2
 72
     2
 73
     0
 90
        0
 40
-0.6
 41
-30.0
 62
     5
 63
     7
 74
     1
 91
        4
 64
     7
 65
   257
 75
     1
175
     1
 42
1.0
 92
        8
 66
     7
 43
1.0
 76
     1
 77
     6
 78
     2
 67
     7
 79
     5
170
     0
171
     0
290
     0
174
     0
 93
        1
 44
50.0
173
     0
291
     1
 45
0.0
1001
ACAD
1000
AcDbSavedByObjectVersion
1070
     0
  0
VISUALSTYLE
  5
3A
102
{ACAD_XDICTIONARY
360
4B0
102
}
102
{ACAD_REACTORS
330
2A
102
}
330
2A
100
AcDbVisualStyle
  2
ColorChange
 70
    16
 71
     2
 72
     2
 73
     3
 90
        0
 40
-0.6
 41
-30.0
 62
     5
 63
     8
 74
     1
 91
        4
 64
     7
 65
   257
 75
     1
175
     1
 42
1.0
 92
        8
 66
     8
 43
1.0
 76
     1
 77
     6
 78
     2
 67
     7
 79
     5
170
     0
171
     0
290
     0
174
     0
 93
        1
 44
0.0
173
     0
291
     1
 45
0.0
1001
ACAD
1000
AcDbSavedByObjectVersion
1070
     0
  0
VISUALSTYLE
  5
A4B
102
{ACAD_REACTORS
330
2A
102
}
330
2A
100
AcDbVisualStyle
  2
Conceptual
 70
     9
 71
     3
 72
     2
 73
     0
 90
        0
 40
-0.6
 41
-30.0
 62
     5
 63
     7
 74
     2
 91
        2
 64
     7
 65
   257
 75
     1
175
     1
 42
40.0
 92
        8
 66
     7
 43
1.0
 76
     1
 77
     6
 78
     2
 67
     7
 79
     3
170
     0
171
     0
290
     0
174
     0
 93
        1
 44
0.0
173
     0
291
     0
 45
0.0
1001
ACAD
1000
AcDbSavedByObjectVersion
1070
     0
  0
VISUALSTYLE
  5
35
102
{ACAD_XDICTIONARY
360
4A6
102
}
102
{ACAD_REACTORS
330
2A
102
}
330
2A
100
AcDbVisualStyle
  2
Dim
 70
    11
 71
     2
 72
     2
 73
     0
 90
        0
 40
-0.6
 41
-30.0
 62
     5
 63
     7
 74
     1
 91
        4
 64
     7
 65
   257
 75
     1
175
     1
 42
1.0
 92
        8
 66
     7
 43
1.0
 76
     1
 77
     6
 78
     2
 67
     7
 79
     5
170
     0
171
     0
290
     0
174
     0
 93
        1
 44
-50.0
173
     0
291
     1
 45
0.0
1001
ACAD
1000
AcDbSavedByObjectVersion
1070
     0
  0
VISUALSTYLE
  5
39
102
{ACAD_XDICTIONARY
360
4AE
102
}
102
{ACAD_REACTORS
330
2A
102
}
330
2A
100
AcDbVisualStyle
  2
Facepattern
 70
    15
 71
     2
 72
     2
 73
     0
 90
        0
 40
-0.6
 41
-30.0
 62
     5
 63
     7
 74
     1
 91
        4
 64
     7
 65
   257
 75
     1
175
     1
 42
1.0
 92
        8
 66
     7
 43
1.0
 76
     1
 77
     6
 78
     2
 67
     7
 79
     5
170
     0
171
     0
290
     0
174
     0
 93
        1
 44
0.0
173
     0
291
     1
 45
0.0
1001
ACAD
1000
AcDbSavedByObjectVersion
1070
     0
  0
VISUALSTYLE
  5
2B
102
{ACAD_XDICTIONARY
360
492
102
}
102
{ACAD_REACTORS
330
2A
102
}
330
2A
100
AcDbVisualStyle
  2
Flat
 70
     0
 71
     2
 72
     1
 73
     1
 90
        2
 40
-0.6
 41
30.0
 62
     5
 63
     7
 74
     0
 91
        4
 64
     7
 65
   257
 75
     1
175
     1
 42
1.0
 92
        8
 66
     7
 43
1.0
 76
     1
 77
     6
 78
     2
 67
     7
 79
     5
170
     0
171
     0
290
     0
174
     0
 93
       13
 44
0.0
173
     0
291
     1
 45
0.0
1001
ACAD
1000
AcDbSavedByObjectVersion
1070
     0
  0
VISUALSTYLE
  5
2C
102
{ACAD_XDICTIONARY
360
494
102
}
102
{ACAD_REACTORS
330
2A
102
}
330
2A
100
AcDbVisualStyle
  2
FlatWithEdges
 70
     1
 71
     2
 72
     1
 73
     1
 90
        2
 40
-0.6
 41
30.0
 62
     5
 63
     7
 74
     1
 91
        4
 64
     7
 65
   257
 75
     1
175
     1
 42
1.0
 92
        0
 66
   257
 43
1.0
 76
     1
 77
     6
 78
     2
 67
     7
 79
     5
170
     0
171
     0
290
     0
174
     0
 93
       13
 44
0.0
173
     0
291
     1
 45
0.0
1001
ACAD
1000
AcDbSavedByObjectVersion
1070
     0
  0
VISUALSTYLE
  5
2D
102
{ACAD_XDICTIONARY
360
496
102
}
102
{ACAD_REACTORS
330
2A
102
}
330
2A
100
AcDbVisualStyle
  2
Gouraud
 70
     2
 71
     2
 72
     2
 73
     1
 90
        2
 40
-0.6
 41
30.0
 62
     5
 63
     7
 74
     0
 91
        4
 64
     7
 65
   257
 75
     1
175
     1
 42
1.0
 92
        0
 66
     7
 43
1.0
 76
     1
 77
     6
 78
     2
 67
     7
 79
     5
170
     0
171
     0
290
     0
174
     0
 93
       13
 44
0.0
173
     0
291
     1
 45
0.0
1001
ACAD
1000
AcDbSavedByObjectVersion
1070
     0
  0
VISUALSTYLE
  5
2E
102
{ACAD_XDICTIONARY
360
498
102
}
102
{ACAD_REACTORS
330
2A
102
}
330
2A
100
AcDbVisualStyle
  2
GouraudWithEdges
 70
     3
 71
     2
 72
     2
 73
     1
 90
        2
 40
-0.6
 41
30.0
 62
     5
 63
     7
 74
     1
 91
        4
 64
     7
 65
   257
 75
     1
175
     1
 42
1.0
 92
        0
 66
   257
 43
1.0
 76
     1
 77
     6
 78
     2
 67
     7
 79
     5
170
     0
171
     0
290
     0
174
     0
 93
       13
 44
0.0
173
     0
291
     1
 45
0.0
1001
ACAD
1000
AcDbSavedByObjectVersion
1070
     0
  0
VISUALSTYLE
  5
38
102
{ACAD_XDICTIONARY
360
4AC
102
}
102
{ACAD_REACTORS
330
2A
102
}
330
2A
100
AcDbVisualStyle
  2
Linepattern
 70
    14
 71
     2
 72
     2
 73
     0
 90
        0
 40
-0.6
 41
-30.0
 62
     5
 63
     7
 74
     1
 91
        4
 64
     7
 65
   257
 75
     7
175
     7
 42
1.0
 92
        8
 66
     7
 43
1.0
 76
     1
 77
     6
 78
     2
 67
     7
 79
     5
170
     0
171
     0
290
     0
174
     0
 93
        1
 44
0.0
173
     0
291
     1
 45
0.0
1001
ACAD
1000
AcDbSavedByObjectVersion
1070
     0
  0
VISUALSTYLE
  5
A4C
102
{ACAD_XDICTIONARY
360
A4D
102
}
102
{ACAD_REACTORS
330
2A
102
}
330
2A
100
AcDbVisualStyle
  2
Realistic
 70
     8
 71
     2
 72
     2
 73
     0
 90
        0
 40
-0.6
 41
-30.0
 62
     5
 63
     7
 74
     1
 91
        0
 64
     7
 65
   257
 75
     1
175
     1
 42
1.0
 92
        8
 66
     8
 43
1.0
 76
     1
 77
     6
 78
     2
 67
     7
 79
     5
170
     0
171
     0
290
     0
174
     0
 93
       13
 44
0.0
173
     0
291
     0
 45
0.0
1001
ACAD
1000
AcDbSavedByObjectVersion
1070
     0
  0
VISUALSTYLE
  5
37
102
{ACAD_XDICTIONARY
360
4AA
102
}
102
{ACAD_REACTORS
330
2A
102
}
330
2A
100
AcDbVisualStyle
  2
Thicken
 70
    13
 71
     2
 72
     2
 73
     0
 90
        0
 40
-0.6
 41
-30.0
 62
     5
 63
     7
 74
     1
 91
        4
 64
     7
 65
   257
 75
     1
175
     1
 42
1.0
 92
       12
 66
     7
 43
1.0
 76
     1
 77
     6
 78
     2
 67
     7
 79
     5
170
     0
171
     0
290
     0
174
     0
 93
        1
 44
0.0
173
     0
291
     1
 45
0.0
1001
ACAD
1000
AcDbSavedByObjectVersion
1070
     0
  0
DICTIONARYVAR
  5
1055F
102
{ACAD_REACTORS
330
487
102
}
330
487
100
DictionaryVariables
280
     0
  1
1:1
  0
DICTIONARYVAR
  5
1055D
102
{ACAD_REACTORS
330
487
102
}
330
487
100
DictionaryVariables
280
     0
  1
STANDARD
  0
DICTIONARYVAR
  5
5FE
102
{ACAD_REACTORS
330
487
102
}
330
487
100
DictionaryVariables
280
     0
  1
STANDARD
  0
DICTIONARYVAR
  5
48A
102
{ACAD_REACTORS
330
487
102
}
330
487
100
DictionaryVariables
280
     0
  1
2
  0
DICTIONARYVAR
  5
48B
102
{ACAD_REACTORS
330
487
102
}
330
487
100
DictionaryVariables
280
     0
  1
1
  0
DICTIONARYVAR
  5
86B
102
{ACAD_REACTORS
330
487
102
}
330
487
100
DictionaryVariables
280
     0
  1
0
  0
DICTIONARYVAR
  5
10560
102
{ACAD_REACTORS
330
487
102
}
330
487
100
DictionaryVariables
280
     0
  1
0
  0
DICTIONARYVAR
  5
1055E
102
{ACAD_REACTORS
330
487
102
}
330
487
100
DictionaryVariables
280
     0
  1
0
  0
DICTIONARYVAR
  5
86A
102
{ACAD_REACTORS
330
487
102
}
330
487
100
DictionaryVariables
280
     0
  1
127
  0
DICTIONARY
  5
7D4
330
1E
100
AcDbDictionary
280
     1
281
     1
  3
ADSK_XREC_LAYOUTTHUMBNAIL
360
7D5
  0
DICTIONARY
  5
1C8E2
330
3D
100
AcDbDictionary
280
     1
281
     1
  3
ACAD_XREC_ROUNDTRIP
360
1C8E3
  0
DICTIONARY
  5
1C8E0
330
3C
100
AcDbDictionary
280
     1
281
     1
  3
ACAD_XREC_ROUNDTRIP
360
1C8E1
  0
DICTIONARY
  5
1C8E4
330
3E
100
AcDbDictionary
280
     1
281
     1
  3
ACAD_XREC_ROUNDTRIP
360
1C8E5
  0
DICTIONARY
  5
1055A
330
4BB
100
AcDbDictionary
280
     1
281
     1
  3
ACAD_ROUNDTRIP_2008_TABLESTYLE_CELLSTYLEMAP
360
1C8DF
  3
ACAD_XREC_ROUNDTRIP
360
1C8E6
  0
DICTIONARY
  5
49A
330
2F
100
AcDbDictionary
280
     1
281
     1
  3
ACAD_XREC_ROUNDTRIP
360
49B
  0
DICTIONARY
  5
A49
330
A48
100
AcDbDictionary
280
     1
281
     1
  3
ACAD_XREC_ROUNDTRIP
360
A4A
  0
DICTIONARY
  5
4A0
330
32
100
AcDbDictionary
280
     1
281
     1
  3
ACAD_XREC_ROUNDTRIP
360
4A1
  0
DICTIONARY
  5
4A8
330
36
100
AcDbDictionary
280
     1
281
     1
  3
ACAD_XREC_ROUNDTRIP
360
4A9
  0
DICTIONARY
  5
4B0
330
3A
100
AcDbDictionary
280
     1
281
     1
  3
ACAD_XREC_ROUNDTRIP
360
4B1
  0
DICTIONARY
  5
4A6
330
35
100
AcDbDictionary
280
     1
281
     1
  3
ACAD_XREC_ROUNDTRIP
360
4A7
  0
DICTIONARY
  5
4AE
330
39
100
AcDbDictionary
280
     1
281
     1
  3
ACAD_XREC_ROUNDTRIP
360
4AF
  0
DICTIONARY
  5
492
330
2B
100
AcDbDictionary
280
     1
281
     1
  3
ACAD_XREC_ROUNDTRIP
360
493
  0
DICTIONARY
  5
494
330
2C
100
AcDbDictionary
280
     1
281
     1
  3
ACAD_XREC_ROUNDTRIP
360
495
  0
DICTIONARY
  5
496
330
2D
100
AcDbDictionary
280
     1
281
     1
  3
ACAD_XREC_ROUNDTRIP
360
497
  0
DICTIONARY
  5
498
330
2E
100
AcDbDictionary
280
     1
281
     1
  3
ACAD_XREC_ROUNDTRIP
360
499
  0
DICTIONARY
  5
4AC
330
38
100
AcDbDictionary
280
     1
281
     1
  3
ACAD_XREC_ROUNDTRIP
360
4AD
  0
DICTIONARY
  5
A4D
330
A4C
100
AcDbDictionary
280
     1
281
     1
  3
ACAD_XREC_ROUNDTRIP
360
A4E
  0
DICTIONARY
  5
4AA
330
37
100
AcDbDictionary
280
     1
281
     1
  3
ACAD_XREC_ROUNDTRIP
360
4AB
  0
XRECORD
  5
7D5
102
{ACAD_REACTORS
330
7D4
102
}
330
7D4
100
AcDbXrecord
280
     1
310
28000000B40000007F00000001000800000000004C59000000000000000000000001000000000000FFFFFF0000000000FFFFFF000000000000000000000000000000000000000000000000000000000000000000330000006600000099000000CC000000FF00000000330000333300006633000099330000CC330000FF3300
310
0000660000336600006666000099660000CC660000FF66000000990000339900006699000099990000CC990000FF99000000CC000033CC000066CC000099CC0000CCCC0000FFCC000000FF000033FF000066FF000099FF0000CCFF0000FFFF000000003300330033006600330099003300CC003300FF003300003333003333
310
33006633330099333300CC333300FF33330000663300336633006666330099663300CC663300FF66330000993300339933006699330099993300CC993300FF99330000CC330033CC330066CC330099CC3300CCCC3300FFCC330000FF330033FF330066FF330099FF3300CCFF3300FFFF330000006600330066006600660099
310
006600CC006600FF00660000336600333366006633660099336600CC336600FF33660000666600336666006666660099666600CC666600FF66660000996600339966006699660099996600CC996600FF99660000CC660033CC660066CC660099CC6600CCCC6600FFCC660000FF660033FF660066FF660099FF6600CCFF6600
310
FFFF660000009900330099006600990099009900CC009900FF00990000339900333399006633990099339900CC339900FF33990000669900336699006666990099669900CC669900FF66990000999900339999006699990099999900CC999900FF99990000CC990033CC990066CC990099CC9900CCCC9900FFCC990000FF99
310
0033FF990066FF990099FF9900CCFF9900FFFF99000000CC003300CC006600CC009900CC00CC00CC00FF00CC000033CC003333CC006633CC009933CC00CC33CC00FF33CC000066CC003366CC006666CC009966CC00CC66CC00FF66CC000099CC003399CC006699CC009999CC00CC99CC00FF99CC0000CCCC0033CCCC0066CC
310
CC0099CCCC00CCCCCC00FFCCCC0000FFCC0033FFCC0066FFCC0099FFCC00CCFFCC00FFFFCC000000FF003300FF006600FF009900FF00CC00FF00FF00FF000033FF003333FF006633FF009933FF00CC33FF00FF33FF000066FF003366FF006666FF009966FF00CC66FF00FF66FF000099FF003399FF006699FF009999FF00CC
310
99FF00FF99FF0000CCFF0033CCFF0066CCFF0099CCFF00CCCCFF00FFCCFF0000FFFF0033FFFF0066FFFF0099FFFF00CCFFFF00FFFFFF00000000000D0D0D001A1A1A00282828003535350043434300505050005D5D5D006B6B6B00787878008686860093939300A1A1A100AEAEAE00BBBBBB00C9C9C900D6D6D600E4E4E400
310
F1F1F100FFFFFF0000000000000000000000000000000000000000000000000000000000000000000000000000000000E2E2E2E2E2E2E2E2E2E2E2E2E2E2E2E2E2E2E2E2E2E2E2E2E2E2E2E2E2E2E2E2E2E2E2E2E2E2E2E2E2E2E2E2E2E2E2E2E2E2E2E2E2E2E2E2E2E2E2E2E2E2E2E2E2E2E2E2E2E2E2E2E2E2E2E2E2E2E2
310
E2E2E2E2E2E2E2E2E2E2E2E2E2E2E2E2E2E2E2E2E2E2E2E2E2E2E2E2E2E2E2E2E2E2E2E2E2E2E2E2E2E2E2E2E2E2E2E2E2E2E2E2E2E2E2E2E2E2E2E2E2E2E2E2E2E2E2E2E2E2E2E2E2E2E2E2E2E2E2E2E2E2E2E2E2E2E2E2E2E2E2E2E2E2E2E2E2E2E2E2EFE2E2E2E2E2E2E2E2E2E2E2E2E2E2E2E2E2E2E2E2E2E2E2E2E2E2
310
E2E2E2E2E2E2E2E2E2E2E2E2E2E2E2E2E2E2E2E2E2E2E2E2E2E2E2E2E2E2E2E2E2E2E2E2E2E2E2E2E2E2E2E2E2E2E2E2E2E2E2E2E2E2E2E2E2E2E2E2E2E2E2E2E2E2E2E2E2E2E2E2E2E2E2E2E2E2E2E2E2E2E2E2E2E2E2E2E2E2E2E2E2E2E2E2E2E2E2E2E2E2E2E2E2E2E2E2E2E2E2E2E2E2E2E2E2E2E2E2E2E2E2E2E2E2E2
310
E2E2E2E2E2E2E2E2E2E2E2E2E2E2E2E2E2E2E2E2E2E2E2E2E2E2EFE2E2F5F5F5F5F5F5F5F5F5F5F5F5F5F5F5F5F5F5F5F5F5F5F5F5F5F5F5F5F5F5F5F5F5F5F5F5F5F5F5F5F5F5F5F5F5F5F5F5F5F5F5F5F5F5F5F5F5F5F5F5F5F5F5F5F5F5F5F5F5F5F5F5F5F5F5F5F5F5F5F5F5F5F5F5F5F5F5F5F5F5F5F5F5F5F5F5F5F5
310
F5F5F5F5F5F5F5F5F5F5F5F5F5F5F5F5F5F5F5F5F5F5F5F5F5F5F5F5F5F5F5F5F5F5F5F5F5F5F5F5F5F5F5F5F5F5F5F5F5F5F5F5F5F5F5F5F5F5F5F5F5F5F5F5F5F5F5F5F5F5F5F5F5F5F5E2E2E2E2EFE2E2F5F5F5F5F5F5F5F5F5F5F5F5F5F5F5F5F5F5F5F5F5F5F5F5F5F5F5F5F5F5F5F5F5F5F5F5F5F5F5F5F5F5F5F5F5
310
F5F5F5F5F5F5F5F5F5F5F5F5F5F5F5F5F5F5F5F5F5F5F5F5F5F5F5F5F5F5F5F5F5F5F5F5F5F5F5F5F5F5F5F5F5F5F5F5F5F5F5F5F5F5F5F5F5F5F5F5F5F5F5F5F5F5F5F5F5F5F5F5F5F5F5F5F5F5F5F5F5F5F5F5F5F5F5F5F5F5F5F5F5F5F5F5F5F5F5F5F5F5F5F5F5F5F5F5F5F5F5F5F5F5F5F5F5F5F5F5F5F5F5F5F5F5F5
310
F5E2E2E2E2EFE2E2F5F5F5F5F5F5F5F5F5F5F5F5F5F5F5F5F5F5F5F5F5F5F5F5F5F5F5F5F5F5F5F5F5F5F5F5F5F5F5F5F5F5F5F5F5F5F5F5F5F5F5F5F5F5F5F5F5F5F5F5F5F5F5F5F5F5F5F5F5F5F5F5F5F5F5F5F5F5F5F5F5F5F5F5F5F5F5F5F5F5F5F5F5F5F5F5F5F5F5F5F5F5F5F5F5F5F5F5F5F5F5F5F5F5F5F5F5F5F5
310
F5F5F5F5F5F5F5F5F5F5F5F5F5F5F5F5F5F5F5F5F5F5F5F5F5F5F5F5F5F5F5F5F5F5F5F5F5F5F5F5F5F5F5F5F5F5F5F5F5F5F5F5F5F5E2E2E2E2EFE2E2F5F5F5F5F5F5F5F5F5F5F5F5F5F5F5F5F5F5F5F5F5F5F5F5F5F5F5F5F5F5F5F5F5F5F5F5F5F5F5F5F5F5F5F5F5F5F5F5F5F5F5F5F5F5F5F5F5F5F5F5F5F5F5F5F5F5
310
F5F5F5F5F5F5F5F5F5F5F5F5F5F5F5F5F5F5F5F5F5F5F5F5F5F5F5F5F5F5F5F5F5F5F5F5F5F5F5F5F5F5F5F5F5F5F5F5F5F5F5F5F5F5F5F5F5F5F5F5F5F5F5F5F5F5F5F5F5F5F5F5F5F5F5F5F5F5F5F5F5F5F5F5F5F5F5F5F5F5F5F5F5F5F5F5F5F5F5F5F5F5F5F5F5F5F5E2E2E2E2EFE2E2F5F5F5F5F5F5F5F5F5F5F5F5F5
310
F5F5F5F5F5F5F5F5F5F5F5F5F5F5F5F5F5F5F5F5F5F5F5F5F5F5F5F5F5F5F5F5F5F5F5F5F5F5F5F5F5F5F5F5F5F5F5F5F5F5F5F5F5F5F5F5F5F5F5F5F5F5F5F5F5F5F5F5F5F5F5F5F5F5F5F5F5F5F5F5F5F5F5F5F5F5F5F5F5F5F5F5F5F5F5F5F5F5F5F5F5F5F5F5F5F5F5F5F5F5F5F5F5F5F5F5F5F5F5F5F5F5F5F5F5F5F5
310
F5F5F5F5F5F5F5F5F5F5F5F5F5F5F5F5F5F5F5F5F5F5F5F5F5F5F5F5F5F5F5F5F5E2E2E2E2EFE2E2F5F5F5F5F5F5F5F5F5F5F5F5F5F5F5F5F5F5F5F5F5F5F5F5F5F5F5F5F5F5F5F5F5F5F5F5F5F5F5F5F5F5F5F5F5F5F5F5F5F5F5F5F5F5F5F5F5F5F5F5F5F5F5F5F5F5F5F5F5F5F5F5F5F5F5F5F5F5F5F5F5F5F5F5F5F5F5
310
F5F5F5F5F5F5F5F5F5F5F5F5F5F5F5F5F5F5F5F5F5F5F5F5F5F5F5F5F5F5F5F5F5F5F5F5F5F5F5F5F5F5F5F5F5F5F5F5F5F5F5F5F5F5F5F5F5F5F5F5F5F5F5F5F5F5F5F5F5F5F5F5F5F5F5F5F5F5F5F5F5F5F5F5F5F5E2E2E2E2EFE2E2F5F5F5F5F5F5F5F5F5F5F5F5F5F5F5F5F5F5F5F5F5F5F5F5F5F5F5F5F5F5F5F5F5F5
310
F5F5F5F5F5F5F5F5F5F5F5F5F5F5F5F5F5F5F5F5F5F5F5F5F5F5F5F5F5F5F5F5F5F5F5F5F5F5F5F5F5F5F5F5F5F5F5F5F5F5F5F5F5F5F5F5F5F5F5F5F5F5F5F5F5F5F5F5F5F5F5F5F5F5F5F5F5F5F5F5F5F5F5F5F5F5F5F5F5F5F5F5F5F5F5F5F5F5F5F5F5F5F5F5F5F5F5F5F5F5F5F5F5F5F5F5F5F5F5F5F5F5F5F5F5F5F5
310
F5F5F5F5F5F5F5F5F5F5F5F5E2E2E2E2EFE2E2F5F5F5F5F5F5F5F5F5F5F5F5F5F5F5F5F5F5F5F5F5F5F5F5F5F5F5F5F5F5F5F5F5F5F5F5F5F5F5F5F5F5F5F5F5F5F5F5F5F5F5F5F5F5F5F5F5F5F5F5F5F5F5F5F5F5F5F5F5F5F5F5F5F5F5F5F5F5F5F5F5F5F5F5F5F5F5F5F5F5F5F5F5F5F5F5F5F5F5F5F5F5F5F5F5F5F5F5
310
F5F5F5F5F5F5F5F5F5F5F5F5F5F5F5F5F5F5F5F5F5F5F5F5F5F5F5F5F5F5F5F5F5F5F5F5F5F5F5F5F5F5F5F5F5F5F5F5F5F5F5F5F5F5F5F5F5F5F5F5F5F5F5F5F5E2F5E2E2EFE2E2F5F5F5F5F5F5F5F5F5F5F5F5F5F5F5F5F5F5F5F5F5F5F5F5F5F5F5F5F5F5F5F5F5F5F5F5F5F5F5F5F5F5F5F5F5F5F5F5F5F5F5F5F5F5F5
310
F5F5F5F5F5F5F5F5F5F5F5F5F5F5F5F5F5F5F5F5F5F5F5F5F5F5F5F5F5F5F5F5F5F5F5F5F5F5F5F5F5F5F5F5F5F5F5F5F5F5F5F5F5F5F5F5F5F5F5F5F5F5F5F5F5F5F5F5F5F5F5F5F5F5F5F5F5F5F5F5F5F5F5F5F5F5F5F5F5F5F5F5F5F5F5F5F5F5F5F5F5F5F5F5F5F5F5F5F5F5F5F5F5F5F5F5F5F5E2F5E2E2EFE2E2F5F5
310
F5F5F5F5F5F5F5F5F5F5F5F5F5F5F5F5F5F5F5F5F5F5F5F5F5F5F5F5F5F5F5F5F5F5F5F5F5F5F5F5F5F5F5F5F5F5F5F5F5F5F5F5F5F5F5F5F5F5F5F5F5F5F5F5F5F5F5F5F5F5F5F5F5F5F5F5F5F5F5F5F5F5F5F5F5F5F5F5F5F5F5F5F5F5F5F5F5F5F5F5F5F5F5F5F5F5F5F5F5F5F5F5F5F5F5F5F5F5F5F5F5F5F5F5F5F5F5
310
F5F5F5F5F5F5F5F5F5F5F5F5F5F5F5F5F5F5F5F5F5F5F5F5F5F5F5F5F5F5F5F5F5F5F5F5F5F5F5F5F5F5F5F5E2F5E2E2EFE2E2F5F5F5F5F5F5F5F5F5F5F5F5F5F5F5F5F5F5F5F5F5F5F5F5F5F5F5F5F5F5F5F5F5F5F5F5F5F5F5F5F5F5F5F5F5F5F5F5F5F5F5F5F5F5F5F5F5F5F5F5F5F5F5F5F5F5F5F5F5F5F5F5F5F5F5F5
310
F5F5F5F5F5F5F5F5F5F5F5F5F5F5F5F5F5F5F5F5F5F5F5F5F5F5F5F5F5F5F5F5F5F5F5F5F5F5F5F5F5F5F5F5F5F5F5F5F5F5F5F5F5F5F5F5F5F5F5F5F5F5F5F5F5F5F5F5F5F5F5F5F5F5F5F5F5F5F5F5F5F5F5F5F5F5F5F5F5F5F5F5F5F5F5F5F5E2F5E2E2EFE2E2F5F5F5F5F5F5F5F5F5F5F5F5F5F5F5F5F5F5F5F5F5F5F5
310
F5F5F5F5F5F5F5F5F5F5F5F5F5F5F5F5F5F5F5F5F5F5F5F5F5F5F5F5F5F5F5F5F5F5F5F5F5F5F5F5F5F5F5F5F5F5F5F5F5F5F5F5F5F5F5F5F5F5F5F5F5F5F5F5F5F5F5F5F5F5F5F5F5F5F5F5F5F5F5F5F5F5F5F5F5F5F5F5F5F5F5F5F5F5F5F5F5F5F5F5F5F5F5F5F5F5F5F5F5F5F5F5F5F5F5F5F5F5F5F5F5F5F5F5F5F5F5
310
F5F5F5F5F5F5F5F5F5F5F5F5F5F5F5F5F5F5F5F5F5F5F5E2F5E2E2EFE2E2F5F5F5F5F5F5F5F5F5F5F5F5F5F5F5F5F5F5F5F5F5F5F5F5F5F5F5F5F5F5F5F5F5F5F5F5F5F5F5F5F5F5F5F5F5F5F5F5F5F5F5F5F5F5F5F5F5F5F5F5F5F5F5F5F5F5F5F5F5F5F5F5F5F5F5F5F5F5F5F5F5F5F5F5F5F5F5F5F5F5F5F5F5F5F5F5F5
310
F5F5F5F5F5F5F5F5F5F5F5F5F5F5F5F5F5F5F5F5F5F5F5F5F5F5F5F5F5F5F5F5F5F5F5F5F5F5F5F5F5F5F5F5F5F5F5F5F5F5F5F5F5F5F5F5F5F5F5F5F5F5F5F5F5F5F5F5F5F5F5F5F5F5F5F5E2F5E2E2EFE2E2F5F5F5F5F5F5F5F5F5F5F5F5F5F5F5F5F5F5F5F5F5F5F5F5F5F5F5F5F5F5F5F5F5F5F5F5F5F5F5F5F5F5F5F5
310
F5F5F5F5F5F5F5F5F5F5F5F5F5F5F5F5F5F5F5F5F5F5F5F5F5F5E2E2E2E2E2E2E2E2E2E2E2E2E2E2E2E2E2E2E2E2E2E2E2E2E2E2E2E2E2E2E2E2F5F5F5F5F5F5F5F5F5F5F5F5F5F5F5F5F5F5F5F5F5F5F5F5F5F5F5F5F5F5F5F5F5F5F5F5F5F5F5F5F5F5F5F5F5F5F5F5F5F5F5F5F5F5F5F5F5F5F5F5F5F5F5F5F5F5F5F5F5
310
F5F5E2F5E2E2EFE2E2F5F5F5F5F5F5F5F5F5F5F5F5F5F5F5F5F5F5F5F5F5F5F5F5F5F5F5F5F5F5F5F5F5F5F5F5F5F5F5F5F5F5F5F5F5F5F5F5F5F5F5F5F5F5F5F5F5F5F5F5F5F5F5F5F5F5F5F5F5F5E2E2E2E2E2E2E2E2E2E2E2E2E2E2E2E2E2E2E2E2E2E2E2E2E2E2E2E2E2E2E2E2F5F5F5F5F5F5F5F5F5F5F5F5F5F5F5F5
310
F5F5F5F5F5F5F5F5F5F5F5F5F5F5F5F5F5F5F5F5F5F5F5F5F5F5F5F5F5F5F5F5F5F5F5F5F5F5F5F5F5F5F5F5F5F5F5F5F5F5F5F5F5F5F5E2F5E2E2EFE2E2F5F5F5F5F5F5F5F5F5F5F5F5F5F5F5F5F5F5F5F5F5F5F5F5F5F5F5F5F5F5F5F5F5F5F5F5F5F5F5F5F5F5F5F5F5F5F5F5F5F5F5F5F5F5F5F5F5F5F5F5F5F5F5F5F5
310
F5F5F5F5F5F5F5F5F5F5F5F5F5F5F5F5F5F5F5F5F5F5F5F5F5F5F5F5F5F5F5F5F5F5F5F5F5F5F5F5F5F5F5F5F5F5F5F5F5F5F5F5F5F5F5F5F5F5F5F5F5F5F5F5F5F5F5F5F5F5F5F5F5F5F5F5F5F5F5F5F5F5F5F5F5F5F5F5F5F5F5F5F5F5F5F5F5F5F5F5F5F5F5F5F5F5F5F5E2F5E2E2EFE2E2F5F5F5F5F5F5F5F5F5F5F5F5
310
F5F5F5F5F5F5F5F5F5F5F5F5F5F5F5F5F5F5F5F5F5F5F5F5F5F5F5F5F5F5F5F5F5F5F5F5F5F5F5F5F5F5F5F5F5F5F5F5F5F5F5F5F5F5F5F5F5F5F5F5F5F5F5F5F5F5F5F5F5F5F5F5F5F5F5F5F5F5F5F5F5F5F5F5F5F5F5F5F5F5F5F5F5F5F5F5F5F5F5F5F5F5F5F5F5F5F5F5F5F5F5F5F5F5F5F5F5F5F5F5F5F5F5F5F5F5F5
310
F5F5F5F5F5F5F5F5F5F5F5F5F5F5F5F5F5F5F5F5F5F5F5F5F5F5F5F5F5F5F5F5F5F5E2E2E2E2EFE2E2F5F5F5F5F5F5F5F5F5F5F5F5F5F5F5F5F5F5F5F5F5F5F5F5F5F5F5F5F5F5F5F5F5E2BEF5F5F5F5F5F5F5F5F5F5F5F5F5F5F5F5F5F5F5F5F5F5F5F5F5F5F5F5F5F5F5F5F5F5F5F5F5F5F5F5F5F5F5F5F5F5F5F5F5F5F5
310
F5F5F5F5F5F5F5F5F5F5F5F5F5F5F5F5F5F5F5F5F5F5F5F5F5F5F5F5F5F5F5F5F5F5F5F5F5F5F5F5F5F5F5F5F5F5F5F5F5F5F5F5F5F5F5F5F5F5F5F5F5F5F5F5F5F5F5F5F5F5F5F5F5F5F5F5F5F5F5F5F5F5F5F5F5F5F5E2E2E2E2EFE2E2F5F5F5F5F5F5F5F5F5F5F5F5F5F5F5F5F5F5F5F5F5F5F5F5F5F5F5F5F5F5F5F5E2
310
E2BEE2F5F5F5F5F5F5F5F5F5F5F5F5F5F5F5F5F5F5F5F5F5F5F5F5F5F5F5F5F5F5F5F5F5F5E2E2E2E2F5E2E2E2E2E2E2F5E2E2E2E2E2F5E2E2E2E2E2F5E2E2E2E2E2E2F5E2E2E2E2E2F5E2E2E2E2E2F5F5F5F5F5F5F5F5F5F5F5F5F5F5F5F5F5F5F5F5F5F5F5F5F5F5F5F5F5F5F5F5F5F5F5F5F5F5F5F5F5F5F5F5F5F5F5F5
310
F5F5F5F5F5F5F5F5F5F5F5F5F5E2E2E2E2EFE2E2F5F5F5F5F5F5F5F5F5F5F5F5F5F5F5F5F5F5F5F5F5F5F5F5F5F5F5F5F5F5F5F5F5E2F5F5F5F5F5F5F5F5F5F5F5F5F5F5F5F5F5F5F5F5F5F5F5F5F5F5F5F5F5F5F5F5F5F5F5F5E2F5F5F5F5F5F5F5F5F5F5F5F5F5F5F5F5F5F5F5F5F5F5F5F5F5F5F5F5F5F5F5F5F5F5F5F5
310
F5F5F5F5E2F5F5F5F5F5F5F5F5F5F5F5F5F5F5F5F5F5F5F5F5F5F5F5F5F5F5F5F5F5F5F5F5F5F5F5F5F5F5F5F5F5F5F5F5F5F5F5F5F5F5F5F5F5F5F5F5F5F5F5F5F5E2E2E2E2EFE2E2F5F5F5F5F5F5F5F5F5F5F5F5F5F5F5F5F5F5F5F5F5F5F5F5F5F5F5F5F5F5F5F5F5E2F5F5F5F5F5F5F5F5F5F5F5F5F5F5F5F5F5F5F5F5
310
F5F5F5F5F5F5F5F5F5F5F5F5F5F5F5F5E2F5F5F5F5F5F5F5F5F5F5F5F5F5F5F5F5F5F5F5F5F5F5F5F5F5F5F5F5F5F5F5F5F5F5F5F5F5F5F5F5E2F5F5F5F5F5F5F5F5F5F5F5F5F5F5F5F5F5F5F5F5F5F5F5F5F5F5F5F5F5F5F5F5F5F5F5F5F5F5F5F5F5F5F5F5F5F5F5F5F5F5F5F5F5F5F5F5F5F5F5F5F5E2E2E2E2EFE2E2F5
310
F5F5F5F5F5F5F5F5F5F5F5F5F5F5F5F5F5F5F5F5F5F5F5F5F5F5F5F5F5F5F5F5E2F5F5F5F5F5F5F5F5F5F5F5F5F5F5F5F5F5F5F5F5F5F5F5F5F5F5F5F5F5F5F5F5F5F5F5F5E2F5F5F5F5F5F5F5F5F5F5F5F5F5F5F5F5F5F5F5F5F5F5F5F5F5F5F5F5F5F5F5F5F5F5F5F5F5F5F5F5E2F5F5F5F5F5F5F5F5F5F5F5F5F5F5F5F5
310
F5F5F5F5F5F5F5F5F5F5F5F5F5F5F5F5F5F5F5F5F5F5F5F5F5F5F5F5F5F5F5F5F5F5F5F5F5F5F5F5F5F5F5F5F5E2E2E2E2EFE2E2F5F5F5F5F5F5F5F5F5F5F5F5F5F5F5F5F5F5F5F5F5F5F5F5F5F5F5F5F5F5F5F5F5E2F5F5F5F5F5F5F5F5F5F5F5F5F5F5F5F5F5F5F5F5F5F5F5F5F5F5F5F5F5F5F5F5F5F5F5F5F5F5F5F5F5
310
F5F5F5F5F5F5F5F5F5F5F5F5F5F5F5F5F5F5F5F5F5F5F5F5F5F5F5F5F5F5F5F5F5F5F5F5E2F5F5F5F5F5F5F5F5F5F5F5F5F5F5F5F5F5F5F5F5F5F5F5F5F5F5F5F5F5F5F5F5F5F5F5F5F5F5F5F5F5F5F5F5F5F5F5F5F5F5F5F5F5F5F5F5F5F5F5F5F5E2E2E2E2EFE2E2F5F5F5F5F5F5F5F5F5F5F5F5F5F5F5F5F5F5F5F5F5F5
310
F5F5F5F5F5F5F5F5F5F5F5E2F5F5F5F5F5F5F5F5F5F5F5F5F5F5F5F5F5F5F5F5F5F5F5F5F5F5F5F5F5F5F5F5F5F5F5F5E2F5F5F5F5F5F5F5F5F5F5F5F5F5F5F5F5F5F5F5F5F5F5F5F5F5F5F5F5F5F5F5F5F5F5F5F5F5F5F5F5F5F5F5F5F5F5F5F5F5F5F5F5F5F5F5F5F5F5F5F5F5F5F5F5F5F5F5F5F5F5F5F5F5F5F5F5F5F5
310
F5F5F5F5F5F5F5F5F5F5F5F5F5F5F5F5F5F5F5F5F5F5F5F5E2E2E2E2EFE2E2F5F5F5F5F5F5F5F5F5F5F5F5F5F5F5F5F5F5F5F5F5F5F5F5F5F5F5F5F5F5F5F5F5E2F5F5F5F5F5F5F5F5F5F5F5F5F5F5F5F5F5F5F5F5F5F5F5F5F5F5F5F5F5F5F5F5F5F5F5F5E2F5F5F5F5F5F5F5F5F5F5F5F5F5F5F5F5F5F5F5F5F5F5F5F5F5
310
F5F5F5F5F5F5F5F5F5F5F5F5F5F5F5E2F5F5F5F5F5F5F5F5F5F5F5F5F5F5F5F5F5F5F5F5F5F5F5F5F5F5F5F5F5F5F5F5F5F5F5F5F5F5F5F5F5F5F5F5F5F5F5F5F5F5F5F5F5F5F5F5F5F5F5F5F5E2E2E2E2EFE2E2F5F5F5F5F5F5F5F5F5F5F5F5F5F5F5F5F5F5F5F5F5F5F5F5F5F5F5F5F5F5F5F5F5E2F5F5F5F5F5F5F5F5F5
310
F5F5F5F5F5F5F5F5F5F5F5F5F5F5F5F5F5F5F5F5F5F5F5F5F5F5F5E2F5F5F5F5F5F5F5F5F5F5F5F5F5F5F5F5F5F5F5F5F5F5F5F5F5F5F5F5F5F5F5F5F5F5F5F5F5F5F5F5E2F5F5F5F5F5F5F5F5F5F5F5F5F5F5F5F5F5F5F5F5F5F5F5F5F5F5F5F5F5F5F5F5F5F5F5F5F5F5F5F5F5F5F5F5F5F5F5F5F5F5F5F5F5F5F5F5F5F5
310
F5F5F5E2E2E2E2EFE2E2F5F5F5F5F5F5F5F5F5F5F5F5F5F5F5F5F5F5F5F5F5F5F5F5F5F5F5F5F5F5F5F5F5E2F5F5F5F5F5F5F5F5F5F5F5F5F5F5F5F5F5F5F5F5F5F5F5F5F5F5F5F5F5F5F5F5F5F5F5F5E2F5F5F5F5F5F5F5F5F5F5F5F5F5F5F5F5F5F5F5F5F5F5F5F5F5F5F5F5F5F5F5F5F5F5F5F5F5F5F5F5E2F5F5F5F5F5
310
F5F5F5F5F5F5F5F5F5F5F5F5F5F5F5F5F5F5F5F5F5F5F5F5F5F5F5F5F5F5F5F5F5F5F5F5F5F5F5F5F5F5F5F5F5F5F5F5F5F5F5F5F5F5F5F5E2E2E2E2EFE2E2F5F5F5F5F5F5F5F5F5F5F5F5F5F5F5F5F5F5F5F5F5F5F5F5F5F5F5F5F5F5F5F5F5E2F5F5F5F5F5F5F5F5F5F5F5F5F5F5F5F5F5F5F5F5F5F5F5F5F5F5F5F5F5F5
310
F5F5F5F5F5F5E2F5F5F5F5F5F5F5F5F5F5F5F5F5F5F5F5F5F5F5F5F5F5F5F5F5F5F5F5F5F5F5F5F5F5F5F5F5F5F5F5E2F5F5F5F5F5F5F5F5F5F5F5F5F5F5F5F5F5F5F5F5F5F5F5F5F5F5F5F5F5F5F5F5F5F5F5F5F5F5F5F5F5F5F5F5F5F5F5F5F5F5F5F5F5F5F5F5F5F5F5F5F5E2E2E2E2EFE2E2F5F5F5F5F5F5F5F5F5F5F5
310
F5F5F5F5F5F5F5F5F5F5F5F5F5F5F5F5F5F5F5F5F5F5E2F5F5F5F5F5F5F5F5F5F5F5F5F5F5F5F5F5F5F5F5F5F5F5F5F5F5F5F5F5F5F5F5F5F5F5F5E2F5F5F5F5F5F5F5F5F5F5F5F5F5F5F5F5F5F5F5F5F5F5F5F5F5F5F5F5F5F5F5F5F5F5F5F5F5F5F5F5E2F5F5F5F5F5F5F5F5F5F5F5F5F5F5F5F5F5F5F5F5F5F5F5F5F5F5
310
F5F5F5F5F5F5F5F5F5F5F5F5F5F5F5F5F5F5F5F5F5F5F5F5F5F5F5F5F5F5F5F5F5F5F5E2E2E2E2EFE2E2F5F5F5F5F5F5F5F5F5F5F5F5F5F5F5F5F5F5F5F5F5F5F5F5F5F5F5F5F5F5F5F5F5E2F5F5F5F5F5F5F5F5F5F5F5F5F5F5F5F5F5F5F5F5F5F5F5F5F5F5F5F5F5F5F5F5F5F5F5F5F5F5F5F5F5F5F5F5F5F5F5F5F5F5F5
310
F5F5F5F5F5F5F5F5F5F5F5F5F5F5F5F5F5F5F5F5F5F5F5F5F5F5F5F5F5F5F5F5F5F5F5F5F5F5F5F5F5F5F5F5F5F5F5F5F5F5F5F5F5F5F5F5F5F5F5F5F5F5F5F5F5F5F5F5F5F5F5F5F5F5F5F5F5F5F5F5F5F5F5F5F5F5F5F5E2E2E2E2EFE2E2F5F5F5F5F5F5F5F5F5F5F5F5F5F5F5F5F5F5F5F5F5F5F5F5F5F5F5F5F5F5F5F5
310
F5E2F5F5F5F5F5F5F5F5F5F5F5F5F5F5F5F5F5F5F5F5F5F5F5F5F5F5F5F5F5F5F5F5F5F5F5F5E2F5F5F5F5F5F5F5F5F5F5F5F5F5F5F5F5F5F5F5F5F5F5F5F5F5F5F5F5F5F5F5F5F5F5F5F5F5F5F5F5E2F5F5F5F5F5F5F5F5F5F5F5F5F5F5F5F5F5F5F5F5F5F5F5F5F5F5F5F5F5F5F5F5F5F5F5F5F5F5F5F5F5F5F5F5F5F5F5
310
F5F5F5F5F5F5F5F5F5F5F5F5F5F5E2E2E2E2EFE2E2F5F5F5F5F5F5F5F5F5F5F5F5F5F5F5F5F5F5F5F5F5F5F5F5F5F5F5F5F5F5F5F5F5E2F5F5F5F5F5F5F5F5F5F5F5F5F5F5F5F5F5F5F5F5F5F5F5F5F5F5F5F5F5F5F5F5F5F5F5F5E2F5F5F5F5F5F5F5F5F5F5F5F5F5F5F5F5F5F5F5F5F5F5F5F5F5F5F5F5F5F5F5F5F5F5F5
310
F5F5F5F5F5E2F5F5F5F5F5F5F5F5F5F5F5F5F5F5F5F5F5F5F5F5F5F5F5F5F5F5F5F5F5F5F5F5F5F5F5F5F5F5F5F5F5F5F5F5F5F5F5F5F5F5F5F5F5F5F5F5F5F5F5F5F5E2E2E2E2EFE2E2F5F5F5F5F5F5F5F5F5F5F5F5F5F5F5F5F5F5F5F5F5F5F5F5F5F5F5F5F5F5F5F5F5E2F5F5F5F5F5F5F5F5F5F5F5F5F5F5F5F5F5F5F5
310
F5F5F5F5F5F5F5F5F5F5F5F5F5F5F5F5F5E2F5F5F5F5F5F5F5F5F5F5F5F5F5F5F5F5F5F5F5F5F5F5F5F5F5F5F5F5F5F5F5F5F5F5F5F5F5F5F5F5E2F5F5F5F5F5F5F5F5F5F5F5F5F5F5F5F5F5F5F5F5F5F5F5F5F5F5F5F5F5F5F5F5F5F5F5F5F5F5F5F5F5F5F5F5F5F5F5F5F5F5F5F5F5F5F5F5F5F5F5F5F5E2F5E2E2EFE2E2
310
F5F5F5F5F5F5F5F5F5F5F5F5F5F5F5F5F5F5F5F5F5F5F5F5F5F5F5F5F5F5F5F5F5E2F5F5F5F5F5F5F5F5F5F5F5F5F5F5F5F5F5F5F5F5F5F5F5F5F5F5F5F5F5F5F5F5F5F5F5F5E2F5F5F5F5F5F5F5F5F5F5F5F5F5F5F5F5F5F5F5F5F5F5F5F5F5F5F5F5F5F5F5F5F5F5F5F5F5F5F5F5E2F5F5F5F5F5F5F5F5F5F5F5F5F5F5F5
310
F5F5F5F5F5F5F5F5F5F5F5F5F5F5F5F5F5F5F5F5F5F5F5F5F5F5F5F5F5F5F5F5F5F5F5F5F5F5F5F5F5F5F5F5F5F5E2F5E2E2EFE2E2F5F5F5F5F5F5F5F5F5F5F5F5F5F5F5F5F5F5F5F5F5F5F5F5F5F5F5F5F5F5F5F5F5E2F5F5F5F5F5F5F5F5F5F5F5F5F5F5F5F5F5F5F5F5F5F5F5F5F5F5F5F5F5F5F5F5F5F5F5F5E2F5F5F5
310
F5F5F5F5F5F5F5F5F5F5F5F5F5F5F5F5F5F5F5F5F5F5F5F5F5F5F5F5F5F5F5F5F5F5F5F5F5E2F5F5F5F5F5F5F5F5F5F5F5F5F5F5F5F5F5F5F5F5F5F5F5F5F5F5F5F5F5F5F5F5F5F5F5F5F5F5F5F5F5F5F5F5F5F5F5F5F5F5F5F5F5F5F5F5F5F5F5F5F5E2F5E2E2EFE2E2F5F5F5F5F5F5F5F5F5F5F5F5F5F5F5F5F5F5F5F5F5
310
F5F5F5F5F5F5F5F5F5F5F5F5E2F5F5F5F5F5F5F5F5F5F5F5F5F5F5F5F5F5F5F5F5F5F5F5F5F5F5F5F5F5F5F5F5F5F5F5F5F5F5F5F5F5F5F5F5F5F5F5F5F5F5F5F5F5F5F5F5F5F5F5F5F5F5F5F5F5F5F5F5F5F5F5F5F5F5F5F5F5E2F5F5F5F5F5F5F5F5F5F5F5F5F5F5F5F5F5F5F5F5F5F5F5F5F5F5F5F5F5F5F5F5F5F5F5F5
310
F5F5F5F5F5F5F5F5F5F5F5F5F5F5F5F5F5F5F5F5F5F5F5F5F5E2F5E2E2EFE2E2F5F5F5F5F5F5F5F5F5F5F5F5F5F5F5F5F5F5F5F5F5F5F5F5F5F5F5F5F5F5F5F5F5E2F5F5F5F5F5F5F5F5F5F5F5F5F5F5F5F5F5F5F5F5F5F5F5F5F5F5F5F5F5F5F5F5F5F5F5F5E2F5F5F5F5F5F5F5F5F5F5F5F5F5F5F5F5F5F5F5F5F5F5F5F5
310
F5F5F5F5F5F5F5F5F5F5F5F5F5F5F5F5F5F5F5F5F5F5F5F5F5F5F5F5F5F5F5F5F5F5F5F5F5F5F5F5F5F5F5F5F5F5F5F5F5F5F5F5F5F5F5F5F5F5F5F5F5F5F5F5F5F5F5F5F5F5F5F5F5F5F5F5F5F5E2F5E2E2EFE2E2F5F5F5F5F5F5F5F5F5F5F5F5F5F5F5F5F5F5F5F5F5F5F5F5F5F5F5F5F5F5F5F5F5E2F5F5F5F5F5F5F5F5
310
F5F5F5F5F5F5F5F5F5F5F5F5F5F5F5F5F5F5F5F5F5F5F5F5F5F5F5F5E2F5F5F5F5F5F5F5F5F5F5F5F5F5F5F5F5F5F5F5F5F5F5F5F5F5F5F5F5F5F5F5F5F5F5F5F5F5F5F5F5E2F5F5F5F5F5F5F5F5F5F5F5F5F5F5F5F5F5F5F5F5F5F5F5F5F5F5F5F5F5F5F5F5F5F5F5F5F5F5F5F5F5F5F5F5F5F5F5F5F5F5F5F5F5F5F5F5F5
310
F5F5F5F5E2F5E2E2EFE2E2F5F5F5F5F5F5F5F5F5F5F5F5F5F5F5F5F5F5F5F5F5F5F5F5F5F5F5F5F5F5F5F5F5E2F5F5F5F5F5F5F5F5F5F5F5F5F5F5F5F5F5F5F5F5F5F5F5F5F5F5F5F5F5F5F5F5F5F5F5F5E2F5F5F5F5F5F5F5F5F5F5F5F5F5F5F5F5E2E2E2E2E2E2E2E2F5F5F5F5F5F5F5F5F5F5F5F5F5F5F5F5E2F5F5F5F5
310
F5F5F5F5F5F5F5F5F5F5F5F5F5F5F5F5F5F5F5F5F5F5F5F5F5F5F5F5F5F5F5F5F5F5F5F5F5F5F5F5F5F5F5F5F5F5F5F5F5F5F5F5F5F5F5F5F5E2F5E2E2EFE2E2F5F5F5F5F5F5F5F5F5F5F5F5F5F5F5F5F5F5F5F5F5F5F5F5F5F5F5F5F5F5F5F5F5E2F5F5F5F5F5F5F5F5F5F5F5F5F5F5F5F5F5F5F5F5F5F5F5F5F5F5F5F5F5
310
F5F5F5F5F5F5F5E2F5F5F5F5F5F5F5F5F5F5F5F5F5F5F5F5E2F5F5E2F5F5F5E2F5F5F5F5F5F5F5F5F5F5F5F5F5F5F5F5E2F5F5F5F5F5F5F5F5F5F5F5F5F5F5F5F5F5F5F5F5F5F5F5F5F5F5F5F5F5F5F5F5F5F5F5F5F5F5F5F5F5F5F5F5F5F5F5F5F5F5F5F5F5F5F5F5F5F5F5F5F5E2F5E2E2EFE2E2F5F5F5F5F5F5F5F5F5F5
310
F5F5F5F5F5F5F5F5F5F5F5F5F5F5F5F5F5F5F5F5F5F5F5E2F5F5F5F5F5F5F5F5F5F5F5F5F5F5F5F5F5F5F5F5F5F5F5F5F5F5F5F5F5F5F5F5F5F5F5F5E2F5F5F5F5F5F5F5F5F5F5F5F5F5F5F5F5E2F5F5E2F5F5F5E2F5F5F5F5F5F5F5F5F5F5F5F5F5F5F5F5E2F5F5F5F5F5F5F5F5F5F5F5F5F5F5F5F5F5F5F5F5F5F5F5F5F5
310
F5F5F5F5F5F5F5F5F5F5F5F5F5F5F5F5F5F5F5F5F5F5F5F5F5F5F5F5F5F5F5F5F5F5F5F5E2F5E2E2EFE2E2F5F5F5F5F5F5F5F5F5F5F5F5F5F5F5F5F5F5F5F5F5F5F5F5F5F5F5F5F5F5F5F5F5E2F5F5F5F5F5F5F5F5F5F5F5F5F5F5F5F5F5F5F5F5F5F5F5F5F5F5F5F5F5F5F5F5F5F5F5F5F5F5F5F5F5F5F5F5F5F5F5F5F5F5
310
F5F5F5E2F5F5E2F5F5F5E2F5F5F5F5F5F5F5F5F5F5F5F5F5F5F5F5E2F5F5F5F5F5F5F5F5F5F5F5F5F5F5F5F5F5F5F5F5F5F5F5F5F5F5F5F5F5F5F5F5F5F5F5F5F5F5F5F5F5F5F5F5F5F5F5F5F5F5F5F5F5F5F5F5F5F5F5F5F5E2E2E2E2EFE2E2F5F5F5F5F5F5F5F5F5F5F5F5F5F5F5F5F5F5F5F5F5F5F5F5F5F5F5F5F5F5F5
310
F5F5E2F5F5F5F5F5F5F5F5F5F5F5F5F5F5F5F5F5F5F5F5F5F5F5F5F5F5F5F5F5F5F5F5F5F5F5F5E2F5F5F5F5F5F5F5F5F5F5F5F5F5F5F5F5E2F5F5E2F5F5F5E2F5F5F5F5F5F5F5F5F5F5F5F5F5F5F5F5F5F5F5F5F5F5F5F5F5F5F5F5F5F5F5F5F5F5F5F5F5F5F5F5F5F5F5F5F5F5F5F5F5F5F5F5F5F5F5F5F5F5F5F5F5F5F5
310
F5F5F5F5F5F5F5F5F5F5F5F5F5F5F5E2E2E2E2EFE2E2F5F5F5F5F5F5F5F5F5F5F5F5F5F5F5F5F5F5F5F5F5F5F5F5F5F5F5F5F5F5F5F5F5E2F5F5F5F5F5F5F5F5F5F5F5F5F5F5F5F5F5F5F5F5F5F5F5F5F5F5F5F5F5F5F5F5F5F5F5F5E2F5F5F5F5F5F5F5F5F5F5F5F5F5F5F5F5E2F5F5E2F5F5F5E2F5F5F5F5F5F5F5F5F5F5
310
F5F5F5F5F5F5E2F5F5F5F5F5F5F5F5F5F5F5F5F5F5F5F5F5F5F5F5F5F5F5F5F5F5F5F5F5F5F5F5F5F5F5F5F5F5F5F5F5F5F5F5F5F5F5F5F5F5F5F5F5F5F5F5F5F5F5F5F5E2E2E2E2EFE2E2F5F5F5F5F5F5F5F5F5F5F5F5F5F5F5F5F5F5F5F5F5F5F5F5F5F5F5F5F5F5F5F5F5E2F5F5F5F5F5F5F5F5F5F5F5F5F5F5F5F5F5F5
310
F5F5F5F5F5F5F5F5F5F5F5F5F5F5F5F5F5F5E2F5F5F5F5F5F5F5F5F5F5F5F5F5F5F5F5E2F5F5E2F5F5F5E2F5F5F5F5F5F5F5F5F5F5F5F5F5F5F5F5E2F5F5F5F5F5F5F5F5F5F5F5F5F5F5F5F5F5F5F5F5F5F5F5F5F5F5F5F5F5F5F5F5F5F5F5F5F5F5F5F5F5F5F5F5F5F5F5F5F5F5F5F5F5F5F5F5F5F5F5F5F5E2E2E2E2EFE2
310
E2F5F5F5F5F5F5F5F5F5F5F5F5F5F5F5F5F5F5F5F5F5F5F5F5F5F5F5F5F5F5F5F5F5E2F5F5F5F5F5F5F5E2E2E2E2E2F5E2E2E2E2E2F5E2E2E2E2E2F5E2E2E2E2E2E2F5E2E2E2E2E2F5F5F5F5F5F5F5F5F5F5F5F5F5F5F5F5E2F5F5E2F5F5F5E2F5F5F5F5F5F5F5F5F5F5F5F5F5F5F5F5E2F5F5F5F5F5F5F5F5F5F5F5F5F5F5
310
F5F5F5F5F5F5F5F5F5F5F5F5F5F5F5F5F5F5F5F5F5F5F5F5F5F5F5F5F5F5F5F5F5F5F5F5F5F5F5F5F5F5F5F5F5F5F5E2E2E2E2EFE2E2F5F5F5F5F5F5F5F5F5F5F5F5F5F5F5F5F5F5F5F5F5F5F5F5F5F5F5F5F5F5F5F5F5E2F5F5F5F5F5F5F5E2F5F5F5F5F5F5F5F5F5F5F5F5F5F5F5F5F5F5F5F5F5F5F5F5F5F5F5F5F5F5F5
310
F5F5F5F5F5F5F5F5F5F5F5F5F5F5E2F5F5E2F5F5F5E2F5F5F5F5F5F5F5F5F5F5F5F5F5F5F5F5E2F5F5F5F5F5F5F5F5F5F5F5F5F5F5F5F5F5F5F5F5F5F5F5F5F5F5F5F5F5F5F5F5F5F5F5F5F5F5F5F5F5F5F5F5F5F5F5F5F5F5F5F5F5F5F5F5F5F5F5F5F5E2E2E2E2EFE2E2F5F5F5F5F5F5F5F5F5F5F5F5F5F5F5F5F5F5F5F5
310
F5F5F5F5F5F5F5F5F5F5F5F5F5E2F5F5F5F5F5F5F5E2F5F5F5F5F5F5F5F5F5F5F5F5F5F5F5F5F5F5F5F5F5F5F5F5F5F5F5F5F5F5F5F5F5F5F5F5F5F5F5F5F5F5F5F5F5E2F5F5E2F5F5F5E2F5F5F5F5F5F5F5F5F5F5F5F5F5F5F5F5E2F5F5F5F5F5F5F5F5F5F5F5F5F5F5F5F5F5F5F5F5F5F5F5F5F5F5F5F5F5F5F5F5F5F5F5
310
F5F5F5F5F5F5F5F5F5F5F5F5F5F5F5F5F5F5F5F5F5F5F5F5F5F5E2E2E2E2EFE2E2F5F5F5F5F5F5F5F5F5F5F5F5F5F5F5F5F5F5F5F5F5F5F5F5F5F5F5F5F5F5F5F5F5E2F5F5F5F5F5F5F5E2F5F5F5F5F5F5F5F5F5F5F5F5F5F5F5F5F5F5F5F5F5F5F5F5F5F5F5F5F5F5F5F5F5F5F5F5F5F5F5F5F5F5F5F5F5E2F5F5E2F5F5F5
310
E2F5F5F5F5F5F5F5F5F5F5F5F5F5F5F5F5F5F5F5F5F5F5F5F5F5F5F5F5F5F5F5F5F5F5F5F5F5F5F5F5F5F5F5F5F5F5F5F5F5F5F5F5F5F5F5F5F5F5F5F5F5F5F5F5F5F5F5F5F5F5F5F5F5F5F5F5F5F5E2E2E2E2EFE2E2F5F5F5F5F5F5F5F5F5F5F5F5F5F5F5F5F5F5F5F5F5F5F5F5F5F5F5F5F5F5F5F5F5E2F5F5F5F5F5F5F5
310
E2F5F5F5F5F5F5F5F5F5F5F5F5F5F5F5F5F5F5F5F5F5F5F5F5F5F5F5F5F5F5F5F5F5F5F5F5F5F5F5F5F5F5F5F5F5E2F5F5E2F5F5F5E2F5F5F5F5F5F5F5F5F5F5F5F5F5F5F5F5E2F5F5F5F5F5F5F5F5F5F5F5F5F5F5F5F5F5F5F5F5F5F5F5F5F5F5F5F5F5F5F5F5F5F5F5F5F5F5F5F5F5F5F5F5F5F5F5F5F5F5F5F5F5F5F5F5
310
F5F5F5F5F5E2E2E2E2EFE2E2F5F5F5F5F5F5F5F5F5F5F5F5F5F5F5F5F5F5F5F5F5F5F5F5F5F5F5F5F5F5F5F5F5E2F5F5F5F5F5F5F5F5F5F5F5F5F5F5F5F5F5F5F5F5F5F5F5F5F5F5F5F5F5F5F5F5F5F5F5F5F5F5F5F5F5F5F5F5F5F5F5F5F5F5F5F5F5E2F5F5E2F5F5F5E2F5F5F5F5F5F5F5F5F5F5F5F5F5F5F5F5E2F5F5F5
310
F5F5F5F5F5F5F5F5F5F5F5F5F5F5F5F5F5F5F5F5F5F5F5F5F5F5F5F5F5F5F5F5F5F5F5F5F5F5F5F5F5F5F5F5F5F5F5F5F5F5F5F5F5F5F5F5F5F5E2E2E2E2EFE2E2F5F5F5F5F5F5F5F5F5F5F5F5F5F5F5F5F5F5F5F5F5F5F5F5F5F5F5F5F5F5F5F5F5E2F5F5F5F5F5F5F5E2F5F5F5F5F5F5F5F5F5F5F5F5F5F5F5F5F5F5F5F5
310
F5F5F5F5F5F5F5F5F5F5F5F5F5F5F5F5F5F5F5F5F5F5F5F5F5E2F5F5E2F5F5F5E2F5F5F5F5F5F5F5F5F5F5F5F5F5F5F5F5E2F5F5F5F5F5F5F5F5F5F5F5F5F5F5F5F5F5F5F5F5F5F5F5F5F5F5F5F5F5F5F5F5F5F5F5F5F5F5F5F5F5F5F5F5F5F5F5F5F5F5F5F5F5F5F5F5F5F5F5F5F5E2E2E2E2EFE2E2F5F5F5F5F5F5F5F5F5
310
F5F5F5F5F5F5F5F5F5F5F5F5F5F5F5F5F5F5F5F5F5F5F5F5E2F5F5F5F5F5F5F5E2F5F5F5F5F5F5F5F5F5F5F5F5F5F5F5F5F5F5F5F5F5F5F5F5F5F5F5F5F5F5F5F5F5F5F5F5F5F5F5F5F5F5F5F5F5E2F5F5E2F5F5F5E2F5F5F5F5F5F5F5F5F5F5F5F5F5F5F5F5E2F5F5F5F5F5F5F5F5F5F5F5F5F5F5F5F5F5F5F5F5F5F5F5F5
310
F5F5F5F5F5F5F5F5F5F5F5F5F5F5F5F5F5F5F5F5F5F5F5F5F5F5F5F5F5F5F5F5F5F5F5F5F5E2E2E2E2EFE2E2F5F5F5F5F5F5F5F5F5F5F5F5F5F5F5F5F5F5F5F5F5F5F5F5F5F5F5F5F5F5F5F5F5E2F5F5F5F5F5F5F5E2F5F5F5F5F5F5F5F5F5F5F5F5F5F5F5F5F5F5F5F5F5F5F5F5F5F5F5F5F5F5F5F5F5F5F5F5F5F5F5F5F5
310
F5F5F5F5E2F5F5E2F5F5F5E2F5F5F5F5F5F5F5F5F5F5F5F5F5F5F5F5E2F5F5F5F5F5F5F5F5F5F5F5F5F5F5F5F5F5F5F5F5F5F5F5F5F5F5F5F5F5F5F5F5F5F5F5F5F5F5F5F5F5F5F5F5F5F5F5F5F5F5F5F5F5F5F5F5F5F5F5F5F5E2E2E2E2EFE2E2F5F5F5F5F5F5F5F5F5F5F5F5F5F5F5F5F5F5F5F5F5F5F5F5F5F5F5F5F5F5
310
F5F5F5E2F5F5F5F5F5F5F5E2F5F5F5F5F5F5F5F5F5F5F5F5F5F5F5F5F5F5F5F5F5F5F5F5F5F5F5F5F5F5F5F5F5F5F5F5F5F5F5F5F5F5F5F5F5E2F5F5E2F5F5F5E2F5F5F5F5F5F5F5F5F5F5F5F5F5F5F5F5E2F5F5F5F5F5F5F5F5F5F5F5F5F5F5F5F5F5F5F5F5F5F5F5F5F5F5F5F5F5F5F5F5F5F5F5F5F5F5F5F5F5F5F5F5F5
310
F5F5F5F5F5F5F5F5F5F5F5F5F5F5F5F5E2E2E2E2EFE2E2F5F5F5F5F5F5F5F5F5F5F5F5F5F5F5F5F5F5F5F5F5F5F5F5F5F5F5F5F5F5F5F5F5E2F5F5F5F5F5F5F5E2F5F5F5F5F5F5F5F5F5F5F5F5F5F5F5F5F5F5F5F5F5F5F5F5F5F5F5F5F5F5F5F5F5F5F5F5F5F5F5F5F5F5F5E2E2E2E2E2E2E2E2E2E2E2F5F5F5F5F5F5F5F5
310
F5F5F5F5F5F5F5F5F5F5F5F5F5F5F5F5F5F5F5F5F5F5F5F5F5F5F5F5F5F5F5F5F5F5F5F5F5F5F5F5F5F5F5F5F5F5F5F5F5F5F5F5F5F5F5F5F5F5F5F5F5F5F5F5F5F5F5F5F5E2E2E2E2EFE2E2F5F5F5F5F5F5F5F5F5F5F5F5F5F5F5F5F5F5F5F5F5F5F5F5F5F5F5F5F5F5E2E2E2E2F5F5F5F5F5F5F5F5F5F5F5F5F5F5F5F5F5
310
F5F5F5F5F5F5F5F5F5F5F5F5F5F5F5F5F5F5F5F5F5F5F5F5F5F5F5F5E2E2E2E2E2E2E2F5F5F5F5E2E2F5F5F5E2F5F5F5F5F5F5F5F5F5F5F5F5F5F5F5E2F5F5F5F5F5F5F5F5F5F5F5F5F5F5F5F5F5F5F5F5F5F5F5F5F5F5F5F5F5F5F5F5F5F5F5F5F5F5F5F5F5F5F5F5F5F5F5F5F5F5F5F5F5F5F5F5F5F5F5F5F5E2E2E2E2EF
310
E2E2F5F5F5F5F5F5F5F5F5F5F5F5F5F5F5F5F5F5F5F5F5F5F5F5F5F5F5F5F5F5E2E2E2E2F5F5F5F5F5F5F5E2F5F5F5F5F5F5F5F5F5F5F5F5F5F5F5F5F5F5F5F5F5F5F5F5F5F5F5F5F5F5F5F5F5F5F5F5F5E2E2E2E2E2E2E2F5F5F5F5E2E2F5F5F5E2F5F5F5F5F5F5F5F5F5F5F5F5F5F5F5E2F5F5F5F5F5F5F5F5F5F5F5F5F5
310
F5F5F5F5F5F5F5F5F5F5F5F5F5F5F5F5F5F5F5F5F5F5F5F5F5F5F5F5F5F5F5F5F5F5F5F5F5F5F5F5F5F5F5F5F5F5F5F5E2F5E2E2EFE2E2F5F5F5F5F5F5F5F5F5F5F5F5F5F5F5F5F5F5F5F5F5F5F5F5F5F5F5F5F5F5E2E2E2E2F5F5F5F5F5F5F5E2F5F5F5F5F5F5F5F5F5F5F5F5F5F5F5F5F5F5F5F5F5F5F5F5F5F5F5F5F5F5
310
F5F5F5F5F5F5F5F5F5E2E2E2E2E2F5F5F5F5E2E2F5F5F5E2F5F5F5F5F5F5F5F5F5F5F5F5F5F5F5E2F5F5F5F5F5F5F5F5F5F5F5F5F5F5F5F5F5F5F5F5F5F5F5F5F5F5F5F5F5F5F5F5F5F5F5F5F5F5F5F5F5F5F5F5F5F5F5F5F5F5F5F5F5F5F5F5F5F5F5F5F5E2F5E2E2EFE2E2F5F5F5F5F5F5F5F5F5F5F5F5F5F5F5F5F5F5F5
310
F5F5F5F5F5F5F5F5F5F5F5E2E2E2E2F5F5F5F5F5F5F5E2F5F5F5F5F5F5F5F5F5F5F5F5F5F5F5F5F5F5F5F5F5F5F5F5F5F5F5F5F5F5F5F5F5F5F5F5F5F5F5E2E2E2E2E2F5F5F5F5E2E2F5F5F5E2F5F5F5F5F5F5F5F5F5F5F5F5F5F5F5E2F5F5F5F5F5F5F5F5F5F5F5F5F5F5F5F5F5F5F5F5F5F5F5F5F5F5F5F5F5F5F5F5F5F5
310
F5F5F5F5F5F5F5F5F5F5F5F5F5F5F5F5F5F5F5F5F5F5F5F5F5F5F5E2F5E2E2EFE2E2F5F5F5F5F5F5F5F5F5F5F5F5F5F5F5F5F5F5F5F5F5F5F5F5F5F5F5F5F5F5F5F5F5E2F5F5F5F5F5F5F5E2F5F5F5F5F5F5F5F5F5F5F5F5F5F5F5F5F5F5F5F5F5F5F5F5F5F5F5F5F5F5F5F5F5F5F5F5F5F5F5E2E2E2E2E2F5F5F5F5E2E2F5
310
F5F5E2E2E2E2F5F5F5F5F5F5F5F5F5F5F5F5E2E2E2E2E2E2F5F5F5F5F5F5F5F5F5F5F5F5F5F5F5F5F5F5F5F5F5F5F5F5F5F5F5F5F5F5F5F5F5F5F5F5F5F5F5F5F5F5F5F5F5F5F5F5F5F5F5F5F5F5F5F5E2F5E2E2EFE2E2F5F5F5F5F5F5F5F5F5F5F5F5F5F5F5F5F5F5F5F5F5F5F5F5F5F5F5F5F5F5F5F5F5E2F5F5F5F5F5F5
310
F5E2F5F5F5F5F5F5F5F5F5F5F5F5F5F5F5F5F5F5F5F5F5F5F5F5F5F5F5F5F5F5F5F5F5F5F5F5F5F5F5E2E2E2E2E2F5F5F5F5E2E2F5F5F5E2F5F5F5F5F5F5F5F5F5F5F5F5F5F5F5F5F5F5F5F5E2F5F5F5F5F5F5F5F5F5F5F5F5F5F5F5F5F5F5F5F5F5F5F5F5F5F5F5F5F5F5F5F5F5F5F5F5F5F5F5F5F5F5F5F5F5F5F5F5F5F5
310
F5F5F5F5F5F5E2F5E2E2EFE2E2F5F5F5F5F5F5F5F5F5F5F5F5F5F5F5F5F5F5F5F5F5F5F5F5F5F5F5F5F5F5F5F5F5E2F5F5F5F5F5F5F5F5F5F5F5F5F5F5F5F5F5F5F5F5F5F5F5F5E2E2F5F5F5F5F5F5F5F5F5F5F5F5F5F5F5F5F5F5F5E2E2E2E2E2E2E2F5F5F5F5E2E2F5F5F5E2F5F5F5F5F5F5F5F5F5F5F5F5F5F5F5F5F5F5
310
F5F5E2F5F5F5F5F5F5F5F5F5F5F5F5F5F5F5F5F5F5F5F5F5F5F5F5F5F5F5F5F5F5F5F5F5F5F5F5F5F5F5F5F5F5F5F5F5F5F5F5F5F5F5F5F5F5F5F5E2F5E2E2EFE2E2F5F5F5F5F5F5F5F5F5F5F5F5F5F5F5F5F5F5F5F5F5F5F5F5F5F5F5F5F5F5F5F5F5E2F5F5F5F5F5F5F5E2F5F5F5F5F5F5F5F5F5F5F5F5F5F5E2E2E2E2E2
310
E2F5F5F5F5F5F5F5F5F5F5F5F5F5F5F5F5F5E2E2E2E2E2E2E2F5F5F5F5E2E2F5F5F5E2F5F5F5F5F5F5F5F5F5F5F5F5F5F5F5F5F5F5F5F5E2F5F5F5F5F5F5F5F5F5F5F5F5F5F5F5F5F5F5F5F5F5F5F5F5F5F5F5F5F5F5F5F5F5F5F5F5F5F5F5F5F5F5F5F5F5F5F5F5F5F5F5F5F5F5F5F5E2F5E2E2EFE2E2F5F5F5F5F5F5F5F5
310
F5F5F5F5F5F5F5F5F5F5F5F5F5F5F5F5F5F5F5F5F5F5F5F5F5E2F5F5F5F5F5F5F5E2F5F5F5F5F5F5F5F5F5F5F5F5F5E2E2E2F5F5F5F5E2E2E2F5F5F5F5F5F5F5F5F5F5F5F5F5F5F5F5F5F5F5F5E2E2E2E2E2E2E2E2E2E2E2F5F5F5F5F5F5F5F5F5F5F5F5F5F5F5F5F5F5F5F5F5F5F5F5F5F5F5F5F5F5F5F5F5F5F5F5F5F5F5
310
F5F5F5F5F5F5F5F5F5F5F5F5F5F5F5F5F5F5F5F5F5F5F5F5F5F5F5F5F5F5F5F5F5F5F5F5F5F5E2F5E2E2EFE2E2F5F5F5F5F5F5F5F5F5F5F5F5F5F5F5F5F5F5F5F5F5F5F5F5F5F5F5F5F5F5F5F5F5E2F5F5F5F5F5F5F5E2F5F5F5F5F5F5F5F5F5F5F5F5E2E2F5F5F5F5F5F5F5E2E2F5F5F5F5F5F5F5F5F5F5F5F5F5F5F5F5F5
310
F5F5F5F5F5F5E2F5F5F5F5E2F5F5F5F5F5F5F5F5F5F5F5F5F5F5F5F5F5F5F5F5F5F5E2F5F5F5F5F5F5F5F5F5F5F5F5F5F5F5F5F5F5F5F5F5F5F5F5F5F5F5F5F5F5F5F5F5F5F5F5F5F5F5F5F5F5F5F5F5F5F5F5F5F5F5F5F5F5F5F5E2F5E2E2EFE2E2F5F5F5F5F5F5F5F5F5F5F5F5F5F5F5F5F5F5F5F5F5F5F5F5F5F5F5F5F5
310
F5F5F5F5E2F5F5F5F5F5F5F5E2F5F5F5F5F5F5F5F5F5F5F5F5E2F5F5F5F5F5F5F5F5E2E2F5F5F5F5F5F5F5F5F5F5F5F5F5F5F5F5F5F5F5F5F5F5F5E2F5F5F5F5E2F5F5F5F5F5F5F5F5F5F5F5F5F5F5F5F5F5F5F5F5F5F5E2F5F5F5F5F5F5F5F5F5F5F5F5F5F5F5F5F5F5F5F5F5F5F5F5F5F5F5F5F5F5F5F5F5F5F5F5F5F5F5
310
F5F5F5F5F5F5F5F5F5F5F5F5F5F5F5F5F5E2E2E2E2EFE2E2F5F5F5F5F5F5F5F5F5F5F5F5F5F5F5F5F5F5F5F5F5F5F5F5F5F5F5F5F5F5F5F5F5E2F5F5F5F5F5F5F5E2F5F5F5F5F5F5F5F5F5F5F5E2E2F5F5F5E2E2F5F5F5F5E2F5F5F5F5F5F5F5F5F5F5F5F5F5F5F5F5F5F5F5F5F5F5F5E2F5F5F5F5E2F5F5F5F5F5F5F5F5F5
310
F5F5F5F5F5F5F5F5F5F5F5F5F5E2F5F5F5F5F5F5F5F5F5F5F5F5F5F5F5F5F5F5F5F5F5F5F5F5F5F5F5F5F5F5F5F5F5F5F5F5F5F5F5F5F5F5F5F5F5F5F5F5F5F5F5F5F5F5F5F5E2E2E2E2EFE2E2F5F5F5F5F5F5F5F5F5F5F5F5F5F5F5F5F5F5F5F5F5F5F5F5F5F5F5F5F5F5F5F5F5E2F5F5F5F5F5F5F5E2F5F5F5F5F5F5F5F5
310
F5F5F5E2E2F5F5F5E2E2F5F5F5F5E2F5F5F5F5F5F5F5F5F5F5F5F5F5F5F5F5F5F5F5F5F5F5F5E2F5F5F5F5E2F5F5F5F5F5F5F5F5F5F5F5F5F5F5F5F5F5F5F5F5F5F5E2F5F5F5F5F5F5F5F5F5F5F5F5F5F5F5F5F5F5F5F5F5F5F5F5F5F5F5F5F5F5F5F5F5F5F5F5F5F5F5F5F5F5F5F5F5F5F5F5F5F5F5F5F5F5F5F5E2E2E2E2
310
EFE2E2F5F5F5F5F5F5F5F5F5F5F5F5F5F5F5F5F5F5F5F5F5F5F5F5F5F5F5F5F5F5F5F5F5E2F5F5F5F5F5F5F5F5F5F5F5F5F5F5F5F5F5F5F5F5E2F5F5F5F5E2F5F5F5F5E2F5F5F5F5F5F5F5F5F5F5F5F5F5F5F5F5F5F5F5F5F5F5F5E2F5F5F5F5E2F5F5F5F5F5F5F5F5F5F5F5F5F5F5F5F5F5F5F5F5F5F5E2F5F5F5F5F5F5F5
310
F5F5F5F5F5F5F5F5F5F5F5F5F5F5F5F5F5F5F5F5F5F5F5F5F5F5F5F5F5F5F5F5F5F5F5F5F5F5F5F5F5F5F5F5F5F5F5F5F5E2E2E2E2EFE2E2F5F5F5F5F5F5F5F5F5F5F5F5F5F5F5F5F5F5F5F5F5F5F5F5F5F5F5F5F5F5F5F5F5E2F5F5F5F5F5F5F5E2F5F5F5F5F5F5F5F5F5F5F5F5E2E2F5F5F5E2F5F5F5F5E2F5F5F5F5F5F5
310
F5F5F5F5F5F5F5F5F5F5F5F5F5F5F5F5F5E2F5F5F5F5E2F5F5F5F5F5F5F5F5F5F5F5F5F5F5F5F5F5F5F5F5F5F5E2F5F5F5F5F5F5F5F5F5F5F5F5F5F5F5F5F5F5F5F5F5F5F5F5F5F5F5F5F5F5F5F5F5F5F5F5F5F5F5F5F5F5F5F5F5F5F5F5F5F5F5F5F5F5F5F5E2E2E2E2EFE2E2F5F5F5F5F5F5F5F5F5F5F5F5F5F5F5F5F5F5
310
F5F5F5F5F5F5F5F5F5F5F5F5F5F5F5E2F5F5F5F5F5F5F5E2F5F5F5F5F5F5F5F5F5F5F5F5F5E2F5F5F5E2F5F5F5E2E2F5F5F5F5F5F5F5F5F5F5F5F5F5F5F5F5F5F5F5F5F5F5F5E2F5F5F5F5E2F5F5F5F5F5F5F5F5F5F5F5F5F5F5F5F5F5F5F5F5F5F5F5F5F5F5F5F5F5F5F5F5F5F5F5F5F5F5F5F5F5F5F5F5F5F5F5F5F5F5F5
310
F5F5F5F5F5F5F5F5F5F5F5F5F5F5F5F5F5F5F5F5F5F5F5F5F5F5F5F5E2E2E2E2EFE2E2F5F5F5F5F5F5F5F5F5F5F5F5F5F5F5F5F5F5F5F5F5F5F5F5F5F5F5F5F5F5F5F5F5E2F5F5F5F5F5F5F5E2F5F5F5F5F5F5F5F5F5F5F5F5E2E2E2E2E2E2E2E2E2E2E2E2F5F5F5F5F5F5F5F5F5F5F5F5F5F5F5F5F5F5F5F5F5E2E2E2E2E2
310
E2E2F5F5F5F5F5F5F5F5F5F5F5F5F5F5F5F5F5F5F5F5F5F5E2F5F5F5F5F5F5F5F5F5F5F5F5F5F5F5F5F5F5F5F5F5F5F5F5F5F5F5F5F5F5F5F5F5F5F5F5F5F5F5F5F5F5F5F5F5F5F5F5F5F5F5F5F5F5F5F5E2E2E2E2EFE2E2F5F5F5F5F5F5F5F5F5F5F5F5F5F5F5F5F5F5F5F5F5F5F5F5F5F5F5F5F5F5F5F5F5E2F5F5F5F5F5
310
F5F5E2F5F5F5F5F5F5F5F5F5F5F5F5E2E2F5F5F5F5F5F5F5F5E2E2E2E2E2E2E2E2E2E2E2E2E2E2E2E2E2E2E2E2E2E2E2E2E2E2E2E2E2E2E2E2F5F5F5F5F5F5F5F5F5F5F5F5F5F5F5F5F5F5F5F5E2F5F5F5F5F5F5F5F5F5F5F5F5F5F5F5F5F5F5F5F5F5F5F5F5F5F5F5F5F5F5F5F5F5F5F5F5F5F5F5F5F5F5F5F5F5F5F5F5F5
310
F5F5F5F5F5F5F5E2E2E2E2EFE2E2F5F5F5F5F5F5F5F5F5F5F5F5F5F5F5F5F5F5F5F5F5F5F5F5F5F5F5F5F5F5F5F5F5E2F5F5F5F5F5F5F5E2F5F5F5F5F5F5F5F5F5F5F5F5E2F5E2F5F5F5F5F5F5E2F5E2E2E2E2E2E2E2E2E2E2E2E2E2E2E2E2E2E2E2E2E2E2E2E2E2E2E2E2E2E2E2E2E2E2E2E2E2F5F5F5F5F5F5F5F5F5F5F5
310
F5F5F5E2F5F5F5F5F5F5F5F5F5F5F5F5F5F5F5F5F5F5F5F5F5F5F5F5F5F5F5F5F5F5F5F5F5F5F5F5F5F5F5F5F5F5F5F5F5F5F5F5F5F5F5F5F5F5F5F5E2E2E2E2EFE2E2F5F5F5F5F5F5F5F5F5F5F5F5F5F5F5F5F5F5F5F5F5F5F5F5F5F5F5F5F5F5F5F5F5E2F5F5F5F5F5F5F5F5F5F5F5F5F5F5F5F5F5F5F5F5E2F5F5E2E2F5
310
F5F5E2F5F5E2E2E2E2E2E2E2E2E2E2E2E2E2E2E2E2E2E2E2E2E2E2E2E2E2E2E2E2E2E2E2E2E2E2E2E2E2F5F5F5F5F5F5F5F5F5F5F5F5F5F5E2F5F5F5F5F5F5F5F5F5F5F5F5F5F5F5F5F5F5F5F5F5F5F5F5F5F5F5F5F5F5F5F5F5F5F5F5F5F5F5F5F5F5F5F5F5F5F5F5F5F5F5F5F5F5F5F5E2E2E2E2EFE2E2F5F5F5F5F5F5F5
310
F5F5F5F5F5F5F5F5F5F5F5F5F5F5F5F5F5F5F5F5F5F5F5F5F5F5E2F5F5F5F5F5F5F5E2F5F5F5F5F5F5F5F5F5F5F5F5E2F5F5F5F5E2F5E2F5F5F5E2E2E2E2E2E2E2E2E2E2E2E2E2E2E2E2E2E2E2E2E2E2E2E2E2E2E2E2E2E2E2E2E2E2E2E2E2F5F5F5F5F5F5F5F5F5F5F5F5F5F5E2F5F5F5F5F5F5F5F5F5F5F5F5F5F5F5F5F5
310
F5F5F5F5F5F5F5F5F5F5F5F5F5F5F5F5F5F5F5F5F5F5F5F5F5F5F5F5F5F5F5F5F5F5F5F5F5F5F5E2E2E2E2EFE2E2F5F5F5F5F5F5F5F5F5F5F5F5F5F5F5F5F5F5F5F5F5F5F5F5F5F5F5F5F5F5F5F5F5E2F5F5F5F5F5F5F5E2F5F5F5F5F5F5F5F5F5F5F5F5E2F5F5F5F5E2E2E2F5F5F5E2E2E2E2E2E2E2E2E2E2E2E2E2E2E2E2
310
E2E2E2E2E2E2E2E2E2E2E2E2E2E2E2F5F5E2F5E2E2F5F5F5F5F5F5F5F5F5F5F5F5F5F5F5F5F5F5F5F5F5F5F5F5F5F5F5F5F5F5F5F5F5F5F5F5F5F5F5F5F5F5F5F5F5F5F5F5F5F5F5F5F5F5F5F5F5F5F5F5F5F5F5F5F5F5F5F5F5F5F5E2E2E2E2EFE2E2F5F5F5F5F5F5F5F5F5F5F5F5F5F5F5F5F5F5F5F5F5F5F5F5F5F5F5F5
310
F5F5F5F5F5E2F5F5F5F5F5F5F5E2F5F5F5F5F5F5F5F5F5F5F5F5E2F5F5F5F5E2E2E2F5F5F5E2E2E2E2E2E2E2E2E2E2E2E2E2E2E2E2E2E2E2E2E2E2E2E2E2E2E2E2E2E2E2F5F5E2E2E2E2F5F5F5F5F5F5F5F5F5F5F5F5F5F5E2F5F5F5F5F5F5F5F5F5F5F5F5F5F5F5F5F5F5F5F5F5F5F5F5F5F5F5F5F5F5F5F5F5F5F5F5F5F5
310
F5F5F5F5F5F5F5F5F5F5F5F5F5F5F5F5F5F5E2E2E2E2EFE2E2F5F5F5F5F5F5F5F5F5F5F5F5F5F5F5F5F5F5F5F5F5F5F5F5F5F5F5F5F5F5F5F5F5E2F5F5F5F5F5F5F5E2F5F5F5F5F5F5F5F5F5F5F5F5E2F5F5F5E2F5F5F5E2F5F5E2E2E2E2E2E2E2E2E2E2E2E2E2E2E2E2E2E2E2E2E2E2E2E2E2E2E2E2E2E2E2E2E2E2E2E2E2
310
F5F5F5F5F5F5F5F5F5F5F5F5F5F5E2F5F5F5F5F5F5F5F5F5F5F5F5F5F5F5F5F5F5F5F5F5F5F5F5F5F5F5F5F5F5F5F5F5F5F5F5F5F5F5F5F5F5F5F5F5F5F5F5F5F5F5F5F5F5F5F5E2E2E2E2EFE2E2F5F5F5F5F5F5F5F5F5F5F5F5F5F5F5F5F5F5F5F5F5F5F5F5F5F5F5F5F5F5F5F5F5E2F5F5F5F5F5F5F5E2F5F5F5F5F5F5F5
310
F5F5F5F5F5E2F5F5E2F5F5F5F5F5E2F5E2E2E2E2E2E2E2E2E2E2E2E2E2E2E2E2E2E2E2E2E2E2E2E2E2E2E2E2E2E2E2E2E2F5E2F5E2F5F5F5F5F5F5F5F5F5F5F5F5F5F5E2F5F5F5F5F5F5F5F5F5F5F5F5F5F5F5F5F5F5F5F5F5F5F5F5F5F5F5F5F5F5F5F5F5F5F5F5F5F5F5F5F5F5F5F5F5F5F5F5F5F5F5F5F5F5F5F5E2E2E2
310
E2EFE2E2F5F5F5F5F5F5F5F5F5F5F5F5F5F5F5F5F5F5F5F5F5F5F5F5F5F5F5F5F5F5F5F5F5E2F5F5F5F5F5F5F5F5F5F5F5F5F5F5F5F5F5F5F5F5E2E2E2F5F5F5F5F5F5F5E2E2E2E2E2E2E2E2E2E2E2E2E2E2E2E2E2E2E2E2E2E2E2E2E2E2E2E2E2E2E2E2E2E2E2E2E2E2F5F5F5F5F5F5F5F5F5F5F5F5F5F5E2F5F5F5F5F5F5
310
F5F5F5F5F5F5F5F5F5F5F5F5F5F5F5F5F5F5F5F5F5F5F5F5F5F5F5F5F5F5F5F5F5F5F5F5F5F5F5F5F5F5F5F5F5F5F5F5F5F5E2E2E2E2EFE2E2F5F5F5F5F5F5F5F5F5F5F5F5F5F5F5F5F5F5F5F5F5F5F5F5F5F5F5F5F5F5F5F5F5E2F5F5F5F5F5F5F5E2F5F5F5F5F5F5F5F5F5F5F5F5E2E2E2F5F5F5F5F5F5F5E2E2E2E2E2E2
310
E2E2E2E2E2E2E2E2E2E2E2E2E2E2E2E2E2E2E2E2E2E2E2E2E2E2F5F5F5F5F5F5F5F5F5F5F5F5F5F5F5F5F5F5F5F5E2F5F5F5F5F5F5F5F5F5F5F5F5F5F5F5F5F5F5F5F5F5F5F5F5F5F5F5F5F5F5F5F5F5F5F5F5F5F5F5F5F5F5F5F5F5F5F5F5F5F5F5F5F5F5F5F5E2F5E2E2EFE2E2F5F5F5F5F5F5F5F5F5F5F5F5F5F5F5F5F5
310
F5F5F5F5F5F5F5F5F5F5F5F5F5F5F5F5E2F5F5F5F5F5F5F5E2F5F5F5F5F5F5F5F5F5F5F5F5E2E2E2E2E2E2E2E2E2E2E2E2F5F5F5F5F5F5F5F5F5F5F5F5F5F5F5F5F5F5F5F5F5F5F5F5F5F5F5F5F5F5F5F5F5F5F5F5F5F5F5F5F5F5F5F5F5F5F5F5F5F5F5F5F5F5F5F5F5F5F5F5F5F5F5F5F5F5F5F5F5F5F5F5F5F5F5F5F5F5
310
F5F5F5F5F5F5F5F5F5F5F5F5F5F5F5F5F5F5F5F5F5F5F5F5F5F5F5F5F5E2F5E2E2EFE2E2F5F5F5F5F5F5F5F5F5F5F5F5F5F5F5F5F5F5F5F5F5F5F5F5F5F5F5F5F5F5F5F5F5E2F5F5F5F5F5F5F5E2F5F5F5F5F5F5F5F5F5F5F5F5F5F5F5F5F5F5E2F5F5F5F5F5F5F5F5F5F5F5F5F5F5F5F5F5F5F5F5F5F5F5F5F5F5F5F5F5F5
310
F5F5F5F5F5F5F5F5F5F5F5F5F5F5F5F5F5F5F5F5F5F5F5F5F5E2F5F5F5F5F5F5F5F5F5F5F5F5F5F5F5F5F5F5F5F5F5F5F5F5F5F5F5F5F5F5F5F5F5F5F5F5F5F5F5F5F5F5F5F5F5F5F5F5F5F5F5F5F5F5F5F5E2F5E2E2EFE2E2F5F5F5F5F5F5F5F5F5F5F5F5F5F5F5F5F5F5F5F5F5F5F5F5F5F5F5F5F5F5F5F5F5E2F5F5F5F5
310
F5F5F5E2F5F5F5F5F5F5F5F5F5F5F5F5F5F5F5F5F5F5E2F5F5F5F5F5F5F5F5F5F5F5F5F5F5F5F5F5F5F5F5F5F5F5F5F5F5F5F5F5F5F5F5F5F5F5F5F5F5F5F5F5F5F5F5F5F5F5F5F5F5F5F5F5F5F5E2F5F5F5F5F5F5F5F5F5F5F5F5F5F5F5F5F5F5F5F5F5F5F5F5F5F5F5F5F5F5F5F5F5F5F5F5F5F5F5F5F5F5F5F5F5F5F5F5
310
F5F5F5F5F5F5F5F5E2F5E2E2EFE2E2F5F5F5F5F5F5F5F5F5F5F5F5F5F5F5F5F5F5F5F5F5F5F5F5F5F5F5F5F5F5F5F5F5E2F5F5F5F5F5F5F5E2F5F5F5F5F5F5F5F5F5F5F5F5F5F5F5E2E2E2E2E2E2F5F5F5F5F5F5F5F5F5F5F5F5F5F5F5F5F5F5F5F5F5F5F5F5F5F5F5F5F5F5F5F5F5F5F5F5F5F5F5F5F5F5F5F5F5F5F5F5F5
310
F5F5F5F5E2F5F5F5F5F5F5F5F5F5F5F5F5F5F5F5F5F5F5F5F5F5F5F5F5F5F5F5F5F5F5F5F5F5F5F5F5F5F5F5F5F5F5F5F5F5F5F5F5F5F5F5F5F5F5F5F5E2F5E2E2EFE2E2F5F5F5F5F5F5F5F5F5F5F5F5F5F5F5F5F5F5F5F5F5F5F5F5F5F5F5F5F5F5F5F5F5E2F5F5F5F5F5F5F5E2F5F5F5F5F5F5F5F5F5F5F5F5F5F5F5F5F5
310
F5F5F5F5F5F5F5F5F5F5F5F5F5F5F5F5F5F5F5F5F5F5F5F5F5F5F5F5F5F5F5F5F5F5F5F5F5F5F5F5F5F5F5F5F5F5F5F5F5F5F5F5F5F5F5F5F5E2F5F5F5F5F5F5F5F5F5F5F5F5F5F5F5F5F5F5F5F5F5F5F5F5F5F5F5F5F5F5F5F5F5F5F5F5F5F5F5F5F5F5F5F5F5F5F5F5F5F5F5F5F5F5F5F5E2F5E2E2EFE2E2F5F5F5F5F5F5
310
F5F5F5F5F5F5F5F5F5F5F5F5F5F5F5F5F5F5F5F5F5F5F5F5F5F5F5E2F5F5F5F5F5F5F5F5F5F5F5F5F5F5F5F5F5F5F5F5F5F5F5F5F5F5F5F5F5F5F5F5F5F5F5F5F5F5F5F5F5F5F5F5F5F5F5F5F5F5F5F5F5F5F5F5F5F5F5F5F5F5F5F5F5F5F5F5F5F5F5F5F5F5F5F5F5F5F5F5F5F5E2F5F5F5F5F5F5F5F5F5F5F5F5F5F5F5F5
310
F5F5F5F5F5F5F5F5F5F5F5F5F5F5F5F5F5F5F5F5F5F5F5F5F5F5F5F5F5F5F5F5F5F5F5F5F5F5F5F5E2F5E2E2EFE2E2F5F5F5F5F5F5F5F5F5F5F5F5F5F5F5F5F5F5F5F5F5F5F5F5F5F5F5F5F5F5F5F5F5E2F5F5F5F5F5F5F5E2F5F5F5F5F5F5F5F5F5F5F5F5F5F5F5F5F5F5F5F5F5F5F5F5F5F5F5F5F5F5F5F5F5F5F5F5F5F5
310
F5F5F5F5F5F5F5F5F5F5F5F5F5F5F5F5F5F5F5F5F5F5F5F5F5F5F5F5F5F5F5F5F5F5F5F5E2F5F5F5F5F5F5F5F5F5F5F5F5F5F5F5F5F5F5F5F5F5F5F5F5F5F5F5F5F5F5F5F5F5F5F5F5F5F5F5F5F5F5F5F5F5F5F5F5F5F5F5F5F5F5F5F5E2F5E2E2EFE2E2F5F5F5F5F5F5F5F5F5F5F5F5F5F5F5F5F5F5F5F5F5F5F5F5F5F5F5
310
F5F5F5F5F5F5E2F5F5F5F5F5F5F5E2F5F5F5F5F5F5F5F5F5F5F5F5F5F5F5F5F5F5F5F5F5F5F5F5F5F5F5F5F5F5F5F5F5F5F5F5F5F5F5F5F5F5F5F5F5F5F5F5F5F5F5F5F5F5F5F5F5F5F5F5F5F5F5F5F5F5F5F5F5F5F5F5F5F5F5F5F5F5F5F5F5F5F5F5F5F5F5F5F5F5F5F5F5F5F5F5F5F5F5F5F5F5F5F5F5F5F5F5F5F5F5F5
310
F5F5F5F5F5F5F5F5F5F5F5F5F5F5F5F5F5F5F5E2F5E2E2EFE2E2F5F5F5F5F5F5F5F5F5F5F5F5F5F5F5F5F5F5F5F5F5F5F5F5F5F5F5F5F5F5F5F5F5E2F5F5F5F5F5F5F5E2F5F5F5F5F5F5F5F5F5F5F5F5F5F5F5F5F5F5F5F5F5F5F5F5F5F5F5F5F5F5F5F5F5F5F5F5F5F5F5F5F5F5F5F5F5F5F5F5F5F5F5F5F5F5F5F5F5F5F5
310
F5F5F5F5F5F5F5F5F5F5F5F5F5F5F5E2F5F5F5F5F5F5F5F5F5F5F5F5F5F5F5F5F5F5F5F5F5F5F5F5F5F5F5F5F5F5F5F5F5F5F5F5F5F5F5F5F5F5F5F5F5F5F5F5F5F5F5F5F5F5F5F5E2E2E2E2EFE2E2F5F5F5F5F5F5F5F5F5F5F5F5F5F5F5F5F5F5F5F5F5F5F5F5F5F5F5F5F5F5F5F5F5E2F5F5F5F5F5F5F5E2F5F5F5F5F5F5
310
F5F5F5F5F5F5F5F5F5F5F5F5F5F5F5F5F5F5F5F5F5F5F5F5F5F5F5F5F5F5F5F5F5F5F5F5F5F5F5F5F5F5F5F5F5F5F5F5F5F5F5F5F5F5F5F5F5F5F5F5F5F5F5F5F5F5F5F5E2F5F5F5F5F5F5F5F5F5F5F5F5F5F5F5F5F5F5F5F5F5F5F5F5F5F5F5F5F5F5F5F5F5F5F5F5F5F5F5F5F5F5F5F5F5F5F5F5F5F5F5F5F5F5F5F5E2E2
310
E2E2EFE2E2F5F5F5F5F5F5F5F5F5F5F5F5F5F5F5F5F5F5F5F5F5F5F5F5F5F5F5F5F5F5F5F5F5E2F5F5F5F5F5F5F5E2F5F5F5F5F5F5F5F5F5F5F5F5F5F5F5F5F5F5F5F5F5F5F5F5F5F5F5F5F5F5F5F5F5F5F5F5F5F5F5F5F5F5F5F5F5F5F5F5F5F5F5F5F5F5F5F5F5F5F5F5F5F5F5F5F5F5F5F5F5F5F5F5F5F5E2F5F5F5F5F5
310
F5F5F5F5F5F5F5F5F5F5F5F5F5F5F5F5F5F5F5F5F5F5F5F5F5F5F5F5F5F5F5F5F5F5F5F5F5F5F5F5F5F5F5F5F5F5F5F5F5F5F5E2E2E2E2EFE2E2F5F5F5F5F5F5F5F5F5F5F5F5F5F5F5F5F5F5F5F5F5F5F5F5F5F5F5F5F5F5F5F5F5E2F5F5F5F5F5F5F5F5F5F5F5F5F5F5F5F5F5F5F5F5F5F5F5F5F5F5F5F5F5F5F5F5F5F5F5
310
F5F5F5F5F5F5F5F5F5E2E2E2E2E2E2F5E2E2E2E2E2E2F5E2E2E2E2E2F5E2E2E2E2E2F5E2E2E2E2E2E2F5E2E2E2E2E2E2F5F5F5F5F5F5F5F5F5F5F5F5F5F5F5F5F5F5F5F5F5F5F5F5F5F5F5F5F5F5F5F5F5F5F5F5F5F5F5F5F5F5F5F5F5F5F5F5F5F5F5F5F5F5F5F5E2E2E2E2EFE2E2F5F5F5F5F5F5F5F5F5F5F5F5F5F5F5F5
310
F5F5F5F5F5F5F5F5F5F5F5F5F5F5F5F5F5E2F5F5F5F5F5F5F5E2F5F5F5F5F5F5F5F5F5F5F5F5F5F5F5F5F5F5F5F5F5F5F5F5F5F5F5F5F5F5F5F5F5F5F5F5E2F5F5F5F5F5F5F5F5F5F5F5F5F5F5F5F5F5F5F5F5F5F5F5F5F5F5F5F5F5F5F5F5F5F5F5F5F5F5F5F5F5F5F5F5F5F5F5F5F5F5F5F5F5F5F5F5F5F5F5F5F5F5F5F5
310
F5F5F5F5F5F5F5F5F5F5F5F5F5F5F5F5F5F5F5F5F5F5F5F5F5F5F5F5F5F5E2E2E2E2EFE2E2F5F5F5F5F5F5F5F5F5F5F5F5F5F5F5F5F5F5F5F5F5F5F5F5F5F5F5F5F5F5F5F5F5E2F5F5F5F5F5F5F5E2F5F5F5F5F5F5F5F5F5F5F5F5F5F5F5F5F5F5F5F5F5F5F5F5F5F5F5F5F5F5F5F5F5F5F5F5E2F5F5F5F5F5F5F5F5F5F5F5
310
F5F5F5F5F5F5F5F5F5F5F5F5F5F5F5F5F5F5F5F5F5F5F5F5F5F5F5F5F5F5F5F5F5F5F5F5F5F5F5F5F5F5F5F5F5F5F5F5F5F5F5F5F5F5F5F5F5F5F5F5F5F5F5F5F5F5F5F5F5F5F5F5F5F5F5F5F5F5F5F5F5F5F5E2E2E2E2EFE2E2F5F5F5F5F5F5F5F5F5F5F5F5F5F5F5F5F5F5F5F5F5F5F5F5F5F5F5F5F5F5F5F5F5E2F5F5F5
310
F5F5F5F5E2F5F5F5F5F5F5F5F5F5F5F5F5F5F5F5F5F5F5F5F5F5F5F5F5F5F5F5F5F5F5F5F5F5F5F5F5E2F5F5F5F5F5F5F5F5F5F5F5F5F5F5F5F5F5F5F5F5F5F5F5F5F5F5F5F5F5F5F5F5F5F5F5F5F5F5F5F5F5F5F5F5F5F5F5F5F5F5F5F5F5F5F5F5F5F5F5F5F5F5F5F5F5F5F5F5F5F5F5F5F5F5F5F5F5F5F5F5F5F5F5F5F5
310
F5F5F5F5F5F5F5F5F5E2E2E2E2EFE2E2F5F5F5F5F5F5F5F5F5F5F5F5F5F5F5F5F5F5F5F5F5F5F5F5F5F5F5F5F5F5F5F5E2E2BEE2F5F5F5F5F5E2E2E2E2E2E2F5E2E2E2E2E2F5E2E2E2E2E2F5E2E2E2E2E2E2F5E2E2E2E2E2F5E2E2E2E2E2E2F5F5F5F5F5F5F5F5F5F5F5F5F5F5F5F5F5F5F5F5F5F5F5F5F5F5F5F5F5F5F5F5
310
F5F5F5F5F5F5F5F5F5F5F5F5F5F5F5F5F5F5F5F5F5F5F5F5F5F5F5F5F5F5F5F5F5F5F5F5F5F5F5F5F5F5F5F5F5F5F5F5F5F5F5F5F5F5F5F5F5F5F5F5F5F5E2E2E2E2EFE2E2F5F5F5F5F5F5F5F5F5F5F5F5F5F5F5F5F5F5F5F5F5F5F5F5F5F5F5F5F5F5F5F5F5E2F5F5F5F5F5F5F5F5F5F5F5F5F5F5F5F5F5F5F5F5F5F5F5F5
310
F5F5F5F5F5F5F5F5F5F5F5F5F5F5F5F5F5F5F5F5F5F5F5F5F5F5F5F5F5F5F5F5F5F5F5F5F5F5F5F5F5F5F5F5F5F5F5F5F5F5F5F5F5F5F5F5F5F5F5F5F5F5F5F5F5F5F5F5F5F5F5F5F5F5F5F5F5F5F5F5F5F5F5F5F5F5F5F5F5F5F5F5F5F5F5F5F5F5F5F5F5F5F5F5F5F5F5F5F5F5F5F5F5F5F5E2E2E2E2EFE2E2F5F5F5F5F5
310
F5F5F5F5F5F5F5F5F5F5F5F5F5F5F5F5F5F5F5F5F5F5F5F5F5F5F5F5F5F5F5F5F5F5F5F5F5F5F5F5F5F5F5F5F5F5F5F5F5F5F5F5F5F5F5F5F5F5F5F5F5F5F5F5F5F5F5F5F5F5F5F5F5F5F5F5F5F5F5F5F5F5F5F5F5F5F5F5F5F5F5F5F5F5F5F5F5F5F5F5F5F5F5F5F5F5F5F5F5F5F5F5F5F5F5F5F5F5F5F5F5F5F5F5F5F5F5
310
F5F5F5F5F5F5F5F5F5F5F5F5F5F5F5F5F5F5F5F5F5F5F5F5F5F5F5F5F5F5F5F5F5F5F5F5F5F5F5F5F5E2E2E2E2EFE2E2F5F5F5F5F5F5F5F5F5F5F5F5F5F5F5F5F5F5F5F5F5F5F5F5F5F5F5F5F5F5F5F5F5F5F5F5F5F5F5F5F5F5F5F5F5F5F5F5F5F5F5F5F5F5F5F5F5F5F5F5F5F5F5F5F5F5F5F5F5F5F5F5F5F5F5F5F5F5F5
310
F5F5F5F5F5F5F5F5F5F5F5F5F5F5F5F5F5F5F5F5F5F5F5F5F5F5F5F5F5F5F5F5F5F5F5F5F5F5F5F5F5F5F5F5F5F5F5F5F5F5F5F5F5F5F5F5F5F5F5F5F5F5F5F5F5F5F5F5F5F5F5F5F5F5F5F5F5F5F5F5F5F5F5F5F5F5F5F5F5F5F5F5F5F5E2E2E2E2EFE2E2F5F5F5F5F5F5F5F5F5F5F5F5F5F5F5F5F5F5F5F5F5F5F5F5F5F5
310
F5F5F5F5F5F5F5F5F5F5F5F5F5F5F5F5F5F5F5F5F5F5F5F5F5F5F5F5F5F5F5F5F5F5F5F5F5F5F5F5F5F5F5F5F5F5F5F5F5F5F5F5F5F5F5F5F5F5F5F5F5F5F5F5F5F5F5F5F5F5F5F5F5F5F5F5F5F5F5F5F5F5F5F5F5F5F5F5F5F5F5F5F5F5F5F5F5F5F5F5F5F5F5F5F5F5F5F5F5F5F5F5F5F5F5F5F5F5F5F5F5F5F5F5F5F5F5
310
F5F5F5F5F5F5F5F5F5F5F5F5F5F5F5F5F5F5F5F5E2E2E2E2EFE2E2F5F5F5F5F5F5F5F5F5F5F5F5F5F5F5F5F5F5F5F5F5F5F5F5F5F5F5F5F5F5F5F5F5F5F5F5F5F5F5F5F5F5F5F5F5F5F5F5F5F5F5F5F5F5F5F5F5F5F5F5F5F5F5F5F5F5F5F5F5F5F5F5F5F5F5F5F5F5F5F5F5F5F5F5F5F5F5F5F5F5F5F5F5F5F5F5F5F5F5F5
310
F5F5F5F5F5F5F5F5F5F5F5F5F5F5F5F5F5F5F5F5F5F5F5F5F5F5F5F5F5F5F5F5F5F5F5F5F5F5F5F5F5F5F5F5F5F5F5F5F5F5F5F5F5F5F5F5F5F5F5F5F5F5F5F5F5F5F5F5F5F5F5F5F5E2E2E2E2EFE2E2F5F5F5F5F5F5F5F5F5F5F5F5F5F5F5F5F5F5F5F5F5F5F5F5F5F5F5F5F5F5F5F5F5F5F5F5F5F5F5F5BEE2F5F5F5F5F5
310
F5F5F5F5F5F5F5F5F5F5F5F5F5F5F5F5F5F5F5F5F5F5F5F5F5F5F5F5F5F5F5F5F5F5F5F5F5F5F5F5F5F5F5F5F5F5F5F5F5F5F5F5F5F5F5F5F5F5F5F5F5F5F5F5F5F5F5F5BEE2F5F5F5F5F5F5F5F5F5F5F5F5F5F5F5F5F5F5F5F5F5F5F5F5F5F5F5F5F5F5F5F5F5F5F5F5F5F5F5F5F5F5F5F5F5F5F5F5F5F5F5F5F5F5F5F5E2
310
E2E2E2EFE2E2F5F5F5F5F5F5F5F5F5F5F5F5F5F5F5F5F5F5F5F5F5F5F5F5F5F5F5F5F5F5F5F5F5F5F5F5F5F5F5F5E2E2E2E2E2E2E2E2E2E2E2E2E2E2E2E2E2E2E2E2E2E2E2E2E2E2E2E2E2E2E2E2E2E2E2E2E2E2E2E2E2E2E2E2E2E2E2E2E2E2E2E2E2E2E2E2E2E2E2E2E2E2E2E2E2E2E2E2E2E2E2E2E2E2E2E2E2E2F5F5F5
310
F5F5F5F5F5F5F5F5F5F5F5F5F5F5F5F5F5F5F5F5F5F5F5F5F5F5F5F5F5F5F5F5F5F5F5F5F5F5F5F5F5F5F5F5F5F5F5F5F5F5F5F5E2E2E2E2EFE2E2F5F5F5F5F5F5F5F5F5F5F5F5F5F5F5F5F5F5F5F5F5F5F5F5F5F5F5F5F5F5F5F5F5F5F5F5F5F5F5F5F5BEF5F5F5F5F5F5F5F5F5F5F5F5F5F5F5F5F5F5F5F5F5F5F5F5F5F5
310
F5F5F5F5F5F5F5F5F5E2E2E2F5F5F5F5F5F5F5F5F5F5F5F5F5F5F5F5F5F5F5F5F5F5F5F5F5F5F5F5F5F5F5F5F5F5F5F5E2BEF5F5F5F5F5F5F5F5F5F5F5F5F5F5F5F5F5F5F5F5F5F5F5F5F5F5F5F5F5F5F5F5F5F5F5F5F5F5F5F5F5F5F5F5F5F5F5F5F5F5F5F5F5F5F5E2E2E2E2EFE2E2F5F5F5F5F5F5F5F5F5F5F5F5F5F5F5
310
F5F5F5F5F5F5F5F5F5F5F5F5F5F5F5F5F5F5F5F5F5F5F5F5F5F5F5F5F5F5F5F5F5F5F5F5F5F5F5F5F5F5F5F5F5F5F5F5F5F5F5F5F5F5F5F5F5F5F5F5F5F5E2E2E2F5F5F5F5F5F5F5F5F5F5F5F5F5F5F5F5F5F5F5F5F5F5F5F5F5F5F5F5F5F5F5F5F5F5F5F5F5F5F5F5F5F5F5F5F5F5F5F5F5F5F5F5F5F5F5F5F5F5F5F5F5F5
310
F5F5F5F5F5F5F5F5F5F5F5F5F5F5F5F5F5F5F5F5F5F5F5F5F5F5F5F5F5F5F5E2F5E2E2EFE2E2F5F5F5F5F5F5F5F5F5F5F5F5F5F5F5F5F5F5F5F5F5F5F5F5F5F5F5F5F5F5F5F5F5F5F5F5F5F5F5F5F5F5F5F5F5F5F5F5F5F5F5F5F5F5F5F5F5F5F5F5F5F5F5F5F5F5F5F5F5F5F5F5F5F5F5F5F5F5F5F5F5F5F5F5F5F5F5F5F5
310
F5F5F5F5F5F5F5F5F5F5F5F5F5F5F5F5F5F5F5F5F5F5F5F5F5F5F5F5F5F5F5F5F5F5F5F5F5F5F5F5F5F5F5F5F5F5F5F5F5F5F5F5F5F5F5F5F5F5F5F5F5F5F5F5F5F5F5F5F5F5F5F5F5F5F5F5F5F5F5F5F5F5F5F5E2F5E2E2EFE2E2F5F5F5F5F5F5F5F5F5F5F5F5F5F5F5F5F5F5F5F5F5F5F5F5F5F5F5F5F5F5F5F5F5F5F5F5
310
F5F5F5F5F5F5F5F5F5F5F5F5F5F5F5F5F5F5F5F5F5F5F5F5F5F5F5F5F5F5F5F5F5F5F5F5F5F5F5F5F5F5F5F5F5F5F5F5F5F5F5F5F5F5F5F5F5F5F5F5F5F5F5F5F5F5F5F5F5F5F5F5F5F5F5F5F5F5F5F5F5F5F5F5F5F5F5F5F5F5F5F5F5F5F5F5F5F5F5F5F5F5F5F5F5F5F5F5F5F5F5F5F5F5F5F5F5F5F5F5F5F5F5F5F5F5F5
310
F5F5F5F5F5F5F5F5F5F5E2F5E2E2EFE2E2F5F5F5F5F5F5F5F5F5F5F5F5F5F5F5F5F5F5F5F5F5F5F5F5F5F5F5F5F5F5F5F5F5F5F5F5F5F5F5F5F5F5F5F5F5F5F5F5F5F5F5F5F5F5F5F5F5F5F5F5F5F5F5F5F5F5F5F5F5F5F5F5F5F5F5F5F5F5F5F5F5F5F5F5F5F5F5F5F5F5F5F5F5F5F5F5F5F5F5F5F5F5F5F5F5F5F5F5F5F5
310
F5F5F5F5F5F5F5F5F5F5F5F5F5F5F5F5F5F5F5F5F5F5F5F5F5F5F5F5F5F5F5F5F5F5F5F5F5F5F5F5F5F5F5F5F5F5F5F5F5F5F5F5F5F5F5F5F5F5F5F5F5F5F5E2F5E2E2EFE2E2F5F5F5F5F5F5F5F5F5F5F5F5F5F5F5F5F5F5F5F5F5F5F5F5F5F5F5F5F5F5F5F5F5F5F5F5F5F5F5F5F5F5F5F5F5F5F5F5F5F5F5F5F5F5F5F5F5
310
F5F5F5F5F5F5F5F5F5F5F5F5F5F5F5F5F5F5F5F5F5F5F5F5F5F5F5F5F5F5F5F5F5F5F5F5F5F5F5F5F5F5F5F5F5F5F5F5F5F5F5F5F5F5F5F5F5F5F5F5F5F5F5F5F5F5F5F5F5F5F5F5F5F5F5F5F5F5F5F5F5F5F5F5F5F5F5F5F5F5F5F5F5F5F5F5F5F5F5F5F5F5F5F5F5F5F5F5F5F5F5F5F5F5F5F5E2F5E2E2EFE2E2F5F5F5F5
310
F5F5F5F5F5F5F5F5F5F5F5F5F5F5F5F5F5F5F5F5F5F5F5F5F5F5F5F5F5F5F5F5F5F5F5F5F5F5F5F5F5F5F5F5F5F5F5F5F5F5F5F5F5F5F5F5F5F5F5F5F5F5F5F5F5F5F5F5F5F5F5F5F5F5F5F5F5F5F5F5F5F5F5F5F5F5F5F5F5F5F5F5F5F5F5F5F5F5F5F5F5F5F5F5F5F5F5F5F5F5F5F5F5F5F5F5F5F5F5F5F5F5F5F5F5F5F5
310
F5F5F5F5F5F5F5F5F5F5F5F5F5F5F5F5F5F5F5F5F5F5F5F5F5F5F5F5F5F5F5F5F5F5F5F5F5F5F5F5F5F5E2F5E2E2EFE2E2F5F5F5F5F5F5F5F5F5F5F5F5F5F5F5F5F5F5F5F5F5F5F5F5F5F5F5F5F5F5F5F5F5F5F5F5F5F5F5F5F5F5F5F5F5F5F5F5F5F5F5F5F5F5F5F5F5F5F5F5F5F5F5F5F5F5F5F5F5F5F5F5F5F5F5F5F5F5
310
F5F5F5F5F5F5F5F5F5F5F5F5F5F5F5F5F5F5F5F5F5F5F5F5F5F5F5F5F5F5F5F5F5F5F5F5F5F5F5F5F5F5F5F5F5F5F5F5F5F5F5F5F5F5F5F5F5F5F5F5F5F5F5F5F5F5F5F5F5F5F5F5F5F5F5F5F5F5F5F5F5F5F5F5F5F5F5F5F5F5F5F5F5F5F5E2F5E2E2EFE2E2F5F5F5F5F5F5F5F5F5F5F5F5F5F5F5F5F5F5F5F5F5F5F5F5F5
310
F5F5F5F5F5F5F5F5F5F5F5F5F5F5F5F5F5F5F5F5F5F5F5F5F5F5F5F5F5F5F5F5F5F5F5F5F5F5F5F5F5F5F5F5F5F5F5F5F5F5F5F5F5F5F5F5F5F5F5F5F5F5F5F5F5F5F5F5F5F5F5F5F5F5F5F5F5F5F5F5F5F5F5F5F5F5F5F5F5F5F5F5F5F5F5F5F5F5F5F5F5F5F5F5F5F5F5F5F5F5F5F5F5F5F5F5F5F5F5F5F5F5F5F5F5F5F5
310
F5F5F5F5F5F5F5F5F5F5F5F5F5F5F5F5F5F5F5F5F5E2F5E2E2EFE2E2F5F5F5F5F5F5F5F5F5F5F5F5F5F5F5F5F5F5F5F5F5F5F5F5F5F5F5F5F5F5F5F5F5F5F5F5F5F5F5F5F5F5F5F5F5F5F5F5F5F5F5F5F5F5F5F5F5F5F5F5F5F5F5F5F5F5F5F5F5F5F5F5F5F5F5F5F5F5F5F5F5F5F5F5F5F5F5F5F5F5F5F5F5F5F5F5F5F5F5
310
F5F5F5F5F5F5F5F5F5F5F5F5F5F5F5F5F5F5F5F5F5F5F5F5F5F5F5F5F5F5F5F5F5F5F5F5F5F5F5F5F5F5F5F5F5F5F5F5F5F5F5F5F5F5F5F5F5F5F5F5F5F5F5F5F5F5F5F5F5F5F5F5F5F5E2F5E2E2EFE2E2F5F5F5F5F5F5F5F5F5F5F5F5F5F5F5F5F5F5F5F5F5F5F5F5F5F5F5F5F5F5F5F5F5F5F5F5F5F5F5F5F5F5F5F5F5F5
310
F5F5F5F5F5F5F5F5F5F5F5F5F5F5F5F5F5F5F5F5F5F5F5F5F5F5F5F5F5F5F5F5F5F5F5F5F5F5F5F5F5F5F5F5F5F5F5F5F5F5F5F5F5F5F5F5F5F5F5F5F5F5F5F5F5F5F5F5F5F5F5F5F5F5F5F5F5F5F5F5F5F5F5F5F5F5F5F5F5F5F5F5F5F5F5F5F5F5F5F5F5F5F5F5F5F5F5F5F5F5F5F5F5F5F5F5F5F5F5F5F5F5F5F5F5F5F5
310
E2E2E2E2EFE2E2F5F5F5F5F5F5F5F5F5F5F5F5F5F5F5F5F5F5F5F5F5F5F5F5F5F5F5F5F5F5F5F5F5F5F5F5F5F5F5F5F5F5F5F5F5F5F5F5F5F5F5F5F5F5F5F5F5F5F5F5F5F5F5F5F5F5F5F5F5F5F5F5F5F5F5F5F5F5F5F5F5F5F5F5F5F5F5F5F5F5F5F5F5F5F5F5F5F5F5F5F5F5F5F5F5F5F5F5F5F5F5F5F5F5F5F5F5F5F5F5
310
F5F5F5F5F5F5F5F5F5F5F5F5F5F5F5F5F5F5F5F5F5F5F5F5F5F5F5F5F5F5F5F5F5F5F5F5F5F5F5F5F5F5F5F5F5F5F5F5F5F5F5F5F5E2E2E2E2EFE2E2F5F5F5F5F5F5F5F5F5F5F5F5F5F5F5F5F5F5F5F5F5F5F5F5F5F5F5F5F5F5F5F5F5F5F5F5F5F5F5F5F5F5F5F5F5F5F5F5F5F5F5F5F5F5F5F5F5F5F5F5F5F5F5F5F5F5F5
310
F5F5F5F5F5F5F5F5F5F5F5F5F5F5F5F5F5F5F5F5F5F5F5F5F5F5F5F5F5F5F5F5F5F5F5F5F5F5F5F5F5F5F5F5F5F5F5F5F5F5F5F5F5F5F5F5F5F5F5F5F5F5F5F5F5F5F5F5F5F5F5F5F5F5F5F5F5F5F5F5F5F5F5F5F5F5F5F5F5F5F5F5F5F5F5F5F5F5F5F5F5F5F5F5F5F5E2E2E2E2EFE2E2F5F5F5F5F5F5F5F5F5F5F5F5F5F5
310
F5F5F5F5F5F5F5F5F5F5F5F5F5F5F5F5F5F5F5F5F5F5F5F5F5F5F5F5F5F5F5F5F5F5F5F5F5F5F5F5F5F5F5F5F5F5F5F5F5F5F5F5F5F5F5F5F5F5F5F5F5F5F5F5F5F5F5F5F5F5F5F5F5F5F5F5F5F5F5F5F5F5F5F5F5F5F5F5F5F5F5F5F5F5F5F5F5F5F5F5F5F5F5F5F5F5F5F5F5F5F5F5F5F5F5F5F5F5F5F5F5F5F5F5F5F5F5
310
F5F5F5F5F5F5F5F5F5F5F5F5F5F5F5F5F5F5F5F5F5F5F5F5F5F5F5F5F5F5F5F5E2E2E2E2EFE2E2F5F5F5F5F5F5F5F5F5F5F5F5F5F5F5F5F5F5F5F5F5F5F5F5F5F5F5F5F5F5F5F5F5F5F5F5F5F5F5F5F5F5F5F5F5F5F5F5F5F5F5F5F5F5F5F5F5F5F5F5F5F5F5F5F5F5F5F5F5F5F5F5F5F5F5F5F5F5F5F5F5F5F5F5F5F5F5F5
310
F5F5F5F5F5F5F5F5F5F5F5F5F5F5F5F5F5F5F5F5F5F5F5F5F5F5F5F5F5F5F5F5F5F5F5F5F5F5F5F5F5F5F5F5F5F5F5F5F5F5F5F5F5F5F5F5F5F5F5F5F5F5F5F5F5F5F5F5F5F5F5F5F5F5F5F5F5F5F5F5F5F5F5F5F5E2E2E2E2EFE2E2E2E2E2E2E2E2E2E2E2E2E2E2E2E2E2E2E2E2E2E2E2E2E2E2E2E2E2E2E2E2E2E2E2E2E2
310
E2E2E2E2E2E2E2E2E2E2E2E2E2E2E2E2E2E2E2E2E2E2E2E2E2E2E2E2E2E2E2E2E2E2E2E2E2E2E2E2E2E2E2E2E2E2E2E2E2E2E2E2E2E2E2E2E2E2E2E2E2E2E2E2E2E2E2E2E2E2E2E2E2E2E2E2E2E2E2E2E2E2E2E2E2E2E2E2E2E2E2E2E2E2E2E2E2E2E2E2E2E2E2E2E2E2E2E2E2E2E2E2E2E2E2E2E2E2E2E2E2E2E2E2E2E2E2
310
E2E2E2E2E2E2E2E2E2E2E2E2E2E2E2EFE2E2F5F5F5F5F5F5F5F5F5F5F5F5F5F5F5F5F5F5F5F5F5F5F5F5F5F5F5F5F5F5F5F5F5F5F5F5F5F5F5F5F5F5F5F5F5F5F5F5F5F5F5F5F5F5F5F5F5F5F5F5F5F5F5F5F5F5F5F5F5F5F5F5F5F5F5F5F5F5F5F5F5F5F5F5F5F5F5F5F5F5F5F5F5F5F5F5F5F5F5F5F5F5F5F5F5F5F5F5F5
310
F5F5F5F5F5F5F5F5F5F5F5F5F5F5F5F5F5F5F5F5F5F5F5F5F5F5F5F5F5F5F5F5F5F5F5F5F5F5F5F5F5F5F5F5F5F5F5F5F5F5F5F5F5F5F5F5F5F5F5F5F5F5F5F5F5E2E2E2EFE2E2E2E2E2E2E2E2E2E2F5F5F5F5F5F5F5F5F5E2E2E2E2E2E2E2E2E2E2E2E2E2E2E2E2F5F5F5F5F5F5F5F5F5E2E2E2E2E2E2E2E2E2E2E2E2E2E2
310
E2E2F5F5F5F5F5F5F5F5F5E2E2E2E2E2E2E2E2E2E2E2E2E2E2E2E2F5F5F5F5F5F5F5F5F5E2E2E2E2E2E2E2E2E2E2E2E2E2E2E2E2F5F5F5F5F5F5F5F5F5E2E2E2E2E2E2E2E2E2E2E2E2E2E2E2E2F5F5F5F5F5F5F5F5F5E2E2E2E2E2E2E2E2E2E2E2E2E2E2E2E2F5F5F5F5F5F5F5F5F5E2E2E2E2E2E2E2E2E2EFEFE2E2E2E2E2
310
E2E2E2E2E2E2E2E2E2E2E2E2E2E2E2E2E2E2E2E2E2E2E2E2E2E2E2E2E2E2E2E2E2E2E2E2E2E2E2E2E2E2E2E2E2E2E2E2E2E2E2E2E2E2E2E2E2E2E2E2E2E2E2E2E2E2E2E2E2E2E2E2E2E2E2E2E2E2E2E2E2E2E2E2E2E2E2E2E2E2E2E2E2E2E2E2E2E2E2E2E2E2E2E2E2E2E2E2E2E2E2E2E2E2E2E2E2E2E2E2E2E2E2E2E2E2E2
310
E2E2E2E2E2E2E2E2E2E2E2E2E2E2E2E2E2E2E2E2E2E2E2E2E2E2E2E2E2E2E2E2E2E2E2E2E2E2E2E2E2E2E2E2E2E2EFEF
  0
XRECORD
  5
1C8E3
102
{ACAD_REACTORS
330
1C8E2
102
}
330
1C8E2
100
AcDbXrecord
280
     1
102
MATERIAL
148
0.0
149
0.0
149
0.0
 93
        0
 94
      127
282
     0
 72
     1
 77
     1
171
     1
175
     1
179
     1
273
     0
  0
XRECORD
  5
1C8E1
102
{ACAD_REACTORS
330
1C8E0
102
}
330
1C8E0
100
AcDbXrecord
280
     1
102
MATERIAL
148
0.0
149
0.0
149
0.0
 93
        0
 94
      127
282
     0
 72
     1
 77
     1
171
     1
175
     1
179
     1
273
     0
  0
XRECORD
  5
1C8E5
102
{ACAD_REACTORS
330
1C8E4
102
}
330
1C8E4
100
AcDbXrecord
280
     1
102
MATERIAL
148
0.0
149
0.0
149
0.0
 93
        0
 94
      127
282
     0
 72
     1
 77
     1
171
     1
175
     1
179
     1
273
     0
  0
CELLSTYLEMAP
  5
1C8DF
102
{ACAD_REACTORS
330
1055A
102
}
330
1055A
100
AcDbCellStyleMap
 90
        3
300
CELLSTYLE
  1
TABLEFORMAT_BEGIN
 90
        5
170
     1
 91
        0
 92
    32768
 62
   257
 93
        1
300
CONTENTFORMAT
  1
CONTENTFORMAT_BEGIN
 90
        0
 91
        0
 92
      512
 93
        0
300

 40
0.0
140
1.0
 94
        5
 62
     0
340
11
144
0.25
309
CONTENTFORMAT_END
171
     0
 94
        6
 95
        1
302
GRIDFORMAT
  1
GRIDFORMAT_BEGIN
 90
        0
 91
        1
 62
     0
 92
       -2
340
0
 93
        0
 40
0.045
309
GRIDFORMAT_END
 95
        2
302
GRIDFORMAT
  1
GRIDFORMAT_BEGIN
 90
        0
 91
        1
 62
     0
 92
       -2
340
0
 93
        0
 40
0.045
309
GRIDFORMAT_END
 95
        4
302
GRIDFORMAT
  1
GRIDFORMAT_BEGIN
 90
        0
 91
        1
 62
     0
 92
       -2
340
0
 93
        0
 40
0.045
309
GRIDFORMAT_END
 95
        8
302
GRIDFORMAT
  1
GRIDFORMAT_BEGIN
 90
        0
 91
        1
 62
     0
 92
       -2
340
0
 93
        0
 40
0.045
309
GRIDFORMAT_END
 95
       16
302
GRIDFORMAT
  1
GRIDFORMAT_BEGIN
 90
        0
 91
        1
 62
     0
 92
       -2
340
0
 93
        0
 40
0.045
309
GRIDFORMAT_END
 95
       32
302
GRIDFORMAT
  1
GRIDFORMAT_BEGIN
 90
        0
 91
        1
 62
     0
 92
       -2
340
0
 93
        0
 40
0.045
309
GRIDFORMAT_END
309
TABLEFORMAT_END
  1
CELLSTYLE_BEGIN
 90
        1
 91
        1
300
_TITLE
309
CELLSTYLE_END
300
CELLSTYLE
  1
TABLEFORMAT_BEGIN
 90
        5
170
     1
 91
        0
 92
        0
 62
   257
 93
        1
300
CONTENTFORMAT
  1
CONTENTFORMAT_BEGIN
 90
        0
 91
        0
 92
      512
 93
        0
300

 40
0.0
140
1.0
 94
        5
 62
     0
340
11
144
0.18
309
CONTENTFORMAT_END
171
     0
 94
        6
 95
        1
302
GRIDFORMAT
  1
GRIDFORMAT_BEGIN
 90
        0
 91
        1
 62
     0
 92
       -2
340
0
 93
        0
 40
0.045
309
GRIDFORMAT_END
 95
        2
302
GRIDFORMAT
  1
GRIDFORMAT_BEGIN
 90
        0
 91
        1
 62
     0
 92
       -2
340
0
 93
        0
 40
0.045
309
GRIDFORMAT_END
 95
        4
302
GRIDFORMAT
  1
GRIDFORMAT_BEGIN
 90
        0
 91
        1
 62
     0
 92
       -2
340
0
 93
        0
 40
0.045
309
GRIDFORMAT_END
 95
        8
302
GRIDFORMAT
  1
GRIDFORMAT_BEGIN
 90
        0
 91
        1
 62
     0
 92
       -2
340
0
 93
        0
 40
0.045
309
GRIDFORMAT_END
 95
       16
302
GRIDFORMAT
  1
GRIDFORMAT_BEGIN
 90
        0
 91
        1
 62
     0
 92
       -2
340
0
 93
        0
 40
0.045
309
GRIDFORMAT_END
 95
       32
302
GRIDFORMAT
  1
GRIDFORMAT_BEGIN
 90
        0
 91
        1
 62
     0
 92
       -2
340
0
 93
        0
 40
0.045
309
GRIDFORMAT_END
309
TABLEFORMAT_END
  1
CELLSTYLE_BEGIN
 90
        2
 91
        1
300
_HEADER
309
CELLSTYLE_END
300
CELLSTYLE
  1
TABLEFORMAT_BEGIN
 90
        5
170
     1
 91
        0
 92
        0
 62
   257
 93
        1
300
CONTENTFORMAT
  1
CONTENTFORMAT_BEGIN
 90
        0
 91
        0
 92
      512
 93
        0
300

 40
0.0
140
1.0
 94
        2
 62
     0
340
11
144
0.18
309
CONTENTFORMAT_END
171
     0
 94
        6
 95
        1
302
GRIDFORMAT
  1
GRIDFORMAT_BEGIN
 90
        0
 91
        1
 62
     0
 92
       -2
340
0
 93
        0
 40
0.045
309
GRIDFORMAT_END
 95
        2
302
GRIDFORMAT
  1
GRIDFORMAT_BEGIN
 90
        0
 91
        1
 62
     0
 92
       -2
340
0
 93
        0
 40
0.045
309
GRIDFORMAT_END
 95
        4
302
GRIDFORMAT
  1
GRIDFORMAT_BEGIN
 90
        0
 91
        1
 62
     0
 92
       -2
340
0
 93
        0
 40
0.045
309
GRIDFORMAT_END
 95
        8
302
GRIDFORMAT
  1
GRIDFORMAT_BEGIN
 90
        0
 91
        1
 62
     0
 92
       -2
340
0
 93
        0
 40
0.045
309
GRIDFORMAT_END
 95
       16
302
GRIDFORMAT
  1
GRIDFORMAT_BEGIN
 90
        0
 91
        1
 62
     0
 92
       -2
340
0
 93
        0
 40
0.045
309
GRIDFORMAT_END
 95
       32
302
GRIDFORMAT
  1
GRIDFORMAT_BEGIN
 90
        0
 91
        1
 62
     0
 92
       -2
340
0
 93
        0
 40
0.045
309
GRIDFORMAT_END
309
TABLEFORMAT_END
  1
CELLSTYLE_BEGIN
 90
        3
 91
        2
300
_DATA
309
CELLSTYLE_END
  0
XRECORD
  5
1C8E6
102
{ACAD_REACTORS
330
1055A
102
}
330
1055A
100
AcDbXrecord
280
     1
102
ACAD_ROUNDTRIP_PRE2007_TABLESTYLE
 90
      512
 91
        0
  1

 92
      512
 93
        0
  2

 94
      512
 95
        0
  3

  0
XRECORD
  5
49B
102
{ACAD_REACTORS
330
49A
102
}
330
49A
100
AcDbXrecord
280
     1
102
RTVSPropertyOp0
 70
     1
102
RTVSPropertyOp1
 70
     1
102
RTVSPropertyOp2
 70
     1
102
RTVSPropertyOp3
 70
     1
102
RTVSPropertyOp4
 70
     1
102
RTVSPropertyOp5
 70
     1
102
RTVSPropertyOp6
 70
     1
102
RTVSPropertyOp7
 70
     1
102
RTVSPropertyOp8
 70
     1
102
RTVSPropertyOp9
 70
     1
102
RTVSPropertyOp10
 70
     1
102
RTVSPropertyOp11
 70
     1
102
RTVSPropertyOp12
 70
     1
102
RTVSPropertyOp13
 70
     1
102
RTVSPropertyOp14
 70
     1
102
RTVSPropertyOp15
 70
     1
102
RTVSPropertyOp16
 70
     1
102
RTVSPropertyOp17
 70
     1
102
RTVSPropertyOp18
 70
     1
102
RTVSPropertyOp19
 70
     1
102
RTVSPropertyOp20
 70
     1
102
RTVSPropertyOp21
 70
     1
102
RTVSPropertyOp22
 70
     1
102
RTVSPropertyOp23
 70
     1
102
RTVSPropertyOp24
 70
     1
102
RTVSPropertyOp25
 70
     1
102
RTVSPropertyOp26
 70
     1
102
RTVSPropertyOp27
 70
     1
  0
XRECORD
  5
A4A
102
{ACAD_REACTORS
330
A49
102
}
330
A49
100
AcDbXrecord
280
     1
102
RTVSPropertyOp0
 70
     1
102
RTVSPropertyOp1
 70
     1
102
RTVSPropertyOp2
 70
     1
102
RTVSPropertyOp3
 70
     1
102
RTVSPropertyOp4
 70
     1
102
RTVSPropertyOp5
 70
     1
102
RTVSPropertyOp6
 70
     1
102
RTVSPropertyOp7
 70
     1
102
RTVSPropertyOp8
 70
     1
102
RTVSPropertyOp9
 70
     1
102
RTVSPropertyOp10
 70
     1
102
RTVSPropertyOp11
 70
     1
102
RTVSPropertyOp12
 70
     1
102
RTVSPropertyOp13
 70
     1
102
RTVSPropertyOp14
 70
     1
102
RTVSPropertyOp15
 70
     1
102
RTVSPropertyOp16
 70
     1
102
RTVSPropertyOp17
 70
     1
102
RTVSPropertyOp18
 70
     1
102
RTVSPropertyOp19
 70
     1
102
RTVSPropertyOp20
 70
     1
102
RTVSPropertyOp21
 70
     1
102
RTVSPropertyOp22
 70
     1
102
RTVSPropertyOp23
 70
     1
102
RTVSPropertyOp24
 70
     1
102
RTVSPropertyOp25
 70
     1
102
RTVSPropertyOp26
 70
     1
102
RTVSPropertyOp27
 70
     1
  0
XRECORD
  5
4A1
102
{ACAD_REACTORS
330
4A0
102
}
330
4A0
100
AcDbXrecord
280
     1
102
RTVSPropertyOp0
 70
     1
102
RTVSPropertyOp1
 70
     1
102
RTVSPropertyOp2
 70
     1
102
RTVSPropertyOp3
 70
     1
102
RTVSPropertyOp4
 70
     1
102
RTVSPropertyOp5
 70
     1
102
RTVSPropertyOp6
 70
     1
102
RTVSPropertyOp7
 70
     1
102
RTVSPropertyOp8
 70
     1
102
RTVSPropertyOp9
 70
     1
102
RTVSPropertyOp10
 70
     1
102
RTVSPropertyOp11
 70
     1
102
RTVSPropertyOp12
 70
     1
102
RTVSPropertyOp13
 70
     1
102
RTVSPropertyOp14
 70
     1
102
RTVSPropertyOp15
 70
     1
102
RTVSPropertyOp16
 70
     1
102
RTVSPropertyOp17
 70
     1
102
RTVSPropertyOp18
 70
     1
102
RTVSPropertyOp19
 70
     1
102
RTVSPropertyOp20
 70
     1
102
RTVSPropertyOp21
 70
     1
102
RTVSPropertyOp22
 70
     1
102
RTVSPropertyOp23
 70
     1
102
RTVSPropertyOp24
 70
     1
102
RTVSPropertyOp25
 70
     1
102
RTVSPropertyOp26
 70
     1
102
RTVSPropertyOp27
 70
     1
  0
XRECORD
  5
4A9
102
{ACAD_REACTORS
330
4A8
102
}
330
4A8
100
AcDbXrecord
280
     1
102
RTVSPropertyOp0
 70
     1
102
RTVSPropertyOp1
 70
     1
102
RTVSPropertyOp2
 70
     1
102
RTVSPropertyOp3
 70
     1
102
RTVSPropertyOp4
 70
     1
102
RTVSPropertyOp5
 70
     1
102
RTVSPropertyOp6
 70
     1
102
RTVSPropertyOp7
 70
     1
102
RTVSPropertyOp8
 70
     1
102
RTVSPropertyOp9
 70
     1
102
RTVSPropertyOp10
 70
     1
102
RTVSPropertyOp11
 70
     1
102
RTVSPropertyOp12
 70
     1
102
RTVSPropertyOp13
 70
     1
102
RTVSPropertyOp14
 70
     1
102
RTVSPropertyOp15
 70
     1
102
RTVSPropertyOp16
 70
     1
102
RTVSPropertyOp17
 70
     1
102
RTVSPropertyOp18
 70
     1
102
RTVSPropertyOp19
 70
     1
102
RTVSPropertyOp20
 70
     1
102
RTVSPropertyOp21
 70
     1
102
RTVSPropertyOp22
 70
     1
102
RTVSPropertyOp23
 70
     1
102
RTVSPropertyOp24
 70
     1
102
RTVSPropertyOp25
 70
     1
102
RTVSPropertyOp26
 70
     1
102
RTVSPropertyOp27
 70
     1
  0
XRECORD
  5
4B1
102
{ACAD_REACTORS
330
4B0
102
}
330
4B0
100
AcDbXrecord
280
     1
102
RTVSPropertyOp0
 70
     1
102
RTVSPropertyOp1
 70
     1
102
RTVSPropertyOp2
 70
     1
102
RTVSPropertyOp3
 70
     1
102
RTVSPropertyOp4
 70
     1
102
RTVSPropertyOp5
 70
     1
102
RTVSPropertyOp6
 70
     1
102
RTVSPropertyOp7
 70
     1
102
RTVSPropertyOp8
 70
     1
102
RTVSPropertyOp9
 70
     1
102
RTVSPropertyOp10
 70
     1
102
RTVSPropertyOp11
 70
     1
102
RTVSPropertyOp12
 70
     1
102
RTVSPropertyOp13
 70
     1
102
RTVSPropertyOp14
 70
     1
102
RTVSPropertyOp15
 70
     1
102
RTVSPropertyOp16
 70
     1
102
RTVSPropertyOp17
 70
     1
102
RTVSPropertyOp18
 70
     1
102
RTVSPropertyOp19
 70
     1
102
RTVSPropertyOp20
 70
     1
102
RTVSPropertyOp21
 70
     1
102
RTVSPropertyOp22
 70
     1
102
RTVSPropertyOp23
 70
     1
102
RTVSPropertyOp24
 70
     1
102
RTVSPropertyOp25
 70
     1
102
RTVSPropertyOp26
 70
     1
102
RTVSPropertyOp27
 70
     1
  0
XRECORD
  5
4A7
102
{ACAD_REACTORS
330
4A6
102
}
330
4A6
100
AcDbXrecord
280
     1
102
RTVSPropertyOp0
 70
     1
102
RTVSPropertyOp1
 70
     1
102
RTVSPropertyOp2
 70
     1
102
RTVSPropertyOp3
 70
     1
102
RTVSPropertyOp4
 70
     1
102
RTVSPropertyOp5
 70
     1
102
RTVSPropertyOp6
 70
     1
102
RTVSPropertyOp7
 70
     1
102
RTVSPropertyOp8
 70
     1
102
RTVSPropertyOp9
 70
     1
102
RTVSPropertyOp10
 70
     1
102
RTVSPropertyOp11
 70
     1
102
RTVSPropertyOp12
 70
     1
102
RTVSPropertyOp13
 70
     1
102
RTVSPropertyOp14
 70
     1
102
RTVSPropertyOp15
 70
     1
102
RTVSPropertyOp16
 70
     1
102
RTVSPropertyOp17
 70
     1
102
RTVSPropertyOp18
 70
     1
102
RTVSPropertyOp19
 70
     1
102
RTVSPropertyOp20
 70
     1
102
RTVSPropertyOp21
 70
     1
102
RTVSPropertyOp22
 70
     1
102
RTVSPropertyOp23
 70
     1
102
RTVSPropertyOp24
 70
     1
102
RTVSPropertyOp25
 70
     1
102
RTVSPropertyOp26
 70
     1
102
RTVSPropertyOp27
 70
     1
  0
XRECORD
  5
4AF
102
{ACAD_REACTORS
330
4AE
102
}
330
4AE
100
AcDbXrecord
280
     1
102
RTVSPropertyOp0
 70
     1
102
RTVSPropertyOp1
 70
     1
102
RTVSPropertyOp2
 70
     1
102
RTVSPropertyOp3
 70
     1
102
RTVSPropertyOp4
 70
     1
102
RTVSPropertyOp5
 70
     1
102
RTVSPropertyOp6
 70
     1
102
RTVSPropertyOp7
 70
     1
102
RTVSPropertyOp8
 70
     1
102
RTVSPropertyOp9
 70
     1
102
RTVSPropertyOp10
 70
     1
102
RTVSPropertyOp11
 70
     1
102
RTVSPropertyOp12
 70
     1
102
RTVSPropertyOp13
 70
     1
102
RTVSPropertyOp14
 70
     1
102
RTVSPropertyOp15
 70
     1
102
RTVSPropertyOp16
 70
     1
102
RTVSPropertyOp17
 70
     1
102
RTVSPropertyOp18
 70
     1
102
RTVSPropertyOp19
 70
     1
102
RTVSPropertyOp20
 70
     1
102
RTVSPropertyOp21
 70
     1
102
RTVSPropertyOp22
 70
     1
102
RTVSPropertyOp23
 70
     1
102
RTVSPropertyOp24
 70
     1
102
RTVSPropertyOp25
 70
     1
102
RTVSPropertyOp26
 70
     1
102
RTVSPropertyOp27
 70
     1
  0
XRECORD
  5
493
102
{ACAD_REACTORS
330
492
102
}
330
492
100
AcDbXrecord
280
     1
102
RTVSPropertyOp0
 70
     1
102
RTVSPropertyOp1
 70
     1
102
RTVSPropertyOp2
 70
     1
102
RTVSPropertyOp3
 70
     1
102
RTVSPropertyOp4
 70
     1
102
RTVSPropertyOp5
 70
     1
102
RTVSPropertyOp6
 70
     1
102
RTVSPropertyOp7
 70
     1
102
RTVSPropertyOp8
 70
     1
102
RTVSPropertyOp9
 70
     1
102
RTVSPropertyOp10
 70
     1
102
RTVSPropertyOp11
 70
     1
102
RTVSPropertyOp12
 70
     1
102
RTVSPropertyOp13
 70
     1
102
RTVSPropertyOp14
 70
     1
102
RTVSPropertyOp15
 70
     1
102
RTVSPropertyOp16
 70
     1
102
RTVSPropertyOp17
 70
     1
102
RTVSPropertyOp18
 70
     1
102
RTVSPropertyOp19
 70
     1
102
RTVSPropertyOp20
 70
     1
102
RTVSPropertyOp21
 70
     1
102
RTVSPropertyOp22
 70
     1
102
RTVSPropertyOp23
 70
     1
102
RTVSPropertyOp24
 70
     1
102
RTVSPropertyOp25
 70
     1
102
RTVSPropertyOp26
 70
     1
102
RTVSPropertyOp27
 70
     1
  0
XRECORD
  5
495
102
{ACAD_REACTORS
330
494
102
}
330
494
100
AcDbXrecord
280
     1
102
RTVSPropertyOp0
 70
     1
102
RTVSPropertyOp1
 70
     1
102
RTVSPropertyOp2
 70
     1
102
RTVSPropertyOp3
 70
     1
102
RTVSPropertyOp4
 70
     1
102
RTVSPropertyOp5
 70
     1
102
RTVSPropertyOp6
 70
     1
102
RTVSPropertyOp7
 70
     1
102
RTVSPropertyOp8
 70
     1
102
RTVSPropertyOp9
 70
     1
102
RTVSPropertyOp10
 70
     1
102
RTVSPropertyOp11
 70
     1
102
RTVSPropertyOp12
 70
     1
102
RTVSPropertyOp13
 70
     1
102
RTVSPropertyOp14
 70
     1
102
RTVSPropertyOp15
 70
     1
102
RTVSPropertyOp16
 70
     1
102
RTVSPropertyOp17
 70
     1
102
RTVSPropertyOp18
 70
     1
102
RTVSPropertyOp19
 70
     1
102
RTVSPropertyOp20
 70
     1
102
RTVSPropertyOp21
 70
     1
102
RTVSPropertyOp22
 70
     1
102
RTVSPropertyOp23
 70
     1
102
RTVSPropertyOp24
 70
     1
102
RTVSPropertyOp25
 70
     1
102
RTVSPropertyOp26
 70
     1
102
RTVSPropertyOp27
 70
     1
  0
XRECORD
  5
497
102
{ACAD_REACTORS
330
496
102
}
330
496
100
AcDbXrecord
280
     1
102
RTVSPropertyOp0
 70
     1
102
RTVSPropertyOp1
 70
     1
102
RTVSPropertyOp2
 70
     1
102
RTVSPropertyOp3
 70
     1
102
RTVSPropertyOp4
 70
     1
102
RTVSPropertyOp5
 70
     1
102
RTVSPropertyOp6
 70
     1
102
RTVSPropertyOp7
 70
     1
102
RTVSPropertyOp8
 70
     1
102
RTVSPropertyOp9
 70
     1
102
RTVSPropertyOp10
 70
     1
102
RTVSPropertyOp11
 70
     1
102
RTVSPropertyOp12
 70
     1
102
RTVSPropertyOp13
 70
     1
102
RTVSPropertyOp14
 70
     1
102
RTVSPropertyOp15
 70
     1
102
RTVSPropertyOp16
 70
     1
102
RTVSPropertyOp17
 70
     1
102
RTVSPropertyOp18
 70
     1
102
RTVSPropertyOp19
 70
     1
102
RTVSPropertyOp20
 70
     1
102
RTVSPropertyOp21
 70
     1
102
RTVSPropertyOp22
 70
     1
102
RTVSPropertyOp23
 70
     1
102
RTVSPropertyOp24
 70
     1
102
RTVSPropertyOp25
 70
     1
102
RTVSPropertyOp26
 70
     1
102
RTVSPropertyOp27
 70
     1
  0
XRECORD
  5
499
102
{ACAD_REACTORS
330
498
102
}
330
498
100
AcDbXrecord
280
     1
102
RTVSPropertyOp0
 70
     1
102
RTVSPropertyOp1
 70
     1
102
RTVSPropertyOp2
 70
     1
102
RTVSPropertyOp3
 70
     1
102
RTVSPropertyOp4
 70
     1
102
RTVSPropertyOp5
 70
     1
102
RTVSPropertyOp6
 70
     1
102
RTVSPropertyOp7
 70
     1
102
RTVSPropertyOp8
 70
     1
102
RTVSPropertyOp9
 70
     1
102
RTVSPropertyOp10
 70
     1
102
RTVSPropertyOp11
 70
     1
102
RTVSPropertyOp12
 70
     1
102
RTVSPropertyOp13
 70
     1
102
RTVSPropertyOp14
 70
     1
102
RTVSPropertyOp15
 70
     1
102
RTVSPropertyOp16
 70
     1
102
RTVSPropertyOp17
 70
     1
102
RTVSPropertyOp18
 70
     1
102
RTVSPropertyOp19
 70
     1
102
RTVSPropertyOp20
 70
     1
102
RTVSPropertyOp21
 70
     1
102
RTVSPropertyOp22
 70
     1
102
RTVSPropertyOp23
 70
     1
102
RTVSPropertyOp24
 70
     1
102
RTVSPropertyOp25
 70
     1
102
RTVSPropertyOp26
 70
     1
102
RTVSPropertyOp27
 70
     1
  0
XRECORD
  5
4AD
102
{ACAD_REACTORS
330
4AC
102
}
330
4AC
100
AcDbXrecord
280
     1
102
RTVSPropertyOp0
 70
     1
102
RTVSPropertyOp1
 70
     1
102
RTVSPropertyOp2
 70
     1
102
RTVSPropertyOp3
 70
     1
102
RTVSPropertyOp4
 70
     1
102
RTVSPropertyOp5
 70
     1
102
RTVSPropertyOp6
 70
     1
102
RTVSPropertyOp7
 70
     1
102
RTVSPropertyOp8
 70
     1
102
RTVSPropertyOp9
 70
     1
102
RTVSPropertyOp10
 70
     1
102
RTVSPropertyOp11
 70
     1
102
RTVSPropertyOp12
 70
     1
102
RTVSPropertyOp13
 70
     1
102
RTVSPropertyOp14
 70
     1
102
RTVSPropertyOp15
 70
     1
102
RTVSPropertyOp16
 70
     1
102
RTVSPropertyOp17
 70
     1
102
RTVSPropertyOp18
 70
     1
102
RTVSPropertyOp19
 70
     1
102
RTVSPropertyOp20
 70
     1
102
RTVSPropertyOp21
 70
     1
102
RTVSPropertyOp22
 70
     1
102
RTVSPropertyOp23
 70
     1
102
RTVSPropertyOp24
 70
     1
102
RTVSPropertyOp25
 70
     1
102
RTVSPropertyOp26
 70
     1
102
RTVSPropertyOp27
 70
     1
  0
XRECORD
  5
A4E
102
{ACAD_REACTORS
330
A4D
102
}
330
A4D
100
AcDbXrecord
280
     1
102
RTVSPropertyOp0
 70
     1
102
RTVSPropertyOp1
 70
     1
102
RTVSPropertyOp2
 70
     1
102
RTVSPropertyOp3
 70
     1
102
RTVSPropertyOp4
 70
     1
102
RTVSPropertyOp5
 70
     1
102
RTVSPropertyOp6
 70
     1
102
RTVSPropertyOp7
 70
     1
102
RTVSPropertyOp8
 70
     1
102
RTVSPropertyOp9
 70
     1
102
RTVSPropertyOp10
 70
     1
102
RTVSPropertyOp11
 70
     1
102
RTVSPropertyOp12
 70
     1
102
RTVSPropertyOp13
 70
     1
102
RTVSPropertyOp14
 70
     1
102
RTVSPropertyOp15
 70
     1
102
RTVSPropertyOp16
 70
     1
102
RTVSPropertyOp17
 70
     1
102
RTVSPropertyOp18
 70
     1
102
RTVSPropertyOp19
 70
     1
102
RTVSPropertyOp20
 70
     1
102
RTVSPropertyOp21
 70
     1
102
RTVSPropertyOp22
 70
     1
102
RTVSPropertyOp23
 70
     1
102
RTVSPropertyOp24
 70
     1
102
RTVSPropertyOp25
 70
     1
102
RTVSPropertyOp26
 70
     1
102
RTVSPropertyOp27
 70
     1
  0
XRECORD
  5
4AB
102
{ACAD_REACTORS
330
4AA
102
}
330
4AA
100
AcDbXrecord
280
     1
102
RTVSPropertyOp0
 70
     1
102
RTVSPropertyOp1
 70
     1
102
RTVSPropertyOp2
 70
     1
102
RTVSPropertyOp3
 70
     1
102
RTVSPropertyOp4
 70
     1
102
RTVSPropertyOp5
 70
     1
102
RTVSPropertyOp6
 70
     1
102
RTVSPropertyOp7
 70
     1
102
RTVSPropertyOp8
 70
     1
102
RTVSPropertyOp9
 70
     1
102
RTVSPropertyOp10
 70
     1
102
RTVSPropertyOp11
 70
     1
102
RTVSPropertyOp12
 70
     1
102
RTVSPropertyOp13
 70
     1
102
RTVSPropertyOp14
 70
     1
102
RTVSPropertyOp15
 70
     1
102
RTVSPropertyOp16
 70
     1
102
RTVSPropertyOp17
 70
     1
102
RTVSPropertyOp18
 70
     1
102
RTVSPropertyOp19
 70
     1
102
RTVSPropertyOp20
 70
     1
102
RTVSPropertyOp21
 70
     1
102
RTVSPropertyOp22
 70
     1
102
RTVSPropertyOp23
 70
     1
102
RTVSPropertyOp24
 70
     1
102
RTVSPropertyOp25
 70
     1
102
RTVSPropertyOp26
 70
     1
102
RTVSPropertyOp27
 70
     1
  0
ENDSEC
  0
EOF
